<?xml version="1.0" standalone="no"?>
<!DOCTYPE svg PUBLIC "-//W3C//DTD SVG 1.1//EN" "http://www.w3.org/Graphics/SVG/1.1/DTD/svg11.dtd" >
<svg>
<metadata>
Created by FontForge 20090622 at Tue May 26 14:22:06 2015
 By deploy user
&#194;&#169; 2014 Microsoft Corporation. All Rights Reserved.
</metadata>
<defs>
<font id="SegoeUI-Light" horiz-adv-x="0" >
  <font-face 
    font-family="Segoe UI Light"
    font-weight="300"
    font-stretch="normal"
    units-per-em="2048"
    panose-1="2 11 5 2 4 2 4 2 2 3"
    ascent="1638"
    descent="-410"
    x-height="1024"
    cap-height="1434"
    bbox="-890 -735 4094 2375"
    underline-thickness="119"
    underline-position="-119"
    unicode-range="U+000D-U+FFFD"
  />
<missing-glyph horiz-adv-x="1322" 
d="M166 0v1398h990v-1398h-990zM314 148h694v1102h-694v-1102z" />
    <glyph glyph-name="uniFDF2" unicode="&#x627;&#xfedf;&#xfee0;&#x651;&#x670;&#xfeea;" horiz-adv-x="2464" arabic-form="isolated" 
d="M2226 1516h84v-1516h-84v1516zM1309 328q0 -131 59 -188.5t162 -57.5q55 0 98.5 14t73.5 45t46 80t16 118v1067h84v-1074q0 -170 -85.5 -258t-238.5 -88q-86 0 -154 35t-108 109h-4q-48 -74 -119 -109t-162 -35q-55 0 -104.5 14.5t-88 44t-64.5 74.5t-33 106
q-45 -20 -105 -35t-129 -15q-68 0 -123 16.5t-94 47t-60.5 74.5t-21.5 98q0 65 30 125.5t94 111t164 88.5t241 58v111h87v-597q0 -119 55 -172.5t155 -53.5q55 0 100 13.5t77.5 42.5t50 76t17.5 115v927h84v-928zM240 426q0 -77 55 -121t167 -44q34 0 67 4t61.5 11t52 15.5
t40.5 16.5v402q-112 -14 -195 -41.5t-138 -65t-82.5 -83t-27.5 -94.5zM1550 1677q2 -14 3 -29t1 -25q0 -109 -44 -168t-117 -59q-19 0 -38 5t-36.5 15.5t-31 26t-20.5 36.5h-6q-17 -37 -49 -60t-76 -23q-32 0 -59.5 13t-47.5 39.5t-31 66.5t-11 95q0 20 2 38t4 29h76
q-5 -35 -6 -49t-1 -22q0 -38 6 -63.5t17.5 -41.5t26.5 -22.5t33 -6.5q38 0 63.5 33t25.5 108q0 16 -1 34.5t-1 29.5h77q-1 -11 -1.5 -31t-0.5 -32q0 -81 23 -111.5t66 -30.5q38 0 61 33t23 104q0 17 -2 37t-4 31h76zM1309 1760h-77v319h77v-319z" />
    <glyph glyph-name="uniFEDF_uniFEE0_afii57457_uni0670_uniFEEA.liga" unicode="&#xfedf;&#xfee0;&#x651;&#x670;&#xfeea;" horiz-adv-x="2002" 
d="M1309 328q0 -131 59 -188.5t162 -57.5q55 0 98.5 14t73.5 45t46 80t16 118v1067h84v-1074q0 -170 -85.5 -258t-238.5 -88q-86 0 -154 35t-108 109h-4q-48 -74 -119 -109t-162 -35q-55 0 -104.5 14.5t-88 44t-64.5 74.5t-33 106q-45 -20 -105 -35t-129 -15
q-68 0 -123 16.5t-94 47t-60.5 74.5t-21.5 98q0 65 30 125.5t94 111t164 88.5t241 58v111h87v-597q0 -119 55 -172.5t155 -53.5q55 0 100 13.5t77.5 42.5t50 76t17.5 115v927h84v-928zM240 426q0 -77 55 -121t167 -44q34 0 67 4t61.5 11t52 15.5t40.5 16.5v402
q-112 -14 -195 -41.5t-138 -65t-82.5 -83t-27.5 -94.5zM1550 1677q2 -14 3 -29t1 -25q0 -109 -44 -168t-117 -59q-19 0 -38 5t-36.5 15.5t-31 26t-20.5 36.5h-6q-17 -37 -49 -60t-76 -23q-32 0 -59.5 13t-47.5 39.5t-31 66.5t-11 95q0 20 2 38t4 29h76q-5 -35 -6 -49t-1 -22
q0 -38 6 -63.5t17.5 -41.5t26.5 -22.5t33 -6.5q38 0 63.5 33t25.5 108q0 16 -1 34.5t-1 29.5h77q-1 -11 -1.5 -31t-0.5 -32q0 -81 23 -111.5t66 -30.5q38 0 61 33t23 104q0 17 -2 37t-4 31h76zM1309 1760h-77v319h77v-319z" />
    <glyph glyph-name="afii57409" unicode="&#x621;" horiz-adv-x="847" arabic-form="isolated" 
d="M642 539q-20 6 -55.5 12t-67.5 6q-65 0 -117 -19.5t-88.5 -52t-56 -76t-19.5 -91.5q0 -51 21 -92t58.5 -70t90 -44.5t114.5 -15.5h191v-96h-607l-29 86h216l1 6q-63 37 -102 101.5t-39 148.5q0 62 27 118.5t75 99t114.5 68t144.5 25.5q38 0 74.5 -6.5t53.5 -11.5v-96z
" />
    <glyph glyph-name="afii57410" unicode="&#x622;" horiz-adv-x="385" arabic-form="isolated" 
d="M154 1516h84v-1516h-84v1516zM534 1730q-38 -44 -80.5 -65t-95.5 -21q-44 0 -86 12t-84 26.5t-84.5 26.5t-86.5 12q-33 0 -65 -11t-61 -34l-44 47q38 36 80 55.5t90 19.5t90 -12t82 -26.5t81 -26.5t88 -12q44 0 74.5 13t59.5 42z" />
    <glyph glyph-name="uniFE82" unicode="&#x622;" horiz-adv-x="462" arabic-form="final" 
d="M462 -14h-20q-149 0 -218.5 71.5t-69.5 211.5v1247h84v-1188q0 -76 11 -124t37 -75t69 -37t107 -10v-96zM549 1730q-38 -44 -80.5 -65t-95.5 -21q-44 0 -86 12t-84 26.5t-84.5 26.5t-86.5 12q-33 0 -65 -11t-61 -34l-44 47q38 36 80 55.5t90 19.5t90 -12t82 -26.5
t81 -26.5t88 -12q44 0 74.5 13t59.5 42z" />
    <glyph glyph-name="afii57411" unicode="&#x623;" horiz-adv-x="385" arabic-form="isolated" 
d="M154 1516h84v-1516h-84v1516zM320 1941q-13 3 -27.5 5t-30.5 2q-27 0 -50 -7t-40 -20.5t-27 -32t-10 -42.5q0 -48 34 -73.5t96 -25.5h102v-77h-345v71h95l1 5q-23 19 -39 49t-16 67q0 34 14 63.5t39.5 51.5t61 35t78.5 13q31 0 64 -6v-78z" />
    <glyph glyph-name="uniFE84" unicode="&#x623;" horiz-adv-x="462" arabic-form="final" 
d="M462 -14h-20q-149 0 -218.5 71.5t-69.5 211.5v1247h84v-1188q0 -76 11 -124t37 -75t69 -37t107 -10v-96zM319 1941q-13 3 -27.5 5t-30.5 2q-27 0 -50 -7t-40 -20.5t-27 -32t-10 -42.5q0 -48 34 -73.5t96 -25.5h102v-77h-345v71h95l1 5q-23 19 -39 49t-16 67q0 34 14 63.5
t39.5 51.5t61 35t78.5 13q31 0 64 -6v-78z" />
    <glyph glyph-name="afii57412" unicode="&#x624;" horiz-adv-x="847" arabic-form="isolated" 
d="M0 -327q25 -9 57.5 -16t69 -12.5t76 -8t78.5 -2.5q90 0 154.5 20.5t107.5 66.5t66 121t30 184q-42 -19 -95.5 -29.5t-107.5 -10.5q-62 0 -119.5 21.5t-101 60.5t-69.5 92.5t-26 117.5q0 61 23.5 121.5t63 108.5t91.5 78t109 30q79 0 136.5 -49t101.5 -131
q44 -83 61 -181.5t17 -195.5q0 -139 -29 -237.5t-85 -161.5t-138.5 -92.5t-189.5 -29.5q-82 0 -157.5 12.5t-123.5 32.5v90zM632 116q-2 84 -22.5 158t-52 128.5t-71.5 86t-82 31.5q-38 0 -72 -19t-60 -51t-41.5 -74.5t-15.5 -88.5q0 -47 17 -84.5t48 -64.5t74 -41.5
t94 -14.5q110 0 184 34zM529 1119q-13 3 -27.5 5t-30.5 2q-27 0 -50 -7t-40 -20.5t-27 -32t-10 -42.5q0 -48 34 -73.5t96 -25.5h102v-77h-345v71h95l1 5q-23 19 -39 49t-16 67q0 34 14 63.5t39.5 51.5t61 35t78.5 13q31 0 64 -6v-78z" />
    <glyph glyph-name="uniFE86" unicode="&#x624;" horiz-adv-x="847" arabic-form="final" 
d="M0 -327q25 -9 57.5 -16t69 -12.5t76 -8t78.5 -2.5q75 0 130 12.5t94.5 40t65.5 72t44 109.5q5 19 10.5 49.5t9.5 68.5h-173q-86 0 -150 24.5t-106.5 65t-64 93t-21.5 109.5q0 61 23.5 121.5t63 108.5t91.5 78t109 30q79 0 136.5 -49t101.5 -131q20 -38 34.5 -82.5
t24 -91.5t14 -93.5t5.5 -86.5h124v-96h-126q-9 -120 -40 -205t-85.5 -139t-132.5 -79t-182 -25q-82 0 -157.5 12.5t-123.5 32.5v90zM594 323q-16 43 -36.5 79t-45 62t-52 41t-56.5 15q-38 0 -72 -19t-60 -51t-41.5 -74.5t-15.5 -88.5q0 -47 17.5 -84.5t50.5 -64.5t80 -41.5
t107 -14.5h164q0 24 -2 53.5t-7 61.5t-12.5 64.5t-18.5 61.5zM529 1119q-13 3 -27.5 5t-30.5 2q-27 0 -50 -7t-40 -20.5t-27 -32t-10 -42.5q0 -48 34 -73.5t96 -25.5h102v-77h-345v71h95l1 5q-23 19 -39 49t-16 67q0 34 14 63.5t39.5 51.5t61 35t78.5 13q31 0 64 -6v-78z
" />
    <glyph glyph-name="afii57413" unicode="&#x625;" horiz-adv-x="385" arabic-form="isolated" 
d="M154 1516h84v-1516h-84v1516zM309 -243q-13 3 -27.5 5t-30.5 2q-27 0 -50 -7t-40.5 -20.5t-27.5 -32.5t-10 -43q0 -48 35 -73t96 -25h102v-77h-345v71h95l1 5q-23 19 -39 49t-16 67q0 34 14 63.5t39.5 51.5t61 35t78.5 13q31 0 64 -6v-78z" />
    <glyph glyph-name="uniFE88" unicode="&#x625;" horiz-adv-x="462" arabic-form="final" 
d="M462 -14h-20q-149 0 -218.5 71.5t-69.5 211.5v1247h84v-1188q0 -76 11 -124t37 -75t69 -37t107 -10v-96zM339 -243q-13 3 -27.5 5t-30.5 2q-27 0 -50 -7t-40.5 -20.5t-27.5 -32.5t-10 -43q0 -48 35 -73t96 -25h102v-77h-345v71h95l1 5q-23 19 -39 49t-16 67q0 34 14 63.5
t39.5 51.5t61 35t78.5 13q31 0 64 -6v-78z" />
    <glyph glyph-name="afii57414" unicode="&#x626;" horiz-adv-x="1463" arabic-form="isolated" 
d="M635 -98q-243 0 -362 105t-119 309q0 78 22 162t54 155h78q-36 -81 -53 -153t-17 -144q0 -86 23.5 -149.5t74 -105.5t128 -62.5t185.5 -20.5q126 0 227 21.5t172 58t109.5 84t38.5 99.5q0 34 -15 59.5t-39.5 46.5t-56 38.5l-64 35.5t-64 37.5t-56 45t-39.5 58t-15 76.5
q0 67 36.5 122.5t102.5 97.5t157.5 70.5t201.5 42.5v-90q-105 -8 -182.5 -31t-129 -55.5t-77 -72t-25.5 -78.5q0 -43 26 -72t64.5 -52.5t84 -46t84 -51.5t64.5 -69t26 -98q0 -74 -43 -141t-125.5 -119t-202.5 -82.5t-274 -30.5zM452 1119q-13 3 -27.5 5t-30.5 2
q-27 0 -50 -7t-40 -20.5t-27 -32t-10 -42.5q0 -48 34 -73.5t96 -25.5h102v-77h-345v71h95l1 5q-23 19 -39 49t-16 67q0 34 14 63.5t39.5 51.5t61 35t78.5 13q31 0 64 -6v-78z" />
    <glyph glyph-name="uniFE8B" unicode="&#x626;" horiz-adv-x="539" arabic-form="initial" 
d="M385 693v-362q0 -93 -22 -159t-62 -107t-97 -60t-126 -19h-78q-34 0 -52 12.5t-18 35.5t18 35.5t52 12.5h77q57 0 99 13t70 42t41.5 75.5t13.5 112.5v368h84zM452 1119q-13 3 -27.5 5t-30.5 2q-27 0 -50 -7t-40 -20.5t-27 -32t-10 -42.5q0 -48 34 -73.5t96 -25.5h102v-77
h-345v71h95l1 5q-23 19 -39 49t-16 67q0 34 14 63.5t39.5 51.5t61 35t78.5 13q31 0 64 -6v-78z" />
    <glyph glyph-name="uniFE8C" unicode="&#x626;" horiz-adv-x="616" arabic-form="medial" 
d="M385 268q0 -49 12.5 -84t40 -57.5t71.5 -33.5t107 -11v-96h-48q-38 0 -73 9.5t-65 26t-53 40t-35 51.5h-4q-25 -56 -81 -91.5t-146 -35.5h-111q-34 0 -52 12.5t-18 35.5t18 35.5t52 12.5h96q103 0 154 43.5t51 142.5v425h84v-425zM452 1119q-13 3 -27.5 5t-30.5 2
q-27 0 -50 -7t-40 -20.5t-27 -32t-10 -42.5q0 -48 34 -73.5t96 -25.5h102v-77h-345v71h95l1 5q-23 19 -39 49t-16 67q0 34 14 63.5t39.5 51.5t61 35t78.5 13q31 0 64 -6v-78z" />
    <glyph glyph-name="uniFE8A" unicode="&#x626;" horiz-adv-x="1694" arabic-form="final" 
d="M270 493q-14 -64 -23 -119.5t-9 -117.5q0 -102 25.5 -179t82.5 -128.5t150 -77.5t228 -26q98 0 174 13t127.5 35.5t78.5 54t27 68.5q0 27 -11.5 48t-28.5 40.5t-37.5 38.5t-37.5 41t-28.5 49.5t-11.5 63.5q0 44 17 82t45.5 66t66 44t78.5 16q39 0 71.5 -12t61.5 -38.5
t55.5 -67t52.5 -97.5q30 -65 55 -106t54 -63.5t67 -30.5t94 -8v-96h-22q-56 0 -101 12.5t-82.5 41t-69.5 75.5t-62 115q-23 52 -42 87t-38.5 57t-40.5 31.5t-47 9.5q-27 0 -51 -9t-41 -24.5t-27 -35.5t-10 -42q0 -25 11.5 -46t28.5 -40.5t37.5 -39.5t37.5 -42t28.5 -48.5
t11.5 -59.5q0 -57 -32 -108t-97 -89t-164 -60t-233 -22q-140 0 -241 31.5t-166.5 93.5t-96.5 153t-31 211q0 63 9 124.5t26 130.5h81zM452 965q-13 3 -27.5 5t-30.5 2q-27 0 -50 -7t-40 -20.5t-27 -32t-10 -42.5q0 -48 34 -73.5t96 -25.5h102v-77h-345v71h95l1 5
q-23 19 -39 49t-16 67q0 34 14 63.5t39.5 51.5t61 35t78.5 13q31 0 64 -6v-78z" />
    <glyph glyph-name="afii57415" unicode="&#x627;" horiz-adv-x="385" arabic-form="isolated" 
d="M154 1516h84v-1516h-84v1516z" />
    <glyph glyph-name="uniFE8E" unicode="&#x627;" horiz-adv-x="462" arabic-form="final" 
d="M462 -14h-20q-149 0 -218.5 71.5t-69.5 211.5v1247h84v-1188q0 -76 11 -124t37 -75t69 -37t107 -10v-96z" />
    <glyph glyph-name="afii57416" unicode="&#x628;" horiz-adv-x="1771" arabic-form="isolated" 
d="M264 539q-11 -37 -18.5 -83t-7.5 -97q0 -77 25.5 -126.5t69.5 -78.5q28 -19 74.5 -34t119.5 -25t178 -15.5t252 -5.5q170 0 281.5 12.5t177 41.5t91.5 77.5t26 119.5v368h84v-360q0 -94 -31.5 -161.5t-110.5 -110.5t-213 -63t-338 -20q-150 0 -257 6.5t-182 19.5
t-123.5 31.5t-81.5 41.5q-59 42 -92.5 106.5t-33.5 157.5q0 47 7.5 100t21.5 98h81zM957 -307h-110v105h110v-105z" />
    <glyph glyph-name="uniFE91" unicode="&#x628;" horiz-adv-x="539" arabic-form="initial" 
d="M385 693v-362q0 -93 -22 -159t-62 -107t-97 -60t-126 -19h-78q-34 0 -52 12.5t-18 35.5t18 35.5t52 12.5h77q57 0 99 13t70 42t41.5 75.5t13.5 112.5v368h84zM385 -307h-110v105h110v-105z" />
    <glyph glyph-name="uniFE92" unicode="&#x628;" horiz-adv-x="616" arabic-form="medial" 
d="M385 268q0 -49 12.5 -84t40 -57.5t71.5 -33.5t107 -11v-96h-48q-38 0 -73 9.5t-65 26t-53 40t-35 51.5h-4q-25 -56 -81 -91.5t-146 -35.5h-111q-34 0 -52 12.5t-18 35.5t18 35.5t52 12.5h96q103 0 154 43.5t51 142.5v425h84v-425zM385 -307h-110v105h110v-105z" />
    <glyph glyph-name="uniFE90" unicode="&#x628;" horiz-adv-x="1848" arabic-form="final" 
d="M1617 693v-425q0 -99 55.5 -142.5t175.5 -43.5v-96h-31q-96 0 -159 35t-93 102h-4q-32 -36 -77.5 -63t-118.5 -45.5t-180 -27.5t-261 -9q-150 0 -257 6.5t-182 19.5t-123.5 31.5t-81.5 41.5q-59 42 -92.5 106.5t-33.5 157.5q0 47 7.5 100t21.5 98h81q-11 -37 -18.5 -83
t-7.5 -97q0 -77 25.5 -126.5t69.5 -78.5q28 -19 74.5 -34t119.5 -25t178 -15.5t252 -5.5q117 0 205 4.5t152 16t106.5 30t67.5 46t35 66t10 88.5v368h84zM957 -307h-110v105h110v-105z" />
    <glyph glyph-name="afii57417" unicode="&#x629;" horiz-adv-x="1001" arabic-form="isolated" 
d="M364 969q126 -84 214 -165.5t143.5 -161.5t80.5 -159t25 -158q0 -80 -26 -144t-72.5 -108.5t-109.5 -68.5t-136 -24q-70 0 -130 23.5t-104.5 67t-69.5 103.5t-25 134q0 66 19.5 133t57.5 130.5t94 122.5t130 109q-10 10 -26.5 23t-36 27l-39 27.5l-34.5 23.5zM238 324
q0 -60 18 -106t51.5 -77.5t80.5 -48t105 -16.5q54 0 100 16.5t79 48t52 77t19 104.5q0 125 -59.5 236t-171.5 196q-68 -44 -119 -95.5t-85.5 -107t-52 -113.5t-17.5 -114zM462 1155h-110v105h110v-105zM660 1155h-110v105h110v-105z" />
    <glyph glyph-name="uniFE94" unicode="&#x629;" horiz-adv-x="924" arabic-form="final" 
d="M683 905h87v-597q0 -66 8.5 -109.5t27.5 -69.5t48 -36.5t70 -10.5v-96h-22q-48 0 -87.5 17t-68 48.5t-44 75.5t-15.5 98q-45 -20 -105 -34t-129 -14q-68 0 -123 16t-94 46.5t-60.5 74t-21.5 97.5q0 65 30 125.5t94 111t164 88.5t241 58v111zM240 426q0 -77 55 -120
t167 -43q69 0 128 14t93 31v402q-112 -14 -195 -41.5t-138 -65t-82.5 -83t-27.5 -94.5zM495 1155h-110v105h110v-105zM693 1155h-110v105h110v-105z" />
    <glyph glyph-name="afii57418" unicode="&#x62a;" horiz-adv-x="1771" arabic-form="isolated" 
d="M264 539q-11 -37 -18.5 -83t-7.5 -97q0 -77 25.5 -126.5t69.5 -78.5q28 -19 74.5 -34t119.5 -25t178 -15.5t252 -5.5q170 0 281.5 12.5t177 41.5t91.5 77.5t26 119.5v368h84v-360q0 -94 -31.5 -161.5t-110.5 -110.5t-213 -63t-338 -20q-150 0 -257 6.5t-182 19.5
t-123.5 31.5t-81.5 41.5q-59 42 -92.5 106.5t-33.5 157.5q0 47 7.5 100t21.5 98h81zM880 847h-110v105h110v-105zM1078 847h-110v105h110v-105z" />
    <glyph glyph-name="uniFE97" unicode="&#x62a;" horiz-adv-x="539" arabic-form="initial" 
d="M385 693v-362q0 -93 -22 -159t-62 -107t-97 -60t-126 -19h-78q-34 0 -52 12.5t-18 35.5t18 35.5t52 12.5h77q57 0 99 13t70 42t41.5 75.5t13.5 112.5v368h84zM297 847h-110v105h110v-105zM495 847h-110v105h110v-105z" />
    <glyph glyph-name="uniFE98" unicode="&#x62a;" horiz-adv-x="616" arabic-form="medial" 
d="M385 268q0 -49 12.5 -84t40 -57.5t71.5 -33.5t107 -11v-96h-48q-38 0 -73 9.5t-65 26t-53 40t-35 51.5h-4q-25 -56 -81 -91.5t-146 -35.5h-111q-34 0 -52 12.5t-18 35.5t18 35.5t52 12.5h96q103 0 154 43.5t51 142.5v425h84v-425zM297 847h-110v105h110v-105zM495 847
h-110v105h110v-105z" />
    <glyph glyph-name="uniFE96" unicode="&#x62a;" horiz-adv-x="1848" arabic-form="final" 
d="M1617 693v-425q0 -99 55.5 -142.5t175.5 -43.5v-96h-31q-96 0 -159 35t-93 102h-4q-32 -36 -77.5 -63t-118.5 -45.5t-180 -27.5t-261 -9q-150 0 -257 6.5t-182 19.5t-123.5 31.5t-81.5 41.5q-59 42 -92.5 106.5t-33.5 157.5q0 47 7.5 100t21.5 98h81q-11 -37 -18.5 -83
t-7.5 -97q0 -77 25.5 -126.5t69.5 -78.5q28 -19 74.5 -34t119.5 -25t178 -15.5t252 -5.5q117 0 205 4.5t152 16t106.5 30t67.5 46t35 66t10 88.5v368h84zM836 847h-110v105h110v-105zM1034 847h-110v105h110v-105z" />
    <glyph glyph-name="afii57419" unicode="&#x62b;" horiz-adv-x="1771" arabic-form="isolated" 
d="M264 539q-11 -37 -18.5 -83t-7.5 -97q0 -77 25.5 -126.5t69.5 -78.5q28 -19 74.5 -34t119.5 -25t178 -15.5t252 -5.5q170 0 281.5 12.5t177 41.5t91.5 77.5t26 119.5v368h84v-360q0 -94 -31.5 -161.5t-110.5 -110.5t-213 -63t-338 -20q-150 0 -257 6.5t-182 19.5
t-123.5 31.5t-81.5 41.5q-59 42 -92.5 106.5t-33.5 157.5q0 47 7.5 100t21.5 98h81zM836 847h-110v105h110v-105zM1034 847h-110v105h110v-105zM935 1029h-110v105h110v-105z" />
    <glyph glyph-name="uniFE9B" unicode="&#x62b;" horiz-adv-x="539" arabic-form="initial" 
d="M385 693v-362q0 -93 -22 -159t-62 -107t-97 -60t-126 -19h-78q-34 0 -52 12.5t-18 35.5t18 35.5t52 12.5h77q57 0 99 13t70 42t41.5 75.5t13.5 112.5v368h84zM297 847h-110v105h110v-105zM495 847h-110v105h110v-105zM396 1029h-110v105h110v-105z" />
    <glyph glyph-name="uniFE9C" unicode="&#x62b;" horiz-adv-x="616" arabic-form="medial" 
d="M385 268q0 -49 12.5 -84t40 -57.5t71.5 -33.5t107 -11v-96h-48q-38 0 -73 9.5t-65 26t-53 40t-35 51.5h-4q-25 -56 -81 -91.5t-146 -35.5h-111q-34 0 -52 12.5t-18 35.5t18 35.5t52 12.5h96q103 0 154 43.5t51 142.5v425h84v-425zM297 847h-110v105h110v-105zM495 847
h-110v105h110v-105zM396 1029h-110v105h110v-105z" />
    <glyph glyph-name="uniFE9A" unicode="&#x62b;" horiz-adv-x="1848" arabic-form="final" 
d="M1617 693v-425q0 -99 55.5 -142.5t175.5 -43.5v-96h-31q-96 0 -159 35t-93 102h-4q-32 -36 -77.5 -63t-118.5 -45.5t-180 -27.5t-261 -9q-150 0 -257 6.5t-182 19.5t-123.5 31.5t-81.5 41.5q-59 42 -92.5 106.5t-33.5 157.5q0 47 7.5 100t21.5 98h81q-11 -37 -18.5 -83
t-7.5 -97q0 -77 25.5 -126.5t69.5 -78.5q28 -19 74.5 -34t119.5 -25t178 -15.5t252 -5.5q117 0 205 4.5t152 16t106.5 30t67.5 46t35 66t10 88.5v368h84zM836 847h-110v105h110v-105zM1034 847h-110v105h110v-105zM935 1029h-110v105h110v-105z" />
    <glyph glyph-name="afii57420" unicode="&#x62c;" horiz-adv-x="1155" arabic-form="isolated" 
d="M1022 515q-192 -33 -337 -91t-241.5 -132.5t-145 -161.5t-48.5 -178q0 -76 27 -140t82 -110.5t138.5 -72.5t195.5 -26q108 0 204.5 17.5t180.5 52.5v-90q-79 -37 -178 -56.5t-207 -19.5q-134 0 -235 32t-168.5 89t-101.5 136t-34 173q0 103 51.5 201t146.5 180.5
t228.5 145t297.5 94.5v8q-59 12 -113 30l-107 35.5t-106.5 30t-110.5 12.5q-30 0 -63 -3.5t-65 -9.5t-61.5 -13.5t-52.5 -15.5v90q54 20 117 34t118 14q80 0 154.5 -24.5t148.5 -54.5t150.5 -56.5t159.5 -30.5zM770 -27h-110v105h110v-105z" />
    <glyph glyph-name="uniFE9F" unicode="&#x62c;" horiz-adv-x="1232" arabic-form="initial" 
d="M154 644q27 10 57 19t61 15.5t62 10.5t59 4q54 0 107.5 -10.5t108.5 -26.5t111.5 -34.5t114.5 -35t118.5 -27.5t124.5 -12l-15 -90q-61 -13 -119.5 -53t-123 -92.5l-139.5 -109.5t-167 -105t-206.5 -79.5t-257.5 -31.5h-50q-70 0 -70 49q0 22 18 34.5t52 12.5h59
q112 0 203 19t167 50.5t140.5 73t123 85.5l115 88.5t116.5 82.5v5q-62 9 -128 27.5l-133.5 37t-134 32t-130.5 13.5q-30 0 -63.5 -3.5t-66 -9.5t-62 -13.5t-52.5 -15.5v90zM726 -307h-110v105h110v-105z" />
    <glyph glyph-name="uniFEA0" unicode="&#x62c;" horiz-adv-x="1197" arabic-form="medial" 
d="M154 644q27 10 57 19t61 15.5t62 10.5t59 4q54 0 107.5 -10.5t108.5 -26.5t111.5 -34.5t114.5 -35t118.5 -27.5t124.5 -12l-15 -90q-34 -5 -69 -19.5t-70 -39.5q0 -152 66 -234t207 -82v-96h-20q-80 0 -139.5 25t-99 73t-60 117.5t-23.5 158.5q-40 -22 -88 -58.5
l-104 -78t-121.5 -83.5t-141 -76.5t-163 -56t-187.5 -21.5h-50q-70 0 -70 49q0 22 18 34.5t52 12.5h41q103 0 188 20t158.5 53t138.5 75l128.5 86.5l129 87.5t140.5 77v5q-62 9 -128 27.5l-133.5 37t-134 32t-130.5 13.5q-30 0 -63.5 -3.5t-66 -9.5t-62 -13.5t-52.5 -15.5
v90zM726 -307h-110v105h110v-105z" />
    <glyph glyph-name="uniFE9E" unicode="&#x62c;" horiz-adv-x="1155" arabic-form="final" 
d="M1032 514q-28 -2 -58 -5.5t-50 -8.5q0 -115 5.5 -194.5t26 -129t59.5 -72t106 -22.5h34v-96h-8q-89 0 -145.5 26.5t-89 85.5t-45 153.5t-12.5 231.5q-153 -34 -266.5 -93t-189 -131t-112.5 -151.5t-37 -155.5t27.5 -140t82.5 -110.5t138 -72.5t195 -26q108 0 204.5 17.5
t180.5 52.5v-90q-79 -37 -178 -56.5t-207 -19.5q-134 0 -235 32t-168.5 89t-101.5 136t-34 173q0 103 49.5 201t143 180.5t227.5 145t304 94.5v8q-59 12 -113 30l-107 35.5t-106.5 30t-110.5 12.5q-30 0 -63 -3.5t-65 -9.5t-61.5 -13.5t-52.5 -15.5v90q54 20 117 34t118 14
q80 0 154.5 -24.5t148.5 -54.5t150.5 -56.5t159.5 -30.5zM726 -27h-110v105h110v-105z" />
    <glyph glyph-name="afii57421" unicode="&#x62d;" horiz-adv-x="1155" arabic-form="isolated" 
d="M1022 515q-192 -33 -337 -91t-241.5 -132.5t-145 -161.5t-48.5 -178q0 -76 27 -140t82 -110.5t138.5 -72.5t195.5 -26q108 0 204.5 17.5t180.5 52.5v-90q-79 -37 -178 -56.5t-207 -19.5q-134 0 -235 32t-168.5 89t-101.5 136t-34 173q0 103 51.5 201t146.5 180.5
t228.5 145t297.5 94.5v8q-59 12 -113 30l-107 35.5t-106.5 30t-110.5 12.5q-30 0 -63 -3.5t-65 -9.5t-61.5 -13.5t-52.5 -15.5v90q54 20 117 34t118 14q80 0 154.5 -24.5t148.5 -54.5t150.5 -56.5t159.5 -30.5z" />
    <glyph glyph-name="uniFEA3" unicode="&#x62d;" horiz-adv-x="1232" arabic-form="initial" 
d="M154 644q27 10 57 19t61 15.5t62 10.5t59 4q54 0 107.5 -10.5t108.5 -26.5t111.5 -34.5t114.5 -35t118.5 -27.5t124.5 -12l-15 -90q-61 -13 -119.5 -53t-123 -92.5l-139.5 -109.5t-167 -105t-206.5 -79.5t-257.5 -31.5h-50q-70 0 -70 49q0 22 18 34.5t52 12.5h59
q112 0 203 19t167 50.5t140.5 73t123 85.5l115 88.5t116.5 82.5v5q-62 9 -128 27.5l-133.5 37t-134 32t-130.5 13.5q-30 0 -63.5 -3.5t-66 -9.5t-62 -13.5t-52.5 -15.5v90z" />
    <glyph glyph-name="uniFEA4" unicode="&#x62d;" horiz-adv-x="1197" arabic-form="medial" 
d="M154 644q27 10 57 19t61 15.5t62 10.5t59 4q54 0 107.5 -10.5t108.5 -26.5t111.5 -34.5t114.5 -35t118.5 -27.5t124.5 -12l-15 -90q-34 -5 -69 -19.5t-70 -39.5q0 -152 66 -234t207 -82v-96h-20q-80 0 -139.5 25t-99 73t-60 117.5t-23.5 158.5q-40 -22 -88 -58.5
l-104 -78t-121.5 -83.5t-141 -76.5t-163 -56t-187.5 -21.5h-50q-70 0 -70 49q0 22 18 34.5t52 12.5h41q103 0 188 20t158.5 53t138.5 75l128.5 86.5l129 87.5t140.5 77v5q-62 9 -128 27.5l-133.5 37t-134 32t-130.5 13.5q-30 0 -63.5 -3.5t-66 -9.5t-62 -13.5t-52.5 -15.5
v90z" />
    <glyph glyph-name="uniFEA2" unicode="&#x62d;" horiz-adv-x="1155" arabic-form="final" 
d="M1032 514q-28 -2 -58 -5.5t-50 -8.5q0 -115 5.5 -194.5t26 -129t59.5 -72t106 -22.5h34v-96h-8q-89 0 -145.5 26.5t-89 85.5t-45 153.5t-12.5 231.5q-153 -34 -266.5 -93t-189 -131t-112.5 -151.5t-37 -155.5t27.5 -140t82.5 -110.5t138 -72.5t195 -26q108 0 204.5 17.5
t180.5 52.5v-90q-79 -37 -178 -56.5t-207 -19.5q-134 0 -235 32t-168.5 89t-101.5 136t-34 173q0 103 49.5 201t143 180.5t227.5 145t304 94.5v8q-59 12 -113 30l-107 35.5t-106.5 30t-110.5 12.5q-30 0 -63 -3.5t-65 -9.5t-61.5 -13.5t-52.5 -15.5v90q54 20 117 34t118 14
q80 0 154.5 -24.5t148.5 -54.5t150.5 -56.5t159.5 -30.5z" />
    <glyph glyph-name="afii57422" unicode="&#x62e;" horiz-adv-x="1155" arabic-form="isolated" 
d="M1022 515q-192 -33 -337 -91t-241.5 -132.5t-145 -161.5t-48.5 -178q0 -76 27 -140t82 -110.5t138.5 -72.5t195.5 -26q108 0 204.5 17.5t180.5 52.5v-90q-79 -37 -178 -56.5t-207 -19.5q-134 0 -235 32t-168.5 89t-101.5 136t-34 173q0 103 51.5 201t146.5 180.5
t228.5 145t297.5 94.5v8q-59 12 -113 30l-107 35.5t-106.5 30t-110.5 12.5q-30 0 -63 -3.5t-65 -9.5t-61.5 -13.5t-52.5 -15.5v90q54 20 117 34t118 14q80 0 154.5 -24.5t148.5 -54.5t150.5 -56.5t159.5 -30.5zM616 1001h-110v105h110v-105z" />
    <glyph glyph-name="uniFEA7" unicode="&#x62e;" horiz-adv-x="1232" arabic-form="initial" 
d="M154 644q27 10 57 19t61 15.5t62 10.5t59 4q54 0 107.5 -10.5t108.5 -26.5t111.5 -34.5t114.5 -35t118.5 -27.5t124.5 -12l-15 -90q-61 -13 -119.5 -53t-123 -92.5l-139.5 -109.5t-167 -105t-206.5 -79.5t-257.5 -31.5h-50q-70 0 -70 49q0 22 18 34.5t52 12.5h59
q112 0 203 19t167 50.5t140.5 73t123 85.5l115 88.5t116.5 82.5v5q-62 9 -128 27.5l-133.5 37t-134 32t-130.5 13.5q-30 0 -63.5 -3.5t-66 -9.5t-62 -13.5t-52.5 -15.5v90zM572 924h-110v105h110v-105z" />
    <glyph glyph-name="uniFEA8" unicode="&#x62e;" horiz-adv-x="1197" arabic-form="medial" 
d="M154 644q27 10 57 19t61 15.5t62 10.5t59 4q54 0 107.5 -10.5t108.5 -26.5t111.5 -34.5t114.5 -35t118.5 -27.5t124.5 -12l-15 -90q-34 -5 -69 -19.5t-70 -39.5q0 -152 66 -234t207 -82v-96h-20q-80 0 -139.5 25t-99 73t-60 117.5t-23.5 158.5q-40 -22 -88 -58.5
l-104 -78t-121.5 -83.5t-141 -76.5t-163 -56t-187.5 -21.5h-50q-70 0 -70 49q0 22 18 34.5t52 12.5h41q103 0 188 20t158.5 53t138.5 75l128.5 86.5l129 87.5t140.5 77v5q-62 9 -128 27.5l-133.5 37t-134 32t-130.5 13.5q-30 0 -63.5 -3.5t-66 -9.5t-62 -13.5t-52.5 -15.5
v90zM572 924h-110v105h110v-105z" />
    <glyph glyph-name="uniFEA6" unicode="&#x62e;" horiz-adv-x="1155" arabic-form="final" 
d="M1032 514q-28 -2 -58 -5.5t-50 -8.5q0 -115 5.5 -194.5t26 -129t59.5 -72t106 -22.5h34v-96h-8q-89 0 -145.5 26.5t-89 85.5t-45 153.5t-12.5 231.5q-153 -34 -266.5 -93t-189 -131t-112.5 -151.5t-37 -155.5t27.5 -140t82.5 -110.5t138 -72.5t195 -26q108 0 204.5 17.5
t180.5 52.5v-90q-79 -37 -178 -56.5t-207 -19.5q-134 0 -235 32t-168.5 89t-101.5 136t-34 173q0 103 49.5 201t143 180.5t227.5 145t304 94.5v8q-59 12 -113 30l-107 35.5t-106.5 30t-110.5 12.5q-30 0 -63 -3.5t-65 -9.5t-61.5 -13.5t-52.5 -15.5v90q54 20 117 34t118 14
q80 0 154.5 -24.5t148.5 -54.5t150.5 -56.5t159.5 -30.5zM649 1001h-110v105h110v-105z" />
    <glyph glyph-name="afii57423" unicode="&#x62f;" horiz-adv-x="924" arabic-form="isolated" 
d="M77 96q35 -5 76 -9t82.5 -7t81 -4.5t71.5 -1.5q81 0 138 11.5t92.5 35.5t51.5 62.5t16 92.5q0 57 -17.5 122t-55 140t-95.5 161.5t-139 187.5h103q79 -97 133.5 -182.5t89 -161t50 -142t15.5 -125.5q0 -154 -94.5 -226t-278.5 -72q-59 0 -135.5 6t-147.5 16z" />
    <glyph glyph-name="uniFEAA" unicode="&#x62f;" horiz-adv-x="1001" arabic-form="final" 
d="M77 96q35 -5 75 -9t81.5 -7t82 -4.5t76.5 -1.5q82 0 138 9.5t90.5 28.5t49.5 48t15 69q0 68 -41.5 228t-124.5 420h94l38.5 -133.5l37.5 -135.5l38.5 -141.5l42.5 -150.5q21 -71 42 -116.5t47.5 -71.5t60.5 -36t81 -10v-96h-39q-31 0 -62 9t-59.5 27t-51.5 46.5t-38 67.5
h-5q-18 -41 -44.5 -71t-67 -49.5t-97.5 -28.5t-136 -9q-63 0 -138.5 6t-148.5 16z" />
    <glyph glyph-name="afii57424" unicode="&#x630;" horiz-adv-x="924" arabic-form="isolated" 
d="M77 96q35 -5 76 -9t82.5 -7t81 -4.5t71.5 -1.5q81 0 138 11.5t92.5 35.5t51.5 62.5t16 92.5q0 57 -17.5 122t-55 140t-95.5 161.5t-139 187.5h103q79 -97 133.5 -182.5t89 -161t50 -142t15.5 -125.5q0 -154 -94.5 -226t-278.5 -72q-59 0 -135.5 6t-147.5 16zM418 1155
h-110v105h110v-105z" />
    <glyph glyph-name="uniFEAC" unicode="&#x630;" horiz-adv-x="1001" arabic-form="final" 
d="M77 96q35 -5 75 -9t81.5 -7t82 -4.5t76.5 -1.5q82 0 138 9.5t90.5 28.5t49.5 48t15 69q0 68 -41.5 228t-124.5 420h94l38.5 -133.5l37.5 -135.5l38.5 -141.5l42.5 -150.5q21 -71 42 -116.5t47.5 -71.5t60.5 -36t81 -10v-96h-39q-31 0 -62 9t-59.5 27t-51.5 46.5t-38 67.5
h-5q-18 -41 -44.5 -71t-67 -49.5t-97.5 -28.5t-136 -9q-63 0 -138.5 6t-148.5 16zM616 1155h-110v105h110v-105z" />
    <glyph glyph-name="afii57425" unicode="&#x631;" horiz-adv-x="770" arabic-form="isolated" 
d="M0 -327q51 -18 104.5 -28.5t108.5 -10.5q74 0 132.5 21.5t99 71.5t62 131.5t21.5 200.5q0 129 -33 273.5t-92 283.5h100q26 -65 47 -136t35.5 -143t22.5 -143t8 -135q0 -139 -28 -237.5t-79 -161.5t-122 -92.5t-156 -29.5q-63 0 -123 12.5t-108 32.5v90z" />
    <glyph glyph-name="uniFEAE" unicode="&#x631;" horiz-adv-x="770" arabic-form="final" 
d="M503 616q25 -73 50 -160t40 -175q8 -49 26 -86.5t42 -62.5t52.5 -37.5t56.5 -12.5v-96h-5q-56 0 -88.5 17.5t-55.5 55.5q-2 0 -2.5 -0.5t-2.5 -0.5q0 -141 -28 -239.5t-79 -161t-122 -91t-156 -28.5q-63 0 -123 12.5t-108 32.5v90q51 -18 104.5 -28.5t108.5 -10.5
q74 0 132.5 21.5t99 71.5t62 131.5t21.5 200.5q0 129 -33 273.5t-92 283.5h100z" />
    <glyph glyph-name="afii57426" unicode="&#x632;" horiz-adv-x="770" arabic-form="isolated" 
d="M0 -327q51 -18 104.5 -28.5t108.5 -10.5q74 0 132.5 21.5t99 71.5t62 131.5t21.5 200.5q0 129 -33 273.5t-92 283.5h100q26 -65 47 -136t35.5 -143t22.5 -143t8 -135q0 -139 -28 -237.5t-79 -161.5t-122 -92.5t-156 -29.5q-63 0 -123 12.5t-108 32.5v90zM463 847h-110
v105h110v-105z" />
    <glyph glyph-name="uniFEB0" unicode="&#x632;" horiz-adv-x="770" arabic-form="final" 
d="M503 616q25 -73 50 -160t40 -175q8 -49 26 -86.5t42 -62.5t52.5 -37.5t56.5 -12.5v-96h-5q-56 0 -88.5 17.5t-55.5 55.5q-2 0 -2.5 -0.5t-2.5 -0.5q0 -141 -28 -239.5t-79 -161t-122 -91t-156 -28.5q-63 0 -123 12.5t-108 32.5v90q51 -18 104.5 -28.5t108.5 -10.5
q74 0 132.5 21.5t99 71.5t62 131.5t21.5 200.5q0 129 -33 273.5t-92 283.5h100zM462 847h-110v105h110v-105z" />
    <glyph glyph-name="afii57427" unicode="&#x633;" horiz-adv-x="2310" arabic-form="isolated" 
d="M264 231q-15 -66 -20.5 -123t-5.5 -108q0 -94 21 -163t66.5 -114t117 -67t172.5 -22q89 0 159.5 23t119 72.5t74.5 127t26 185.5q0 82 -12.5 179.5t-35.5 203.5h83l10.5 -45.5t8 -38l7 -38t7.5 -45.5q13 -91 78 -133.5t169 -42.5q51 0 92.5 14t70.5 43t45 74.5t16 108.5
v217h84v-216q0 -127 62.5 -184t181.5 -57q111 0 161 55.5t50 176.5v379h84v-381q0 -81 -21 -142t-60 -102t-94 -61.5t-123 -20.5q-113 0 -180.5 41.5t-102.5 110.5h-4q-36 -70 -99.5 -111t-162.5 -41q-78 0 -134.5 22t-91.5 57l-5 -1q0 -139 -33.5 -238.5t-95.5 -163.5
t-150.5 -94t-197.5 -30q-214 0 -330.5 109.5t-116.5 332.5q0 57 8 119.5t24 131.5h78z" />
    <glyph glyph-name="uniFEB3" unicode="&#x633;" horiz-adv-x="1617" arabic-form="initial" 
d="M385 539v-218q0 -122 57.5 -180.5t173.5 -58.5q51 0 92 14t70.5 43t45.5 74.5t16 108.5v217h84v-216q0 -127 62.5 -184t181.5 -57q111 0 161 55.5t50 176.5v379h84v-381q0 -81 -21 -142t-60 -102t-94 -61.5t-123 -20.5q-113 0 -180.5 41.5t-102.5 110.5h-4
q-42 -75 -104 -113.5t-158 -38.5q-47 0 -88.5 8t-77 25t-62.5 44.5t-44 66.5h-4q-34 -75 -93 -109.5t-147 -34.5h-100q-70 0 -70 49q0 22 18 34.5t52 12.5h76q112 0 168.5 52.5t56.5 178.5v226h84z" />
    <glyph glyph-name="uniFEB4" unicode="&#x633;" horiz-adv-x="1694" arabic-form="medial" 
d="M385 539v-218q0 -122 57.5 -180.5t173.5 -58.5q51 0 92 14t70.5 43t45.5 74.5t16 108.5v217h84v-216q0 -127 62.5 -184t181.5 -57q111 0 161 55.5t50 176.5v302h84v-348q0 -99 55.5 -142.5t175.5 -43.5v-96h-31q-91 0 -153.5 34t-88.5 93h-6q-38 -63 -101.5 -95
t-148.5 -32q-113 0 -180.5 41.5t-102.5 110.5h-4q-42 -75 -104 -113.5t-158 -38.5q-47 0 -88.5 8t-77 25t-62.5 44.5t-44 66.5h-4q-34 -75 -93 -109.5t-147 -34.5h-100q-70 0 -70 49q0 22 18 34.5t52 12.5h76q112 0 168.5 52.5t56.5 178.5v226h84z" />
    <glyph glyph-name="uniFEB2" unicode="&#x633;" horiz-adv-x="2387" arabic-form="final" 
d="M264 231q-15 -66 -20.5 -123t-5.5 -108q0 -94 21 -163t66.5 -114t117 -67t172.5 -22q89 0 159.5 23t119 72.5t74.5 127t26 185.5q0 82 -12.5 179.5t-35.5 203.5h83l10.5 -45.5t8 -38l7 -38t7.5 -45.5q13 -91 78 -133.5t169 -42.5q51 0 92.5 14t70.5 43t45 74.5t16 108.5
v217h84v-216q0 -127 62.5 -184t181.5 -57q111 0 161 55.5t50 176.5v302h84v-348q0 -99 55.5 -142.5t175.5 -43.5v-96h-31q-91 0 -153 32t-91 95h-5q-38 -63 -101 -95t-148 -32q-113 0 -180.5 41.5t-102.5 110.5h-4q-36 -70 -99.5 -111t-162.5 -41q-78 0 -134.5 22t-91.5 57
q-2 0 -2.5 -0.5t-2.5 -0.5q0 -139 -33.5 -238.5t-95.5 -163.5t-150.5 -94t-197.5 -30q-214 0 -330.5 109.5t-116.5 332.5q0 57 8 119.5t24 131.5h78z" />
    <glyph glyph-name="afii57428" unicode="&#x634;" horiz-adv-x="2310" arabic-form="isolated" 
d="M264 231q-15 -66 -20.5 -123t-5.5 -108q0 -94 21 -163t66.5 -114t117 -67t172.5 -22q89 0 159.5 23t119 72.5t74.5 127t26 185.5q0 82 -12.5 179.5t-35.5 203.5h83l10.5 -45.5t8 -38l7 -38t7.5 -45.5q13 -91 78 -133.5t169 -42.5q51 0 92.5 14t70.5 43t45 74.5t16 108.5
v217h84v-216q0 -127 62.5 -184t181.5 -57q111 0 161 55.5t50 176.5v379h84v-381q0 -81 -21 -142t-60 -102t-94 -61.5t-123 -20.5q-113 0 -180.5 41.5t-102.5 110.5h-4q-36 -70 -99.5 -111t-162.5 -41q-78 0 -134.5 22t-91.5 57l-5 -1q0 -139 -33.5 -238.5t-95.5 -163.5
t-150.5 -94t-197.5 -30q-214 0 -330.5 109.5t-116.5 332.5q0 57 8 119.5t24 131.5h78zM1534 770h-110v105h110v-105zM1732 770h-110v105h110v-105zM1633 952h-110v105h110v-105z" />
    <glyph glyph-name="uniFEB7" unicode="&#x634;" horiz-adv-x="1617" arabic-form="initial" 
d="M385 539v-218q0 -122 57.5 -180.5t173.5 -58.5q51 0 92 14t70.5 43t45.5 74.5t16 108.5v217h84v-216q0 -127 62.5 -184t181.5 -57q111 0 161 55.5t50 176.5v379h84v-381q0 -81 -21 -142t-60 -102t-94 -61.5t-123 -20.5q-113 0 -180.5 41.5t-102.5 110.5h-4
q-42 -75 -104 -113.5t-158 -38.5q-47 0 -88.5 8t-77 25t-62.5 44.5t-44 66.5h-4q-34 -75 -93 -109.5t-147 -34.5h-100q-70 0 -70 49q0 22 18 34.5t52 12.5h76q112 0 168.5 52.5t56.5 178.5v226h84zM841 770h-110v105h110v-105zM1039 770h-110v105h110v-105zM940 952h-110
v105h110v-105z" />
    <glyph glyph-name="uniFEB8" unicode="&#x634;" horiz-adv-x="1694" arabic-form="medial" 
d="M385 539v-218q0 -122 57.5 -180.5t173.5 -58.5q51 0 92 14t70.5 43t45.5 74.5t16 108.5v217h84v-216q0 -127 62.5 -184t181.5 -57q111 0 161 55.5t50 176.5v302h84v-348q0 -99 55.5 -142.5t175.5 -43.5v-96h-31q-91 0 -153.5 34t-88.5 93h-6q-38 -63 -101.5 -95
t-148.5 -32q-113 0 -180.5 41.5t-102.5 110.5h-4q-42 -75 -104 -113.5t-158 -38.5q-47 0 -88.5 8t-77 25t-62.5 44.5t-44 66.5h-4q-34 -75 -93 -109.5t-147 -34.5h-100q-70 0 -70 49q0 22 18 34.5t52 12.5h76q112 0 168.5 52.5t56.5 178.5v226h84zM841 770h-110v105h110
v-105zM1039 770h-110v105h110v-105zM940 952h-110v105h110v-105z" />
    <glyph glyph-name="uniFEB6" unicode="&#x634;" horiz-adv-x="2387" arabic-form="final" 
d="M264 231q-15 -66 -20.5 -123t-5.5 -108q0 -94 21 -163t66.5 -114t117 -67t172.5 -22q89 0 159.5 23t119 72.5t74.5 127t26 185.5q0 82 -12.5 179.5t-35.5 203.5h83l10.5 -45.5t8 -38l7 -38t7.5 -45.5q13 -91 78 -133.5t169 -42.5q51 0 92.5 14t70.5 43t45 74.5t16 108.5
v217h84v-216q0 -127 62.5 -184t181.5 -57q111 0 161 55.5t50 176.5v302h84v-348q0 -99 55.5 -142.5t175.5 -43.5v-96h-31q-91 0 -153 32t-91 95h-5q-38 -63 -101 -95t-148 -32q-113 0 -180.5 41.5t-102.5 110.5h-4q-36 -70 -99.5 -111t-162.5 -41q-78 0 -134.5 22t-91.5 57
q-2 0 -2.5 -0.5t-2.5 -0.5q0 -139 -33.5 -238.5t-95.5 -163.5t-150.5 -94t-197.5 -30q-214 0 -330.5 109.5t-116.5 332.5q0 57 8 119.5t24 131.5h78zM1534 770h-110v105h110v-105zM1732 770h-110v105h110v-105zM1633 952h-110v105h110v-105z" />
    <glyph glyph-name="afii57429" unicode="&#x635;" horiz-adv-x="2541" arabic-form="isolated" 
d="M264 231q-15 -66 -20.5 -123t-5.5 -108q0 -94 21 -163t66.5 -114t117 -67t172.5 -22q89 0 159.5 23t119 72.5t74.5 127t26 185.5q0 82 -12.5 179.5t-35.5 203.5h83l10.5 -47.5l8.5 -37.5t7 -37l7 -45q23 -164 170 -176q70 151 157 265.5t185 191.5t204 115.5t215 38.5
q84 0 156.5 -26.5t125 -76.5t82.5 -123t30 -167q0 -82 -20.5 -141t-72.5 -97.5t-141.5 -57t-227.5 -18.5t-238.5 0.5t-173.5 1t-122 1.5t-84 3t-60 4.5t-49 6.5q-41 8 -70.5 25.5t-44.5 36.5q-2 0 -3 -0.5t-2 -0.5q0 -139 -33.5 -238.5t-95.5 -163.5t-150.5 -94t-197.5 -30
q-214 0 -330.5 109.5t-116.5 332.5q0 57 8 119.5t24 131.5h78zM1986 82q90 0 151 11t97.5 35.5t52.5 64.5t16 98q0 75 -23 132t-64.5 95.5t-99 58.5t-127.5 20q-100 0 -194.5 -33.5t-179.5 -99t-158.5 -161.5t-131.5 -221h661z" />
    <glyph glyph-name="uniFEBB" unicode="&#x635;" horiz-adv-x="1848" arabic-form="initial" 
d="M335 425l10.5 -47.5l8.5 -37.5t7 -37l7 -45q24 -164 171 -176q70 151 157 265.5t185 191.5t204 115.5t215 38.5q84 0 156.5 -26.5t125 -76.5t82.5 -123t30 -167q0 -82 -20.5 -141t-72.5 -97.5t-141.5 -57t-227.5 -18.5q-146 0 -267.5 0.5t-214.5 2t-155.5 5t-89.5 9.5
q-116 27 -162 106h-4q-28 -61 -86 -92t-153 -31h-100q-70 0 -70 49q0 22 18 34.5t52 12.5h76q103 0 157 33.5t54 90.5q0 48 -11 103l-24 116h83zM1293 82q90 0 151 11t97.5 35.5t52.5 64.5t16 98q0 75 -23 132t-64.5 95.5t-99 58.5t-127.5 20q-100 0 -194.5 -33.5
t-179.5 -99t-158.5 -161.5t-131.5 -221h661z" />
    <glyph glyph-name="uniFEBC" unicode="&#x635;" horiz-adv-x="1848" arabic-form="medial" 
d="M335 425l10.5 -47.5l8.5 -37.5t7 -37l7 -45q24 -164 171 -176q70 151 157 265.5t185 191.5t204 115.5t215 38.5q84 0 156.5 -26.5t125 -76.5t82.5 -123t30 -167q0 -64 9 -106t27.5 -67t47.5 -35t70 -10v-96h-12q-68 0 -115.5 35t-67.5 93h-6q-27 -35 -62 -59t-83.5 -39.5
t-114 -22.5t-155.5 -7q-146 0 -267.5 0.5t-214.5 2t-155.5 5t-89.5 9.5q-116 27 -162 106h-4q-28 -61 -86 -92t-153 -31h-100q-70 0 -70 49q0 22 18 34.5t52 12.5h77q102 0 156 32.5t54 91.5q0 48 -11 103l-24 116h83zM1293 82q90 0 151 11t97.5 35.5t52.5 64.5t16 98
q0 75 -23 132t-64.5 96t-99 58.5t-127.5 19.5q-100 0 -194.5 -33.5t-179.5 -99t-158.5 -161.5t-131.5 -221h661z" />
    <glyph glyph-name="uniFEBA" unicode="&#x635;" horiz-adv-x="2541" arabic-form="final" 
d="M264 231q-15 -66 -20.5 -123t-5.5 -108q0 -94 21 -163t66.5 -114t117 -67t172.5 -22q89 0 159.5 23t119 72.5t74.5 127t26 185.5q0 82 -12.5 179.5t-35.5 203.5h83l10.5 -47.5l8.5 -37.5t7 -37l7 -45q23 -164 170 -176q70 151 157 265.5t185 191.5t204 115.5t215 38.5
q84 0 156.5 -26.5t125 -77t82.5 -123.5t30 -166q0 -64 9 -106t27.5 -67t47.5 -35t70 -10v-96h-12q-68 0 -115.5 35t-67.5 93h-6q-27 -35 -62 -59t-83.5 -39.5t-114 -22.5t-155.5 -7q-143 0 -264 0.5t-215 2t-157.5 5t-90.5 9.5q-40 9 -70 26t-45 36l-5 -1
q0 -139 -33.5 -238.5t-95.5 -163.5t-150.5 -94t-197.5 -30q-214 0 -330.5 109.5t-116.5 332.5q0 57 8 119.5t24 131.5h78zM1986 82q90 0 151 11t97.5 35.5t52.5 64.5t16 98q0 75 -23 132t-64.5 96t-99 58.5t-127.5 19.5q-100 0 -194.5 -33.5t-179.5 -99t-158.5 -161.5
t-131.5 -221h661z" />
    <glyph glyph-name="afii57430" unicode="&#x636;" horiz-adv-x="2541" arabic-form="isolated" 
d="M264 231q-15 -66 -20.5 -123t-5.5 -108q0 -94 21 -163t66.5 -114t117 -67t172.5 -22q89 0 159.5 23t119 72.5t74.5 127t26 185.5q0 82 -12.5 179.5t-35.5 203.5h83l10.5 -47.5l8.5 -37.5t7 -37l7 -45q23 -164 170 -176q70 151 157 265.5t185 191.5t204 115.5t215 38.5
q84 0 156.5 -26.5t125 -76.5t82.5 -123t30 -167q0 -82 -20.5 -141t-72.5 -97.5t-141.5 -57t-227.5 -18.5t-238.5 0.5t-173.5 1t-122 1.5t-84 3t-60 4.5t-49 6.5q-41 8 -70.5 25.5t-44.5 36.5q-2 0 -3 -0.5t-2 -0.5q0 -139 -33.5 -238.5t-95.5 -163.5t-150.5 -94t-197.5 -30
q-214 0 -330.5 109.5t-116.5 332.5q0 57 8 119.5t24 131.5h78zM1986 82q90 0 151 11t97.5 35.5t52.5 64.5t16 98q0 75 -23 132t-64.5 95.5t-99 58.5t-127.5 20q-100 0 -194.5 -33.5t-179.5 -99t-158.5 -161.5t-131.5 -221h661zM1727 847h-110v105h110v-105z" />
    <glyph glyph-name="uniFEBF" unicode="&#x636;" horiz-adv-x="1848" arabic-form="initial" 
d="M335 425l10.5 -47.5l8.5 -37.5t7 -37l7 -45q24 -164 171 -176q70 151 157 265.5t185 191.5t204 115.5t215 38.5q84 0 156.5 -26.5t125 -76.5t82.5 -123t30 -167q0 -82 -20.5 -141t-72.5 -97.5t-141.5 -57t-227.5 -18.5q-146 0 -267.5 0.5t-214.5 2t-155.5 5t-89.5 9.5
q-116 27 -162 106h-4q-28 -61 -86 -92t-153 -31h-100q-70 0 -70 49q0 22 18 34.5t52 12.5h76q103 0 157 33.5t54 90.5q0 48 -11 103l-24 116h83zM1293 82q90 0 151 11t97.5 35.5t52.5 64.5t16 98q0 75 -23 132t-64.5 95.5t-99 58.5t-127.5 20q-100 0 -194.5 -33.5
t-179.5 -99t-158.5 -161.5t-131.5 -221h661zM1034 847h-110v105h110v-105z" />
    <glyph glyph-name="uniFEC0" unicode="&#x636;" horiz-adv-x="1848" arabic-form="medial" 
d="M335 425l10.5 -47.5l8.5 -37.5t7 -37l7 -45q24 -164 171 -176q70 151 157 265.5t185 191.5t204 115.5t215 38.5q84 0 156.5 -26.5t125 -76.5t82.5 -123t30 -167q0 -64 9 -106t27.5 -67t47.5 -35t70 -10v-96h-12q-68 0 -115.5 35t-67.5 93h-6q-27 -35 -62 -59t-83.5 -39.5
t-114 -22.5t-155.5 -7q-146 0 -267.5 0.5t-214.5 2t-155.5 5t-89.5 9.5q-116 27 -162 106h-4q-28 -61 -86 -92t-153 -31h-100q-70 0 -70 49q0 22 18 34.5t52 12.5h77q102 0 156 32.5t54 91.5q0 48 -11 103l-24 116h83zM1293 82q90 0 151 11t97.5 35.5t52.5 64.5t16 98
q0 75 -23 132t-64.5 96t-99 58.5t-127.5 19.5q-100 0 -194.5 -33.5t-179.5 -99t-158.5 -161.5t-131.5 -221h661zM1034 847h-110v105h110v-105z" />
    <glyph glyph-name="uniFEBE" unicode="&#x636;" horiz-adv-x="2541" arabic-form="final" 
d="M264 231q-15 -66 -20.5 -123t-5.5 -108q0 -94 21 -163t66.5 -114t117 -67t172.5 -22q89 0 159.5 23t119 72.5t74.5 127t26 185.5q0 82 -12.5 179.5t-35.5 203.5h83l10.5 -47.5l8.5 -37.5t7 -37l7 -45q23 -164 170 -176q70 151 157 265.5t185 191.5t204 115.5t215 38.5
q84 0 156.5 -26.5t125 -77t82.5 -123.5t30 -166q0 -64 9 -106t27.5 -67t47.5 -35t70 -10v-96h-12q-68 0 -115.5 35t-67.5 93h-6q-27 -35 -62 -59t-83.5 -39.5t-114 -22.5t-155.5 -7q-143 0 -264 0.5t-215 2t-157.5 5t-90.5 9.5q-40 9 -70 26t-45 36l-5 -1
q0 -139 -33.5 -238.5t-95.5 -163.5t-150.5 -94t-197.5 -30q-214 0 -330.5 109.5t-116.5 332.5q0 57 8 119.5t24 131.5h78zM1986 82q90 0 151 11t97.5 35.5t52.5 64.5t16 98q0 75 -23 132t-64.5 96t-99 58.5t-127.5 19.5q-100 0 -194.5 -33.5t-179.5 -99t-158.5 -161.5
t-131.5 -221h661zM1727 847h-110v105h110v-105z" />
    <glyph glyph-name="afii57431" unicode="&#x637;" horiz-adv-x="1617" arabic-form="isolated" 
d="M445 1516v-1201l3 -1q53 78 119 147t144 120.5t167.5 81.5t190.5 30q84 0 156.5 -26.5t125 -76.5t82.5 -123t30 -167q0 -81 -20.5 -140.5t-72.5 -98t-141.5 -57t-227.5 -18.5q-173 0 -297 0.5t-212 1t-147.5 2t-104.5 3t-82.5 3.5t-80.5 4l-32 104q22 -3 53.5 -5
t66.5 -4.5t72 -4t71 -2.5l25.5 49l27.5 51v1328h84zM1062 82q90 0 151 11t97.5 35.5t52.5 64.5t16 98q0 75 -23 132t-64.5 95.5t-99 58.5t-127.5 20q-100 0 -194.5 -33.5t-179 -99t-158 -161.5t-131.5 -221h660z" />
    <glyph glyph-name="uniFEC3" unicode="&#x637;" horiz-adv-x="1539" arabic-form="initial" 
d="M368 1516v-1201l3 -1q53 78 119 147t143.5 120.5t167.5 81.5t191 30q84 0 156.5 -26.5t125 -76.5t82.5 -123t30 -167q0 -81 -20.5 -140.5t-72.5 -98t-141.5 -57t-227.5 -18.5h-856h-68q-70 0 -70 49q0 22 18 34.5t52 12.5h231l25 52.5t28 53.5v1328h84zM985 82
q90 0 151 11t97.5 35.5t52.5 64.5t16 98q0 75 -23 132t-64.5 95.5t-99 58.5t-127.5 20q-100 0 -194.5 -34t-179.5 -100t-158.5 -162t-130.5 -219h660z" />
    <glyph glyph-name="uniFEC4" unicode="&#x637;" horiz-adv-x="1540" arabic-form="medial" 
d="M368 1516v-1201l3 -1q53 78 119 147t143.5 120.5t167.5 81.5t191 30q84 0 156.5 -26.5t125 -77t82.5 -123.5t30 -166q0 -64 9 -106t27.5 -67t47.5 -35t70 -10v-96h-12q-68 0 -115.5 35t-67.5 93h-6q-27 -35 -62 -59t-83.5 -39.5t-114 -22.5t-155.5 -7h-774h-150
q-70 0 -70 49q0 22 18 34.5t52 12.5h231l25 51.5l28 54.5v1328h84zM985 82q90 0 151 11t97.5 35.5t52.5 64.5t16 98q0 75 -23 132t-64.5 95.5t-99 58.5t-127.5 20q-100 0 -194.5 -34t-179.5 -100t-158.5 -162t-130.5 -219h660z" />
    <glyph glyph-name="uniFEC2" unicode="&#x637;" horiz-adv-x="1617" arabic-form="final" 
d="M445 1516v-1201q1 0 1.5 -0.5t1.5 -0.5q53 78 119 147t144 120.5t167.5 81.5t190.5 30q84 0 156.5 -26.5t125 -76.5t82.5 -123t30 -167q0 -64 9 -106t27.5 -67t47.5 -35t70 -10v-96h-12q-68 0 -115.5 35t-67.5 93h-6q-27 -35 -62 -59t-83.5 -39.5t-114 -22.5t-155.5 -7
q-151 0 -266.5 0.5t-203.5 1t-153.5 2t-118 3t-96 3.5l-86.5 4l-32 104q22 -3 53.5 -5t66.5 -4.5t72 -4t71 -2.5l25.5 49l27.5 51v1328h84zM1062 82q90 0 151 11t97.5 35.5t52.5 64.5t16 98q0 75 -23 132t-64.5 95.5t-99 58.5t-127.5 20q-100 0 -194.5 -34t-179.5 -100
t-158.5 -162t-130.5 -219h660z" />
    <glyph glyph-name="afii57432" unicode="&#x638;" horiz-adv-x="1617" arabic-form="isolated" 
d="M445 1516v-1201l3 -1q53 78 119 147t144 120.5t167.5 81.5t190.5 30q84 0 156.5 -26.5t125 -76.5t82.5 -123t30 -167q0 -81 -20.5 -140.5t-72.5 -98t-141.5 -57t-227.5 -18.5q-173 0 -297 0.5t-212 1t-147.5 2t-104.5 3t-82.5 3.5t-80.5 4l-32 104q22 -3 53.5 -5
t66.5 -4.5t72 -4t71 -2.5l25.5 49l27.5 51v1328h84zM1062 82q90 0 151 11t97.5 35.5t52.5 64.5t16 98q0 75 -23 132t-64.5 95.5t-99 58.5t-127.5 20q-100 0 -194.5 -33.5t-179 -99t-158 -161.5t-131.5 -221h660zM1034 847h-110v105h110v-105z" />
    <glyph glyph-name="uniFEC7" unicode="&#x638;" horiz-adv-x="1539" arabic-form="initial" 
d="M368 1516v-1201l3 -1q53 78 119 147t143.5 120.5t167.5 81.5t191 30q84 0 156.5 -26.5t125 -76.5t82.5 -123t30 -167q0 -81 -20.5 -140.5t-72.5 -98t-141.5 -57t-227.5 -18.5h-856h-68q-70 0 -70 49q0 22 18 34.5t52 12.5h231l25 52.5t28 53.5v1328h84zM985 82
q90 0 151 11t97.5 35.5t52.5 64.5t16 98q0 75 -23 132t-64.5 95.5t-99 58.5t-127.5 20q-100 0 -194.5 -34t-179.5 -100t-158.5 -162t-130.5 -219h660zM957 847h-110v105h110v-105z" />
    <glyph glyph-name="uniFEC8" unicode="&#x638;" horiz-adv-x="1540" arabic-form="medial" 
d="M368 1516v-1201l3 -1q53 78 119 147t143.5 120.5t167.5 81.5t191 30q84 0 156.5 -26.5t125 -77t82.5 -123.5t30 -166q0 -64 9 -106t27.5 -67t47.5 -35t70 -10v-96h-12q-68 0 -115.5 35t-67.5 93h-6q-27 -35 -62 -59t-83.5 -39.5t-114 -22.5t-155.5 -7h-774h-150
q-70 0 -70 49q0 22 18 34.5t52 12.5h231l25 51.5l28 54.5v1328h84zM985 82q90 0 151 11t97.5 35.5t52.5 64.5t16 98q0 75 -23 132t-64.5 95.5t-99 58.5t-127.5 20q-100 0 -194.5 -34t-179.5 -100t-158.5 -162t-130.5 -219h660zM957 847h-110v105h110v-105z" />
    <glyph glyph-name="uniFEC6" unicode="&#x638;" horiz-adv-x="1617" arabic-form="final" 
d="M445 1516v-1201q1 0 1.5 -0.5t1.5 -0.5q53 78 119 147t144 120.5t167.5 81.5t190.5 30q84 0 156.5 -26.5t125 -76.5t82.5 -123t30 -167q0 -64 9 -106t27.5 -67t47.5 -35t70 -10v-96h-12q-68 0 -115.5 35t-67.5 93h-6q-27 -35 -62 -59t-83.5 -39.5t-114 -22.5t-155.5 -7
q-151 0 -266.5 0.5t-203.5 1t-153.5 2t-118 3t-96 3.5l-86.5 4l-32 104q22 -3 53.5 -5t66.5 -4.5t72 -4t71 -2.5l25.5 49l27.5 51v1328h84zM1062 82q90 0 151 11t97.5 35.5t52.5 64.5t16 98q0 75 -23 132t-64.5 95.5t-99 58.5t-127.5 20q-100 0 -194.5 -34t-179.5 -100
t-158.5 -162t-130.5 -219h660zM1034 847h-110v105h110v-105z" />
    <glyph glyph-name="afii57433" unicode="&#x639;" horiz-adv-x="1001" arabic-form="isolated" 
d="M770 462q-167 -40 -281.5 -96t-184.5 -122.5t-100.5 -140t-30.5 -147.5q0 -85 30 -150.5t87 -110.5t139 -68.5t187 -23.5q120 0 218.5 19t166.5 51v-90q-75 -34 -173.5 -55t-210.5 -21q-130 0 -230.5 31t-169.5 88t-104.5 136t-35.5 175q0 54 14 110.5t43 111t73 105.5
t103 93q-63 51 -101 121t-38 156q0 72 27.5 136.5t78.5 113.5t122.5 78t159.5 29q45 0 87 -5.5t79 -14.5v-98q-39 10 -83 16t-92 6q-66 0 -119 -20.5t-90.5 -56.5t-57.5 -84t-20 -103q0 -77 33 -135.5t90 -88.5q34 19 76.5 39.5t91 40.5t103 38.5t113.5 32.5v-96z" />
    <glyph glyph-name="uniFECB" unicode="&#x639;" horiz-adv-x="1155" arabic-form="initial" 
d="M1001 154q-100 -47 -188 -79.5t-173 -52t-170.5 -28t-181.5 -8.5h-288q-70 0 -70 49q0 22 18 34.5t52 12.5h352q0 2 0.5 3t0.5 3q-41 20 -77.5 52.5t-63.5 75t-42.5 93.5t-15.5 109q0 90 35.5 164t96 127.5t140 82.5t167.5 29q48 0 88.5 -5.5t88.5 -14.5v-97
q-23 4 -43.5 8t-42 7t-46.5 4.5t-56 1.5q-74 0 -135.5 -24t-106 -66t-69.5 -98t-25 -120q0 -60 22 -112.5t59.5 -95t88.5 -72t109 -42.5q55 8 110 21t113 31.5t120 43.5t133 57v-94z" />
    <glyph glyph-name="uniFECC" unicode="&#x639;" horiz-adv-x="1078" arabic-form="medial" 
d="M154 631q124 30 244.5 46t231.5 16q148 0 221 -45t73 -120q0 -39 -17.5 -87.5t-51.5 -101t-84 -105.5t-115 -100q23 -11 63.5 -20.5t95 -16.5t121 -11t142.5 -4v-96h-77q-121 0 -230.5 23t-199.5 71q-50 -24 -102.5 -41.5t-111 -29t-123.5 -17.5t-140 -6h-94
q-70 0 -70 49q0 22 18 34.5t52 12.5h77q270 0 404 55q-36 28 -83 77.5t-93 108t-86.5 118.5t-64.5 110v80zM571 175q51 29 99 73.5t86 93t61 95t23 80.5q0 41 -52 63.5t-156 22.5q-105 0 -203 -11.5t-182 -29.5v-11q28 -49 65 -101.5t79.5 -102.5t88.5 -94.5t91 -77.5z" />
    <glyph glyph-name="uniFECA" unicode="&#x639;" horiz-adv-x="1078" arabic-form="final" 
d="M154 743q61 15 120 26.5t118 19t120.5 11.5t127.5 4q144 0 214 -47t70 -122q0 -38 -18 -80.5t-60 -89.5t-111.5 -98.5t-172.5 -107.5q54 -50 105.5 -84t105.5 -54.5t113.5 -29.5t129.5 -9h62v-96h-77q-81 0 -149 12.5t-130.5 40.5t-122.5 73.5t-125 112.5
q-132 -52 -204 -133.5t-72 -195.5q0 -54 26.5 -106.5t80.5 -94t135.5 -67t192.5 -25.5q117 0 209.5 19t158.5 51v-90q-73 -34 -165.5 -55t-201.5 -21q-130 0 -229.5 29.5t-166.5 81t-101.5 121t-34.5 148.5q0 135 85 236t239 165q-38 42 -77.5 92l-76 100t-67 97.5
t-51.5 85.5v80zM510 322q91 49 154 91.5t102 80t56.5 70t17.5 60.5q0 39 -53.5 64.5t-163.5 25.5q-49 0 -101 -2.5t-101.5 -8t-94 -13t-79.5 -16.5v-11l56 -84.5t69.5 -96.5l72.5 -91t65 -69z" />
    <glyph glyph-name="afii57434" unicode="&#x63a;" horiz-adv-x="1001" arabic-form="isolated" 
d="M770 462q-167 -40 -281.5 -96t-184.5 -122.5t-100.5 -140t-30.5 -147.5q0 -85 30 -150.5t87 -110.5t139 -68.5t187 -23.5q120 0 218.5 19t166.5 51v-90q-75 -34 -173.5 -55t-210.5 -21q-130 0 -230.5 31t-169.5 88t-104.5 136t-35.5 175q0 54 14 110.5t43 111t73 105.5
t103 93q-63 51 -101 121t-38 156q0 72 27.5 136.5t78.5 113.5t122.5 78t159.5 29q45 0 87 -5.5t79 -14.5v-98q-39 10 -83 16t-92 6q-66 0 -119 -20.5t-90.5 -56.5t-57.5 -84t-20 -103q0 -77 33 -135.5t90 -88.5q34 19 76.5 39.5t91 40.5t103 38.5t113.5 32.5v-96zM495 1155
h-110v105h110v-105z" />
    <glyph glyph-name="uniFECF" unicode="&#x63a;" horiz-adv-x="1155" arabic-form="initial" 
d="M1001 154q-100 -47 -188 -79.5t-173 -52t-170.5 -28t-181.5 -8.5h-288q-70 0 -70 49q0 22 18 34.5t52 12.5h352q0 2 0.5 3t0.5 3q-41 20 -77.5 52.5t-63.5 75t-42.5 93.5t-15.5 109q0 90 35.5 164t96 127.5t140 82.5t167.5 29q48 0 88.5 -5.5t88.5 -14.5v-97
q-23 4 -43.5 8t-42 7t-46.5 4.5t-56 1.5q-74 0 -135.5 -24t-106 -66t-69.5 -98t-25 -120q0 -60 22 -112.5t59.5 -95t88.5 -72t109 -42.5q55 8 110 21t113 31.5t120 43.5t133 57v-94zM572 1001h-110v105h110v-105z" />
    <glyph glyph-name="uniFED0" unicode="&#x63a;" horiz-adv-x="1078" arabic-form="medial" 
d="M154 631q124 30 244.5 46t231.5 16q148 0 221 -45t73 -120q0 -39 -17.5 -87.5t-51.5 -101t-84 -105.5t-115 -100q23 -11 63.5 -20.5t95 -16.5t121 -11t142.5 -4v-96h-77q-121 0 -230.5 23t-199.5 71q-50 -24 -102.5 -41.5t-111 -29t-123.5 -17.5t-140 -6h-94
q-70 0 -70 49q0 22 18 34.5t52 12.5h77q270 0 404 55q-36 28 -83 77.5t-93 108t-86.5 118.5t-64.5 110v80zM571 175q51 29 99 73.5t86 93t61 95t23 80.5q0 41 -52 63.5t-156 22.5q-105 0 -203 -11.5t-182 -29.5v-11q28 -49 65 -101.5t79.5 -102.5t88.5 -94.5t91 -77.5z
M616 924h-110v105h110v-105z" />
    <glyph glyph-name="uniFECE" unicode="&#x63a;" horiz-adv-x="1078" arabic-form="final" 
d="M154 743q61 15 120 26.5t118 19t120.5 11.5t127.5 4q144 0 214 -47t70 -122q0 -38 -18 -80.5t-60 -89.5t-111.5 -98.5t-172.5 -107.5q54 -50 105.5 -84t105.5 -54.5t113.5 -29.5t129.5 -9h62v-96h-77q-81 0 -149 12.5t-130.5 40.5t-122.5 73.5t-125 112.5
q-132 -52 -204 -133.5t-72 -195.5q0 -54 26.5 -106.5t80.5 -94t135.5 -67t192.5 -25.5q117 0 209.5 19t158.5 51v-90q-73 -34 -165.5 -55t-201.5 -21q-130 0 -229.5 29.5t-166.5 81t-101.5 121t-34.5 148.5q0 135 85 236t239 165q-38 42 -77.5 92l-76 100t-67 97.5
t-51.5 85.5v80zM510 322q91 49 154 91.5t102 80t56.5 70t17.5 60.5q0 39 -53.5 64.5t-163.5 25.5q-49 0 -101 -2.5t-101.5 -8t-94 -13t-79.5 -16.5v-11l56 -84.5t69.5 -96.5l72.5 -91t65 -69zM617 1001h-110v105h110v-105z" />
    <glyph glyph-name="afii57441" unicode="&#x641;" horiz-adv-x="1925" arabic-form="isolated" 
d="M264 539q-11 -37 -18.5 -83t-7.5 -97q0 -77 25.5 -126.5t69.5 -78.5q28 -19 74 -34t119.5 -25t178.5 -15.5t252 -5.5q123 0 205.5 0.5t137.5 1.5t87.5 2.5t55.5 3.5q1 2 1 3t1 3q-97 50 -155 118.5t-58 154.5q0 67 23.5 132t61.5 116.5t86.5 83.5t98.5 32
q51 0 107.5 -37.5t105.5 -103.5q42 -58 66 -128t24 -136q0 -67 -22.5 -128.5t-80.5 -109t-158 -76t-254 -28.5h-366q-150 0 -256.5 6.5t-181.5 19t-123.5 31t-82.5 42.5q-59 42 -92.5 106.5t-33.5 157.5q0 47 7.5 100t21.5 98h81zM1721 316q0 51 -21 106.5t-54 101.5
t-73.5 75.5t-79.5 29.5q-30 0 -61.5 -24t-57 -62.5t-42 -85t-16.5 -91.5q0 -66 62 -130t195 -129q31 12 58.5 33t47 48t31 59.5t11.5 68.5zM1556 924h-110v105h110v-105z" />
    <glyph glyph-name="uniFED3" unicode="&#x641;" horiz-adv-x="847" arabic-form="initial" 
d="M367 96q-97 50 -155 118.5t-58 154.5q0 67 23.5 132t61.5 116.5t86.5 83.5t98.5 32q51 0 107.5 -37.5t104.5 -104.5q42 -58 66.5 -127.5t24.5 -135.5q0 -80 -29 -143t-91 -107.5t-159.5 -68t-235.5 -23.5h-212q-70 0 -70 49q0 22 18 34.5t52 12.5h134q27 0 58 0.5l62 1
t59.5 2t51.5 3.5zM643 324q0 51 -21 106.5t-54 101.5t-73.5 75.5t-79.5 29.5q-30 0 -61.5 -24t-57 -62.5t-42 -85t-16.5 -91.5q0 -66 62 -130t195 -129q31 12 58.5 33t47 48t31 59.5t11.5 68.5zM462 924h-110v105h110v-105z" />
    <glyph glyph-name="uniFED4" unicode="&#x641;" horiz-adv-x="847" arabic-form="medial" 
d="M375 95q-50 22 -91 51.5t-70 64.5t-44.5 75t-15.5 83q0 67 23.5 132t61.5 116.5t86.5 83.5t98.5 32q51 0 107.5 -37.5t104.5 -104.5q42 -58 66.5 -128t24.5 -139q0 -70 -30 -129.5t-96 -103.5q18 -3 37 -4.5t46 -2.5t66 -1.5t97 -0.5v-96h-32q-96 0 -172.5 12t-141.5 38
q-57 -25 -144.5 -37.5t-202.5 -12.5h-154q-70 0 -70 49q0 22 18 34.5t52 12.5h177q73 0 123.5 2t72.5 4zM643 324q0 51 -21 106.5t-54 101.5t-73.5 75.5t-79.5 29.5q-30 0 -61.5 -24t-57 -62.5t-42 -85t-16.5 -91.5q0 -67 62 -134t195 -126q69 29 108.5 84.5t39.5 125.5z
M462 924h-110v105h110v-105z" />
    <glyph glyph-name="uniFED2" unicode="&#x641;" horiz-adv-x="2002" arabic-form="final" 
d="M1232 369q0 67 23.5 132t61.5 116.5t86.5 83.5t98.5 32q51 0 107.5 -37.5t104.5 -104.5q42 -58 66.5 -128t24.5 -139t-30 -129t-96 -104q27 -3 56 -5t66.5 -3t86.5 -1h114v-96h-109q-96 0 -172.5 11t-141.5 37q-32 -14 -79 -24t-104 -17.5t-123 -11t-135 -3.5h-214
q-150 0 -256.5 6.5t-181.5 19t-123.5 31t-82.5 42.5q-59 42 -92.5 106.5t-33.5 157.5q0 47 7.5 100t21.5 98h81q-11 -37 -18.5 -83t-7.5 -97q0 -77 25.5 -126.5t69.5 -78.5q28 -19 74 -34t119.5 -25t178.5 -15.5t252 -5.5q123 0 208 1t142.5 2.5t92 3t55.5 3.5q1 2 1 3.5
t1 3.5q-106 49 -165.5 120.5t-59.5 157.5zM1721 324q0 51 -21 106.5t-54 101.5t-73.5 75.5t-79.5 29.5q-30 0 -61 -24t-57 -62.5t-42.5 -85t-16.5 -91.5q0 -66 61 -133t196 -127q69 29 108.5 84.5t39.5 125.5zM1556 924h-110v105h110v-105z" />
    <glyph glyph-name="afii57442" unicode="&#x642;" horiz-adv-x="1386" arabic-form="isolated" 
d="M1184 26q-42 -19 -95 -29.5t-105 -10.5q-63 0 -121 21.5t-102 60.5t-70 92.5t-26 117.5q0 61 23.5 121.5t63 108.5t91.5 78t109 30q79 0 136.5 -49t101.5 -131q44 -83 61 -181.5t17 -195.5q0 -135 -34 -233t-105.5 -162t-183 -95t-267.5 -31q-524 0 -524 440
q0 63 7.5 133t21.5 148h78q-11 -75 -17 -137.5t-6 -116.5q0 -96 25 -166.5t80 -116t140.5 -67.5t207.5 -22q129 0 219.5 21t149 67.5t88 121.5t36.5 183zM1177 116q-2 84 -22.5 158t-52 128.5t-71.5 86t-82 31.5q-38 0 -72 -19t-60 -51t-41.5 -74.5t-15.5 -88.5
q0 -47 17 -84.5t48 -64.5t74 -41.5t94 -14.5q110 0 184 34zM880 847h-110v105h110v-105zM1078 847h-110v105h110v-105z" />
    <glyph glyph-name="uniFED7" unicode="&#x642;" horiz-adv-x="847" arabic-form="initial" 
d="M367 96q-97 50 -155 118.5t-58 154.5q0 67 23.5 132t61.5 116.5t86.5 83.5t98.5 32q51 0 107.5 -37.5t104.5 -104.5q42 -58 66.5 -127.5t24.5 -135.5q0 -80 -29 -143t-91 -107.5t-159.5 -68t-235.5 -23.5h-212q-70 0 -70 49q0 22 18 34.5t52 12.5h134q27 0 58 0.5l62 1
t59.5 2t51.5 3.5zM643 324q0 51 -21 106.5t-54 101.5t-73.5 75.5t-79.5 29.5q-30 0 -61.5 -24t-57 -62.5t-42 -85t-16.5 -91.5q0 -66 62 -130t195 -129q31 12 58.5 33t47 48t31 59.5t11.5 68.5zM341 924h-110v105h110v-105zM539 924h-110v105h110v-105z" />
    <glyph glyph-name="uniFED8" unicode="&#x642;" horiz-adv-x="847" arabic-form="medial" 
d="M375 95q-50 22 -91 51.5t-70 64.5t-44.5 75t-15.5 83q0 67 23.5 132t61.5 116.5t86.5 83.5t98.5 32q51 0 107.5 -37.5t104.5 -104.5q42 -58 66.5 -128t24.5 -139q0 -70 -30 -129.5t-96 -103.5q18 -3 37 -4.5t46 -2.5t66 -1.5t97 -0.5v-96h-32q-96 0 -172.5 12t-141.5 38
q-57 -25 -144.5 -37.5t-202.5 -12.5h-154q-70 0 -70 49q0 22 18 34.5t52 12.5h177q73 0 123.5 2t72.5 4zM643 324q0 51 -21 106.5t-54 101.5t-73.5 75.5t-79.5 29.5q-30 0 -61.5 -24t-57 -62.5t-42 -85t-16.5 -91.5q0 -67 62 -134t195 -126q69 29 108.5 84.5t39.5 125.5z
M341 924h-110v105h110v-105zM539 924h-110v105h110v-105z" />
    <glyph glyph-name="uniFED6" unicode="&#x642;" horiz-adv-x="1386" arabic-form="final" 
d="M1007 -14q-86 0 -150 24.5t-106.5 65t-64 93t-21.5 109.5q0 61 23.5 121.5t63 108.5t91.5 78t109 30q79 0 136.5 -49t101.5 -131q20 -38 34.5 -82.5t24 -91.5t14.5 -93.5t5 -86.5h118v-96h-120q-12 -127 -46.5 -213t-103 -138t-175.5 -74.5t-263 -22.5q-524 0 -524 440
q0 63 7.5 133t21.5 148h78q-11 -75 -17 -137.5t-6 -116.5q0 -96 25 -166.5t80 -116t140.5 -67.5t207.5 -22q126 0 215.5 14t147.5 53t88 108t38 178h-173zM1140 322q-16 43 -37 79.5t-45.5 62.5t-52 41t-56.5 15q-38 0 -72 -19t-60 -51t-41.5 -74.5t-15.5 -88.5
q0 -97 61.5 -151t179.5 -54h178q0 24 -2 53.5t-6.5 61.5t-12 64t-18.5 61zM880 847h-110v105h110v-105zM1078 847h-110v105h110v-105z" />
    <glyph glyph-name="afii57443" unicode="&#x643;" horiz-adv-x="1617" arabic-form="isolated" 
d="M264 539q-11 -37 -18.5 -83t-7.5 -97q0 -78 25 -127t70 -78q28 -19 65.5 -32.5t98.5 -22.5t151 -13t224 -4q144 0 241 12t156.5 42t84.5 81.5t25 130.5v1163h84v-1174q0 -100 -34.5 -167.5t-108.5 -108t-190.5 -58t-281.5 -17.5q-138 0 -231 5t-157 16.5t-105 28.5
t-75 41q-60 42 -93 106t-33 158q0 48 7.5 100.5t21.5 97.5h81zM670 677q61 0 104.5 9t71.5 22.5t41.5 29.5t13.5 30q0 7 -3.5 14.5t-13 16t-27.5 20t-47 27.5q-51 28 -72.5 53.5t-21.5 54.5q0 27 16.5 54.5t51 51.5t88.5 43t129 29v-77q-58 -8 -97.5 -18.5t-64 -22.5
t-35.5 -24t-11 -22q0 -9 3 -16.5t12 -16t25.5 -19t42.5 -25.5q57 -33 79.5 -60.5t22.5 -56.5q0 -35 -19.5 -65.5t-58 -53.5t-96.5 -37.5t-134 -17.5v77z" />
    <glyph glyph-name="uniFEDB" unicode="&#x643;" horiz-adv-x="924" arabic-form="initial" 
d="M0 -14q-50 0 -50 47q0 23 12.5 36t37.5 13h283q120 0 198 16t123.5 46t63.5 73t18 97q0 60 -31.5 120t-109.5 127.5t-210.5 144.5t-334.5 171v115l847 548v-106l-770 -496q147 -69 255.5 -129.5t185.5 -114.5t126 -103.5t77 -96t38.5 -91t10.5 -89.5q0 -161 -112 -244.5
t-344 -83.5h-314z" />
    <glyph glyph-name="uniFEDC" unicode="&#x643;" horiz-adv-x="1001" arabic-form="medial" 
d="M0 -14q-23 0 -36.5 12.5t-13.5 35.5q0 17 12 32.5t38 15.5h283q107 0 183.5 14.5t125 43t71.5 72t23 102.5q0 60 -31.5 120t-109.5 127.5t-210.5 144.5t-334.5 171v115l847 548v-106l-770 -496q147 -69 253.5 -127t181.5 -109.5t122.5 -98t76 -92.5t42.5 -93t22 -99
q10 -67 25 -112.5t41 -73t64.5 -39.5t95.5 -12v-96h-22q-89 0 -155.5 41.5t-95.5 126.5h-3q-47 -79 -149.5 -123.5t-261.5 -44.5h-314v0z" />
    <glyph glyph-name="uniFEDA" unicode="&#x643;" horiz-adv-x="1694" arabic-form="final" 
d="M264 539q-11 -37 -18.5 -83t-7.5 -97q0 -77 25.5 -126.5t69.5 -78.5q28 -19 66 -32.5t98.5 -22.5t150.5 -13t224 -4q146 0 243.5 13.5t156 45t83 82t24.5 125.5v1163h84v-1181q0 -129 58 -188.5t173 -59.5v-96h-28q-42 0 -81.5 10.5t-73 31.5t-58.5 52.5t-37 73.5h-3
q-30 -47 -76.5 -79t-114 -51.5t-160 -28.5t-214.5 -9q-138 0 -231 5t-157 16.5t-105 28.5t-75 41q-59 42 -92.5 106.5t-33.5 157.5q0 47 7.5 100t21.5 98h81zM670 677q61 0 104.5 9t71.5 22.5t41.5 29.5t13.5 30q0 7 -3.5 14.5t-13 16t-27.5 20t-47 27.5q-51 28 -72.5 53.5
t-21.5 54.5q0 27 16.5 54.5t51 51.5t88.5 43t129 29v-77q-58 -8 -97.5 -18.5t-64 -22.5t-35.5 -24t-11 -22q0 -9 3 -16.5t12 -16t25.5 -19t42.5 -25.5q57 -33 79.5 -60.5t22.5 -56.5q0 -35 -19.5 -65.5t-58 -53.5t-96.5 -37.5t-134 -17.5v77z" />
    <glyph glyph-name="afii57444" unicode="&#x644;" horiz-adv-x="1309" arabic-form="isolated" 
d="M264 353q-15 -66 -20.5 -123t-5.5 -108q0 -94 22 -163t70 -114t122.5 -67t179.5 -22q114 0 197 23.5t136.5 73.5t79.5 127t26 185v1351h84v-1343q0 -135 -33 -232.5t-99.5 -159.5t-167.5 -91.5t-237 -29.5q-109 0 -195 27.5t-146 82.5t-91.5 138t-31.5 194q0 57 8 119.5
t24 131.5h78z" />
    <glyph glyph-name="uniFEDF" unicode="&#x644;" horiz-adv-x="539" arabic-form="initial" 
d="M76 82q63 0 106.5 11t69.5 36.5t37.5 67.5t11.5 103v1216h84v-1229q0 -80 -18 -137t-56 -93.5t-96 -53.5t-138 -17h-77q-35 0 -52.5 8t-17.5 40t17.5 40t52.5 8h76z" />
    <glyph glyph-name="uniFEE0" unicode="&#x644;" horiz-adv-x="539" arabic-form="medial" 
d="M385 254q0 -49 9.5 -82t28.5 -53t48 -28.5t68 -8.5v-96h-32q-59 0 -101.5 24t-65.5 72h-4q-26 -45 -71 -70.5t-111 -25.5h-154q-35 0 -52.5 8t-17.5 40q0 27 17.5 37.5t52.5 10.5h130q89 0 130 39t41 134v1261h84v-1262z" />
    <glyph glyph-name="uniFEDE" unicode="&#x644;" horiz-adv-x="1309" arabic-form="final" 
d="M264 353q-15 -66 -20.5 -123t-5.5 -108q0 -94 22 -163t70 -114t122.5 -67t179.5 -22q114 0 197 24t136.5 75.5t79.5 132.5t26 195v1333h84v-1225q0 -59 9.5 -98.5t29 -64.5t48.5 -35.5t67 -10.5v-96h-29q-43 0 -78.5 18t-54.5 53h-4q-11 -93 -47.5 -166.5t-101 -124.5
t-158 -78.5t-218.5 -27.5q-109 0 -195 27.5t-146 82.5t-91.5 138t-31.5 194q0 57 8 119.5t24 131.5h78z" />
    <glyph glyph-name="afii57445" unicode="&#x645;" horiz-adv-x="1078" arabic-form="isolated" 
d="M314 140q20 123 56.5 212.5t84.5 148t105 87t118 28.5q64 0 116.5 -27t90 -72.5t58.5 -105t21 -123.5q0 -59 -17.5 -113.5t-53 -96.5t-89 -67t-125.5 -25q-56 0 -104.5 9.5t-93 20.5l-86.5 20.5t-83 9.5q-36 0 -64 -15t-47.5 -40.5t-29.5 -60t-10 -74.5q0 -38 5.5 -84.5
t15.5 -96t22.5 -98t26.5 -90.5h-100q-27 103 -40.5 196.5t-13.5 162.5q0 131 56.5 203.5t180.5 90.5zM662 82q102 0 157 50t55 149q0 58 -17 102.5t-45.5 75t-65 46t-75.5 15.5q-48 0 -92 -24t-79.5 -73.5t-60.5 -124.5t-36 -177q35 -5 66 -11.5l62 -12.5t63 -10.5t68 -4.5z
" />
    <glyph glyph-name="uniFEE3" unicode="&#x645;" horiz-adv-x="1078" arabic-form="initial" 
d="M0 -14q-70 0 -70 49q0 22 18 34.5t52 12.5h26q41 0 78 10.5t72 39.5t68.5 79.5t67.5 130.5q32 75 69 127t79.5 84.5t90 47.5t101.5 15q57 0 109.5 -24t93 -67t64.5 -102.5t24 -129.5q0 -62 -19 -117.5t-56.5 -97.5t-92 -67t-125.5 -25q-48 0 -96 12.5t-92.5 34.5t-84 53
t-69.5 68q-51 -80 -121.5 -124t-167.5 -44h-19zM355 231q23 -32 55 -59.5t71 -47.5t83.5 -31t91.5 -11q42 0 77 13t60.5 39.5t39.5 66t14 92.5t-16.5 95t-45.5 71.5t-67.5 45.5t-83.5 16q-79 0 -152 -70t-127 -220z" />
    <glyph glyph-name="uniFEE4" unicode="&#x645;" horiz-adv-x="1155" arabic-form="medial" 
d="M1155 -14h-19q-183 0 -238 141h-5q-12 -28 -34 -53.5t-52.5 -45t-69.5 -31t-85 -11.5q-48 0 -96.5 12.5t-93.5 34.5t-84.5 53t-69.5 68q-56 -87 -125 -127.5t-164 -40.5h-19q-70 0 -70 49q0 22 18 34.5t52 12.5h20q43 0 81.5 10.5t74 39.5t69 79.5t67.5 130.5
q32 74 69 126t79.5 85t90 48t101.5 15q57 0 109 -24.5t92.5 -69.5t65 -108t24.5 -141q1 -92 55 -141.5t157 -49.5v-96zM355 231q23 -32 55 -59.5t71 -47.5t83 -31t92 -11q42 0 77 13t60.5 39t39.5 65.5t14 93.5q0 53 -16.5 95t-45.5 71.5t-67.5 45.5t-83.5 16
q-79 0 -152 -70t-127 -220z" />
    <glyph glyph-name="uniFEE2" unicode="&#x645;" horiz-adv-x="1155" arabic-form="final" 
d="M314 140q20 123 56.5 212.5t84.5 148t105 87t118 28.5q64 0 117 -27t90.5 -72.5t58 -105t20.5 -123.5q0 -60 10.5 -99.5t33.5 -63t59.5 -33.5t87.5 -10v-96h-22q-81 0 -134 29.5t-86 83.5h-4q-35 -50 -91 -81.5t-139 -31.5q-56 0 -104.5 9.5t-93 20.5l-86.5 20.5t-83 9.5
q-36 0 -64 -15t-47.5 -40.5t-29.5 -60t-10 -74.5q0 -38 5.5 -84.5t15.5 -96t22.5 -98t26.5 -90.5h-100q-27 103 -40.5 196.5t-13.5 162.5q0 131 56.5 203.5t180.5 90.5zM403 121q35 -5 67.5 -11.5l64.5 -12.5t63.5 -10.5t63.5 -4.5q102 0 157 49.5t55 149.5q0 58 -17 102.5
t-45.5 75t-65 46t-75.5 15.5q-48 0 -92 -24t-79.5 -73.5t-60.5 -124.5t-36 -177z" />
    <glyph glyph-name="afii57446" unicode="&#x646;" horiz-adv-x="1232" arabic-form="isolated" 
d="M1029 425q22 -88 35.5 -174.5t13.5 -187.5q0 -139 -33.5 -238.5t-95.5 -163t-150.5 -93.5t-197.5 -30q-214 0 -330.5 109.5t-116.5 332.5q0 57 8 119.5t24 131.5h78q-15 -66 -20.5 -123t-5.5 -108q0 -94 21 -163t66.5 -114t117 -67t172.5 -22q89 0 159.5 23t119 72.5
t74.5 127t26 185.5q0 82 -12.5 179.5t-35.5 203.5h83zM693 588h-110v105h110v-105z" />
    <glyph glyph-name="uniFEE7" unicode="&#x646;" horiz-adv-x="539" arabic-form="initial" 
d="M385 693v-362q0 -93 -22 -159t-62 -107t-97 -60t-126 -19h-78q-34 0 -52 12.5t-18 35.5t18 35.5t52 12.5h77q57 0 99 13t70 42t41.5 75.5t13.5 112.5v368h84zM398 847h-110v105h110v-105z" />
    <glyph glyph-name="uniFEE8" unicode="&#x646;" horiz-adv-x="616" arabic-form="medial" 
d="M385 268q0 -49 12.5 -84t40 -57.5t71.5 -33.5t107 -11v-96h-48q-38 0 -73 9.5t-65 26t-53 40t-35 51.5h-4q-25 -56 -81 -91.5t-146 -35.5h-111q-34 0 -52 12.5t-18 35.5t18 35.5t52 12.5h96q103 0 154 43.5t51 142.5v425h84v-425zM398 847h-110v105h110v-105z" />
    <glyph glyph-name="uniFEE6" unicode="&#x646;" horiz-adv-x="1271" arabic-form="final" 
d="M1029 425q9 -38 18 -81.5t17 -102.5q12 -81 62.5 -120t144.5 -39v-96h-23q-54 0 -98 19t-67 51q-2 0 -2.5 -0.5t-2.5 -0.5q0 -136 -33.5 -233.5t-95.5 -160.5t-150.5 -93t-197.5 -30q-214 0 -330.5 109.5t-116.5 332.5q0 57 8 119.5t24 131.5h78q-15 -66 -20.5 -123
t-5.5 -108q0 -94 21 -163t66.5 -114t117 -67t172.5 -22q89 0 159.5 23t119 72.5t74.5 127t26 185.5q0 82 -12.5 179.5t-35.5 203.5h83zM693 588h-110v105h110v-105z" />
    <glyph glyph-name="afii57470" unicode="&#x647;" horiz-adv-x="1001" arabic-form="isolated" 
d="M364 969q126 -84 214 -165.5t143.5 -161.5t80.5 -159t25 -158q0 -80 -26 -144t-72.5 -108.5t-109.5 -68.5t-136 -24q-70 0 -130 23.5t-104.5 67t-69.5 103.5t-25 134q0 66 19.5 133t57.5 130.5t94 122.5t130 109q-10 10 -26.5 23t-36 27l-39 27.5l-34.5 23.5zM238 324
q0 -60 18 -106t51.5 -77.5t80.5 -48t105 -16.5q54 0 100 16.5t79 48t52 77t19 104.5q0 125 -59.5 236t-171.5 196q-68 -44 -119 -95.5t-85.5 -107t-52 -113.5t-17.5 -114z" />
    <glyph glyph-name="uniFEEB" unicode="&#x647;" horiz-adv-x="1232" arabic-form="initial" 
d="M282 997q228 -126 380.5 -235t245 -204t131.5 -177.5t39 -154.5q0 -47 -13.5 -90.5t-36.5 -76.5t-54 -53t-65 -20q-43 0 -93 5.5t-102 16.5t-104.5 27t-101.5 37q-37 -25 -71 -41.5t-76 -26.5t-96.5 -14t-132.5 -4h-132q-25 0 -37.5 13.5t-12.5 36.5q0 46 50 46h154
q88 0 151.5 10.5t100.5 27.5v3q-127 65 -189.5 142.5t-62.5 173.5q0 51 20.5 107t57 107t87.5 90.5t113 56.5q0 1 0.5 2.5t0.5 3.5l-75.5 39.5l-75.5 39.5v112zM482 183q65 59 96 126.5t31 152.5q0 61 -11.5 109t-30.5 81.5t-42.5 51t-47.5 17.5q-23 0 -49.5 -11.5t-53 -31
t-51.5 -46t-43.5 -56.5t-30 -62.5t-11.5 -64.5q0 -38 13.5 -71t43 -65t76 -64t111.5 -66zM663 644q14 -35 22 -85.5t8 -108.5q0 -83 -30.5 -162t-86.5 -142q33 -14 75.5 -26t90.5 -20.5t99 -13t102 -4.5q23 25 37 60.5t14 73.5q0 45 -22 96.5t-64 107t-102.5 113.5
t-137.5 116z" />
    <glyph glyph-name="uniFEEC" unicode="&#x647;" horiz-adv-x="925" arabic-form="medial" 
d="M154 82q11 95 33.5 183t54 164.5t70 139t80.5 107.5t86 69.5t86 24.5q37 0 74 -22t66.5 -63t47.5 -99t18 -129q0 -117 -48.5 -212.5t-128.5 -155.5q2 -6 2 -7h330v-96h-315l-1 -6q39 -21 69 -51t50.5 -65.5t31 -75.5t10.5 -80q0 -48 -14.5 -88.5t-41.5 -70t-65.5 -46
t-86.5 -16.5q-78 0 -149.5 36t-127.5 101.5t-91 157.5t-40 204h-154q-23 0 -36.5 13t-13.5 36t13.5 35t36.5 12h154zM385 82q58 0 112 28.5t96 77.5t67.5 114t25.5 139q0 50 -12.5 93t-32 74t-44 48.5t-48.5 17.5q-40 0 -89 -47.5t-94 -128.5t-80.5 -188.5t-47.5 -227.5h147
zM238 -14q3 -91 29 -165.5t68.5 -127t98 -81.5t118.5 -29t98.5 36.5t35.5 103.5q0 49 -23 96.5t-63 84.5t-95.5 59.5t-119.5 22.5h-147z" />
    <glyph glyph-name="uniFEEA" unicode="&#x647;" horiz-adv-x="924" arabic-form="final" 
d="M683 905h87v-597q0 -66 8.5 -109.5t27.5 -69.5t48 -36.5t70 -10.5v-96h-22q-48 0 -87.5 17t-68 48.5t-44 75.5t-15.5 98q-45 -20 -105 -34t-129 -14q-68 0 -123 16t-94 46.5t-60.5 74t-21.5 97.5q0 65 30 125.5t94 111t164 88.5t241 58v111zM240 426q0 -77 55 -120
t167 -43q69 0 128 14t93 31v402q-112 -14 -195 -41.5t-138 -65t-82.5 -83t-27.5 -94.5z" />
    <glyph glyph-name="afii57448" unicode="&#x648;" horiz-adv-x="847" arabic-form="isolated" 
d="M0 -327q25 -9 57.5 -16t69 -12.5t76 -8t78.5 -2.5q90 0 154.5 20.5t107.5 66.5t66 121t30 184q-42 -19 -95.5 -29.5t-107.5 -10.5q-62 0 -119.5 21.5t-101 60.5t-69.5 92.5t-26 117.5q0 61 23.5 121.5t63 108.5t91.5 78t109 30q79 0 136.5 -49t101.5 -131
q44 -83 61 -181.5t17 -195.5q0 -139 -29 -237.5t-85 -161.5t-138.5 -92.5t-189.5 -29.5q-82 0 -157.5 12.5t-123.5 32.5v90zM632 116q-2 84 -22.5 158t-52 128.5t-71.5 86t-82 31.5q-38 0 -72 -19t-60 -51t-41.5 -74.5t-15.5 -88.5q0 -47 17 -84.5t48 -64.5t74 -41.5
t94 -14.5q110 0 184 34z" />
    <glyph glyph-name="uniFEEE" unicode="&#x648;" horiz-adv-x="847" arabic-form="final" 
d="M0 -327q25 -9 57.5 -16t69 -12.5t76 -8t78.5 -2.5q75 0 130 12.5t94.5 40t65.5 72t44 109.5q5 19 10.5 49.5t9.5 68.5h-173q-86 0 -150 24.5t-106.5 65t-64 93t-21.5 109.5q0 61 23.5 121.5t63 108.5t91.5 78t109 30q79 0 136.5 -49t101.5 -131q20 -38 34.5 -82.5
t24 -91.5t14 -93.5t5.5 -86.5h124v-96h-126q-9 -120 -40 -205t-85.5 -139t-132.5 -79t-182 -25q-82 0 -157.5 12.5t-123.5 32.5v90zM594 323q-16 43 -36.5 79t-45 62t-52 41t-56.5 15q-38 0 -72 -19t-60 -51t-41.5 -74.5t-15.5 -88.5q0 -47 17.5 -84.5t50.5 -64.5t80 -41.5
t107 -14.5h164q0 24 -2 53.5t-7 61.5t-12.5 64.5t-18.5 61.5z" />
    <glyph glyph-name="afii57449" unicode="&#x649;" horiz-adv-x="1463" arabic-form="isolated" 
d="M635 -98q-243 0 -362 105t-119 309q0 78 22 162t54 155h78q-36 -81 -53 -153t-17 -144q0 -86 23.5 -149.5t74 -105.5t128 -62.5t185.5 -20.5q126 0 227 21.5t172 58t109.5 84t38.5 99.5q0 34 -15 59.5t-39.5 46.5t-56 38.5l-64 35.5t-64 37.5t-56 45t-39.5 58t-15 76.5
q0 67 36.5 122.5t102.5 97.5t157.5 70.5t201.5 42.5v-90q-105 -8 -182.5 -31t-129 -55.5t-77 -72t-25.5 -78.5q0 -43 26 -72t64.5 -52.5t84 -46t84 -51.5t64.5 -69t26 -98q0 -74 -43 -141t-125.5 -119t-202.5 -82.5t-274 -30.5z" />
    <glyph glyph-name="uniFBE8" unicode="&#x649;" horiz-adv-x="539" arabic-form="initial" 
d="M385 693v-362q0 -93 -22 -159t-62 -107t-97 -60t-126 -19h-78q-34 0 -52 12.5t-18 35.5t18 35.5t52 12.5h77q57 0 99 13t70 42t41.5 75.5t13.5 112.5v368h84z" />
    <glyph glyph-name="uniFBE9" unicode="&#x649;" horiz-adv-x="616" arabic-form="medial" 
d="M385 268q0 -49 12.5 -84t40 -57.5t71.5 -33.5t107 -11v-96h-48q-38 0 -73 9.5t-65 26t-53 40t-35 51.5h-4q-25 -56 -81 -91.5t-146 -35.5h-111q-34 0 -52 12.5t-18 35.5t18 35.5t52 12.5h96q103 0 154 43.5t51 142.5v425h84v-425z" />
    <glyph glyph-name="uniFEF0" unicode="&#x649;" horiz-adv-x="1694" arabic-form="final" 
d="M270 493q-14 -64 -23 -119.5t-9 -117.5q0 -102 25.5 -179t82.5 -128.5t150 -77.5t228 -26q98 0 174 13t127.5 35.5t78.5 54t27 68.5q0 27 -11.5 48t-28.5 40.5t-37.5 38.5t-37.5 41t-28.5 49.5t-11.5 63.5q0 44 17 82t45.5 66t66 44t78.5 16q39 0 71.5 -12t61.5 -38.5
t55.5 -67t52.5 -97.5q30 -65 55 -106t54 -63.5t67 -30.5t94 -8v-96h-22q-56 0 -101 12.5t-82.5 41t-69.5 75.5t-62 115q-23 52 -42 87t-38.5 57t-40.5 31.5t-47 9.5q-27 0 -51 -9t-41 -24.5t-27 -35.5t-10 -42q0 -25 11.5 -46t28.5 -40.5t37.5 -39.5t37.5 -42t28.5 -48.5
t11.5 -59.5q0 -57 -32 -108t-97 -89t-164 -60t-233 -22q-140 0 -241 31.5t-166.5 93.5t-96.5 153t-31 211q0 63 9 124.5t26 130.5h81z" />
    <glyph glyph-name="afii57450" unicode="&#x64a;" horiz-adv-x="1463" arabic-form="isolated" 
d="M635 -98q-243 0 -362 105t-119 309q0 78 22 162t54 155h78q-36 -81 -53 -153t-17 -144q0 -86 23.5 -149.5t74 -105.5t128 -62.5t185.5 -20.5q126 0 227 21.5t172 58t109.5 84t38.5 99.5q0 34 -15 59.5t-39.5 46.5t-56 38.5l-64 35.5t-64 37.5t-56 45t-39.5 58t-15 76.5
q0 67 36.5 122.5t102.5 97.5t157.5 70.5t201.5 42.5v-90q-105 -8 -182.5 -31t-129 -55.5t-77 -72t-25.5 -78.5q0 -43 26 -72t64.5 -52.5t84 -46t84 -51.5t64.5 -69t26 -98q0 -74 -43 -141t-125.5 -119t-202.5 -82.5t-274 -30.5zM649 -412h-110v105h110v-105zM847 -412h-110
v105h110v-105z" />
    <glyph glyph-name="uniFEF3" unicode="&#x64a;" horiz-adv-x="539" arabic-form="initial" 
d="M385 693v-362q0 -93 -22 -159t-62 -107t-97 -60t-126 -19h-78q-34 0 -52 12.5t-18 35.5t18 35.5t52 12.5h77q57 0 99 13t70 42t41.5 75.5t13.5 112.5v368h84zM264 -307h-110v105h110v-105zM462 -307h-110v105h110v-105z" />
    <glyph glyph-name="uniFEF4" unicode="&#x64a;" horiz-adv-x="616" arabic-form="medial" 
d="M385 268q0 -49 12.5 -84t40 -57.5t71.5 -33.5t107 -11v-96h-48q-38 0 -73 9.5t-65 26t-53 40t-35 51.5h-4q-25 -56 -81 -91.5t-146 -35.5h-111q-34 0 -52 12.5t-18 35.5t18 35.5t52 12.5h96q103 0 154 43.5t51 142.5v425h84v-425zM297 -307h-110v105h110v-105zM495 -307
h-110v105h110v-105z" />
    <glyph glyph-name="uniFEF2" unicode="&#x64a;" horiz-adv-x="1694" arabic-form="final" 
d="M270 493q-14 -64 -23 -119.5t-9 -117.5q0 -102 25.5 -179t82.5 -128.5t150 -77.5t228 -26q98 0 174 13t127.5 35.5t78.5 54t27 68.5q0 27 -11.5 48t-28.5 40.5t-37.5 38.5t-37.5 41t-28.5 49.5t-11.5 63.5q0 44 17 82t45.5 66t66 44t78.5 16q39 0 71.5 -12t61.5 -38.5
t55.5 -67t52.5 -97.5q30 -65 55 -106t54 -63.5t67 -30.5t94 -8v-96h-22q-56 0 -101 12.5t-82.5 41t-69.5 75.5t-62 115q-23 52 -42 87t-38.5 57t-40.5 31.5t-47 9.5q-27 0 -51 -9t-41 -24.5t-27 -35.5t-10 -42q0 -25 11.5 -46t28.5 -40.5t37.5 -39.5t37.5 -42t28.5 -48.5
t11.5 -59.5q0 -57 -32 -108t-97 -89t-164 -60t-233 -22q-140 0 -241 31.5t-166.5 93.5t-96.5 153t-31 211q0 63 9 124.5t26 130.5h81zM682 -535h-110v105h110v-105zM880 -535h-110v105h110v-105z" />
    <glyph glyph-name="uni0671" unicode="&#x671;" horiz-adv-x="385" arabic-form="isolated" 
d="M154 1516h84v-1516h-84v1516zM-77 1738q36 29 70.5 44.5t71.5 15.5q12 0 22 -2t22 -5q39 113 95.5 165t126.5 52q38 0 67.5 -13t50 -35t31.5 -51t11 -61q0 -37 -13.5 -70t-37.5 -58t-58 -39.5t-74 -14.5q-41 0 -75 8.5t-64 19l-56 19t-50 8.5q-20 0 -47.5 -11.5
t-53.5 -32.5zM300 1743q57 0 85.5 30.5t28.5 74.5q0 38 -26.5 60.5t-63.5 22.5q-96 0 -154 -160q29 -13 62 -20.5t68 -7.5z" />
    <glyph glyph-name="uniFB51" unicode="&#x671;" horiz-adv-x="462" arabic-form="final" 
d="M462 -14h-20q-149 0 -218.5 71.5t-69.5 211.5v1247h84v-1188q0 -76 11 -124t37 -75t69 -37t107 -10v-96zM-77 1738q36 29 70.5 44.5t71.5 15.5q12 0 22 -2t22 -5q39 113 95.5 165t126.5 52q38 0 67.5 -13t50 -35t31.5 -51t11 -61q0 -37 -13.5 -70t-37.5 -58t-58 -39.5
t-74 -14.5q-41 0 -75 8.5t-64 19l-56 19t-50 8.5q-20 0 -47.5 -11.5t-53.5 -32.5zM300 1743q57 0 85.5 30.5t28.5 74.5q0 38 -26.5 60.5t-63.5 22.5q-96 0 -154 -160q29 -13 62 -20.5t68 -7.5z" />
    <glyph glyph-name="uni0672.fina" unicode="&#x672;" horiz-adv-x="462" 
d="M462 -14h-20q-149 0 -218.5 71.5t-69.5 211.5v1247h84v-1188q0 -76 11 -124t37 -75t69 -37t107 -10v-96zM-48 1673v65q21 21 41 32t43 11q17 0 31.5 -6.5l31 -14t36.5 -13.5t47 -6l1 5q-23 19 -39 49t-16 67q0 34 14 63.5t39.5 51.5t61 35t78.5 13q31 0 64 -6v-78
q-13 3 -27.5 5t-30.5 2q-26 0 -49.5 -7t-41 -20t-27.5 -32t-10 -42q0 -48 35 -74t96 -26h102v-77h-218q-42 0 -69 7.5t-46 16t-33 16t-30 7.5q-19 0 -38.5 -12t-42.5 -33z" />
    <glyph glyph-name="uni0673.fina" unicode="&#x673;" horiz-adv-x="462" 
d="M462 -14h-20q-149 0 -218.5 71.5t-69.5 211.5v1247h84v-1188q0 -76 11 -124t37 -75t69 -37t107 -10v-96zM-48 -501v65q21 21 41 32t43 11q17 0 31.5 -6.5l31 -14t36.5 -13.5t47 -6l1 5q-23 19 -39 49t-16 67q0 34 14 63.5t39.5 51.5t61 35t78.5 13q31 0 64 -6v-78
q-13 3 -27.5 5t-30.5 2q-26 0 -49.5 -7t-41 -20t-27.5 -32t-10 -42q0 -48 35 -74t96 -26h102v-77h-218q-42 0 -69 7.5t-46 16t-33 16t-30 7.5q-19 0 -38.5 -12t-42.5 -33z" />
    <glyph glyph-name="uni0675.fina" unicode="&#x675;" horiz-adv-x="770" 
d="M462 -14h-20q-149 0 -218.5 71.5t-69.5 211.5v1247h84v-1188q0 -76 11 -124t37 -75t69 -37t107 -10v-96zM770 -14h-308q-35 0 -52.5 13t-17.5 36q0 47 70 47h308v-96zM646 1427q-13 3 -27.5 5t-30.5 2q-27 0 -50 -7t-40 -20.5t-27 -32t-10 -42.5q0 -48 34 -73.5t96 -25.5
h102v-77h-345v71h95l1 5q-23 19 -39 49t-16 67q0 34 14 63.5t39.5 51.5t61 35t78.5 13q31 0 64 -6v-78z" />
    <glyph glyph-name="uni066E.init" unicode="&#x66e;" horiz-adv-x="539" 
d="M385 693v-362q0 -93 -22 -159t-62 -107t-97 -60t-126 -19h-78q-34 0 -52 12.5t-18 35.5t18 35.5t52 12.5h77q57 0 99 13t70 42t41.5 75.5t13.5 112.5v368h84z" />
    <glyph glyph-name="uni066E.medi" unicode="&#x66e;" horiz-adv-x="616" 
d="M385 268q0 -49 12.5 -84t40 -57.5t71.5 -33.5t107 -11v-96h-48q-38 0 -73 9.5t-65 26t-53 40t-35 51.5h-4q-25 -56 -81 -91.5t-146 -35.5h-111q-34 0 -52 12.5t-18 35.5t18 35.5t52 12.5h96q103 0 154 43.5t51 142.5v425h84v-425z" />
    <glyph glyph-name="uni066E.fina" unicode="&#x66e;" horiz-adv-x="1848" 
d="M1617 693v-425q0 -99 55.5 -142.5t175.5 -43.5v-96h-31q-96 0 -159 35t-93 102h-4q-32 -36 -77.5 -63t-118.5 -45.5t-180 -27.5t-261 -9q-150 0 -257 6.5t-182 19.5t-123.5 31.5t-81.5 41.5q-59 42 -92.5 106.5t-33.5 157.5q0 47 7.5 100t21.5 98h81q-11 -37 -18.5 -83
t-7.5 -97q0 -77 25.5 -126.5t69.5 -78.5q28 -19 74.5 -34t119.5 -25t178 -15.5t252 -5.5q117 0 205 4.5t152 16t106.5 30t67.5 46t35 66t10 88.5v368h84z" />
    <glyph glyph-name="afii57511" unicode="&#x679;" horiz-adv-x="1771" arabic-form="isolated" 
d="M264 539q-11 -37 -18.5 -83t-7.5 -97q0 -77 25.5 -126.5t69.5 -78.5q28 -19 74.5 -34t119.5 -25t178 -15.5t252 -5.5q170 0 281.5 12.5t177 41.5t91.5 77.5t26 119.5v368h84v-360q0 -94 -31.5 -161.5t-110.5 -110.5t-213 -63t-338 -20q-150 0 -257 6.5t-182 19.5
t-123.5 31.5t-81.5 41.5q-59 42 -92.5 106.5t-33.5 157.5q0 47 7.5 100t21.5 98h81zM609 929q24 -2 53.5 -3.5t51.5 -1.5v462h77v-336l3 -1q39 66 93.5 100t114.5 34q35 0 63.5 -14.5t48.5 -38.5t31 -55.5t11 -65.5q0 -53 -14.5 -85t-47 -49t-84.5 -22.5t-127 -5.5
q-50 0 -88 0.5t-68.5 1t-55.5 2t-49 3.5zM907 924q51 0 84 2t52.5 11t27.5 27t8 50q0 41 -28 66.5t-68 25.5q-27 0 -55 -12.5t-54 -35.5t-49 -57t-39 -77h121z" />
    <glyph glyph-name="uniFB68" unicode="&#x679;" horiz-adv-x="617" arabic-form="initial" 
d="M385 693v-362q0 -93 -22 -159t-62 -107t-97 -60t-126 -19h-78q-34 0 -52 12.5t-18 35.5t18 35.5t52 12.5h77q57 0 99 13t70 42t41.5 75.5t13.5 112.5v368h84zM48 1007q24 -2 53.5 -3.5t51.5 -1.5v462h77v-336l3 -1q39 66 93.5 100t114.5 34q35 0 63.5 -14.5t48.5 -38.5
t31 -55.5t11 -65.5q0 -53 -14.5 -85t-47 -49t-84.5 -22.5t-127 -5.5q-50 0 -88 0.5t-68.5 1t-55.5 2t-49 3.5zM346 1002q51 0 84 2t52.5 11t27.5 27t8 50q0 41 -28 66.5t-68 25.5q-27 0 -55 -12.5t-54 -35.5t-49 -57t-39 -77h121z" />
    <glyph glyph-name="uniFB69" unicode="&#x679;" horiz-adv-x="616" arabic-form="medial" 
d="M385 268q0 -49 12.5 -84t40 -57.5t71.5 -33.5t107 -11v-96h-48q-38 0 -73 9.5t-65 26t-53 40t-35 51.5h-4q-25 -56 -81 -91.5t-146 -35.5h-111q-34 0 -52 12.5t-18 35.5t18 35.5t52 12.5h96q103 0 154 43.5t51 142.5v425h84v-425zM48 1007q24 -2 53.5 -3.5t51.5 -1.5v462
h77v-336l3 -1q39 66 93.5 100t114.5 34q35 0 63.5 -14.5t48.5 -38.5t31 -55.5t11 -65.5q0 -53 -14.5 -85t-47 -49t-84.5 -22.5t-127 -5.5q-50 0 -88 0.5t-68.5 1t-55.5 2t-49 3.5zM346 1002q51 0 84 2t52.5 11t27.5 27t8 50q0 41 -28 66.5t-68 25.5q-27 0 -55 -12.5
t-54 -35.5t-49 -57t-39 -77h121z" />
    <glyph glyph-name="uniFB67" unicode="&#x679;" horiz-adv-x="1848" arabic-form="final" 
d="M1617 693v-425q0 -99 55.5 -142.5t175.5 -43.5v-96h-31q-96 0 -159 35t-93 102h-4q-32 -36 -77.5 -63t-118.5 -45.5t-180 -27.5t-261 -9q-150 0 -257 6.5t-182 19.5t-123.5 31.5t-81.5 41.5q-59 42 -92.5 106.5t-33.5 157.5q0 47 7.5 100t21.5 98h81q-11 -37 -18.5 -83
t-7.5 -97q0 -77 25.5 -126.5t69.5 -78.5q28 -19 74.5 -34t119.5 -25t178 -15.5t252 -5.5q117 0 205 4.5t152 16t106.5 30t67.5 46t35 66t10 88.5v368h84zM609 929q24 -2 53.5 -3.5t51.5 -1.5v462h77v-336l3 -1q39 66 93.5 100t114.5 34q35 0 63.5 -14.5t48.5 -38.5t31 -55.5
t11 -65.5q0 -53 -14.5 -85t-47 -49t-84.5 -22.5t-127 -5.5q-50 0 -88 0.5t-68.5 1t-55.5 2t-49 3.5zM907 924q51 0 84 2t52.5 11t27.5 27t8 50q0 41 -28 66.5t-68 25.5q-27 0 -55 -12.5t-54 -35.5t-49 -57t-39 -77h121z" />
    <glyph glyph-name="uni067A" unicode="&#x67a;" horiz-adv-x="1771" arabic-form="isolated" 
d="M264 539q-11 -37 -18.5 -83t-7.5 -97q0 -77 25.5 -126.5t69.5 -78.5q28 -19 74.5 -34t119.5 -25t178 -15.5t252 -5.5q170 0 281.5 12.5t177 41.5t91.5 77.5t26 119.5v368h84v-360q0 -94 -31.5 -161.5t-110.5 -110.5t-213 -63t-338 -20q-150 0 -257 6.5t-182 19.5
t-123.5 31.5t-81.5 41.5q-59 42 -92.5 106.5t-33.5 157.5q0 47 7.5 100t21.5 98h81zM957 847h-110v105h110v-105zM957 1029h-110v105h110v-105z" />
    <glyph glyph-name="uniFB60" unicode="&#x67a;" horiz-adv-x="539" arabic-form="initial" 
d="M385 693v-362q0 -93 -22 -159t-62 -107t-97 -60t-126 -19h-78q-34 0 -52 12.5t-18 35.5t18 35.5t52 12.5h77q57 0 99 13t70 42t41.5 75.5t13.5 112.5v368h84zM400 847h-110v105h110v-105zM400 1029h-110v105h110v-105z" />
    <glyph glyph-name="uniFB61" unicode="&#x67a;" horiz-adv-x="616" arabic-form="medial" 
d="M385 268q0 -49 12.5 -84t40 -57.5t71.5 -33.5t107 -11v-96h-48q-38 0 -73 9.5t-65 26t-53 40t-35 51.5h-4q-25 -56 -81 -91.5t-146 -35.5h-111q-34 0 -52 12.5t-18 35.5t18 35.5t52 12.5h96q103 0 154 43.5t51 142.5v425h84v-425zM400 847h-110v105h110v-105zM400 1029
h-110v105h110v-105z" />
    <glyph glyph-name="uniFB5F" unicode="&#x67a;" horiz-adv-x="1848" arabic-form="final" 
d="M1617 693v-425q0 -99 55.5 -142.5t175.5 -43.5v-96h-31q-96 0 -159 35t-93 102h-4q-32 -36 -77.5 -63t-118.5 -45.5t-180 -27.5t-261 -9q-150 0 -257 6.5t-182 19.5t-123.5 31.5t-81.5 41.5q-59 42 -92.5 106.5t-33.5 157.5q0 47 7.5 100t21.5 98h81q-11 -37 -18.5 -83
t-7.5 -97q0 -77 25.5 -126.5t69.5 -78.5q28 -19 74.5 -34t119.5 -25t178 -15.5t252 -5.5q117 0 205 4.5t152 16t106.5 30t67.5 46t35 66t10 88.5v368h84zM957 847h-110v105h110v-105zM957 1029h-110v105h110v-105z" />
    <glyph glyph-name="uni067B" unicode="&#x67b;" horiz-adv-x="1771" arabic-form="isolated" 
d="M264 539q-11 -37 -18.5 -83t-7.5 -97q0 -77 25.5 -126.5t69.5 -78.5q28 -19 74.5 -34t119.5 -25t178 -15.5t252 -5.5q170 0 281.5 12.5t177 41.5t91.5 77.5t26 119.5v368h84v-360q0 -94 -31.5 -161.5t-110.5 -110.5t-213 -63t-338 -20q-150 0 -257 6.5t-182 19.5
t-123.5 31.5t-81.5 41.5q-59 42 -92.5 106.5t-33.5 157.5q0 47 7.5 100t21.5 98h81zM957 -489h-110v105h110v-105zM957 -307h-110v105h110v-105z" />
    <glyph glyph-name="uniFB54" unicode="&#x67b;" horiz-adv-x="539" arabic-form="initial" 
d="M385 693v-362q0 -93 -22 -159t-62 -107t-97 -60t-126 -19h-78q-34 0 -52 12.5t-18 35.5t18 35.5t52 12.5h77q57 0 99 13t70 42t41.5 75.5t13.5 112.5v368h84zM400 -489h-110v105h110v-105zM400 -307h-110v105h110v-105z" />
    <glyph glyph-name="uniFB55" unicode="&#x67b;" horiz-adv-x="616" arabic-form="medial" 
d="M385 268q0 -49 12.5 -84t40 -57.5t71.5 -33.5t107 -11v-96h-48q-38 0 -73 9.5t-65 26t-53 40t-35 51.5h-4q-25 -56 -81 -91.5t-146 -35.5h-111q-34 0 -52 12.5t-18 35.5t18 35.5t52 12.5h96q103 0 154 43.5t51 142.5v425h84v-425zM401 -489h-110v105h110v-105zM401 -307
h-110v105h110v-105z" />
    <glyph glyph-name="uniFB53" unicode="&#x67b;" horiz-adv-x="1848" arabic-form="final" 
d="M1617 693v-425q0 -99 55.5 -142.5t175.5 -43.5v-96h-31q-96 0 -159 35t-93 102h-4q-32 -36 -77.5 -63t-118.5 -45.5t-180 -27.5t-261 -9q-150 0 -257 6.5t-182 19.5t-123.5 31.5t-81.5 41.5q-59 42 -92.5 106.5t-33.5 157.5q0 47 7.5 100t21.5 98h81q-11 -37 -18.5 -83
t-7.5 -97q0 -77 25.5 -126.5t69.5 -78.5q28 -19 74.5 -34t119.5 -25t178 -15.5t252 -5.5q117 0 205 4.5t152 16t106.5 30t67.5 46t35 66t10 88.5v368h84zM957 -489h-110v105h110v-105zM957 -307h-110v105h110v-105z" />
    <glyph glyph-name="uni067C.init" unicode="&#x67c;" horiz-adv-x="539" 
d="M385 693v-362q0 -93 -22 -159t-62 -107t-97 -60t-126 -19h-78q-34 0 -52 12.5t-18 35.5t18 35.5t52 12.5h77q57 0 99 13t70 42t41.5 75.5t13.5 112.5v368h84zM208 70q32 0 61 -12.5t50.5 -34t34.5 -51.5t13 -64q0 -32 -13 -61t-34.5 -51t-50.5 -34.5t-61 -12.5
q-35 0 -64.5 12.5t-51 34.5t-34 50.5t-12.5 61.5q0 34 12 64t34 51.5t51.5 34t64.5 12.5zM208 -176q35 0 59.5 24.5t24.5 59.5q0 37 -24.5 62t-59.5 25q-37 0 -62 -25t-25 -62q0 -35 25 -59.5t62 -24.5zM297 847h-110v105h110v-105zM495 847h-110v105h110v-105z" />
    <glyph glyph-name="uni067C.medi" unicode="&#x67c;" horiz-adv-x="616" 
d="M385 268q0 -49 12.5 -84t40 -57.5t71.5 -33.5t107 -11v-96h-48q-38 0 -73 9.5t-65 26t-53 40t-35 51.5h-4q-25 -56 -81 -91.5t-146 -35.5h-111q-34 0 -52 12.5t-18 35.5t18 35.5t52 12.5h96q103 0 154 43.5t51 142.5v425h84v-425zM208 70q32 0 61 -12.5t50.5 -34
t34.5 -51.5t13 -64q0 -32 -13 -61t-34.5 -51t-50.5 -34.5t-61 -12.5q-35 0 -64.5 12.5t-51 34.5t-34 50.5t-12.5 61.5q0 34 12 64t34 51.5t51.5 34t64.5 12.5zM208 -176q35 0 59.5 24.5t24.5 59.5q0 37 -24.5 62t-59.5 25q-37 0 -62 -25t-25 -62q0 -35 25 -59.5t62 -24.5z
M297 847h-110v105h110v-105zM495 847h-110v105h110v-105z" />
    <glyph glyph-name="uni067C.fina" unicode="&#x67c;" horiz-adv-x="1848" 
d="M1617 693v-425q0 -99 55.5 -142.5t175.5 -43.5v-96h-31q-96 0 -159 35t-93 102h-4q-32 -36 -77.5 -63t-118.5 -45.5t-180 -27.5t-261 -9q-150 0 -257 6.5t-182 19.5t-123.5 31.5t-81.5 41.5q-59 42 -92.5 106.5t-33.5 157.5q0 47 7.5 100t21.5 98h81q-11 -37 -18.5 -83
t-7.5 -97q0 -77 25.5 -126.5t69.5 -78.5q28 -19 74.5 -34t119.5 -25t178 -15.5t252 -5.5q117 0 205 4.5t152 16t106.5 30t67.5 46t35 66t10 88.5v368h84zM932 50q32 0 61 -12.5t50.5 -34t34.5 -51.5t13 -64q0 -32 -13 -61t-34.5 -51t-50.5 -34.5t-61 -12.5q-35 0 -64.5 12.5
t-51 34.5t-34 50.5t-12.5 61.5q0 34 12 64t34 51.5t51.5 34t64.5 12.5zM932 -196q35 0 59.5 24.5t24.5 59.5q0 37 -24.5 62t-59.5 25q-37 0 -62 -25t-25 -62q0 -35 25 -59.5t62 -24.5zM836 847h-110v105h110v-105zM1034 847h-110v105h110v-105z" />
    <glyph glyph-name="uni067D.init" unicode="&#x67d;" horiz-adv-x="539" 
d="M385 693v-362q0 -93 -22 -159t-62 -107t-97 -60t-126 -19h-78q-34 0 -52 12.5t-18 35.5t18 35.5t52 12.5h77q57 0 99 13t70 42t41.5 75.5t13.5 112.5v368h84zM301 1012h-110v105h110v-105zM498 1012h-110v105h110v-105zM401 847h-110v105h110v-105z" />
    <glyph glyph-name="uni067D.medi" unicode="&#x67d;" horiz-adv-x="616" 
d="M385 268q0 -49 12.5 -84t40 -57.5t71.5 -33.5t107 -11v-96h-48q-38 0 -73 9.5t-65 26t-53 40t-35 51.5h-4q-25 -56 -81 -91.5t-146 -35.5h-111q-34 0 -52 12.5t-18 35.5t18 35.5t52 12.5h96q103 0 154 43.5t51 142.5v425h84v-425zM301 1012h-110v105h110v-105zM498 1012
h-110v105h110v-105zM401 847h-110v105h110v-105z" />
    <glyph glyph-name="uni067D.fina" unicode="&#x67d;" horiz-adv-x="1848" 
d="M1617 693v-425q0 -99 55.5 -142.5t175.5 -43.5v-96h-31q-96 0 -159 35t-93 102h-4q-32 -36 -77.5 -63t-118.5 -45.5t-180 -27.5t-261 -9q-150 0 -257 6.5t-182 19.5t-123.5 31.5t-81.5 41.5q-59 42 -92.5 106.5t-33.5 157.5q0 47 7.5 100t21.5 98h81q-11 -37 -18.5 -83
t-7.5 -97q0 -77 25.5 -126.5t69.5 -78.5q28 -19 74.5 -34t119.5 -25t178 -15.5t252 -5.5q117 0 205 4.5t152 16t106.5 30t67.5 46t35 66t10 88.5v368h84zM841 1012h-110v105h110v-105zM1038 1012h-110v105h110v-105zM941 847h-110v105h110v-105z" />
    <glyph glyph-name="afii57506" unicode="&#x67e;" horiz-adv-x="1771" arabic-form="isolated" 
d="M264 539q-11 -37 -18.5 -83t-7.5 -97q0 -77 25.5 -126.5t69.5 -78.5q28 -19 74.5 -34t119.5 -25t178 -15.5t252 -5.5q170 0 281.5 12.5t177 41.5t91.5 77.5t26 119.5v368h84v-360q0 -94 -31.5 -161.5t-110.5 -110.5t-213 -63t-338 -20q-150 0 -257 6.5t-182 19.5
t-123.5 31.5t-81.5 41.5q-59 42 -92.5 106.5t-33.5 157.5q0 47 7.5 100t21.5 98h81zM804 -307h-110v105h110v-105zM1001 -307h-110v105h110v-105zM904 -472h-110v105h110v-105z" />
    <glyph glyph-name="uniFB58" unicode="&#x67e;" horiz-adv-x="539" arabic-form="initial" 
d="M385 693v-362q0 -93 -22 -159t-62 -107t-97 -60t-126 -19h-78q-34 0 -52 12.5t-18 35.5t18 35.5t52 12.5h77q57 0 99 13t70 42t41.5 75.5t13.5 112.5v368h84zM265 -307h-110v105h110v-105zM462 -307h-110v105h110v-105zM365 -472h-110v105h110v-105z" />
    <glyph glyph-name="uniFB59" unicode="&#x67e;" horiz-adv-x="616" arabic-form="medial" 
d="M385 268q0 -49 12.5 -84t40 -57.5t71.5 -33.5t107 -11v-96h-48q-38 0 -73 9.5t-65 26t-53 40t-35 51.5h-4q-25 -56 -81 -91.5t-146 -35.5h-111q-34 0 -52 12.5t-18 35.5t18 35.5t52 12.5h96q103 0 154 43.5t51 142.5v425h84v-425zM298 -307h-110v105h110v-105zM495 -307
h-110v105h110v-105zM398 -472h-110v105h110v-105z" />
    <glyph glyph-name="uniFB57" unicode="&#x67e;" horiz-adv-x="1848" arabic-form="final" 
d="M1617 693v-425q0 -99 55.5 -142.5t175.5 -43.5v-96h-31q-96 0 -159 35t-93 102h-4q-32 -36 -77.5 -63t-118.5 -45.5t-180 -27.5t-261 -9q-150 0 -257 6.5t-182 19.5t-123.5 31.5t-81.5 41.5q-59 42 -92.5 106.5t-33.5 157.5q0 47 7.5 100t21.5 98h81q-11 -37 -18.5 -83
t-7.5 -97q0 -77 25.5 -126.5t69.5 -78.5q28 -19 74.5 -34t119.5 -25t178 -15.5t252 -5.5q117 0 205 4.5t152 16t106.5 30t67.5 46t35 66t10 88.5v368h84zM804 -307h-110v105h110v-105zM1001 -307h-110v105h110v-105zM904 -472h-110v105h110v-105z" />
    <glyph glyph-name="uni067F" unicode="&#x67f;" horiz-adv-x="1771" arabic-form="isolated" 
d="M264 539q-11 -37 -18.5 -83t-7.5 -97q0 -77 25.5 -126.5t69.5 -78.5q28 -19 74.5 -34t119.5 -25t178 -15.5t252 -5.5q170 0 281.5 12.5t177 41.5t91.5 77.5t26 119.5v368h84v-360q0 -94 -31.5 -161.5t-110.5 -110.5t-213 -63t-338 -20q-150 0 -257 6.5t-182 19.5
t-123.5 31.5t-81.5 41.5q-59 42 -92.5 106.5t-33.5 157.5q0 47 7.5 100t21.5 98h81zM880 847h-110v105h110v-105zM1078 847h-110v105h110v-105zM880 1049h-110v105h110v-105zM1078 1049h-110v105h110v-105z" />
    <glyph glyph-name="uniFB64" unicode="&#x67f;" horiz-adv-x="539" arabic-form="initial" 
d="M385 693v-362q0 -93 -22 -159t-62 -107t-97 -60t-126 -19h-78q-34 0 -52 12.5t-18 35.5t18 35.5t52 12.5h77q57 0 99 13t70 42t41.5 75.5t13.5 112.5v368h84zM302 847h-110v105h110v-105zM500 847h-110v105h110v-105zM302 1049h-110v105h110v-105zM500 1049h-110v105h110
v-105z" />
    <glyph glyph-name="uniFB65" unicode="&#x67f;" horiz-adv-x="616" arabic-form="medial" 
d="M385 268q0 -49 12.5 -84t40 -57.5t71.5 -33.5t107 -11v-96h-48q-38 0 -73 9.5t-65 26t-53 40t-35 51.5h-4q-25 -56 -81 -91.5t-146 -35.5h-111q-34 0 -52 12.5t-18 35.5t18 35.5t52 12.5h96q103 0 154 43.5t51 142.5v425h84v-425zM303 847h-110v105h110v-105zM501 847
h-110v105h110v-105zM303 1049h-110v105h110v-105zM501 1049h-110v105h110v-105z" />
    <glyph glyph-name="uniFB63" unicode="&#x67f;" horiz-adv-x="1848" arabic-form="final" 
d="M1617 693v-425q0 -99 55.5 -142.5t175.5 -43.5v-96h-31q-96 0 -159 35t-93 102h-4q-32 -36 -77.5 -63t-118.5 -45.5t-180 -27.5t-261 -9q-150 0 -257 6.5t-182 19.5t-123.5 31.5t-81.5 41.5q-59 42 -92.5 106.5t-33.5 157.5q0 47 7.5 100t21.5 98h81q-11 -37 -18.5 -83
t-7.5 -97q0 -77 25.5 -126.5t69.5 -78.5q28 -19 74.5 -34t119.5 -25t178 -15.5t252 -5.5q117 0 205 4.5t152 16t106.5 30t67.5 46t35 66t10 88.5v368h84zM880 847h-110v105h110v-105zM1078 847h-110v105h110v-105zM880 1049h-110v105h110v-105zM1078 1049h-110v105h110v-105
z" />
    <glyph glyph-name="uni0680" unicode="&#x680;" horiz-adv-x="1771" arabic-form="isolated" 
d="M264 539q-11 -37 -18.5 -83t-7.5 -97q0 -77 25.5 -126.5t69.5 -78.5q28 -19 74.5 -34t119.5 -25t178 -15.5t252 -5.5q170 0 281.5 12.5t177 41.5t91.5 77.5t26 119.5v368h84v-360q0 -94 -31.5 -161.5t-110.5 -110.5t-213 -63t-338 -20q-150 0 -257 6.5t-182 19.5
t-123.5 31.5t-81.5 41.5q-59 42 -92.5 106.5t-33.5 157.5q0 47 7.5 100t21.5 98h81zM803 -509h-110v105h110v-105zM1001 -509h-110v105h110v-105zM803 -307h-110v105h110v-105zM1001 -307h-110v105h110v-105z" />
    <glyph glyph-name="uniFB5C" unicode="&#x680;" horiz-adv-x="539" arabic-form="initial" 
d="M385 693v-362q0 -93 -22 -159t-62 -107t-97 -60t-126 -19h-78q-34 0 -52 12.5t-18 35.5t18 35.5t52 12.5h77q57 0 99 13t70 42t41.5 75.5t13.5 112.5v368h84zM297 -509h-110v105h110v-105zM495 -509h-110v105h110v-105zM297 -307h-110v105h110v-105zM495 -307h-110v105
h110v-105z" />
    <glyph glyph-name="uniFB5D" unicode="&#x680;" horiz-adv-x="616" arabic-form="medial" 
d="M385 268q0 -49 12.5 -84t40 -57.5t71.5 -33.5t107 -11v-96h-48q-38 0 -73 9.5t-65 26t-53 40t-35 51.5h-4q-25 -56 -81 -91.5t-146 -35.5h-111q-34 0 -52 12.5t-18 35.5t18 35.5t52 12.5h96q103 0 154 43.5t51 142.5v425h84v-425zM297 -509h-110v105h110v-105zM495 -509
h-110v105h110v-105zM297 -307h-110v105h110v-105zM495 -307h-110v105h110v-105z" />
    <glyph glyph-name="uniFB5B" unicode="&#x680;" horiz-adv-x="1848" arabic-form="final" 
d="M1617 693v-425q0 -99 55.5 -142.5t175.5 -43.5v-96h-31q-96 0 -159 35t-93 102h-4q-32 -36 -77.5 -63t-118.5 -45.5t-180 -27.5t-261 -9q-150 0 -257 6.5t-182 19.5t-123.5 31.5t-81.5 41.5q-59 42 -92.5 106.5t-33.5 157.5q0 47 7.5 100t21.5 98h81q-11 -37 -18.5 -83
t-7.5 -97q0 -77 25.5 -126.5t69.5 -78.5q28 -19 74.5 -34t119.5 -25t178 -15.5t252 -5.5q117 0 205 4.5t152 16t106.5 30t67.5 46t35 66t10 88.5v368h84zM803 -509h-110v105h110v-105zM1001 -509h-110v105h110v-105zM803 -307h-110v105h110v-105zM1001 -307h-110v105h110
v-105z" />
    <glyph glyph-name="uni0681.init" unicode="&#x681;" horiz-adv-x="1232" 
d="M154 644q27 10 57 19t61 15.5t62 10.5t59 4q54 0 107.5 -10.5t108.5 -26.5t111.5 -34.5t114.5 -35t118.5 -27.5t124.5 -12l-15 -90q-61 -13 -119.5 -53t-123 -92.5l-139.5 -109.5t-167 -105t-206.5 -79.5t-257.5 -31.5h-50q-70 0 -70 49q0 22 18 34.5t52 12.5h59
q112 0 203 19t167 50.5t140.5 73t123 85.5l115 88.5t116.5 82.5v5q-62 9 -128 27.5l-133.5 37t-134 32t-130.5 13.5q-30 0 -63.5 -3.5t-66 -9.5t-62 -13.5t-52.5 -15.5v90zM606 1196q-13 3 -27.5 5t-30.5 2q-27 0 -50 -7t-40 -20.5t-27 -32t-10 -42.5q0 -48 34 -73.5
t96 -25.5h102v-77h-345v71h95l1 5q-23 19 -39 49t-16 67q0 34 14 63.5t39.5 51.5t61 35t78.5 13q31 0 64 -6v-78z" />
    <glyph glyph-name="uni0681.medi" unicode="&#x681;" horiz-adv-x="1197" 
d="M154 644q27 10 57 19t61 15.5t62 10.5t59 4q54 0 107.5 -10.5t108.5 -26.5t111.5 -34.5t114.5 -35t118.5 -27.5t124.5 -12l-15 -90q-34 -5 -69 -19.5t-70 -39.5q0 -152 66 -234t207 -82v-96h-20q-80 0 -139.5 25t-99 73t-60 117.5t-23.5 158.5q-40 -22 -88 -58.5
l-104 -78t-121.5 -83.5t-141 -76.5t-163 -56t-187.5 -21.5h-50q-70 0 -70 49q0 22 18 34.5t52 12.5h41q103 0 188 20t158.5 53t138.5 75l128.5 86.5l129 87.5t140.5 77v5q-62 9 -128 27.5l-133.5 37t-134 32t-130.5 13.5q-30 0 -63.5 -3.5t-66 -9.5t-62 -13.5t-52.5 -15.5
v90zM606 1196q-13 3 -27.5 5t-30.5 2q-27 0 -50 -7t-40 -20.5t-27 -32t-10 -42.5q0 -48 34 -73.5t96 -25.5h102v-77h-345v71h95l1 5q-23 19 -39 49t-16 67q0 34 14 63.5t39.5 51.5t61 35t78.5 13q31 0 64 -6v-78z" />
    <glyph glyph-name="uni0681.fina" unicode="&#x681;" horiz-adv-x="1155" 
d="M1032 514q-28 -2 -58 -5.5t-50 -8.5q0 -115 5.5 -194.5t26 -129t59.5 -72t106 -22.5h34v-96h-8q-89 0 -145.5 26.5t-89 85.5t-45 153.5t-12.5 231.5q-153 -34 -266.5 -93t-189 -131t-112.5 -151.5t-37 -155.5t27.5 -140t82.5 -110.5t138 -72.5t195 -26q108 0 204.5 17.5
t180.5 52.5v-90q-79 -37 -178 -56.5t-207 -19.5q-134 0 -235 32t-168.5 89t-101.5 136t-34 173q0 103 49.5 201t143 180.5t227.5 145t304 94.5v8q-59 12 -113 30l-107 35.5t-106.5 30t-110.5 12.5q-30 0 -63 -3.5t-65 -9.5t-61.5 -13.5t-52.5 -15.5v90q54 20 117 34t118 14
q80 0 154.5 -24.5t148.5 -54.5t150.5 -56.5t159.5 -30.5zM723 1273q-13 3 -27.5 5t-30.5 2q-27 0 -50 -7t-40 -20.5t-27 -32t-10 -42.5q0 -48 34 -73.5t96 -25.5h102v-77h-345v71h95l1 5q-23 19 -39 49t-16 67q0 34 14 63.5t39.5 51.5t61 35t78.5 13q31 0 64 -6v-78z" />
    <glyph glyph-name="uni0682.init" unicode="&#x682;" horiz-adv-x="1232" 
d="M154 644q27 10 57 19t61 15.5t62 10.5t59 4q54 0 107.5 -10.5t108.5 -26.5t111.5 -34.5t114.5 -35t118.5 -27.5t124.5 -12l-15 -90q-61 -13 -119.5 -53t-123 -92.5l-139.5 -109.5t-167 -105t-206.5 -79.5t-257.5 -31.5h-50q-70 0 -70 49q0 22 18 34.5t52 12.5h59
q112 0 203 19t167 50.5t140.5 73t123 85.5l115 88.5t116.5 82.5v5q-62 9 -128 27.5l-133.5 37t-134 32t-130.5 13.5q-30 0 -63.5 -3.5t-66 -9.5t-62 -13.5t-52.5 -15.5v90zM649 847h-110v105h110v-105zM649 1029h-110v105h110v-105z" />
    <glyph glyph-name="uni0682.medi" unicode="&#x682;" horiz-adv-x="1197" 
d="M154 644q27 10 57 19t61 15.5t62 10.5t59 4q54 0 107.5 -10.5t108.5 -26.5t111.5 -34.5t114.5 -35t118.5 -27.5t124.5 -12l-15 -90q-34 -5 -69 -19.5t-70 -39.5q0 -152 66 -234t207 -82v-96h-20q-80 0 -139.5 25t-99 73t-60 117.5t-23.5 158.5q-40 -22 -88 -58.5
l-104 -78t-121.5 -83.5t-141 -76.5t-163 -56t-187.5 -21.5h-50q-70 0 -70 49q0 22 18 34.5t52 12.5h41q103 0 188 20t158.5 53t138.5 75l128.5 86.5l129 87.5t140.5 77v5q-62 9 -128 27.5l-133.5 37t-134 32t-130.5 13.5q-30 0 -63.5 -3.5t-66 -9.5t-62 -13.5t-52.5 -15.5
v90zM649 847h-110v105h110v-105zM649 1029h-110v105h110v-105z" />
    <glyph glyph-name="uni0682.fina" unicode="&#x682;" horiz-adv-x="1155" 
d="M1032 514q-28 -2 -58 -5.5t-50 -8.5q0 -115 5.5 -194.5t26 -129t59.5 -72t106 -22.5h34v-96h-8q-89 0 -145.5 26.5t-89 85.5t-45 153.5t-12.5 231.5q-153 -34 -266.5 -93t-189 -131t-112.5 -151.5t-37 -155.5t27.5 -140t82.5 -110.5t138 -72.5t195 -26q108 0 204.5 17.5
t180.5 52.5v-90q-79 -37 -178 -56.5t-207 -19.5q-134 0 -235 32t-168.5 89t-101.5 136t-34 173q0 103 49.5 201t143 180.5t227.5 145t304 94.5v8q-59 12 -113 30l-107 35.5t-106.5 30t-110.5 12.5q-30 0 -63 -3.5t-65 -9.5t-61.5 -13.5t-52.5 -15.5v90q54 20 117 34t118 14
q80 0 154.5 -24.5t148.5 -54.5t150.5 -56.5t159.5 -30.5zM649 1001h-110v105h110v-105zM649 1183h-110v105h110v-105z" />
    <glyph glyph-name="uni0683" unicode="&#x683;" horiz-adv-x="1155" arabic-form="isolated" 
d="M1022 515q-192 -33 -337 -91t-241.5 -132.5t-145 -161.5t-48.5 -178q0 -76 27 -140t82 -110.5t138.5 -72.5t195.5 -26q108 0 204.5 17.5t180.5 52.5v-90q-79 -37 -178 -56.5t-207 -19.5q-134 0 -235 32t-168.5 89t-101.5 136t-34 173q0 103 51.5 201t146.5 180.5
t228.5 145t297.5 94.5v8q-59 12 -113 30l-107 35.5t-106.5 30t-110.5 12.5q-30 0 -63 -3.5t-65 -9.5t-61.5 -13.5t-52.5 -15.5v90q54 20 117 34t118 14q80 0 154.5 -24.5t148.5 -54.5t150.5 -56.5t159.5 -30.5zM649 -27h-110v105h110v-105zM847 -27h-110v105h110v-105z" />
    <glyph glyph-name="uniFB78" unicode="&#x683;" horiz-adv-x="1232" arabic-form="initial" 
d="M154 644q27 10 57 19t61 15.5t62 10.5t59 4q54 0 107.5 -10.5t108.5 -26.5t111.5 -34.5t114.5 -35t118.5 -27.5t124.5 -12l-15 -90q-61 -13 -119.5 -53t-123 -92.5l-139.5 -109.5t-167 -105t-206.5 -79.5t-257.5 -31.5h-50q-70 0 -70 49q0 22 18 34.5t52 12.5h59
q112 0 203 19t167 50.5t140.5 73t123 85.5l115 88.5t116.5 82.5v5q-62 9 -128 27.5l-133.5 37t-134 32t-130.5 13.5q-30 0 -63.5 -3.5t-66 -9.5t-62 -13.5t-52.5 -15.5v90zM572 -307h-110v105h110v-105zM770 -307h-110v105h110v-105z" />
    <glyph glyph-name="uniFB79" unicode="&#x683;" horiz-adv-x="1197" arabic-form="medial" 
d="M154 644q27 10 57 19t61 15.5t62 10.5t59 4q54 0 107.5 -10.5t108.5 -26.5t111.5 -34.5t114.5 -35t118.5 -27.5t124.5 -12l-15 -90q-34 -5 -69 -19.5t-70 -39.5q0 -152 66 -234t207 -82v-96h-20q-80 0 -139.5 25t-99 73t-60 117.5t-23.5 158.5q-40 -22 -88 -58.5
l-104 -78t-121.5 -83.5t-141 -76.5t-163 -56t-187.5 -21.5h-50q-70 0 -70 49q0 22 18 34.5t52 12.5h41q103 0 188 20t158.5 53t138.5 75l128.5 86.5l129 87.5t140.5 77v5q-62 9 -128 27.5l-133.5 37t-134 32t-130.5 13.5q-30 0 -63.5 -3.5t-66 -9.5t-62 -13.5t-52.5 -15.5
v90zM572 -307h-110v105h110v-105zM770 -307h-110v105h110v-105z" />
    <glyph glyph-name="uniFB77" unicode="&#x683;" horiz-adv-x="1155" arabic-form="final" 
d="M1032 514q-28 -2 -58 -5.5t-50 -8.5q0 -115 5.5 -194.5t26 -129t59.5 -72t106 -22.5h34v-96h-8q-89 0 -145.5 26.5t-89 85.5t-45 153.5t-12.5 231.5q-153 -34 -266.5 -93t-189 -131t-112.5 -151.5t-37 -155.5t27.5 -140t82.5 -110.5t138 -72.5t195 -26q108 0 204.5 17.5
t180.5 52.5v-90q-79 -37 -178 -56.5t-207 -19.5q-134 0 -235 32t-168.5 89t-101.5 136t-34 173q0 103 49.5 201t143 180.5t227.5 145t304 94.5v8q-59 12 -113 30l-107 35.5t-106.5 30t-110.5 12.5q-30 0 -63 -3.5t-65 -9.5t-61.5 -13.5t-52.5 -15.5v90q54 20 117 34t118 14
q80 0 154.5 -24.5t148.5 -54.5t150.5 -56.5t159.5 -30.5zM572 -27h-110v105h110v-105zM770 -27h-110v105h110v-105z" />
    <glyph glyph-name="uni0684" unicode="&#x684;" horiz-adv-x="1155" arabic-form="isolated" 
d="M1022 515q-192 -33 -337 -91t-241.5 -132.5t-145 -161.5t-48.5 -178q0 -76 27 -140t82 -110.5t138.5 -72.5t195.5 -26q108 0 204.5 17.5t180.5 52.5v-90q-79 -37 -178 -56.5t-207 -19.5q-134 0 -235 32t-168.5 89t-101.5 136t-34 173q0 103 51.5 201t146.5 180.5
t228.5 145t297.5 94.5v8q-59 12 -113 30l-107 35.5t-106.5 30t-110.5 12.5q-30 0 -63 -3.5t-65 -9.5t-61.5 -13.5t-52.5 -15.5v90q54 20 117 34t118 14q80 0 154.5 -24.5t148.5 -54.5t150.5 -56.5t159.5 -30.5zM770 -132h-110v105h110v-105zM770 50h-110v105h110v-105z" />
    <glyph glyph-name="uniFB74" unicode="&#x684;" horiz-adv-x="1232" arabic-form="initial" 
d="M154 644q27 10 57 19t61 15.5t62 10.5t59 4q54 0 107.5 -10.5t108.5 -26.5t111.5 -34.5t114.5 -35t118.5 -27.5t124.5 -12l-15 -90q-61 -13 -119.5 -53t-123 -92.5l-139.5 -109.5t-167 -105t-206.5 -79.5t-257.5 -31.5h-50q-70 0 -70 49q0 22 18 34.5t52 12.5h59
q112 0 203 19t167 50.5t140.5 73t123 85.5l115 88.5t116.5 82.5v5q-62 9 -128 27.5l-133.5 37t-134 32t-130.5 13.5q-30 0 -63.5 -3.5t-66 -9.5t-62 -13.5t-52.5 -15.5v90zM649 -489h-110v105h110v-105zM649 -307h-110v105h110v-105z" />
    <glyph glyph-name="uniFB75" unicode="&#x684;" horiz-adv-x="1197" arabic-form="medial" 
d="M154 644q27 10 57 19t61 15.5t62 10.5t59 4q54 0 107.5 -10.5t108.5 -26.5t111.5 -34.5t114.5 -35t118.5 -27.5t124.5 -12l-15 -90q-34 -5 -69 -19.5t-70 -39.5q0 -152 66 -234t207 -82v-96h-20q-80 0 -139.5 25t-99 73t-60 117.5t-23.5 158.5q-40 -22 -88 -58.5
l-104 -78t-121.5 -83.5t-141 -76.5t-163 -56t-187.5 -21.5h-50q-70 0 -70 49q0 22 18 34.5t52 12.5h41q103 0 188 20t158.5 53t138.5 75l128.5 86.5l129 87.5t140.5 77v5q-62 9 -128 27.5l-133.5 37t-134 32t-130.5 13.5q-30 0 -63.5 -3.5t-66 -9.5t-62 -13.5t-52.5 -15.5
v90zM649 -489h-110v105h110v-105zM649 -307h-110v105h110v-105z" />
    <glyph glyph-name="uniFB73" unicode="&#x684;" horiz-adv-x="1155" arabic-form="final" 
d="M1032 514q-28 -2 -58 -5.5t-50 -8.5q0 -115 5.5 -194.5t26 -129t59.5 -72t106 -22.5h34v-96h-8q-89 0 -145.5 26.5t-89 85.5t-45 153.5t-12.5 231.5q-153 -34 -266.5 -93t-189 -131t-112.5 -151.5t-37 -155.5t27.5 -140t82.5 -110.5t138 -72.5t195 -26q108 0 204.5 17.5
t180.5 52.5v-90q-79 -37 -178 -56.5t-207 -19.5q-134 0 -235 32t-168.5 89t-101.5 136t-34 173q0 103 49.5 201t143 180.5t227.5 145t304 94.5v8q-59 12 -113 30l-107 35.5t-106.5 30t-110.5 12.5q-30 0 -63 -3.5t-65 -9.5t-61.5 -13.5t-52.5 -15.5v90q54 20 117 34t118 14
q80 0 154.5 -24.5t148.5 -54.5t150.5 -56.5t159.5 -30.5zM693 -132h-110v105h110v-105zM693 50h-110v105h110v-105z" />
    <glyph glyph-name="uni0685.init" unicode="&#x685;" horiz-adv-x="1232" 
d="M154 644q27 10 57 19t61 15.5t62 10.5t59 4q54 0 107.5 -10.5t108.5 -26.5t111.5 -34.5t114.5 -35t118.5 -27.5t124.5 -12l-15 -90q-61 -13 -119.5 -53t-123 -92.5l-139.5 -109.5t-167 -105t-206.5 -79.5t-257.5 -31.5h-50q-70 0 -70 49q0 22 18 34.5t52 12.5h59
q112 0 203 19t167 50.5t140.5 73t123 85.5l115 88.5t116.5 82.5v5q-62 9 -128 27.5l-133.5 37t-134 32t-130.5 13.5q-30 0 -63.5 -3.5t-66 -9.5t-62 -13.5t-52.5 -15.5v90zM495 847h-110v105h110v-105zM693 847h-110v105h110v-105zM594 1029h-110v105h110v-105z" />
    <glyph glyph-name="uni0685.medi" unicode="&#x685;" horiz-adv-x="1197" 
d="M154 644q27 10 57 19t61 15.5t62 10.5t59 4q54 0 107.5 -10.5t108.5 -26.5t111.5 -34.5t114.5 -35t118.5 -27.5t124.5 -12l-15 -90q-34 -5 -69 -19.5t-70 -39.5q0 -152 66 -234t207 -82v-96h-20q-80 0 -139.5 25t-99 73t-60 117.5t-23.5 158.5q-40 -22 -88 -58.5
l-104 -78t-121.5 -83.5t-141 -76.5t-163 -56t-187.5 -21.5h-50q-70 0 -70 49q0 22 18 34.5t52 12.5h41q103 0 188 20t158.5 53t138.5 75l128.5 86.5l129 87.5t140.5 77v5q-62 9 -128 27.5l-133.5 37t-134 32t-130.5 13.5q-30 0 -63.5 -3.5t-66 -9.5t-62 -13.5t-52.5 -15.5
v90zM495 847h-110v105h110v-105zM693 847h-110v105h110v-105zM594 1029h-110v105h110v-105z" />
    <glyph glyph-name="uni0685.fina" unicode="&#x685;" horiz-adv-x="1155" 
d="M1032 514q-28 -2 -58 -5.5t-50 -8.5q0 -115 5.5 -194.5t26 -129t59.5 -72t106 -22.5h34v-96h-8q-89 0 -145.5 26.5t-89 85.5t-45 153.5t-12.5 231.5q-153 -34 -266.5 -93t-189 -131t-112.5 -151.5t-37 -155.5t27.5 -140t82.5 -110.5t138 -72.5t195 -26q108 0 204.5 17.5
t180.5 52.5v-90q-79 -37 -178 -56.5t-207 -19.5q-134 0 -235 32t-168.5 89t-101.5 136t-34 173q0 103 49.5 201t143 180.5t227.5 145t304 94.5v8q-59 12 -113 30l-107 35.5t-106.5 30t-110.5 12.5q-30 0 -63 -3.5t-65 -9.5t-61.5 -13.5t-52.5 -15.5v90q54 20 117 34t118 14
q80 0 154.5 -24.5t148.5 -54.5t150.5 -56.5t159.5 -30.5zM572 1001h-110v105h110v-105zM770 1001h-110v105h110v-105zM671 1183h-110v105h110v-105z" />
    <glyph glyph-name="afii57507" unicode="&#x686;" horiz-adv-x="1155" arabic-form="isolated" 
d="M1022 515q-192 -33 -337 -91t-241.5 -132.5t-145 -161.5t-48.5 -178q0 -76 27 -140t82 -110.5t138.5 -72.5t195.5 -26q108 0 204.5 17.5t180.5 52.5v-90q-79 -37 -178 -56.5t-207 -19.5q-134 0 -235 32t-168.5 89t-101.5 136t-34 173q0 103 51.5 201t146.5 180.5
t228.5 145t297.5 94.5v8q-59 12 -113 30l-107 35.5t-106.5 30t-110.5 12.5q-30 0 -63 -3.5t-65 -9.5t-61.5 -13.5t-52.5 -15.5v90q54 20 117 34t118 14q80 0 154.5 -24.5t148.5 -54.5t150.5 -56.5t159.5 -30.5zM690 32h-110v105h110v-105zM887 32h-110v105h110v-105z
M790 -133h-110v105h110v-105z" />
    <glyph glyph-name="uniFB7C" unicode="&#x686;" horiz-adv-x="1232" arabic-form="initial" 
d="M154 644q27 10 57 19t61 15.5t62 10.5t59 4q54 0 107.5 -10.5t108.5 -26.5t111.5 -34.5t114.5 -35t118.5 -27.5t124.5 -12l-15 -90q-61 -13 -119.5 -53t-123 -92.5l-139.5 -109.5t-167 -105t-206.5 -79.5t-257.5 -31.5h-50q-70 0 -70 49q0 22 18 34.5t52 12.5h59
q112 0 203 19t167 50.5t140.5 73t123 85.5l115 88.5t116.5 82.5v5q-62 9 -128 27.5l-133.5 37t-134 32t-130.5 13.5q-30 0 -63.5 -3.5t-66 -9.5t-62 -13.5t-52.5 -15.5v90zM573 -307h-110v105h110v-105zM770 -307h-110v105h110v-105zM673 -472h-110v105h110v-105z" />
    <glyph glyph-name="uniFB7D" unicode="&#x686;" horiz-adv-x="1197" arabic-form="medial" 
d="M154 644q27 10 57 19t61 15.5t62 10.5t59 4q54 0 107.5 -10.5t108.5 -26.5t111.5 -34.5t114.5 -35t118.5 -27.5t124.5 -12l-15 -90q-34 -5 -69 -19.5t-70 -39.5q0 -152 66 -234t207 -82v-96h-20q-80 0 -139.5 25t-99 73t-60 117.5t-23.5 158.5q-40 -22 -88 -58.5
l-104 -78t-121.5 -83.5t-141 -76.5t-163 -56t-187.5 -21.5h-50q-70 0 -70 49q0 22 18 34.5t52 12.5h41q103 0 188 20t158.5 53t138.5 75l128.5 86.5l129 87.5t140.5 77v5q-62 9 -128 27.5l-133.5 37t-134 32t-130.5 13.5q-30 0 -63.5 -3.5t-66 -9.5t-62 -13.5t-52.5 -15.5
v90zM573 -307h-110v105h110v-105zM770 -307h-110v105h110v-105zM673 -472h-110v105h110v-105z" />
    <glyph glyph-name="uniFB7B" unicode="&#x686;" horiz-adv-x="1155" arabic-form="final" 
d="M1032 514q-28 -2 -58 -5.5t-50 -8.5q0 -115 5.5 -194.5t26 -129t59.5 -72t106 -22.5h34v-96h-8q-89 0 -145.5 26.5t-89 85.5t-45 153.5t-12.5 231.5q-153 -34 -266.5 -93t-189 -131t-112.5 -151.5t-37 -155.5t27.5 -140t82.5 -110.5t138 -72.5t195 -26q108 0 204.5 17.5
t180.5 52.5v-90q-79 -37 -178 -56.5t-207 -19.5q-134 0 -235 32t-168.5 89t-101.5 136t-34 173q0 103 49.5 201t143 180.5t227.5 145t304 94.5v8q-59 12 -113 30l-107 35.5t-106.5 30t-110.5 12.5q-30 0 -63 -3.5t-65 -9.5t-61.5 -13.5t-52.5 -15.5v90q54 20 117 34t118 14
q80 0 154.5 -24.5t148.5 -54.5t150.5 -56.5t159.5 -30.5zM583 4h-110v105h110v-105zM780 4h-110v105h110v-105zM683 -161h-110v105h110v-105z" />
    <glyph glyph-name="uni06BF.init" unicode="&#x6bf;" horiz-adv-x="1232" 
d="M154 644q27 10 57 19t61 15.5t62 10.5t59 4q54 0 107.5 -10.5t108.5 -26.5t111.5 -34.5t114.5 -35t118.5 -27.5t124.5 -12l-15 -90q-61 -13 -119.5 -53t-123 -92.5l-139.5 -109.5t-167 -105t-206.5 -79.5t-257.5 -31.5h-50q-70 0 -70 49q0 22 18 34.5t52 12.5h59
q112 0 203 19t167 50.5t140.5 73t123 85.5l115 88.5t116.5 82.5v5q-62 9 -128 27.5l-133.5 37t-134 32t-130.5 13.5q-30 0 -63.5 -3.5t-66 -9.5t-62 -13.5t-52.5 -15.5v90zM572 924h-110v105h110v-105zM573 -307h-110v105h110v-105zM770 -307h-110v105h110v-105zM673 -472
h-110v105h110v-105z" />
    <glyph glyph-name="uni06BF.medi" unicode="&#x6bf;" horiz-adv-x="1197" 
d="M154 644q27 10 57 19t61 15.5t62 10.5t59 4q54 0 107.5 -10.5t108.5 -26.5t111.5 -34.5t114.5 -35t118.5 -27.5t124.5 -12l-15 -90q-34 -5 -69 -19.5t-70 -39.5q0 -152 66 -234t207 -82v-96h-20q-80 0 -139.5 25t-99 73t-60 117.5t-23.5 158.5q-40 -22 -88 -58.5
l-104 -78t-121.5 -83.5t-141 -76.5t-163 -56t-187.5 -21.5h-50q-70 0 -70 49q0 22 18 34.5t52 12.5h41q103 0 188 20t158.5 53t138.5 75l128.5 86.5l129 87.5t140.5 77v5q-62 9 -128 27.5l-133.5 37t-134 32t-130.5 13.5q-30 0 -63.5 -3.5t-66 -9.5t-62 -13.5t-52.5 -15.5
v90zM572 924h-110v105h110v-105zM573 -307h-110v105h110v-105zM770 -307h-110v105h110v-105zM673 -472h-110v105h110v-105z" />
    <glyph glyph-name="uni06BF.fina" unicode="&#x6bf;" horiz-adv-x="1155" 
d="M1032 514q-28 -2 -58 -5.5t-50 -8.5q0 -115 5.5 -194.5t26 -129t59.5 -72t106 -22.5h34v-96h-8q-89 0 -145.5 26.5t-89 85.5t-45 153.5t-12.5 231.5q-153 -34 -266.5 -93t-189 -131t-112.5 -151.5t-37 -155.5t27.5 -140t82.5 -110.5t138 -72.5t195 -26q108 0 204.5 17.5
t180.5 52.5v-90q-79 -37 -178 -56.5t-207 -19.5q-134 0 -235 32t-168.5 89t-101.5 136t-34 173q0 103 49.5 201t143 180.5t227.5 145t304 94.5v8q-59 12 -113 30l-107 35.5t-106.5 30t-110.5 12.5q-30 0 -63 -3.5t-65 -9.5t-61.5 -13.5t-52.5 -15.5v90q54 20 117 34t118 14
q80 0 154.5 -24.5t148.5 -54.5t150.5 -56.5t159.5 -30.5zM616 1001h-110v105h110v-105zM583 4h-110v105h110v-105zM780 4h-110v105h110v-105zM683 -161h-110v105h110v-105z" />
    <glyph glyph-name="uni0687" unicode="&#x687;" horiz-adv-x="1155" arabic-form="isolated" 
d="M1022 515q-192 -33 -337 -91t-241.5 -132.5t-145 -161.5t-48.5 -178q0 -76 27 -140t82 -110.5t138.5 -72.5t195.5 -26q108 0 204.5 17.5t180.5 52.5v-90q-79 -37 -178 -56.5t-207 -19.5q-134 0 -235 32t-168.5 89t-101.5 136t-34 173q0 103 51.5 201t146.5 180.5
t228.5 145t297.5 94.5v8q-59 12 -113 30l-107 35.5t-106.5 30t-110.5 12.5q-30 0 -63 -3.5t-65 -9.5t-61.5 -13.5t-52.5 -15.5v90q54 20 117 34t118 14q80 0 154.5 -24.5t148.5 -54.5t150.5 -56.5t159.5 -30.5zM649 -152h-110v105h110v-105zM847 -152h-110v105h110v-105z
M649 50h-110v105h110v-105zM847 50h-110v105h110v-105z" />
    <glyph glyph-name="uniFB80" unicode="&#x687;" horiz-adv-x="1232" arabic-form="initial" 
d="M154 644q27 10 57 19t61 15.5t62 10.5t59 4q54 0 107.5 -10.5t108.5 -26.5t111.5 -34.5t114.5 -35t118.5 -27.5t124.5 -12l-15 -90q-61 -13 -119.5 -53t-123 -92.5l-139.5 -109.5t-167 -105t-206.5 -79.5t-257.5 -31.5h-50q-70 0 -70 49q0 22 18 34.5t52 12.5h59
q112 0 203 19t167 50.5t140.5 73t123 85.5l115 88.5t116.5 82.5v5q-62 9 -128 27.5l-133.5 37t-134 32t-130.5 13.5q-30 0 -63.5 -3.5t-66 -9.5t-62 -13.5t-52.5 -15.5v90zM605 -509h-110v105h110v-105zM803 -509h-110v105h110v-105zM605 -307h-110v105h110v-105zM803 -307
h-110v105h110v-105z" />
    <glyph glyph-name="uniFB81" unicode="&#x687;" horiz-adv-x="1197" arabic-form="medial" 
d="M154 644q27 10 57 19t61 15.5t62 10.5t59 4q54 0 107.5 -10.5t108.5 -26.5t111.5 -34.5t114.5 -35t118.5 -27.5t124.5 -12l-15 -90q-34 -5 -69 -19.5t-70 -39.5q0 -152 66 -234t207 -82v-96h-20q-80 0 -139.5 25t-99 73t-60 117.5t-23.5 158.5q-40 -22 -88 -58.5
l-104 -78t-121.5 -83.5t-141 -76.5t-163 -56t-187.5 -21.5h-50q-70 0 -70 49q0 22 18 34.5t52 12.5h41q103 0 188 20t158.5 53t138.5 75l128.5 86.5l129 87.5t140.5 77v5q-62 9 -128 27.5l-133.5 37t-134 32t-130.5 13.5q-30 0 -63.5 -3.5t-66 -9.5t-62 -13.5t-52.5 -15.5
v90zM605 -509h-110v105h110v-105zM803 -509h-110v105h110v-105zM605 -307h-110v105h110v-105zM803 -307h-110v105h110v-105z" />
    <glyph glyph-name="uniFB7F" unicode="&#x687;" horiz-adv-x="1155" arabic-form="final" 
d="M1032 514q-28 -2 -58 -5.5t-50 -8.5q0 -115 5.5 -194.5t26 -129t59.5 -72t106 -22.5h34v-96h-8q-89 0 -145.5 26.5t-89 85.5t-45 153.5t-12.5 231.5q-153 -34 -266.5 -93t-189 -131t-112.5 -151.5t-37 -155.5t27.5 -140t82.5 -110.5t138 -72.5t195 -26q108 0 204.5 17.5
t180.5 52.5v-90q-79 -37 -178 -56.5t-207 -19.5q-134 0 -235 32t-168.5 89t-101.5 136t-34 173q0 103 49.5 201t143 180.5t227.5 145t304 94.5v8q-59 12 -113 30l-107 35.5t-106.5 30t-110.5 12.5q-30 0 -63 -3.5t-65 -9.5t-61.5 -13.5t-52.5 -15.5v90q54 20 117 34t118 14
q80 0 154.5 -24.5t148.5 -54.5t150.5 -56.5t159.5 -30.5zM584 -164h-110v105h110v-105zM782 -164h-110v105h110v-105zM584 38h-110v105h110v-105zM782 38h-110v105h110v-105z" />
    <glyph glyph-name="afii57512" unicode="&#x688;" horiz-adv-x="924" arabic-form="isolated" 
d="M77 96q35 -5 76 -9t82.5 -7t81 -4.5t71.5 -1.5q81 0 138 11.5t92.5 35.5t51.5 62.5t16 92.5q0 57 -17.5 122t-55 140t-95.5 161.5t-139 187.5h103q79 -97 133.5 -182.5t89 -161t50 -142t15.5 -125.5q0 -154 -94.5 -226t-278.5 -72q-59 0 -135.5 6t-147.5 16zM126 1237
q24 -2 53.5 -3.5t51.5 -1.5v462h77v-336l3 -1q39 66 93.5 100t114.5 34q35 0 63.5 -14.5t48.5 -38.5t31 -55.5t11 -65.5q0 -53 -14.5 -85t-47 -49t-84.5 -22.5t-127 -5.5q-50 0 -88 0.5t-68.5 1t-55.5 2t-49 3.5zM424 1232q51 0 84 2t52.5 11t27.5 27t8 50q0 41 -28 66.5
t-68 25.5q-27 0 -55 -12.5t-54 -35.5t-49 -57t-39 -77h121z" />
    <glyph glyph-name="uniFB89" unicode="&#x688;" horiz-adv-x="1001" arabic-form="final" 
d="M77 96q35 -5 75 -9t81.5 -7t82 -4.5t76.5 -1.5q82 0 138 9.5t90.5 28.5t49.5 48t15 69q0 68 -41.5 228t-124.5 420h94l38.5 -133.5l37.5 -135.5l38.5 -141.5l42.5 -150.5q21 -71 42 -116.5t47.5 -71.5t60.5 -36t81 -10v-96h-39q-31 0 -62 9t-59.5 27t-51.5 46.5t-38 67.5
h-5q-18 -41 -44.5 -71t-67 -49.5t-97.5 -28.5t-136 -9q-63 0 -138.5 6t-148.5 16zM280 1237q24 -2 53.5 -3.5t51.5 -1.5v462h77v-336l3 -1q39 66 93.5 100t114.5 34q35 0 63.5 -14.5t48.5 -38.5t31 -55.5t11 -65.5q0 -53 -14.5 -85t-47 -49t-84.5 -22.5t-127 -5.5
q-50 0 -88 0.5t-68.5 1t-55.5 2t-49 3.5zM578 1232q51 0 84 2t52.5 11t27.5 27t8 50q0 41 -28 66.5t-68 25.5q-27 0 -55 -12.5t-54 -35.5t-49 -57t-39 -77h121z" />
    <glyph glyph-name="uni0689.fina" unicode="&#x689;" horiz-adv-x="1001" 
d="M77 96q35 -5 75 -9t81.5 -7t82 -4.5t76.5 -1.5q82 0 138 9.5t90.5 28.5t49.5 48t15 69q0 68 -41.5 228t-124.5 420h94l38.5 -133.5l37.5 -135.5l38.5 -141.5l42.5 -150.5q21 -71 42 -116.5t47.5 -71.5t60.5 -36t81 -10v-96h-39q-31 0 -62 9t-59.5 27t-51.5 46.5t-38 67.5
h-5q-18 -41 -44.5 -71t-67 -49.5t-97.5 -28.5t-136 -9q-63 0 -138.5 6t-148.5 16zM429 52q32 0 61 -12.5t50.5 -34t34.5 -51.5t13 -64q0 -32 -13 -61t-34.5 -51t-50.5 -34.5t-61 -12.5q-35 0 -64.5 12.5t-51 34.5t-34 50.5t-12.5 61.5q0 34 12 64t34 51.5t51.5 34t64.5 12.5
zM429 -194q35 0 59.5 24.5t24.5 59.5q0 37 -24.5 62t-59.5 25q-37 0 -62 -25t-25 -62q0 -35 25 -59.5t62 -24.5z" />
    <glyph glyph-name="uni068A.fina" unicode="&#x68a;" horiz-adv-x="1001" 
d="M77 96q35 -5 75 -9t81.5 -7t82 -4.5t76.5 -1.5q82 0 138 9.5t90.5 28.5t49.5 48t15 69q0 68 -41.5 228t-124.5 420h94l38.5 -133.5l37.5 -135.5l38.5 -141.5l42.5 -150.5q21 -71 42 -116.5t47.5 -71.5t60.5 -36t81 -10v-96h-39q-31 0 -62 9t-59.5 27t-51.5 46.5t-38 67.5
h-5q-18 -41 -44.5 -71t-67 -49.5t-97.5 -28.5t-136 -9q-63 0 -138.5 6t-148.5 16zM495 -307h-110v105h110v-105z" />
    <glyph glyph-name="uni068B.fina" unicode="&#x68b;" horiz-adv-x="1001" 
d="M77 96q35 -5 75 -9t81.5 -7t82 -4.5t76.5 -1.5q82 0 138 9.5t90.5 28.5t49.5 48t15 69q0 68 -41.5 228t-124.5 420h94l38.5 -133.5l37.5 -135.5l38.5 -141.5l42.5 -150.5q21 -71 42 -116.5t47.5 -71.5t60.5 -36t81 -10v-96h-39q-31 0 -62 9t-59.5 27t-51.5 46.5t-38 67.5
h-5q-18 -41 -44.5 -71t-67 -49.5t-97.5 -28.5t-136 -9q-63 0 -138.5 6t-148.5 16zM280 1237q24 -2 53.5 -3.5t51.5 -1.5v462h77v-336l3 -1q39 66 93.5 100t114.5 34q35 0 63.5 -14.5t48.5 -38.5t31 -55.5t11 -65.5q0 -53 -14.5 -85t-47 -49t-84.5 -22.5t-127 -5.5
q-50 0 -88 0.5t-68.5 1t-55.5 2t-49 3.5zM578 1232q51 0 84 2t52.5 11t27.5 27t8 50q0 41 -28 66.5t-68 25.5q-27 0 -55 -12.5t-54 -35.5t-49 -57t-39 -77h121zM495 -307h-110v105h110v-105z" />
    <glyph glyph-name="uni068C" unicode="&#x68c;" horiz-adv-x="924" arabic-form="isolated" 
d="M77 96q35 -5 76 -9t82.5 -7t81 -4.5t71.5 -1.5q81 0 138 11.5t92.5 35.5t51.5 62.5t16 92.5q0 57 -17.5 122t-55 140t-95.5 161.5t-139 187.5h103q79 -97 133.5 -182.5t89 -161t50 -142t15.5 -125.5q0 -154 -94.5 -226t-278.5 -72q-59 0 -135.5 6t-147.5 16zM341 1155
h-110v105h110v-105zM539 1155h-110v105h110v-105z" />
    <glyph glyph-name="uniFB85" unicode="&#x68c;" horiz-adv-x="1001" arabic-form="final" 
d="M77 96q35 -5 75 -9t81.5 -7t82 -4.5t76.5 -1.5q82 0 138 9.5t90.5 28.5t49.5 48t15 69q0 68 -41.5 228t-124.5 420h94l38.5 -133.5l37.5 -135.5l38.5 -141.5l42.5 -150.5q21 -71 42 -116.5t47.5 -71.5t60.5 -36t81 -10v-96h-39q-31 0 -62 9t-59.5 27t-51.5 46.5t-38 67.5
h-5q-18 -41 -44.5 -71t-67 -49.5t-97.5 -28.5t-136 -9q-63 0 -138.5 6t-148.5 16zM513 1155h-110v105h110v-105zM711 1155h-110v105h110v-105z" />
    <glyph glyph-name="uni068D" unicode="&#x68d;" horiz-adv-x="924" arabic-form="isolated" 
d="M77 96q35 -5 76 -9t82.5 -7t81 -4.5t71.5 -1.5q81 0 138 11.5t92.5 35.5t51.5 62.5t16 92.5q0 57 -17.5 122t-55 140t-95.5 161.5t-139 187.5h103q79 -97 133.5 -182.5t89 -161t50 -142t15.5 -125.5q0 -154 -94.5 -226t-278.5 -72q-59 0 -135.5 6t-147.5 16zM385 -307
h-110v105h110v-105zM583 -307h-110v105h110v-105z" />
    <glyph glyph-name="uniFB83" unicode="&#x68d;" horiz-adv-x="1001" arabic-form="final" 
d="M77 96q35 -5 75 -9t81.5 -7t82 -4.5t76.5 -1.5q82 0 138 9.5t90.5 28.5t49.5 48t15 69q0 68 -41.5 228t-124.5 420h94l38.5 -133.5l37.5 -135.5l38.5 -141.5l42.5 -150.5q21 -71 42 -116.5t47.5 -71.5t60.5 -36t81 -10v-96h-39q-31 0 -62 9t-59.5 27t-51.5 46.5t-38 67.5
h-5q-18 -41 -44.5 -71t-67 -49.5t-97.5 -28.5t-136 -9q-63 0 -138.5 6t-148.5 16zM385 -307h-110v105h110v-105zM583 -307h-110v105h110v-105z" />
    <glyph glyph-name="uni068E" unicode="&#x68e;" horiz-adv-x="924" arabic-form="isolated" 
d="M77 96q35 -5 76 -9t82.5 -7t81 -4.5t71.5 -1.5q81 0 138 11.5t92.5 35.5t51.5 62.5t16 92.5q0 57 -17.5 122t-55 140t-95.5 161.5t-139 187.5h103q79 -97 133.5 -182.5t89 -161t50 -142t15.5 -125.5q0 -154 -94.5 -226t-278.5 -72q-59 0 -135.5 6t-147.5 16zM341 1155
h-110v105h110v-105zM539 1155h-110v105h110v-105zM440 1337h-110v105h110v-105z" />
    <glyph glyph-name="uniFB87" unicode="&#x68e;" horiz-adv-x="1001" arabic-form="final" 
d="M77 96q35 -5 75 -9t81.5 -7t82 -4.5t76.5 -1.5q82 0 138 9.5t90.5 28.5t49.5 48t15 69q0 68 -41.5 228t-124.5 420h94l38.5 -133.5l37.5 -135.5l38.5 -141.5l42.5 -150.5q21 -71 42 -116.5t47.5 -71.5t60.5 -36t81 -10v-96h-39q-31 0 -62 9t-59.5 27t-51.5 46.5t-38 67.5
h-5q-18 -41 -44.5 -71t-67 -49.5t-97.5 -28.5t-136 -9q-63 0 -138.5 6t-148.5 16zM495 1155h-110v105h110v-105zM693 1155h-110v105h110v-105zM594 1337h-110v105h110v-105z" />
    <glyph glyph-name="uni068F.fina" unicode="&#x68f;" horiz-adv-x="1001" 
d="M77 96q35 -5 75 -9t81.5 -7t82 -4.5t76.5 -1.5q82 0 138 9.5t90.5 28.5t49.5 48t15 69q0 68 -41.5 228t-124.5 420h94l38.5 -133.5l37.5 -135.5l38.5 -141.5l42.5 -150.5q21 -71 42 -116.5t47.5 -71.5t60.5 -36t81 -10v-96h-39q-31 0 -62 9t-59.5 27t-51.5 46.5t-38 67.5
h-5q-18 -41 -44.5 -71t-67 -49.5t-97.5 -28.5t-136 -9q-63 0 -138.5 6t-148.5 16zM516 1320h-110v105h110v-105zM713 1320h-110v105h110v-105zM616 1155h-110v105h110v-105z" />
    <glyph glyph-name="uni0690.fina" unicode="&#x690;" horiz-adv-x="1001" 
d="M77 96q35 -5 75 -9t81.5 -7t82 -4.5t76.5 -1.5q82 0 138 9.5t90.5 28.5t49.5 48t15 69q0 68 -41.5 228t-124.5 420h94l38.5 -133.5l37.5 -135.5l38.5 -141.5l42.5 -150.5q21 -71 42 -116.5t47.5 -71.5t60.5 -36t81 -10v-96h-39q-31 0 -62 9t-59.5 27t-51.5 46.5t-38 67.5
h-5q-18 -41 -44.5 -71t-67 -49.5t-97.5 -28.5t-136 -9q-63 0 -138.5 6t-148.5 16zM511 1155h-110v105h110v-105zM709 1155h-110v105h110v-105zM511 1357h-110v105h110v-105zM709 1357h-110v105h110v-105z" />
    <glyph glyph-name="uni06EE.fina" unicode="&#x6ee;" horiz-adv-x="1001" 
d="M77 96q35 -5 75 -9t81.5 -7t82 -4.5t76.5 -1.5q82 0 138 9.5t90.5 28.5t49.5 48t15 69q0 68 -41.5 228t-124.5 420h94l38.5 -133.5l37.5 -135.5l38.5 -141.5l42.5 -150.5q21 -71 42 -116.5t47.5 -71.5t60.5 -36t81 -10v-96h-39q-31 0 -62 9t-59.5 27t-51.5 46.5t-38 67.5
h-5q-18 -41 -44.5 -71t-67 -49.5t-97.5 -28.5t-136 -9q-63 0 -138.5 6t-148.5 16zM617 1508l230 -352h-85l-183 274l-186 -274h-85l232 352h77z" />
    <glyph glyph-name="afii57513" unicode="&#x691;" horiz-adv-x="770" arabic-form="isolated" 
d="M0 -327q51 -18 104.5 -28.5t108.5 -10.5q74 0 132.5 21.5t99 71.5t62 131.5t21.5 200.5q0 129 -33 273.5t-92 283.5h100q26 -65 47 -136t35.5 -143t22.5 -143t8 -135q0 -139 -28 -237.5t-79 -161.5t-122 -92.5t-156 -29.5q-63 0 -123 12.5t-108 32.5v90zM126 929
q24 -2 53.5 -3.5t51.5 -1.5v462h77v-336l3 -1q39 66 93.5 100t114.5 34q35 0 63.5 -14.5t48.5 -38.5t31 -55.5t11 -65.5q0 -53 -14.5 -85t-47 -49t-84.5 -22.5t-127 -5.5q-50 0 -88 0.5t-68.5 1t-55.5 2t-49 3.5zM424 924q51 0 84 2t52.5 11t27.5 27t8 50q0 41 -28 66.5
t-68 25.5q-27 0 -55 -12.5t-54 -35.5t-49 -57t-39 -77h121z" />
    <glyph glyph-name="uniFB8D" unicode="&#x691;" horiz-adv-x="770" arabic-form="final" 
d="M503 616q25 -73 50 -160t40 -175q8 -49 26 -86.5t42 -62.5t52.5 -37.5t56.5 -12.5v-96h-5q-56 0 -88.5 17.5t-55.5 55.5q-2 0 -2.5 -0.5t-2.5 -0.5q0 -141 -28 -239.5t-79 -161t-122 -91t-156 -28.5q-63 0 -123 12.5t-108 32.5v90q51 -18 104.5 -28.5t108.5 -10.5
q74 0 132.5 21.5t99 71.5t62 131.5t21.5 200.5q0 129 -33 273.5t-92 283.5h100zM126 929q24 -2 53.5 -3.5t51.5 -1.5v462h77v-336l3 -1q39 66 93.5 100t114.5 34q35 0 63.5 -14.5t48.5 -38.5t31 -55.5t11 -65.5q0 -53 -14.5 -85t-47 -49t-84.5 -22.5t-127 -5.5
q-50 0 -88 0.5t-68.5 1t-55.5 2t-49 3.5zM424 924q51 0 84 2t52.5 11t27.5 27t8 50q0 41 -28 66.5t-68 25.5q-27 0 -55 -12.5t-54 -35.5t-49 -57t-39 -77h121z" />
    <glyph glyph-name="uni0692.fina" unicode="&#x692;" horiz-adv-x="770" 
d="M503 616q25 -73 50 -160t40 -175q8 -49 26 -86.5t42 -62.5t52.5 -37.5t56.5 -12.5v-96h-5q-56 0 -88.5 17.5t-55.5 55.5q-2 0 -2.5 -0.5t-2.5 -0.5q0 -141 -28 -239.5t-79 -161t-122 -91t-156 -28.5q-63 0 -123 12.5t-108 32.5v90q51 -18 104.5 -28.5t108.5 -10.5
q74 0 132.5 21.5t99 71.5t62 131.5t21.5 200.5q0 129 -33 273.5t-92 283.5h100zM385 848l-232 352h85l186 -274l183 274h85l-230 -352h-77z" />
    <glyph glyph-name="uni0693.fina" unicode="&#x693;" horiz-adv-x="770" 
d="M503 616q25 -73 50 -160t40 -175q8 -49 26 -86.5t42 -62.5t52.5 -37.5t56.5 -12.5v-96h-5q-56 0 -88.5 17.5t-55.5 55.5q-2 0 -2.5 -0.5t-2.5 -0.5q0 -141 -28 -239.5t-79 -161t-122 -91t-156 -28.5q-63 0 -123 12.5t-108 32.5v90q51 -18 104.5 -28.5t108.5 -10.5
q74 0 132.5 21.5t99 71.5t62 131.5t21.5 200.5q0 129 -33 273.5t-92 283.5h100zM611 -192q32 0 61 -12.5t50.5 -34t34.5 -51.5t13 -64q0 -32 -13 -61t-34.5 -51t-50.5 -34.5t-61 -12.5q-35 0 -64.5 12.5t-51 34.5t-34 50.5t-12.5 61.5q0 34 12 64t34 51.5t51.5 34t64.5 12.5
zM611 -438q35 0 59.5 24.5t24.5 59.5q0 37 -24.5 62t-59.5 25q-37 0 -62 -25t-25 -62q0 -35 25 -59.5t62 -24.5z" />
    <glyph glyph-name="uni0694.fina" unicode="&#x694;" horiz-adv-x="770" 
d="M503 616q25 -73 50 -160t40 -175q8 -49 26 -86.5t42 -62.5t52.5 -37.5t56.5 -12.5v-96h-5q-56 0 -88.5 17.5t-55.5 55.5q-2 0 -2.5 -0.5t-2.5 -0.5q0 -141 -28 -239.5t-79 -161t-122 -91t-156 -28.5q-63 0 -123 12.5t-108 32.5v90q51 -18 104.5 -28.5t108.5 -10.5
q74 0 132.5 21.5t99 71.5t62 131.5t21.5 200.5q0 129 -33 273.5t-92 283.5h100zM726 -461h-110v105h110v-105z" />
    <glyph glyph-name="uni0695.fina" unicode="&#x695;" horiz-adv-x="770" 
d="M503 616q25 -73 50 -160t40 -175q8 -49 26 -86.5t42 -62.5t52.5 -37.5t56.5 -12.5v-96h-5q-56 0 -88.5 17.5t-55.5 55.5q-2 0 -2.5 -0.5t-2.5 -0.5q0 -141 -28 -239.5t-79 -161t-122 -91t-156 -28.5q-63 0 -123 12.5t-108 32.5v90q51 -18 104.5 -28.5t108.5 -10.5
q74 0 132.5 21.5t99 71.5t62 131.5t21.5 200.5q0 129 -33 273.5t-92 283.5h100zM726 -543l-232 352h85l186 -274l183 274h85l-230 -352h-77z" />
    <glyph glyph-name="uni0696.fina" unicode="&#x696;" horiz-adv-x="770" 
d="M503 616q25 -73 50 -160t40 -175q8 -49 26 -86.5t42 -62.5t52.5 -37.5t56.5 -12.5v-96h-5q-56 0 -88.5 17.5t-55.5 55.5q-2 0 -2.5 -0.5t-2.5 -0.5q0 -141 -28 -239.5t-79 -161t-122 -91t-156 -28.5q-63 0 -123 12.5t-108 32.5v90q51 -18 104.5 -28.5t108.5 -10.5
q74 0 132.5 21.5t99 71.5t62 131.5t21.5 200.5q0 129 -33 273.5t-92 283.5h100zM292 0h-110v105h110v-105zM726 -461h-110v105h110v-105z" />
    <glyph glyph-name="uni0697.fina" unicode="&#x697;" horiz-adv-x="770" 
d="M503 616q25 -73 50 -160t40 -175q8 -49 26 -86.5t42 -62.5t52.5 -37.5t56.5 -12.5v-96h-5q-56 0 -88.5 17.5t-55.5 55.5q-2 0 -2.5 -0.5t-2.5 -0.5q0 -141 -28 -239.5t-79 -161t-122 -91t-156 -28.5q-63 0 -123 12.5t-108 32.5v90q51 -18 104.5 -28.5t108.5 -10.5
q74 0 132.5 21.5t99 71.5t62 131.5t21.5 200.5q0 129 -33 273.5t-92 283.5h100zM385 847h-110v105h110v-105zM583 847h-110v105h110v-105z" />
    <glyph glyph-name="afii57508" unicode="&#x698;" horiz-adv-x="770" arabic-form="isolated" 
d="M0 -327q51 -18 104.5 -28.5t108.5 -10.5q74 0 132.5 21.5t99 71.5t62 131.5t21.5 200.5q0 129 -33 273.5t-92 283.5h100q26 -65 47 -136t35.5 -143t22.5 -143t8 -135q0 -139 -28 -237.5t-79 -161.5t-122 -92.5t-156 -29.5q-63 0 -123 12.5t-108 32.5v90zM374 847h-110
v105h110v-105zM572 847h-110v105h110v-105zM473 1029h-110v105h110v-105z" />
    <glyph glyph-name="uniFB8B" unicode="&#x698;" horiz-adv-x="770" arabic-form="final" 
d="M503 616q25 -73 50 -160t40 -175q8 -49 26 -86.5t42 -62.5t52.5 -37.5t56.5 -12.5v-96h-5q-56 0 -88.5 17.5t-55.5 55.5q-2 0 -2.5 -0.5t-2.5 -0.5q0 -141 -28 -239.5t-79 -161t-122 -91t-156 -28.5q-63 0 -123 12.5t-108 32.5v90q51 -18 104.5 -28.5t108.5 -10.5
q74 0 132.5 21.5t99 71.5t62 131.5t21.5 200.5q0 129 -33 273.5t-92 283.5h100zM374 847h-110v105h110v-105zM572 847h-110v105h110v-105zM473 1029h-110v105h110v-105z" />
    <glyph glyph-name="uni0699.fina" unicode="&#x699;" horiz-adv-x="770" 
d="M503 616q25 -73 50 -160t40 -175q8 -49 26 -86.5t42 -62.5t52.5 -37.5t56.5 -12.5v-96h-5q-56 0 -88.5 17.5t-55.5 55.5q-2 0 -2.5 -0.5t-2.5 -0.5q0 -141 -28 -239.5t-79 -161t-122 -91t-156 -28.5q-63 0 -123 12.5t-108 32.5v90q51 -18 104.5 -28.5t108.5 -10.5
q74 0 132.5 21.5t99 71.5t62 131.5t21.5 200.5q0 129 -33 273.5t-92 283.5h100zM370 847h-110v105h110v-105zM568 847h-110v105h110v-105zM370 1049h-110v105h110v-105zM568 1049h-110v105h110v-105z" />
    <glyph glyph-name="uni06EF.fina" unicode="&#x6ef;" horiz-adv-x="770" 
d="M503 616q25 -73 50 -160t40 -175q8 -49 26 -86.5t42 -62.5t52.5 -37.5t56.5 -12.5v-96h-5q-56 0 -88.5 17.5t-55.5 55.5q-2 0 -2.5 -0.5t-2.5 -0.5q0 -141 -28 -239.5t-79 -161t-122 -91t-156 -28.5q-63 0 -123 12.5t-108 32.5v90q51 -18 104.5 -28.5t108.5 -10.5
q74 0 132.5 21.5t99 71.5t62 131.5t21.5 200.5q0 129 -33 273.5t-92 283.5h100zM463 1200l230 -352h-85l-183 274l-186 -274h-85l232 352h77z" />
    <glyph glyph-name="uni069A.init" unicode="&#x69a;" horiz-adv-x="1617" 
d="M385 539v-218q0 -122 57.5 -180.5t173.5 -58.5q51 0 92 14t70.5 43t45.5 74.5t16 108.5v217h84v-216q0 -127 62.5 -184t181.5 -57q111 0 161 55.5t50 176.5v379h84v-381q0 -81 -21 -142t-60 -102t-94 -61.5t-123 -20.5q-113 0 -180.5 41.5t-102.5 110.5h-4
q-42 -75 -104 -113.5t-158 -38.5q-47 0 -88.5 8t-77 25t-62.5 44.5t-44 66.5h-4q-34 -75 -93 -109.5t-147 -34.5h-100q-70 0 -70 49q0 22 18 34.5t52 12.5h76q112 0 168.5 52.5t56.5 178.5v226h84zM941 -307h-110v105h110v-105zM942 770h-110v105h110v-105z" />
    <glyph glyph-name="uni069A.medi" unicode="&#x69a;" horiz-adv-x="1694" 
d="M385 539v-218q0 -122 57.5 -180.5t173.5 -58.5q51 0 92 14t70.5 43t45.5 74.5t16 108.5v217h84v-216q0 -127 62.5 -184t181.5 -57q111 0 161 55.5t50 176.5v302h84v-348q0 -99 55.5 -142.5t175.5 -43.5v-96h-31q-91 0 -153.5 34t-88.5 93h-6q-38 -63 -101.5 -95
t-148.5 -32q-113 0 -180.5 41.5t-102.5 110.5h-4q-42 -75 -104 -113.5t-158 -38.5q-47 0 -88.5 8t-77 25t-62.5 44.5t-44 66.5h-4q-34 -75 -93 -109.5t-147 -34.5h-100q-70 0 -70 49q0 22 18 34.5t52 12.5h76q112 0 168.5 52.5t56.5 178.5v226h84zM941 -307h-110v105h110
v-105zM942 770h-110v105h110v-105z" />
    <glyph glyph-name="uni069A.fina" unicode="&#x69a;" horiz-adv-x="2387" 
d="M264 231q-15 -66 -20.5 -123t-5.5 -108q0 -94 21 -163t66.5 -114t117 -67t172.5 -22q89 0 159.5 23t119 72.5t74.5 127t26 185.5q0 82 -12.5 179.5t-35.5 203.5h83l10.5 -45.5t8 -38l7 -38t7.5 -45.5q13 -91 78 -133.5t169 -42.5q51 0 92.5 14t70.5 43t45 74.5t16 108.5
v217h84v-216q0 -127 62.5 -184t181.5 -57q111 0 161 55.5t50 176.5v302h84v-348q0 -99 55.5 -142.5t175.5 -43.5v-96h-31q-91 0 -153 32t-91 95h-5q-38 -63 -101 -95t-148 -32q-113 0 -180.5 41.5t-102.5 110.5h-4q-36 -70 -99.5 -111t-162.5 -41q-78 0 -134.5 22t-91.5 57
q-2 0 -2.5 -0.5t-2.5 -0.5q0 -139 -33.5 -238.5t-95.5 -163.5t-150.5 -94t-197.5 -30q-214 0 -330.5 109.5t-116.5 332.5q0 57 8 119.5t24 131.5h78zM1633 -307h-110v105h110v-105zM1634 770h-110v105h110v-105z" />
    <glyph glyph-name="uni069B.init" unicode="&#x69b;" horiz-adv-x="1617" 
d="M385 539v-218q0 -122 57.5 -180.5t173.5 -58.5q51 0 92 14t70.5 43t45.5 74.5t16 108.5v217h84v-216q0 -127 62.5 -184t181.5 -57q111 0 161 55.5t50 176.5v379h84v-381q0 -81 -21 -142t-60 -102t-94 -61.5t-123 -20.5q-113 0 -180.5 41.5t-102.5 110.5h-4
q-42 -75 -104 -113.5t-158 -38.5q-47 0 -88.5 8t-77 25t-62.5 44.5t-44 66.5h-4q-34 -75 -93 -109.5t-147 -34.5h-100q-70 0 -70 49q0 22 18 34.5t52 12.5h76q112 0 168.5 52.5t56.5 178.5v226h84zM843 -307h-110v105h110v-105zM1040 -307h-110v105h110v-105zM943 -472h-110
v105h110v-105z" />
    <glyph glyph-name="uni069B.medi" unicode="&#x69b;" horiz-adv-x="1694" 
d="M385 539v-218q0 -122 57.5 -180.5t173.5 -58.5q51 0 92 14t70.5 43t45.5 74.5t16 108.5v217h84v-216q0 -127 62.5 -184t181.5 -57q111 0 161 55.5t50 176.5v302h84v-348q0 -99 55.5 -142.5t175.5 -43.5v-96h-31q-91 0 -153.5 34t-88.5 93h-6q-38 -63 -101.5 -95
t-148.5 -32q-113 0 -180.5 41.5t-102.5 110.5h-4q-42 -75 -104 -113.5t-158 -38.5q-47 0 -88.5 8t-77 25t-62.5 44.5t-44 66.5h-4q-34 -75 -93 -109.5t-147 -34.5h-100q-70 0 -70 49q0 22 18 34.5t52 12.5h76q112 0 168.5 52.5t56.5 178.5v226h84zM843 -307h-110v105h110
v-105zM1040 -307h-110v105h110v-105zM943 -472h-110v105h110v-105z" />
    <glyph glyph-name="uni069B.fina" unicode="&#x69b;" horiz-adv-x="2387" 
d="M264 231q-15 -66 -20.5 -123t-5.5 -108q0 -94 21 -163t66.5 -114t117 -67t172.5 -22q89 0 159.5 23t119 72.5t74.5 127t26 185.5q0 82 -12.5 179.5t-35.5 203.5h83l10.5 -45.5t8 -38l7 -38t7.5 -45.5q13 -91 78 -133.5t169 -42.5q51 0 92.5 14t70.5 43t45 74.5t16 108.5
v217h84v-216q0 -127 62.5 -184t181.5 -57q111 0 161 55.5t50 176.5v302h84v-348q0 -99 55.5 -142.5t175.5 -43.5v-96h-31q-91 0 -153 32t-91 95h-5q-38 -63 -101 -95t-148 -32q-113 0 -180.5 41.5t-102.5 110.5h-4q-36 -70 -99.5 -111t-162.5 -41q-78 0 -134.5 22t-91.5 57
q-2 0 -2.5 -0.5t-2.5 -0.5q0 -139 -33.5 -238.5t-95.5 -163.5t-150.5 -94t-197.5 -30q-214 0 -330.5 109.5t-116.5 332.5q0 57 8 119.5t24 131.5h78zM1536 -307h-110v105h110v-105zM1733 -307h-110v105h110v-105zM1636 -472h-110v105h110v-105z" />
    <glyph glyph-name="uni069C.init" unicode="&#x69c;" horiz-adv-x="1617" 
d="M385 539v-218q0 -122 57.5 -180.5t173.5 -58.5q51 0 92 14t70.5 43t45.5 74.5t16 108.5v217h84v-216q0 -127 62.5 -184t181.5 -57q111 0 161 55.5t50 176.5v379h84v-381q0 -81 -21 -142t-60 -102t-94 -61.5t-123 -20.5q-113 0 -180.5 41.5t-102.5 110.5h-4
q-42 -75 -104 -113.5t-158 -38.5q-47 0 -88.5 8t-77 25t-62.5 44.5t-44 66.5h-4q-34 -75 -93 -109.5t-147 -34.5h-100q-70 0 -70 49q0 22 18 34.5t52 12.5h76q112 0 168.5 52.5t56.5 178.5v226h84zM840 -307h-110v105h110v-105zM1037 -307h-110v105h110v-105zM940 -472h-110
v105h110v-105zM842 770h-110v105h110v-105zM1040 770h-110v105h110v-105zM941 952h-110v105h110v-105z" />
    <glyph glyph-name="uni069C.medi" unicode="&#x69c;" horiz-adv-x="1694" 
d="M385 539v-218q0 -122 57.5 -180.5t173.5 -58.5q51 0 92 14t70.5 43t45.5 74.5t16 108.5v217h84v-216q0 -127 62.5 -184t181.5 -57q111 0 161 55.5t50 176.5v302h84v-348q0 -99 55.5 -142.5t175.5 -43.5v-96h-31q-91 0 -153.5 34t-88.5 93h-6q-38 -63 -101.5 -95
t-148.5 -32q-113 0 -180.5 41.5t-102.5 110.5h-4q-42 -75 -104 -113.5t-158 -38.5q-47 0 -88.5 8t-77 25t-62.5 44.5t-44 66.5h-4q-34 -75 -93 -109.5t-147 -34.5h-100q-70 0 -70 49q0 22 18 34.5t52 12.5h76q112 0 168.5 52.5t56.5 178.5v226h84zM842 770h-110v105h110
v-105zM1040 770h-110v105h110v-105zM941 952h-110v105h110v-105zM840 -307h-110v105h110v-105zM1037 -307h-110v105h110v-105zM940 -472h-110v105h110v-105z" />
    <glyph glyph-name="uni069C.fina" unicode="&#x69c;" horiz-adv-x="2387" 
d="M264 231q-15 -66 -20.5 -123t-5.5 -108q0 -94 21 -163t66.5 -114t117 -67t172.5 -22q89 0 159.5 23t119 72.5t74.5 127t26 185.5q0 82 -12.5 179.5t-35.5 203.5h83l10.5 -45.5t8 -38l7 -38t7.5 -45.5q13 -91 78 -133.5t169 -42.5q51 0 92.5 14t70.5 43t45 74.5t16 108.5
v217h84v-216q0 -127 62.5 -184t181.5 -57q111 0 161 55.5t50 176.5v302h84v-348q0 -99 55.5 -142.5t175.5 -43.5v-96h-31q-91 0 -153 32t-91 95h-5q-38 -63 -101 -95t-148 -32q-113 0 -180.5 41.5t-102.5 110.5h-4q-36 -70 -99.5 -111t-162.5 -41q-78 0 -134.5 22t-91.5 57
q-2 0 -2.5 -0.5t-2.5 -0.5q0 -139 -33.5 -238.5t-95.5 -163.5t-150.5 -94t-197.5 -30q-214 0 -330.5 109.5t-116.5 332.5q0 57 8 119.5t24 131.5h78zM1536 -307h-110v105h110v-105zM1733 -307h-110v105h110v-105zM1636 -472h-110v105h110v-105zM1534 770h-110v105h110v-105z
M1732 770h-110v105h110v-105zM1633 952h-110v105h110v-105z" />
    <glyph glyph-name="uni06FA.init" unicode="&#x6fa;" horiz-adv-x="1617" 
d="M385 539v-218q0 -122 57.5 -180.5t173.5 -58.5q51 0 92 14t70.5 43t45.5 74.5t16 108.5v217h84v-216q0 -127 62.5 -184t181.5 -57q111 0 161 55.5t50 176.5v379h84v-381q0 -81 -21 -142t-60 -102t-94 -61.5t-123 -20.5q-113 0 -180.5 41.5t-102.5 110.5h-4
q-42 -75 -104 -113.5t-158 -38.5q-47 0 -88.5 8t-77 25t-62.5 44.5t-44 66.5h-4q-34 -75 -93 -109.5t-147 -34.5h-100q-70 0 -70 49q0 22 18 34.5t52 12.5h76q112 0 168.5 52.5t56.5 178.5v226h84zM941 -307h-110v105h110v-105zM843 770h-110v105h110v-105zM1041 770h-110
v105h110v-105zM942 952h-110v105h110v-105z" />
    <glyph glyph-name="uni06FA.medi" unicode="&#x6fa;" horiz-adv-x="1694" 
d="M385 539v-218q0 -122 57.5 -180.5t173.5 -58.5q51 0 92 14t70.5 43t45.5 74.5t16 108.5v217h84v-216q0 -127 62.5 -184t181.5 -57q111 0 161 55.5t50 176.5v302h84v-348q0 -99 55.5 -142.5t175.5 -43.5v-96h-31q-91 0 -153.5 34t-88.5 93h-6q-38 -63 -101.5 -95
t-148.5 -32q-113 0 -180.5 41.5t-102.5 110.5h-4q-42 -75 -104 -113.5t-158 -38.5q-47 0 -88.5 8t-77 25t-62.5 44.5t-44 66.5h-4q-34 -75 -93 -109.5t-147 -34.5h-100q-70 0 -70 49q0 22 18 34.5t52 12.5h76q112 0 168.5 52.5t56.5 178.5v226h84zM941 -307h-110v105h110
v-105zM843 770h-110v105h110v-105zM1041 770h-110v105h110v-105zM942 952h-110v105h110v-105z" />
    <glyph glyph-name="uni06FA.fina" unicode="&#x6fa;" horiz-adv-x="2387" 
d="M264 231q-15 -66 -20.5 -123t-5.5 -108q0 -94 21 -163t66.5 -114t117 -67t172.5 -22q89 0 159.5 23t119 72.5t74.5 127t26 185.5q0 82 -12.5 179.5t-35.5 203.5h83l10.5 -45.5t8 -38l7 -38t7.5 -45.5q13 -91 78 -133.5t169 -42.5q51 0 92.5 14t70.5 43t45 74.5t16 108.5
v217h84v-216q0 -127 62.5 -184t181.5 -57q111 0 161 55.5t50 176.5v302h84v-348q0 -99 55.5 -142.5t175.5 -43.5v-96h-31q-91 0 -153 32t-91 95h-5q-38 -63 -101 -95t-148 -32q-113 0 -180.5 41.5t-102.5 110.5h-4q-36 -70 -99.5 -111t-162.5 -41q-78 0 -134.5 22t-91.5 57
q-2 0 -2.5 -0.5t-2.5 -0.5q0 -139 -33.5 -238.5t-95.5 -163.5t-150.5 -94t-197.5 -30q-214 0 -330.5 109.5t-116.5 332.5q0 57 8 119.5t24 131.5h78zM1633 -307h-110v105h110v-105zM1534 770h-110v105h110v-105zM1732 770h-110v105h110v-105zM1633 952h-110v105h110v-105z
" />
    <glyph glyph-name="uni069D.init" unicode="&#x69d;" horiz-adv-x="1848" 
d="M335 425l10.5 -47.5l8.5 -37.5t7 -37l7 -45q24 -164 171 -176q70 151 157 265.5t185 191.5t204 115.5t215 38.5q84 0 156.5 -26.5t125 -76.5t82.5 -123t30 -167q0 -82 -20.5 -141t-72.5 -97.5t-141.5 -57t-227.5 -18.5q-146 0 -267.5 0.5t-214.5 2t-155.5 5t-89.5 9.5
q-116 27 -162 106h-4q-28 -61 -86 -92t-153 -31h-100q-70 0 -70 49q0 22 18 34.5t52 12.5h76q103 0 157 33.5t54 90.5q0 48 -11 103l-24 116h83zM1293 82q90 0 151 11t97.5 35.5t52.5 64.5t16 98q0 75 -23 132t-64.5 95.5t-99 58.5t-127.5 20q-100 0 -194.5 -33.5
t-179.5 -99t-158.5 -161.5t-131.5 -221h661zM1034 -307h-110v105h110v-105zM1232 -307h-110v105h110v-105z" />
    <glyph glyph-name="uni069D.medi" unicode="&#x69d;" horiz-adv-x="1848" 
d="M335 425l10.5 -47.5l8.5 -37.5t7 -37l7 -45q24 -164 171 -176q70 151 157 265.5t185 191.5t204 115.5t215 38.5q84 0 156.5 -26.5t125 -76.5t82.5 -123t30 -167q0 -64 9 -106t27.5 -67t47.5 -35t70 -10v-96h-12q-68 0 -115.5 35t-67.5 93h-6q-27 -35 -62 -59t-83.5 -39.5
t-114 -22.5t-155.5 -7q-146 0 -267.5 0.5t-214.5 2t-155.5 5t-89.5 9.5q-116 27 -162 106h-4q-28 -61 -86 -92t-153 -31h-100q-70 0 -70 49q0 22 18 34.5t52 12.5h77q102 0 156 32.5t54 91.5q0 48 -11 103l-24 116h83zM1293 82q90 0 151 11t97.5 35.5t52.5 64.5t16 98
q0 75 -23 132t-64.5 96t-99 58.5t-127.5 19.5q-100 0 -194.5 -33.5t-179.5 -99t-158.5 -161.5t-131.5 -221h661zM1033 -307h-110v105h110v-105zM1231 -307h-110v105h110v-105z" />
    <glyph glyph-name="uni069D.fina" unicode="&#x69d;" horiz-adv-x="2541" 
d="M264 231q-15 -66 -20.5 -123t-5.5 -108q0 -94 21 -163t66.5 -114t117 -67t172.5 -22q89 0 159.5 23t119 72.5t74.5 127t26 185.5q0 82 -12.5 179.5t-35.5 203.5h83l10.5 -47.5l8.5 -37.5t7 -37l7 -45q23 -164 170 -176q70 151 157 265.5t185 191.5t204 115.5t215 38.5
q84 0 156.5 -26.5t125 -77t82.5 -123.5t30 -166q0 -64 9 -106t27.5 -67t47.5 -35t70 -10v-96h-12q-68 0 -115.5 35t-67.5 93h-6q-27 -35 -62 -59t-83.5 -39.5t-114 -22.5t-155.5 -7q-143 0 -264 0.5t-215 2t-157.5 5t-90.5 9.5q-40 9 -70 26t-45 36l-5 -1
q0 -139 -33.5 -238.5t-95.5 -163.5t-150.5 -94t-197.5 -30q-214 0 -330.5 109.5t-116.5 332.5q0 57 8 119.5t24 131.5h78zM1986 82q90 0 151 11t97.5 35.5t52.5 64.5t16 98q0 75 -23 132t-64.5 96t-99 58.5t-127.5 19.5q-100 0 -194.5 -33.5t-179.5 -99t-158.5 -161.5
t-131.5 -221h661zM1727 -307h-110v105h110v-105zM1925 -307h-110v105h110v-105z" />
    <glyph glyph-name="uni069E.init" unicode="&#x69e;" horiz-adv-x="1848" 
d="M335 425l10.5 -47.5l8.5 -37.5t7 -37l7 -45q24 -164 171 -176q70 151 157 265.5t185 191.5t204 115.5t215 38.5q84 0 156.5 -26.5t125 -76.5t82.5 -123t30 -167q0 -82 -20.5 -141t-72.5 -97.5t-141.5 -57t-227.5 -18.5q-146 0 -267.5 0.5t-214.5 2t-155.5 5t-89.5 9.5
q-116 27 -162 106h-4q-28 -61 -86 -92t-153 -31h-100q-70 0 -70 49q0 22 18 34.5t52 12.5h76q103 0 157 33.5t54 90.5q0 48 -11 103l-24 116h83zM1293 82q90 0 151 11t97.5 35.5t52.5 64.5t16 98q0 75 -23 132t-64.5 95.5t-99 58.5t-127.5 20q-100 0 -194.5 -33.5
t-179.5 -99t-158.5 -161.5t-131.5 -221h661zM880 847h-110v105h110v-105zM1078 847h-110v105h110v-105zM979 1029h-110v105h110v-105z" />
    <glyph glyph-name="uni069E.medi" unicode="&#x69e;" horiz-adv-x="1848" 
d="M335 425l10.5 -47.5l8.5 -37.5t7 -37l7 -45q24 -164 171 -176q70 151 157 265.5t185 191.5t204 115.5t215 38.5q84 0 156.5 -26.5t125 -76.5t82.5 -123t30 -167q0 -64 9 -106t27.5 -67t47.5 -35t70 -10v-96h-12q-68 0 -115.5 35t-67.5 93h-6q-27 -35 -62 -59t-83.5 -39.5
t-114 -22.5t-155.5 -7q-146 0 -267.5 0.5t-214.5 2t-155.5 5t-89.5 9.5q-116 27 -162 106h-4q-28 -61 -86 -92t-153 -31h-100q-70 0 -70 49q0 22 18 34.5t52 12.5h77q102 0 156 32.5t54 91.5q0 48 -11 103l-24 116h83zM1293 82q90 0 151 11t97.5 35.5t52.5 64.5t16 98
q0 75 -23 132t-64.5 96t-99 58.5t-127.5 19.5q-100 0 -194.5 -33.5t-179.5 -99t-158.5 -161.5t-131.5 -221h661zM880 847h-110v105h110v-105zM1078 847h-110v105h110v-105zM979 1029h-110v105h110v-105z" />
    <glyph glyph-name="uni069E.fina" unicode="&#x69e;" horiz-adv-x="2541" 
d="M264 231q-15 -66 -20.5 -123t-5.5 -108q0 -94 21 -163t66.5 -114t117 -67t172.5 -22q89 0 159.5 23t119 72.5t74.5 127t26 185.5q0 82 -12.5 179.5t-35.5 203.5h83l10.5 -47.5l8.5 -37.5t7 -37l7 -45q23 -164 170 -176q70 151 157 265.5t185 191.5t204 115.5t215 38.5
q84 0 156.5 -26.5t125 -77t82.5 -123.5t30 -166q0 -64 9 -106t27.5 -67t47.5 -35t70 -10v-96h-12q-68 0 -115.5 35t-67.5 93h-6q-27 -35 -62 -59t-83.5 -39.5t-114 -22.5t-155.5 -7q-143 0 -264 0.5t-215 2t-157.5 5t-90.5 9.5q-40 9 -70 26t-45 36l-5 -1
q0 -139 -33.5 -238.5t-95.5 -163.5t-150.5 -94t-197.5 -30q-214 0 -330.5 109.5t-116.5 332.5q0 57 8 119.5t24 131.5h78zM1986 82q90 0 151 11t97.5 35.5t52.5 64.5t16 98q0 75 -23 132t-64.5 96t-99 58.5t-127.5 19.5q-100 0 -194.5 -33.5t-179.5 -99t-158.5 -161.5
t-131.5 -221h661zM1573 847h-110v105h110v-105zM1771 847h-110v105h110v-105zM1672 1029h-110v105h110v-105z" />
    <glyph glyph-name="uni06FB.init" unicode="&#x6fb;" horiz-adv-x="1848" 
d="M335 425l10.5 -47.5l8.5 -37.5t7 -37l7 -45q24 -164 171 -176q70 151 157 265.5t185 191.5t204 115.5t215 38.5q84 0 156.5 -26.5t125 -76.5t82.5 -123t30 -167q0 -82 -20.5 -141t-72.5 -97.5t-141.5 -57t-227.5 -18.5q-146 0 -267.5 0.5t-214.5 2t-155.5 5t-89.5 9.5
q-116 27 -162 106h-4q-28 -61 -86 -92t-153 -31h-100q-70 0 -70 49q0 22 18 34.5t52 12.5h76q103 0 157 33.5t54 90.5q0 48 -11 103l-24 116h83zM1293 82q90 0 151 11t97.5 35.5t52.5 64.5t16 98q0 75 -23 132t-64.5 95.5t-99 58.5t-127.5 20q-100 0 -194.5 -33.5
t-179.5 -99t-158.5 -161.5t-131.5 -221h661zM1034 -307h-110v105h110v-105zM1034 847h-110v105h110v-105z" />
    <glyph glyph-name="uni06FB.medi" unicode="&#x6fb;" horiz-adv-x="1848" 
d="M335 425l10.5 -47.5l8.5 -37.5t7 -37l7 -45q24 -164 171 -176q70 151 157 265.5t185 191.5t204 115.5t215 38.5q84 0 156.5 -26.5t125 -76.5t82.5 -123t30 -167q0 -64 9 -106t27.5 -67t47.5 -35t70 -10v-96h-12q-68 0 -115.5 35t-67.5 93h-6q-27 -35 -62 -59t-83.5 -39.5
t-114 -22.5t-155.5 -7q-146 0 -267.5 0.5t-214.5 2t-155.5 5t-89.5 9.5q-116 27 -162 106h-4q-28 -61 -86 -92t-153 -31h-100q-70 0 -70 49q0 22 18 34.5t52 12.5h77q102 0 156 32.5t54 91.5q0 48 -11 103l-24 116h83zM1293 82q90 0 151 11t97.5 35.5t52.5 64.5t16 98
q0 75 -23 132t-64.5 96t-99 58.5t-127.5 19.5q-100 0 -194.5 -33.5t-179.5 -99t-158.5 -161.5t-131.5 -221h661zM1033 -307h-110v105h110v-105zM1034 847h-110v105h110v-105z" />
    <glyph glyph-name="uni06FB.fina" unicode="&#x6fb;" horiz-adv-x="2541" 
d="M264 231q-15 -66 -20.5 -123t-5.5 -108q0 -94 21 -163t66.5 -114t117 -67t172.5 -22q89 0 159.5 23t119 72.5t74.5 127t26 185.5q0 82 -12.5 179.5t-35.5 203.5h83l10.5 -47.5l8.5 -37.5t7 -37l7 -45q23 -164 170 -176q70 151 157 265.5t185 191.5t204 115.5t215 38.5
q84 0 156.5 -26.5t125 -77t82.5 -123.5t30 -166q0 -64 9 -106t27.5 -67t47.5 -35t70 -10v-96h-12q-68 0 -115.5 35t-67.5 93h-6q-27 -35 -62 -59t-83.5 -39.5t-114 -22.5t-155.5 -7q-143 0 -264 0.5t-215 2t-157.5 5t-90.5 9.5q-40 9 -70 26t-45 36l-5 -1
q0 -139 -33.5 -238.5t-95.5 -163.5t-150.5 -94t-197.5 -30q-214 0 -330.5 109.5t-116.5 332.5q0 57 8 119.5t24 131.5h78zM1986 82q90 0 151 11t97.5 35.5t52.5 64.5t16 98q0 75 -23 132t-64.5 96t-99 58.5t-127.5 19.5q-100 0 -194.5 -33.5t-179.5 -99t-158.5 -161.5
t-131.5 -221h661zM1804 -307h-110v105h110v-105zM1804 847h-110v105h110v-105z" />
    <glyph glyph-name="uni069F.init" unicode="&#x69f;" horiz-adv-x="1539" 
d="M368 1516v-1201l3 -1q53 78 119 147t143.5 120.5t167.5 81.5t191 30q84 0 156.5 -26.5t125 -76.5t82.5 -123t30 -167q0 -81 -20.5 -140.5t-72.5 -98t-141.5 -57t-227.5 -18.5h-856h-68q-70 0 -70 49q0 22 18 34.5t52 12.5h231l25 52.5t28 53.5v1328h84zM985 82
q90 0 151 11t97.5 35.5t52.5 64.5t16 98q0 75 -23 132t-64.5 95.5t-99 58.5t-127.5 20q-100 0 -194.5 -34t-179.5 -100t-158.5 -162t-130.5 -219h660zM841 847h-110v105h110v-105zM1039 847h-110v105h110v-105zM940 1029h-110v105h110v-105z" />
    <glyph glyph-name="uni069F.medi" unicode="&#x69f;" horiz-adv-x="1540" 
d="M368 1516v-1201l3 -1q53 78 119 147t143.5 120.5t167.5 81.5t191 30q84 0 156.5 -26.5t125 -77t82.5 -123.5t30 -166q0 -64 9 -106t27.5 -67t47.5 -35t70 -10v-96h-12q-68 0 -115.5 35t-67.5 93h-6q-27 -35 -62 -59t-83.5 -39.5t-114 -22.5t-155.5 -7h-774h-150
q-70 0 -70 49q0 22 18 34.5t52 12.5h231l25 51.5l28 54.5v1328h84zM985 82q90 0 151 11t97.5 35.5t52.5 64.5t16 98q0 75 -23 132t-64.5 95.5t-99 58.5t-127.5 20q-100 0 -194.5 -34t-179.5 -100t-158.5 -162t-130.5 -219h660zM841 847h-110v105h110v-105zM1039 847h-110
v105h110v-105zM940 1029h-110v105h110v-105z" />
    <glyph glyph-name="uni069F.fina" unicode="&#x69f;" horiz-adv-x="1617" 
d="M445 1516v-1201q1 0 1.5 -0.5t1.5 -0.5q53 78 119 147t144 120.5t167.5 81.5t190.5 30q84 0 156.5 -26.5t125 -76.5t82.5 -123t30 -167q0 -64 9 -106t27.5 -67t47.5 -35t70 -10v-96h-12q-68 0 -115.5 35t-67.5 93h-6q-27 -35 -62 -59t-83.5 -39.5t-114 -22.5t-155.5 -7
q-151 0 -266.5 0.5t-203.5 1t-153.5 2t-118 3t-96 3.5l-86.5 4l-32 104q22 -3 53.5 -5t66.5 -4.5t72 -4t71 -2.5l25.5 49l27.5 51v1328h84zM1062 82q90 0 151 11t97.5 35.5t52.5 64.5t16 98q0 75 -23 132t-64.5 95.5t-99 58.5t-127.5 20q-100 0 -194.5 -34t-179.5 -100
t-158.5 -162t-130.5 -219h660zM918 847h-110v105h110v-105zM1116 847h-110v105h110v-105zM1017 1029h-110v105h110v-105z" />
    <glyph glyph-name="uni06A0.init" unicode="&#x6a0;" horiz-adv-x="1155" 
d="M1001 154q-100 -47 -188 -79.5t-173 -52t-170.5 -28t-181.5 -8.5h-288q-70 0 -70 49q0 22 18 34.5t52 12.5h352q0 2 0.5 3t0.5 3q-41 20 -77.5 52.5t-63.5 75t-42.5 93.5t-15.5 109q0 90 35.5 164t96 127.5t140 82.5t167.5 29q48 0 88.5 -5.5t88.5 -14.5v-97
q-23 4 -43.5 8t-42 7t-46.5 4.5t-56 1.5q-74 0 -135.5 -24t-106 -66t-69.5 -98t-25 -120q0 -60 22 -112.5t59.5 -95t88.5 -72t109 -42.5q55 8 110 21t113 31.5t120 43.5t133 57v-94zM456 1001h-110v105h110v-105zM654 1001h-110v105h110v-105zM555 1183h-110v105h110v-105z
" />
    <glyph glyph-name="uni06A0.medi" unicode="&#x6a0;" horiz-adv-x="1078" 
d="M154 631q124 30 244.5 46t231.5 16q148 0 221 -45t73 -120q0 -39 -17.5 -87.5t-51.5 -101t-84 -105.5t-115 -100q23 -11 63.5 -20.5t95 -16.5t121 -11t142.5 -4v-96h-77q-121 0 -230.5 23t-199.5 71q-50 -24 -102.5 -41.5t-111 -29t-123.5 -17.5t-140 -6h-94
q-70 0 -70 49q0 22 18 34.5t52 12.5h77q270 0 404 55q-36 28 -83 77.5t-93 108t-86.5 118.5t-64.5 110v80zM571 175q51 29 99 73.5t86 93t61 95t23 80.5q0 41 -52 63.5t-156 22.5q-105 0 -203 -11.5t-182 -29.5v-11q28 -49 65 -101.5t79.5 -102.5t88.5 -94.5t91 -77.5z
M521 924h-110v105h110v-105zM719 924h-110v105h110v-105zM620 1106h-110v105h110v-105z" />
    <glyph glyph-name="uni06A0.fina" unicode="&#x6a0;" horiz-adv-x="1078" 
d="M154 743q61 15 120 26.5t118 19t120.5 11.5t127.5 4q144 0 214 -47t70 -122q0 -38 -18 -80.5t-60 -89.5t-111.5 -98.5t-172.5 -107.5q54 -50 105.5 -84t105.5 -54.5t113.5 -29.5t129.5 -9h62v-96h-77q-81 0 -149 12.5t-130.5 40.5t-122.5 73.5t-125 112.5
q-132 -52 -204 -133.5t-72 -195.5q0 -54 26.5 -106.5t80.5 -94t135.5 -67t192.5 -25.5q117 0 209.5 19t158.5 51v-90q-73 -34 -165.5 -55t-201.5 -21q-130 0 -229.5 29.5t-166.5 81t-101.5 121t-34.5 148.5q0 135 85 236t239 165q-38 42 -77.5 92l-76 100t-67 97.5
t-51.5 85.5v80zM510 322q91 49 154 91.5t102 80t56.5 70t17.5 60.5q0 39 -53.5 64.5t-163.5 25.5q-49 0 -101 -2.5t-101.5 -8t-94 -13t-79.5 -16.5v-11l56 -84.5t69.5 -96.5l72.5 -91t65 -69zM501 1001h-110v105h110v-105zM699 1001h-110v105h110v-105zM600 1183h-110v105
h110v-105z" />
    <glyph glyph-name="uni06FC.init" unicode="&#x6fc;" horiz-adv-x="1155" 
d="M1001 154q-100 -47 -188 -79.5t-173 -52t-170.5 -28t-181.5 -8.5h-288q-70 0 -70 49q0 22 18 34.5t52 12.5h352q0 2 0.5 3t0.5 3q-41 20 -77.5 52.5t-63.5 75t-42.5 93.5t-15.5 109q0 90 35.5 164t96 127.5t140 82.5t167.5 29q48 0 88.5 -5.5t88.5 -14.5v-97
q-23 4 -43.5 8t-42 7t-46.5 4.5t-56 1.5q-74 0 -135.5 -24t-106 -66t-69.5 -98t-25 -120q0 -60 22 -112.5t59.5 -95t88.5 -72t109 -42.5q55 8 110 21t113 31.5t120 43.5t133 57v-94zM649 -307h-110v105h110v-105zM572 1001h-110v105h110v-105z" />
    <glyph glyph-name="uni06FC.medi" unicode="&#x6fc;" horiz-adv-x="1078" 
d="M154 631q124 30 244.5 46t231.5 16q148 0 221 -45t73 -120q0 -39 -17.5 -87.5t-51.5 -101t-84 -105.5t-115 -100q23 -11 63.5 -20.5t95 -16.5t121 -11t142.5 -4v-96h-77q-121 0 -230.5 23t-199.5 71q-50 -24 -102.5 -41.5t-111 -29t-123.5 -17.5t-140 -6h-94
q-70 0 -70 49q0 22 18 34.5t52 12.5h77q270 0 404 55q-36 28 -83 77.5t-93 108t-86.5 118.5t-64.5 110v80zM571 175q51 29 99 73.5t86 93t61 95t23 80.5q0 41 -52 63.5t-156 22.5q-105 0 -203 -11.5t-182 -29.5v-11q28 -49 65 -101.5t79.5 -102.5t88.5 -94.5t91 -77.5z
M616 -307h-110v105h110v-105zM616 924h-110v105h110v-105z" />
    <glyph glyph-name="uni06FC.fina" unicode="&#x6fc;" horiz-adv-x="1078" 
d="M154 743q61 15 120 26.5t118 19t120.5 11.5t127.5 4q144 0 214 -47t70 -122q0 -38 -18 -80.5t-60 -89.5t-111.5 -98.5t-172.5 -107.5q54 -50 105.5 -84t105.5 -54.5t113.5 -29.5t129.5 -9h62v-96h-77q-81 0 -149 12.5t-130.5 40.5t-122.5 73.5t-125 112.5
q-132 -52 -204 -133.5t-72 -195.5q0 -54 26.5 -106.5t80.5 -94t135.5 -67t192.5 -25.5q117 0 209.5 19t158.5 51v-90q-73 -34 -165.5 -55t-201.5 -21q-130 0 -229.5 29.5t-166.5 81t-101.5 121t-34.5 148.5q0 135 85 236t239 165q-38 42 -77.5 92l-76 100t-67 97.5
t-51.5 85.5v80zM510 322q91 49 154 91.5t102 80t56.5 70t17.5 60.5q0 39 -53.5 64.5t-163.5 25.5q-49 0 -101 -2.5t-101.5 -8t-94 -13t-79.5 -16.5v-11l56 -84.5t69.5 -96.5l72.5 -91t65 -69zM572 -202h-110v105h110v-105zM616 1001h-110v105h110v-105z" />
    <glyph glyph-name="uni06A1.init" unicode="&#x6a1;" horiz-adv-x="847" 
d="M367 96q-97 50 -155 118.5t-58 154.5q0 67 23.5 132t61.5 116.5t86.5 83.5t98.5 32q51 0 107.5 -37.5t104.5 -104.5q42 -58 66.5 -127.5t24.5 -135.5q0 -80 -29 -143t-91 -107.5t-159.5 -68t-235.5 -23.5h-212q-70 0 -70 49q0 22 18 34.5t52 12.5h134q27 0 58 0.5l62 1
t59.5 2t51.5 3.5zM643 324q0 51 -21 106.5t-54 101.5t-73.5 75.5t-79.5 29.5q-30 0 -61.5 -24t-57 -62.5t-42 -85t-16.5 -91.5q0 -66 62 -130t195 -129q31 12 58.5 33t47 48t31 59.5t11.5 68.5z" />
    <glyph glyph-name="uni06A1.medi" unicode="&#x6a1;" horiz-adv-x="847" 
d="M375 95q-50 22 -91 51.5t-70 64.5t-44.5 75t-15.5 83q0 67 23.5 132t61.5 116.5t86.5 83.5t98.5 32q51 0 107.5 -37.5t104.5 -104.5q42 -58 66.5 -128t24.5 -139q0 -70 -30 -129.5t-96 -103.5q18 -3 37 -4.5t46 -2.5t66 -1.5t97 -0.5v-96h-32q-96 0 -172.5 12t-141.5 38
q-57 -25 -144.5 -37.5t-202.5 -12.5h-154q-70 0 -70 49q0 22 18 34.5t52 12.5h177q73 0 123.5 2t72.5 4zM643 324q0 51 -21 106.5t-54 101.5t-73.5 75.5t-79.5 29.5q-30 0 -61.5 -24t-57 -62.5t-42 -85t-16.5 -91.5q0 -67 62 -134t195 -126q69 29 108.5 84.5t39.5 125.5z
" />
    <glyph glyph-name="uni06A1.fina" unicode="&#x6a1;" horiz-adv-x="2002" 
d="M1232 369q0 67 23.5 132t61.5 116.5t86.5 83.5t98.5 32q51 0 107.5 -37.5t104.5 -104.5q42 -58 66.5 -128t24.5 -139t-30 -129t-96 -104q27 -3 56 -5t66.5 -3t86.5 -1h114v-96h-109q-96 0 -172.5 11t-141.5 37q-32 -14 -79 -24t-104 -17.5t-123 -11t-135 -3.5h-214
q-150 0 -256.5 6.5t-181.5 19t-123.5 31t-82.5 42.5q-59 42 -92.5 106.5t-33.5 157.5q0 47 7.5 100t21.5 98h81q-11 -37 -18.5 -83t-7.5 -97q0 -77 25.5 -126.5t69.5 -78.5q28 -19 74 -34t119.5 -25t178.5 -15.5t252 -5.5q123 0 208 1t142.5 2.5t92 3t55.5 3.5q1 2 1 3.5
t1 3.5q-106 49 -165.5 120.5t-59.5 157.5zM1721 324q0 51 -21 106.5t-54 101.5t-73.5 75.5t-79.5 29.5q-30 0 -61 -24t-57 -62.5t-42.5 -85t-16.5 -91.5q0 -66 61 -133t196 -127q69 29 108.5 84.5t39.5 125.5z" />
    <glyph glyph-name="uni06A2.init" unicode="&#x6a2;" horiz-adv-x="848" 
d="M367 96q-97 50 -155 118.5t-58 154.5q0 67 23.5 132t61.5 116.5t86.5 83.5t98.5 32q51 0 107.5 -37.5t104.5 -104.5q42 -58 66.5 -127.5t24.5 -135.5q0 -80 -29 -143t-91 -107.5t-159.5 -68t-235.5 -23.5h-212q-70 0 -70 49q0 22 18 34.5t52 12.5h134q27 0 58 0.5l62 1
t59.5 2t51.5 3.5zM643 324q0 51 -21 106.5t-54 101.5t-73.5 75.5t-79.5 29.5q-30 0 -61.5 -24t-57 -62.5t-42 -85t-16.5 -91.5q0 -66 62 -130t195 -129q31 12 58.5 33t47 48t31 59.5t11.5 68.5zM572 -307h-110v105h110v-105z" />
    <glyph glyph-name="uni06A2.medi" unicode="&#x6a2;" horiz-adv-x="847" 
d="M375 95q-50 22 -91 51.5t-70 64.5t-44.5 75t-15.5 83q0 67 23.5 132t61.5 116.5t86.5 83.5t98.5 32q51 0 107.5 -37.5t104.5 -104.5q42 -58 66.5 -128t24.5 -139q0 -70 -30 -129.5t-96 -103.5q18 -3 37 -4.5t46 -2.5t66 -1.5t97 -0.5v-96h-32q-96 0 -172.5 12t-141.5 38
q-57 -25 -144.5 -37.5t-202.5 -12.5h-154q-70 0 -70 49q0 22 18 34.5t52 12.5h177q73 0 123.5 2t72.5 4zM643 324q0 51 -21 106.5t-54 101.5t-73.5 75.5t-79.5 29.5q-30 0 -61.5 -24t-57 -62.5t-42 -85t-16.5 -91.5q0 -67 62 -134t195 -126q69 29 108.5 84.5t39.5 125.5z
M572 -307h-110v105h110v-105z" />
    <glyph glyph-name="uni06A2.fina" unicode="&#x6a2;" horiz-adv-x="2002" 
d="M1232 369q0 67 23.5 132t61.5 116.5t86.5 83.5t98.5 32q51 0 107.5 -37.5t104.5 -104.5q42 -58 66.5 -128t24.5 -139t-30 -129t-96 -104q27 -3 56 -5t66.5 -3t86.5 -1h114v-96h-109q-96 0 -172.5 11t-141.5 37q-32 -14 -79 -24t-104 -17.5t-123 -11t-135 -3.5h-214
q-150 0 -256.5 6.5t-181.5 19t-123.5 31t-82.5 42.5q-59 42 -92.5 106.5t-33.5 157.5q0 47 7.5 100t21.5 98h81q-11 -37 -18.5 -83t-7.5 -97q0 -77 25.5 -126.5t69.5 -78.5q28 -19 74 -34t119.5 -25t178.5 -15.5t252 -5.5q123 0 208 1t142.5 2.5t92 3t55.5 3.5q1 2 1 3.5
t1 3.5q-106 49 -165.5 120.5t-59.5 157.5zM1721 324q0 51 -21 106.5t-54 101.5t-73.5 75.5t-79.5 29.5q-30 0 -61 -24t-57 -62.5t-42.5 -85t-16.5 -91.5q0 -66 61 -133t196 -127q69 29 108.5 84.5t39.5 125.5zM1617 -307h-110v105h110v-105z" />
    <glyph glyph-name="uni06A3.init" unicode="&#x6a3;" horiz-adv-x="847" 
d="M367 96q-97 50 -155 118.5t-58 154.5q0 67 23.5 132t61.5 116.5t86.5 83.5t98.5 32q51 0 107.5 -37.5t104.5 -104.5q42 -58 66.5 -127.5t24.5 -135.5q0 -80 -29 -143t-91 -107.5t-159.5 -68t-235.5 -23.5h-212q-70 0 -70 49q0 22 18 34.5t52 12.5h134q27 0 58 0.5l62 1
t59.5 2t51.5 3.5zM643 324q0 51 -21 106.5t-54 101.5t-73.5 75.5t-79.5 29.5q-30 0 -61.5 -24t-57 -62.5t-42 -85t-16.5 -91.5q0 -66 62 -130t195 -129q31 12 58.5 33t47 48t31 59.5t11.5 68.5zM462 924h-110v105h110v-105zM572 -307h-110v105h110v-105z" />
    <glyph glyph-name="uni06A3.medi" unicode="&#x6a3;" horiz-adv-x="847" 
d="M375 95q-50 22 -91 51.5t-70 64.5t-44.5 75t-15.5 83q0 67 23.5 132t61.5 116.5t86.5 83.5t98.5 32q51 0 107.5 -37.5t104.5 -104.5q42 -58 66.5 -128t24.5 -139q0 -70 -30 -129.5t-96 -103.5q18 -3 37 -4.5t46 -2.5t66 -1.5t97 -0.5v-96h-32q-96 0 -172.5 12t-141.5 38
q-57 -25 -144.5 -37.5t-202.5 -12.5h-154q-70 0 -70 49q0 22 18 34.5t52 12.5h177q73 0 123.5 2t72.5 4zM643 324q0 51 -21 106.5t-54 101.5t-73.5 75.5t-79.5 29.5q-30 0 -61.5 -24t-57 -62.5t-42 -85t-16.5 -91.5q0 -67 62 -134t195 -126q69 29 108.5 84.5t39.5 125.5z
M462 924h-110v105h110v-105zM572 -307h-110v105h110v-105z" />
    <glyph glyph-name="uni06A3.fina" unicode="&#x6a3;" horiz-adv-x="2002" 
d="M1232 369q0 67 23.5 132t61.5 116.5t86.5 83.5t98.5 32q51 0 107.5 -37.5t104.5 -104.5q42 -58 66.5 -128t24.5 -139t-30 -129t-96 -104q27 -3 56 -5t66.5 -3t86.5 -1h114v-96h-109q-96 0 -172.5 11t-141.5 37q-32 -14 -79 -24t-104 -17.5t-123 -11t-135 -3.5h-214
q-150 0 -256.5 6.5t-181.5 19t-123.5 31t-82.5 42.5q-59 42 -92.5 106.5t-33.5 157.5q0 47 7.5 100t21.5 98h81q-11 -37 -18.5 -83t-7.5 -97q0 -77 25.5 -126.5t69.5 -78.5q28 -19 74 -34t119.5 -25t178.5 -15.5t252 -5.5q123 0 208 1t142.5 2.5t92 3t55.5 3.5q1 2 1 3.5
t1 3.5q-106 49 -165.5 120.5t-59.5 157.5zM1721 324q0 51 -21 106.5t-54 101.5t-73.5 75.5t-79.5 29.5q-30 0 -61 -24t-57 -62.5t-42.5 -85t-16.5 -91.5q0 -66 61 -133t196 -127q69 29 108.5 84.5t39.5 125.5zM1034 -307h-110v105h110v-105zM1556 924h-110v105h110v-105z
" />
    <glyph glyph-name="afii57505" unicode="&#x6a4;" horiz-adv-x="1925" arabic-form="isolated" 
d="M264 539q-11 -37 -18.5 -83t-7.5 -97q0 -77 25.5 -126.5t69.5 -78.5q28 -19 74 -34t119.5 -25t178.5 -15.5t252 -5.5q123 0 205.5 0.5t137.5 1.5t87.5 2.5t55.5 3.5q1 2 1 3t1 3q-97 50 -155 118.5t-58 154.5q0 67 23.5 132t61.5 116.5t86.5 83.5t98.5 32
q51 0 107.5 -37.5t105.5 -103.5q42 -58 66 -128t24 -136q0 -67 -22.5 -128.5t-80.5 -109t-158 -76t-254 -28.5h-366q-150 0 -256.5 6.5t-181.5 19t-123.5 31t-82.5 42.5q-59 42 -92.5 106.5t-33.5 157.5q0 47 7.5 100t21.5 98h81zM1721 316q0 51 -21 106.5t-54 101.5
t-73.5 75.5t-79.5 29.5q-30 0 -61.5 -24t-57 -62.5t-42 -85t-16.5 -91.5q0 -66 62 -130t195 -129q31 12 58.5 33t47 48t31 59.5t11.5 68.5zM1458 924h-110v105h110v-105zM1656 924h-110v105h110v-105zM1557 1106h-110v105h110v-105z" />
    <glyph glyph-name="uniFB6C" unicode="&#x6a4;" horiz-adv-x="848" arabic-form="initial" 
d="M367 96q-97 50 -155 118.5t-58 154.5q0 67 23.5 132t61.5 116.5t86.5 83.5t98.5 32q51 0 107.5 -37.5t104.5 -104.5q42 -58 66.5 -127.5t24.5 -135.5q0 -80 -29 -143t-91 -107.5t-159.5 -68t-235.5 -23.5h-212q-70 0 -70 49q0 22 18 34.5t52 12.5h134q27 0 58 0.5l62 1
t59.5 2t51.5 3.5zM643 324q0 51 -21 106.5t-54 101.5t-73.5 75.5t-79.5 29.5q-30 0 -61.5 -24t-57 -62.5t-42 -85t-16.5 -91.5q0 -66 62 -130t195 -129q31 12 58.5 33t47 48t31 59.5t11.5 68.5zM380 924h-110v105h110v-105zM578 924h-110v105h110v-105zM479 1106h-110v105
h110v-105z" />
    <glyph glyph-name="uniFB6D" unicode="&#x6a4;" horiz-adv-x="847" arabic-form="medial" 
d="M375 95q-50 22 -91 51.5t-70 64.5t-44.5 75t-15.5 83q0 67 23.5 132t61.5 116.5t86.5 83.5t98.5 32q51 0 107.5 -37.5t104.5 -104.5q42 -58 66.5 -128t24.5 -139q0 -70 -30 -129.5t-96 -103.5q18 -3 37 -4.5t46 -2.5t66 -1.5t97 -0.5v-96h-32q-96 0 -172.5 12t-141.5 38
q-57 -25 -144.5 -37.5t-202.5 -12.5h-154q-70 0 -70 49q0 22 18 34.5t52 12.5h177q73 0 123.5 2t72.5 4zM643 324q0 51 -21 106.5t-54 101.5t-73.5 75.5t-79.5 29.5q-30 0 -61.5 -24t-57 -62.5t-42 -85t-16.5 -91.5q0 -67 62 -134t195 -126q69 29 108.5 84.5t39.5 125.5z
M380 924h-110v105h110v-105zM578 924h-110v105h110v-105zM479 1106h-110v105h110v-105z" />
    <glyph glyph-name="uniFB6B" unicode="&#x6a4;" horiz-adv-x="2002" arabic-form="final" 
d="M1232 369q0 67 23.5 132t61.5 116.5t86.5 83.5t98.5 32q51 0 107.5 -37.5t104.5 -104.5q42 -58 66.5 -128t24.5 -139t-30 -129t-96 -104q27 -3 56 -5t66.5 -3t86.5 -1h114v-96h-109q-96 0 -172.5 11t-141.5 37q-32 -14 -79 -24t-104 -17.5t-123 -11t-135 -3.5h-214
q-150 0 -256.5 6.5t-181.5 19t-123.5 31t-82.5 42.5q-59 42 -92.5 106.5t-33.5 157.5q0 47 7.5 100t21.5 98h81q-11 -37 -18.5 -83t-7.5 -97q0 -77 25.5 -126.5t69.5 -78.5q28 -19 74 -34t119.5 -25t178.5 -15.5t252 -5.5q123 0 208 1t142.5 2.5t92 3t55.5 3.5q1 2 1 3.5
t1 3.5q-106 49 -165.5 120.5t-59.5 157.5zM1721 324q0 51 -21 106.5t-54 101.5t-73.5 75.5t-79.5 29.5q-30 0 -61 -24t-57 -62.5t-42.5 -85t-16.5 -91.5q0 -66 61 -133t196 -127q69 29 108.5 84.5t39.5 125.5zM1458 924h-110v105h110v-105zM1656 924h-110v105h110v-105z
M1557 1106h-110v105h110v-105z" />
    <glyph glyph-name="uni06A5.init" unicode="&#x6a5;" horiz-adv-x="848" 
d="M367 96q-97 50 -155 118.5t-58 154.5q0 67 23.5 132t61.5 116.5t86.5 83.5t98.5 32q51 0 107.5 -37.5t104.5 -104.5q42 -58 66.5 -127.5t24.5 -135.5q0 -80 -29 -143t-91 -107.5t-159.5 -68t-235.5 -23.5h-212q-70 0 -70 49q0 22 18 34.5t52 12.5h134q27 0 58 0.5l62 1
t59.5 2t51.5 3.5zM643 324q0 51 -21 106.5t-54 101.5t-73.5 75.5t-79.5 29.5q-30 0 -61.5 -24t-57 -62.5t-42 -85t-16.5 -91.5q0 -66 62 -130t195 -129q31 12 58.5 33t47 48t31 59.5t11.5 68.5zM458 -307h-110v105h110v-105zM655 -307h-110v105h110v-105zM558 -472h-110v105
h110v-105z" />
    <glyph glyph-name="uni06A5.medi" unicode="&#x6a5;" horiz-adv-x="847" 
d="M375 95q-50 22 -91 51.5t-70 64.5t-44.5 75t-15.5 83q0 67 23.5 132t61.5 116.5t86.5 83.5t98.5 32q51 0 107.5 -37.5t104.5 -104.5q42 -58 66.5 -128t24.5 -139q0 -70 -30 -129.5t-96 -103.5q18 -3 37 -4.5t46 -2.5t66 -1.5t97 -0.5v-96h-32q-96 0 -172.5 12t-141.5 38
q-57 -25 -144.5 -37.5t-202.5 -12.5h-154q-70 0 -70 49q0 22 18 34.5t52 12.5h177q73 0 123.5 2t72.5 4zM643 324q0 51 -21 106.5t-54 101.5t-73.5 75.5t-79.5 29.5q-30 0 -61.5 -24t-57 -62.5t-42 -85t-16.5 -91.5q0 -67 62 -134t195 -126q69 29 108.5 84.5t39.5 125.5z
M458 -307h-110v105h110v-105zM655 -307h-110v105h110v-105zM558 -472h-110v105h110v-105z" />
    <glyph glyph-name="uni06A5.fina" unicode="&#x6a5;" horiz-adv-x="2002" 
d="M1232 369q0 67 23.5 132t61.5 116.5t86.5 83.5t98.5 32q51 0 107.5 -37.5t104.5 -104.5q42 -58 66.5 -128t24.5 -139t-30 -129t-96 -104q27 -3 56 -5t66.5 -3t86.5 -1h114v-96h-109q-96 0 -172.5 11t-141.5 37q-32 -14 -79 -24t-104 -17.5t-123 -11t-135 -3.5h-214
q-150 0 -256.5 6.5t-181.5 19t-123.5 31t-82.5 42.5q-59 42 -92.5 106.5t-33.5 157.5q0 47 7.5 100t21.5 98h81q-11 -37 -18.5 -83t-7.5 -97q0 -77 25.5 -126.5t69.5 -78.5q28 -19 74 -34t119.5 -25t178.5 -15.5t252 -5.5q123 0 208 1t142.5 2.5t92 3t55.5 3.5q1 2 1 3.5
t1 3.5q-106 49 -165.5 120.5t-59.5 157.5zM1721 324q0 51 -21 106.5t-54 101.5t-73.5 75.5t-79.5 29.5q-30 0 -61 -24t-57 -62.5t-42.5 -85t-16.5 -91.5q0 -66 61 -133t196 -127q69 29 108.5 84.5t39.5 125.5zM1536 -307h-110v105h110v-105zM1733 -307h-110v105h110v-105z
M1636 -472h-110v105h110v-105z" />
    <glyph glyph-name="uni06A6" unicode="&#x6a6;" horiz-adv-x="1925" arabic-form="isolated" 
d="M264 539q-11 -37 -18.5 -83t-7.5 -97q0 -77 25.5 -126.5t69.5 -78.5q28 -19 74 -34t119.5 -25t178.5 -15.5t252 -5.5q123 0 205.5 0.5t137.5 1.5t87.5 2.5t55.5 3.5q1 2 1 3t1 3q-97 50 -155 118.5t-58 154.5q0 67 23.5 132t61.5 116.5t86.5 83.5t98.5 32
q51 0 107.5 -37.5t105.5 -103.5q42 -58 66 -128t24 -136q0 -67 -22.5 -128.5t-80.5 -109t-158 -76t-254 -28.5h-366q-150 0 -256.5 6.5t-181.5 19t-123.5 31t-82.5 42.5q-59 42 -92.5 106.5t-33.5 157.5q0 47 7.5 100t21.5 98h81zM1721 316q0 51 -21 106.5t-54 101.5
t-73.5 75.5t-79.5 29.5q-30 0 -61.5 -24t-57 -62.5t-42 -85t-16.5 -91.5q0 -66 62 -130t195 -129q31 12 58.5 33t47 48t31 59.5t11.5 68.5zM1458 924h-110v105h110v-105zM1656 924h-110v105h110v-105zM1458 1126h-110v105h110v-105zM1656 1126h-110v105h110v-105z" />
    <glyph glyph-name="uniFB70" unicode="&#x6a6;" horiz-adv-x="848" arabic-form="initial" 
d="M367 96q-97 50 -155 118.5t-58 154.5q0 67 23.5 132t61.5 116.5t86.5 83.5t98.5 32q51 0 107.5 -37.5t104.5 -104.5q42 -58 66.5 -127.5t24.5 -135.5q0 -80 -29 -143t-91 -107.5t-159.5 -68t-235.5 -23.5h-212q-70 0 -70 49q0 22 18 34.5t52 12.5h134q27 0 58 0.5l62 1
t59.5 2t51.5 3.5zM643 324q0 51 -21 106.5t-54 101.5t-73.5 75.5t-79.5 29.5q-30 0 -61.5 -24t-57 -62.5t-42 -85t-16.5 -91.5q0 -66 62 -130t195 -129q31 12 58.5 33t47 48t31 59.5t11.5 68.5zM380 924h-110v105h110v-105zM578 924h-110v105h110v-105zM380 1126h-110v105
h110v-105zM578 1126h-110v105h110v-105z" />
    <glyph glyph-name="uniFB71" unicode="&#x6a6;" horiz-adv-x="847" arabic-form="medial" 
d="M375 95q-50 22 -91 51.5t-70 64.5t-44.5 75t-15.5 83q0 67 23.5 132t61.5 116.5t86.5 83.5t98.5 32q51 0 107.5 -37.5t104.5 -104.5q42 -58 66.5 -128t24.5 -139q0 -70 -30 -129.5t-96 -103.5q18 -3 37 -4.5t46 -2.5t66 -1.5t97 -0.5v-96h-32q-96 0 -172.5 12t-141.5 38
q-57 -25 -144.5 -37.5t-202.5 -12.5h-154q-70 0 -70 49q0 22 18 34.5t52 12.5h177q73 0 123.5 2t72.5 4zM643 324q0 51 -21 106.5t-54 101.5t-73.5 75.5t-79.5 29.5q-30 0 -61.5 -24t-57 -62.5t-42 -85t-16.5 -91.5q0 -67 62 -134t195 -126q69 29 108.5 84.5t39.5 125.5z
M380 924h-110v105h110v-105zM578 924h-110v105h110v-105zM380 1126h-110v105h110v-105zM578 1126h-110v105h110v-105z" />
    <glyph glyph-name="uniFB6F" unicode="&#x6a6;" horiz-adv-x="2002" arabic-form="final" 
d="M1232 369q0 67 23.5 132t61.5 116.5t86.5 83.5t98.5 32q51 0 107.5 -37.5t104.5 -104.5q42 -58 66.5 -128t24.5 -139t-30 -129t-96 -104q27 -3 56 -5t66.5 -3t86.5 -1h114v-96h-109q-96 0 -172.5 11t-141.5 37q-32 -14 -79 -24t-104 -17.5t-123 -11t-135 -3.5h-214
q-150 0 -256.5 6.5t-181.5 19t-123.5 31t-82.5 42.5q-59 42 -92.5 106.5t-33.5 157.5q0 47 7.5 100t21.5 98h81q-11 -37 -18.5 -83t-7.5 -97q0 -77 25.5 -126.5t69.5 -78.5q28 -19 74 -34t119.5 -25t178.5 -15.5t252 -5.5q123 0 208 1t142.5 2.5t92 3t55.5 3.5q1 2 1 3.5
t1 3.5q-106 49 -165.5 120.5t-59.5 157.5zM1721 324q0 51 -21 106.5t-54 101.5t-73.5 75.5t-79.5 29.5q-30 0 -61 -24t-57 -62.5t-42.5 -85t-16.5 -91.5q0 -66 61 -133t196 -127q69 29 108.5 84.5t39.5 125.5zM1458 924h-110v105h110v-105zM1656 924h-110v105h110v-105z
M1458 1126h-110v105h110v-105zM1656 1126h-110v105h110v-105z" />
    <glyph glyph-name="uni066F.init" unicode="&#x66f;" horiz-adv-x="847" 
d="M367 96q-97 50 -155 118.5t-58 154.5q0 67 23.5 132t61.5 116.5t86.5 83.5t98.5 32q51 0 107.5 -37.5t104.5 -104.5q42 -58 66.5 -127.5t24.5 -135.5q0 -80 -29 -143t-91 -107.5t-159.5 -68t-235.5 -23.5h-212q-70 0 -70 49q0 22 18 34.5t52 12.5h134q27 0 58 0.5l62 1
t59.5 2t51.5 3.5zM643 324q0 51 -21 106.5t-54 101.5t-73.5 75.5t-79.5 29.5q-30 0 -61.5 -24t-57 -62.5t-42 -85t-16.5 -91.5q0 -66 62 -130t195 -129q31 12 58.5 33t47 48t31 59.5t11.5 68.5z" />
    <glyph glyph-name="uni066F.medi" unicode="&#x66f;" horiz-adv-x="847" 
d="M375 95q-50 22 -91 51.5t-70 64.5t-44.5 75t-15.5 83q0 67 23.5 132t61.5 116.5t86.5 83.5t98.5 32q51 0 107.5 -37.5t104.5 -104.5q42 -58 66.5 -128t24.5 -139q0 -70 -30 -129.5t-96 -103.5q18 -3 37 -4.5t46 -2.5t66 -1.5t97 -0.5v-96h-32q-96 0 -172.5 12t-141.5 38
q-57 -25 -144.5 -37.5t-202.5 -12.5h-154q-70 0 -70 49q0 22 18 34.5t52 12.5h177q73 0 123.5 2t72.5 4zM643 324q0 51 -21 106.5t-54 101.5t-73.5 75.5t-79.5 29.5q-30 0 -61.5 -24t-57 -62.5t-42 -85t-16.5 -91.5q0 -67 62 -134t195 -126q69 29 108.5 84.5t39.5 125.5z
" />
    <glyph glyph-name="uni066F.fina" unicode="&#x66f;" horiz-adv-x="1386" 
d="M1007 -14q-86 0 -150 24.5t-106.5 65t-64 93t-21.5 109.5q0 61 23.5 121.5t63 108.5t91.5 78t109 30q79 0 136.5 -49t101.5 -131q20 -38 34.5 -82.5t24 -91.5t14.5 -93.5t5 -86.5h118v-96h-120q-12 -127 -46.5 -213t-103 -138t-175.5 -74.5t-263 -22.5q-524 0 -524 440
q0 63 7.5 133t21.5 148h78q-11 -75 -17 -137.5t-6 -116.5q0 -96 25 -166.5t80 -116t140.5 -67.5t207.5 -22q126 0 215.5 14t147.5 53t88 108t38 178h-173zM1140 322q-16 43 -37 79.5t-45.5 62.5t-52 41t-56.5 15q-38 0 -72 -19t-60 -51t-41.5 -74.5t-15.5 -88.5
q0 -97 61.5 -151t179.5 -54h178q0 24 -2 53.5t-6.5 61.5t-12 64t-18.5 61z" />
    <glyph glyph-name="uni06A7.init" unicode="&#x6a7;" horiz-adv-x="848" 
d="M367 96q-97 50 -155 118.5t-58 154.5q0 67 23.5 132t61.5 116.5t86.5 83.5t98.5 32q51 0 107.5 -37.5t104.5 -104.5q42 -58 66.5 -127.5t24.5 -135.5q0 -80 -29 -143t-91 -107.5t-159.5 -68t-235.5 -23.5h-212q-70 0 -70 49q0 22 18 34.5t52 12.5h134q27 0 58 0.5l62 1
t59.5 2t51.5 3.5zM643 324q0 51 -21 106.5t-54 101.5t-73.5 75.5t-79.5 29.5q-30 0 -61.5 -24t-57 -62.5t-42 -85t-16.5 -91.5q0 -66 62 -130t195 -129q31 12 58.5 33t47 48t31 59.5t11.5 68.5zM462 924h-110v105h110v-105z" />
    <glyph glyph-name="uni06A7.medi" unicode="&#x6a7;" horiz-adv-x="847" 
d="M375 95q-50 22 -91 51.5t-70 64.5t-44.5 75t-15.5 83q0 67 23.5 132t61.5 116.5t86.5 83.5t98.5 32q51 0 107.5 -37.5t104.5 -104.5q42 -58 66.5 -128t24.5 -139q0 -70 -30 -129.5t-96 -103.5q18 -3 37 -4.5t46 -2.5t66 -1.5t97 -0.5v-96h-32q-96 0 -172.5 12t-141.5 38
q-57 -25 -144.5 -37.5t-202.5 -12.5h-154q-70 0 -70 49q0 22 18 34.5t52 12.5h177q73 0 123.5 2t72.5 4zM643 324q0 51 -21 106.5t-54 101.5t-73.5 75.5t-79.5 29.5q-30 0 -61.5 -24t-57 -62.5t-42 -85t-16.5 -91.5q0 -67 62 -134t195 -126q69 29 108.5 84.5t39.5 125.5z
M462 924h-110v105h110v-105z" />
    <glyph glyph-name="uni06A7.fina" unicode="&#x6a7;" horiz-adv-x="1386" 
d="M1007 -14q-86 0 -150 24.5t-106.5 65t-64 93t-21.5 109.5q0 61 23.5 121.5t63 108.5t91.5 78t109 30q79 0 136.5 -49t101.5 -131q20 -38 34.5 -82.5t24 -91.5t14.5 -93.5t5 -86.5h118v-96h-120q-12 -127 -46.5 -213t-103 -138t-175.5 -74.5t-263 -22.5q-524 0 -524 440
q0 63 7.5 133t21.5 148h78q-11 -75 -17 -137.5t-6 -116.5q0 -96 25 -166.5t80 -116t140.5 -67.5t207.5 -22q126 0 215.5 14t147.5 53t88 108t38 178h-173zM1140 322q-16 43 -37 79.5t-45.5 62.5t-52 41t-56.5 15q-38 0 -72 -19t-60 -51t-41.5 -74.5t-15.5 -88.5
q0 -97 61.5 -151t179.5 -54h178q0 24 -2 53.5t-6.5 61.5t-12 64t-18.5 61zM1001 847h-110v105h110v-105z" />
    <glyph glyph-name="uni06A8.init" unicode="&#x6a8;" horiz-adv-x="848" 
d="M367 96q-97 50 -155 118.5t-58 154.5q0 67 23.5 132t61.5 116.5t86.5 83.5t98.5 32q51 0 107.5 -37.5t104.5 -104.5q42 -58 66.5 -127.5t24.5 -135.5q0 -80 -29 -143t-91 -107.5t-159.5 -68t-235.5 -23.5h-212q-70 0 -70 49q0 22 18 34.5t52 12.5h134q27 0 58 0.5l62 1
t59.5 2t51.5 3.5zM643 324q0 51 -21 106.5t-54 101.5t-73.5 75.5t-79.5 29.5q-30 0 -61.5 -24t-57 -62.5t-42 -85t-16.5 -91.5q0 -66 62 -130t195 -129q31 12 58.5 33t47 48t31 59.5t11.5 68.5zM341 924h-110v105h110v-105zM539 924h-110v105h110v-105zM440 1106h-110v105
h110v-105z" />
    <glyph glyph-name="uni06A8.medi" unicode="&#x6a8;" horiz-adv-x="847" 
d="M375 95q-50 22 -91 51.5t-70 64.5t-44.5 75t-15.5 83q0 67 23.5 132t61.5 116.5t86.5 83.5t98.5 32q51 0 107.5 -37.5t104.5 -104.5q42 -58 66.5 -128t24.5 -139q0 -70 -30 -129.5t-96 -103.5q18 -3 37 -4.5t46 -2.5t66 -1.5t97 -0.5v-96h-32q-96 0 -172.5 12t-141.5 38
q-57 -25 -144.5 -37.5t-202.5 -12.5h-154q-70 0 -70 49q0 22 18 34.5t52 12.5h177q73 0 123.5 2t72.5 4zM643 324q0 51 -21 106.5t-54 101.5t-73.5 75.5t-79.5 29.5q-30 0 -61.5 -24t-57 -62.5t-42 -85t-16.5 -91.5q0 -67 62 -134t195 -126q69 29 108.5 84.5t39.5 125.5z
M341 924h-110v105h110v-105zM539 924h-110v105h110v-105zM440 1106h-110v105h110v-105z" />
    <glyph glyph-name="uni06A8.fina" unicode="&#x6a8;" horiz-adv-x="1386" 
d="M1007 -14q-86 0 -150 24.5t-106.5 65t-64 93t-21.5 109.5q0 61 23.5 121.5t63 108.5t91.5 78t109 30q79 0 136.5 -49t101.5 -131q20 -38 34.5 -82.5t24 -91.5t14.5 -93.5t5 -86.5h118v-96h-120q-12 -127 -46.5 -213t-103 -138t-175.5 -74.5t-263 -22.5q-524 0 -524 440
q0 63 7.5 133t21.5 148h78q-11 -75 -17 -137.5t-6 -116.5q0 -96 25 -166.5t80 -116t140.5 -67.5t207.5 -22q126 0 215.5 14t147.5 53t88 108t38 178h-173zM1140 322q-16 43 -37 79.5t-45.5 62.5t-52 41t-56.5 15q-38 0 -72 -19t-60 -51t-41.5 -74.5t-15.5 -88.5
q0 -97 61.5 -151t179.5 -54h178q0 24 -2 53.5t-6.5 61.5t-12 64t-18.5 61zM880 847h-110v105h110v-105zM1078 847h-110v105h110v-105zM979 1029h-110v105h110v-105z" />
    <glyph glyph-name="uni06A9" unicode="&#x6a9;" horiz-adv-x="1771" arabic-form="isolated" 
d="M264 539q-11 -37 -18.5 -83t-7.5 -97q0 -77 25.5 -126.5t69.5 -78.5q28 -19 74 -34t119.5 -25t178.5 -15.5t252 -5.5q155 0 256.5 8t163.5 30q72 25 114 73.5t42 131.5q0 60 -31.5 120t-109.5 127.5t-210.5 144t-334.5 169.5v117l847 545v-106l-770 -493
q144 -70 251.5 -130.5t184.5 -115t126.5 -103.5t78.5 -95t40.5 -90.5t11.5 -89.5q0 -112 -53.5 -183t-146.5 -104q-42 -15 -89.5 -25t-107.5 -16t-135 -8.5t-172 -2.5q-146 0 -250.5 6.5t-178 19t-122 31t-82.5 42.5q-59 42 -92.5 106.5t-33.5 157.5q0 47 7.5 100t21.5 98
h81z" />
    <glyph glyph-name="uniFB90" unicode="&#x6a9;" horiz-adv-x="924" arabic-form="initial" 
d="M0 -14q-50 0 -50 47q0 23 12.5 36t37.5 13h283q120 0 198 16t123.5 46t63.5 73t18 97q0 60 -31.5 120t-109.5 127.5t-210.5 144.5t-334.5 171v115l847 548v-106l-770 -496q147 -69 255.5 -129.5t185.5 -114.5t126 -103.5t77 -96t38.5 -91t10.5 -89.5q0 -161 -112 -244.5
t-344 -83.5h-314z" />
    <glyph glyph-name="uniFB91" unicode="&#x6a9;" horiz-adv-x="1001" arabic-form="medial" 
d="M0 -14q-23 0 -36.5 12.5t-13.5 35.5q0 17 12 32.5t38 15.5h283q107 0 183.5 14.5t125 43t71.5 72t23 102.5q0 60 -31.5 120t-109.5 127.5t-210.5 144.5t-334.5 171v115l847 548v-106l-770 -496q147 -69 253.5 -127t181.5 -109.5t122.5 -98t76 -92.5t42.5 -93t22 -99
q10 -67 25 -112.5t41 -73t64.5 -39.5t95.5 -12v-96h-22q-89 0 -155.5 41.5t-95.5 126.5h-3q-47 -79 -149.5 -123.5t-261.5 -44.5h-314v0z" />
    <glyph glyph-name="uniFB8F" unicode="&#x6a9;" horiz-adv-x="1848" arabic-form="final" 
d="M1377 112q71 25 113.5 73.5t42.5 128.5q0 60 -31.5 120.5t-109.5 128.5t-210.5 145t-334.5 170v117l847 545v-106l-770 -493q147 -69 253.5 -127t181.5 -110t122.5 -99t76 -93t42.5 -93.5t22 -99.5q10 -67 25 -112.5t40.5 -73t64 -39.5t96.5 -12v-96h-20
q-89 0 -156.5 41.5t-96.5 126.5h-3q-52 -85 -157 -123q-42 -15 -89.5 -25t-106.5 -16.5t-134 -9t-172 -2.5q-146 0 -250.5 6.5t-178 19t-122 31t-82.5 42.5q-59 42 -92.5 106.5t-33.5 157.5q0 47 7.5 100t21.5 98h81q-11 -37 -18.5 -83t-7.5 -97q0 -77 25.5 -126.5
t69.5 -78.5q28 -19 74 -34t119.5 -25t178.5 -15.5t252 -5.5q155 0 256.5 8t163.5 30z" />
    <glyph glyph-name="uni06AA.init" unicode="&#x6aa;" horiz-adv-x="2002" 
d="M0 -14q-29 0 -44.5 12.5t-15.5 35.5q0 21 15.5 34.5t44.5 13.5h77q76 0 175.5 -1t213.5 -1.5t239 -1.5t253 -1q52 0 118 0.5t138 1.5t146 2.5t144 3.5t131 4.5t107 5.5q10 27 16 53t6 61q0 34 -19 63t-53.5 50t-83 32.5t-107.5 11.5h-1135q-47 0 -85.5 10t-67 28t-44 43
t-15.5 55q0 41 18.5 89.5t56 98.5t94 99t133.5 91t174.5 73.5t216.5 47.5v-96q-109 -16 -196 -44.5t-154.5 -63.5t-116 -74.5t-79.5 -76t-46 -67.5t-15 -51q0 -38 36.5 -52t120.5 -14h1086q94 0 163 -18.5t114 -51.5t66.5 -79t21.5 -101q0 -110 -76 -212q-30 -2 -83 -4.5
t-120.5 -5t-147.5 -4.5l-164.5 -4t-170.5 -3t-167 -1q-53 0 -118.5 0.5l-136.5 1l-144 1t-141 1.5l-327 4h-52z" />
    <glyph glyph-name="uni06AA.medi" unicode="&#x6aa;" horiz-adv-x="2002" 
d="M0 -14q-29 0 -44.5 12.5t-15.5 35.5q0 21 15.5 34.5t44.5 13.5h77q76 0 175.5 -1t213.5 -1.5t239 -1.5t253 -1q52 0 118 0.5t138 1.5t146 2.5t144 3.5t131 4.5t107 5.5q10 27 16 53t6 61q0 34 -19 63t-53.5 50t-83 32.5t-107.5 11.5h-1135q-47 0 -85.5 10t-67 28t-44 43
t-15.5 55q0 41 18.5 89.5t56 98.5t94 99t133.5 91t174.5 73.5t216.5 47.5v-96q-109 -16 -196 -44.5t-154.5 -63.5t-116 -74.5t-79.5 -76t-46 -67.5t-15 -51q0 -38 41.5 -52t125.5 -14h1076q94 0 163 -18.5t114 -51.5t66.5 -79t21.5 -101q0 -30 -5.5 -60.5t-17.5 -59.5
q16 -3 32.5 -5t36.5 -3t46 -1.5t62 -0.5v-96h-37q-28 0 -50.5 2.5t-41 9.5t-35 19t-33.5 31h-2q-14 -26 -31 -48q-30 -2 -83 -4.5t-120.5 -5t-147.5 -4.5l-164.5 -4t-170.5 -3t-167 -1q-53 0 -118.5 0.5l-136.5 1l-144 1t-141 1.5l-327 4h-52z" />
    <glyph glyph-name="uni06AA.fina" unicode="&#x6aa;" horiz-adv-x="2156" 
d="M77 96q151 -5 272 -8t220.5 -4.5t182.5 -1.5h159h133.5t174.5 0.5l194.5 1t192.5 2t168 4t122 5.5q10 27 16 53t6 61q0 34 -19 63t-53.5 50t-83 32.5t-107.5 11.5h-1135q-47 0 -85.5 10t-67 28t-44 43t-15.5 55q0 41 18.5 89.5t56 98.5t94 99t133.5 91t174.5 73.5
t216.5 47.5v-96q-109 -16 -196 -44.5t-154.5 -63.5t-116 -74.5t-79.5 -76t-46 -67.5t-15 -51q0 -38 41.5 -52t125.5 -14h1076q94 0 163 -18.5t114 -51.5t66.5 -79t21.5 -101q0 -30 -5.5 -60.5t-17.5 -59.5q16 -3 32.5 -5t36.5 -3t46 -1.5t62 -0.5v-96h-47q-47 0 -81.5 12
t-68.5 50h-2q-14 -26 -31 -48q-30 -2 -99 -4t-160.5 -3.5t-199.5 -2.5l-216.5 -2t-210.5 -1.5t-183 -0.5h-208t-151.5 0.5t-112.5 1.5t-91 2.5t-86.5 3.5t-98.5 6l-32 96v0z" />
    <glyph glyph-name="uni06AB.init" unicode="&#x6ab;" horiz-adv-x="924" 
d="M0 -14q-50 0 -50 47q0 23 12.5 36t37.5 13h283q120 0 198 16t123.5 46t63.5 73t18 97q0 60 -31.5 120t-109.5 127.5t-210.5 144.5t-334.5 171v115l847 548v-106l-770 -496q147 -69 255.5 -129.5t185.5 -114.5t126 -103.5t77 -96t38.5 -91t10.5 -89.5q0 -161 -112 -244.5
t-344 -83.5h-314zM534 1289q32 0 61 -12.5t50.5 -34t34.5 -51.5t13 -64q0 -32 -13 -61t-34.5 -51t-50.5 -34.5t-61 -12.5q-35 0 -64.5 12.5t-51 34.5t-34 50.5t-12.5 61.5q0 34 12 64t34 51.5t51.5 34t64.5 12.5zM534 1043q35 0 59.5 24.5t24.5 59.5q0 37 -24.5 62t-59.5 25
q-37 0 -62 -25t-25 -62q0 -35 25 -59.5t62 -24.5z" />
    <glyph glyph-name="uni06AB.medi" unicode="&#x6ab;" horiz-adv-x="1001" 
d="M0 -14q-23 0 -36.5 12.5t-13.5 35.5q0 17 12 32.5t38 15.5h283q107 0 183.5 14.5t125 43t71.5 72t23 102.5q0 60 -31.5 120t-109.5 127.5t-210.5 144.5t-334.5 171v115l847 548v-106l-770 -496q147 -69 253.5 -127t181.5 -109.5t122.5 -98t76 -92.5t42.5 -93t22 -99
q10 -67 25 -112.5t41 -73t64.5 -39.5t95.5 -12v-96h-22q-89 0 -155.5 41.5t-95.5 126.5h-3q-47 -79 -149.5 -123.5t-261.5 -44.5h-314v0zM534 1289q32 0 61 -12.5t50.5 -34t34.5 -51.5t13 -64q0 -32 -13 -61t-34.5 -51t-50.5 -34.5t-61 -12.5q-35 0 -64.5 12.5t-51 34.5
t-34 50.5t-12.5 61.5q0 34 12 64t34 51.5t51.5 34t64.5 12.5zM534 1043q35 0 59.5 24.5t24.5 59.5q0 37 -24.5 62t-59.5 25q-37 0 -62 -25t-25 -62q0 -35 25 -59.5t62 -24.5z" />
    <glyph glyph-name="uni06AB.fina" unicode="&#x6ab;" horiz-adv-x="1848" 
d="M1377 112q71 25 113.5 73.5t42.5 128.5q0 60 -31.5 120.5t-109.5 128.5t-210.5 145t-334.5 170v117l847 545v-106l-770 -493q147 -69 253.5 -127t181.5 -110t122.5 -99t76 -93t42.5 -93.5t22 -99.5q10 -67 25 -112.5t40.5 -73t64 -39.5t96.5 -12v-96h-20
q-89 0 -156.5 41.5t-96.5 126.5h-3q-52 -85 -157 -123q-42 -15 -89.5 -25t-106.5 -16.5t-134 -9t-172 -2.5q-146 0 -250.5 6.5t-178 19t-122 31t-82.5 42.5q-59 42 -92.5 106.5t-33.5 157.5q0 47 7.5 100t21.5 98h81q-11 -37 -18.5 -83t-7.5 -97q0 -77 25.5 -126.5
t69.5 -78.5q28 -19 74 -34t119.5 -25t178.5 -15.5t252 -5.5q155 0 256.5 8t163.5 30zM1381 1289q32 0 61 -12.5t50.5 -34t34.5 -51.5t13 -64q0 -32 -13 -61t-34.5 -51t-50.5 -34.5t-61 -12.5q-35 0 -64.5 12.5t-51 34.5t-34 50.5t-12.5 61.5q0 34 12 64t34 51.5t51.5 34
t64.5 12.5zM1381 1043q35 0 59.5 24.5t24.5 59.5q0 37 -24.5 62t-59.5 25q-37 0 -62 -25t-25 -62q0 -35 25 -59.5t62 -24.5z" />
    <glyph glyph-name="uni06AC.init" unicode="&#x6ac;" horiz-adv-x="924" 
d="M0 -14q-50 0 -50 47q0 23 12.5 36t37.5 13h283q120 0 198 16t123.5 46t63.5 73t18 97q0 60 -31.5 120t-109.5 127.5t-210.5 144.5t-334.5 171v115l847 548v-106l-770 -496q147 -69 255.5 -129.5t185.5 -114.5t126 -103.5t77 -96t38.5 -91t10.5 -89.5q0 -161 -112 -244.5
t-344 -83.5h-314zM418 1463h-110v105h110v-105z" />
    <glyph glyph-name="uni06AC.medi" unicode="&#x6ac;" horiz-adv-x="1001" 
d="M0 -14q-23 0 -36.5 12.5t-13.5 35.5q0 17 12 32.5t38 15.5h283q107 0 183.5 14.5t125 43t71.5 72t23 102.5q0 60 -31.5 120t-109.5 127.5t-210.5 144.5t-334.5 171v115l847 548v-106l-770 -496q147 -69 253.5 -127t181.5 -109.5t122.5 -98t76 -92.5t42.5 -93t22 -99
q10 -67 25 -112.5t41 -73t64.5 -39.5t95.5 -12v-96h-22q-89 0 -155.5 41.5t-95.5 126.5h-3q-47 -79 -149.5 -123.5t-261.5 -44.5h-314v0zM418 1463h-110v105h110v-105z" />
    <glyph glyph-name="uni06AC.fina" unicode="&#x6ac;" horiz-adv-x="1694" 
d="M264 539q-11 -37 -18.5 -83t-7.5 -97q0 -77 25.5 -126.5t69.5 -78.5q28 -19 66 -32.5t98.5 -22.5t150.5 -13t224 -4q146 0 243.5 13.5t156 45t83 82t24.5 125.5v1163h84v-1181q0 -129 58 -188.5t173 -59.5v-96h-28q-42 0 -81.5 10.5t-73 31.5t-58.5 52.5t-37 73.5h-3
q-30 -47 -76.5 -79t-114 -51.5t-160 -28.5t-214.5 -9q-138 0 -231 5t-157 16.5t-105 28.5t-75 41q-59 42 -92.5 106.5t-33.5 157.5q0 47 7.5 100t21.5 98h81zM670 677q61 0 104.5 9t71.5 22.5t41.5 29.5t13.5 30q0 7 -3.5 14.5t-13 16t-27.5 20t-47 27.5q-51 28 -72.5 53.5
t-21.5 54.5q0 27 16.5 54.5t51 51.5t88.5 43t129 29v-77q-58 -8 -97.5 -18.5t-64 -22.5t-35.5 -24t-11 -22q0 -9 3 -16.5t12 -16t25.5 -19t42.5 -25.5q57 -33 79.5 -60.5t22.5 -56.5q0 -35 -19.5 -65.5t-58 -53.5t-96.5 -37.5t-134 -17.5v77zM902 1463h-110v105h110v-105z
" />
    <glyph glyph-name="uni06AD" unicode="&#x6ad;" horiz-adv-x="1616" arabic-form="isolated" 
d="M264 539q-11 -37 -18.5 -83t-7.5 -97q0 -78 25 -127t70 -78q28 -19 65.5 -32.5t98.5 -22.5t151 -13t224 -4q144 0 241 12t156.5 42t84.5 81.5t25 130.5v1163h84v-1174q0 -100 -34.5 -167.5t-108.5 -108t-190.5 -58t-281.5 -17.5q-138 0 -231 5t-157 16.5t-105 28.5
t-75 41q-60 42 -93 106t-33 158q0 48 7.5 100.5t21.5 97.5h81zM670 677q61 0 104.5 9t71.5 22.5t41.5 29.5t13.5 30q0 7 -3.5 14.5t-13 16t-27.5 20t-47 27.5q-51 28 -72.5 53.5t-21.5 54.5q0 27 16.5 54.5t51 51.5t88.5 43t129 29v-77q-58 -8 -97.5 -18.5t-64 -22.5
t-35.5 -24t-11 -22q0 -9 3 -16.5t12 -16t25.5 -19t42.5 -25.5q57 -33 79.5 -60.5t22.5 -56.5q0 -35 -19.5 -65.5t-58 -53.5t-96.5 -37.5t-134 -17.5v77zM803 1463h-110v105h110v-105zM1001 1463h-110v105h110v-105zM902 1645h-110v105h110v-105z" />
    <glyph glyph-name="uniFBD5" unicode="&#x6ad;" horiz-adv-x="924" arabic-form="initial" 
d="M0 -14q-50 0 -50 47q0 23 12.5 36t37.5 13h283q120 0 198 16t123.5 46t63.5 73t18 97q0 60 -31.5 120t-109.5 127.5t-210.5 144.5t-334.5 171v115l847 548v-106l-770 -496q147 -69 255.5 -129.5t185.5 -114.5t126 -103.5t77 -96t38.5 -91t10.5 -89.5q0 -161 -112 -244.5
t-344 -83.5h-314zM187 1463h-110v105h110v-105zM385 1463h-110v105h110v-105zM286 1645h-110v105h110v-105z" />
    <glyph glyph-name="uniFBD6" unicode="&#x6ad;" horiz-adv-x="1001" arabic-form="medial" 
d="M0 -14q-23 0 -36.5 12.5t-13.5 35.5q0 17 12 32.5t38 15.5h283q107 0 183.5 14.5t125 43t71.5 72t23 102.5q0 60 -31.5 120t-109.5 127.5t-210.5 144.5t-334.5 171v115l847 548v-106l-770 -496q147 -69 253.5 -127t181.5 -109.5t122.5 -98t76 -92.5t42.5 -93t22 -99
q10 -67 25 -112.5t41 -73t64.5 -39.5t95.5 -12v-96h-22q-89 0 -155.5 41.5t-95.5 126.5h-3q-47 -79 -149.5 -123.5t-261.5 -44.5h-314v0zM187 1463h-110v105h110v-105zM385 1463h-110v105h110v-105zM286 1645h-110v105h110v-105z" />
    <glyph glyph-name="uniFBD4" unicode="&#x6ad;" horiz-adv-x="1694" arabic-form="final" 
d="M264 539q-11 -37 -18.5 -83t-7.5 -97q0 -77 25.5 -126.5t69.5 -78.5q28 -19 66 -32.5t98.5 -22.5t150.5 -13t224 -4q146 0 243.5 13.5t156 45t83 82t24.5 125.5v1163h84v-1181q0 -129 58 -188.5t173 -59.5v-96h-28q-42 0 -81.5 10.5t-73 31.5t-58.5 52.5t-37 73.5h-3
q-30 -47 -76.5 -79t-114 -51.5t-160 -28.5t-214.5 -9q-138 0 -231 5t-157 16.5t-105 28.5t-75 41q-59 42 -92.5 106.5t-33.5 157.5q0 47 7.5 100t21.5 98h81zM670 677q61 0 104.5 9t71.5 22.5t41.5 29.5t13.5 30q0 7 -3.5 14.5t-13 16t-27.5 20t-47 27.5q-51 28 -72.5 53.5
t-21.5 54.5q0 27 16.5 54.5t51 51.5t88.5 43t129 29v-77q-58 -8 -97.5 -18.5t-64 -22.5t-35.5 -24t-11 -22q0 -9 3 -16.5t12 -16t25.5 -19t42.5 -25.5q57 -33 79.5 -60.5t22.5 -56.5q0 -35 -19.5 -65.5t-58 -53.5t-96.5 -37.5t-134 -17.5v77zM803 1463h-110v105h110v-105z
M1001 1463h-110v105h110v-105zM902 1645h-110v105h110v-105z" />
    <glyph glyph-name="uni06AE.init" unicode="&#x6ae;" horiz-adv-x="924" 
d="M0 -14q-50 0 -50 47q0 23 12.5 36t37.5 13h283q120 0 198 16t123.5 46t63.5 73t18 97q0 60 -31.5 120t-109.5 127.5t-210.5 144.5t-334.5 171v115l847 548v-106l-770 -496q147 -69 255.5 -129.5t185.5 -114.5t126 -103.5t77 -96t38.5 -91t10.5 -89.5q0 -161 -112 -244.5
t-344 -83.5h-314zM342 -307h-110v105h110v-105zM539 -307h-110v105h110v-105zM442 -472h-110v105h110v-105z" />
    <glyph glyph-name="uni06AE.medi" unicode="&#x6ae;" horiz-adv-x="1001" 
d="M0 -14q-23 0 -36.5 12.5t-13.5 35.5q0 17 12 32.5t38 15.5h283q107 0 183.5 14.5t125 43t71.5 72t23 102.5q0 60 -31.5 120t-109.5 127.5t-210.5 144.5t-334.5 171v115l847 548v-106l-770 -496q147 -69 253.5 -127t181.5 -109.5t122.5 -98t76 -92.5t42.5 -93t22 -99
q10 -67 25 -112.5t41 -73t64.5 -39.5t95.5 -12v-96h-22q-89 0 -155.5 41.5t-95.5 126.5h-3q-47 -79 -149.5 -123.5t-261.5 -44.5h-314v0zM496 -307h-110v105h110v-105zM693 -307h-110v105h110v-105zM596 -472h-110v105h110v-105z" />
    <glyph glyph-name="uni06AE.fina" unicode="&#x6ae;" horiz-adv-x="1694" 
d="M264 539q-11 -37 -18.5 -83t-7.5 -97q0 -77 25.5 -126.5t69.5 -78.5q28 -19 66 -32.5t98.5 -22.5t150.5 -13t224 -4q146 0 243.5 13.5t156 45t83 82t24.5 125.5v1163h84v-1181q0 -129 58 -188.5t173 -59.5v-96h-28q-42 0 -81.5 10.5t-73 31.5t-58.5 52.5t-37 73.5h-3
q-30 -47 -76.5 -79t-114 -51.5t-160 -28.5t-214.5 -9q-138 0 -231 5t-157 16.5t-105 28.5t-75 41q-59 42 -92.5 106.5t-33.5 157.5q0 47 7.5 100t21.5 98h81zM670 677q61 0 104.5 9t71.5 22.5t41.5 29.5t13.5 30q0 7 -3.5 14.5t-13 16t-27.5 20t-47 27.5q-51 28 -72.5 53.5
t-21.5 54.5q0 27 16.5 54.5t51 51.5t88.5 43t129 29v-77q-58 -8 -97.5 -18.5t-64 -22.5t-35.5 -24t-11 -22q0 -9 3 -16.5t12 -16t25.5 -19t42.5 -25.5q57 -33 79.5 -60.5t22.5 -56.5q0 -35 -19.5 -65.5t-58 -53.5t-96.5 -37.5t-134 -17.5v77zM769 -307h-110v105h110v-105z
M966 -307h-110v105h110v-105zM869 -472h-110v105h110v-105z" />
    <glyph glyph-name="uni063B.init" unicode="&#x63b;" horiz-adv-x="924" 
d="M0 -14q-50 0 -50 47q0 23 12.5 36t37.5 13h283q120 0 198 16t123.5 46t63.5 73t18 97q0 60 -31.5 120t-109.5 127.5t-210.5 144.5t-334.5 171v115l847 548v-106l-770 -496q147 -69 255.5 -129.5t185.5 -114.5t126 -103.5t77 -96t38.5 -91t10.5 -89.5q0 -161 -112 -244.5
t-344 -83.5h-314zM187 1463h-110v105h110v-105zM385 1463h-110v105h110v-105z" />
    <glyph glyph-name="uni063B.medi" unicode="&#x63b;" horiz-adv-x="1001" 
d="M0 -14q-23 0 -36.5 12.5t-13.5 35.5q0 17 12 32.5t38 15.5h283q107 0 183.5 14.5t125 43t71.5 72t23 102.5q0 60 -31.5 120t-109.5 127.5t-210.5 144.5t-334.5 171v115l847 548v-106l-770 -496q147 -69 253.5 -127t181.5 -109.5t122.5 -98t76 -92.5t42.5 -93t22 -99
q10 -67 25 -112.5t41 -73t64.5 -39.5t95.5 -12v-96h-22q-89 0 -155.5 41.5t-95.5 126.5h-3q-47 -79 -149.5 -123.5t-261.5 -44.5h-314v0zM187 1463h-110v105h110v-105zM385 1463h-110v105h110v-105z" />
    <glyph glyph-name="uni063B.fina" unicode="&#x63b;" horiz-adv-x="1848" 
d="M1377 112q71 25 113.5 73.5t42.5 128.5q0 60 -31.5 120.5t-109.5 128.5t-210.5 145t-334.5 170v117l847 545v-106l-770 -493q147 -69 253.5 -127t181.5 -110t122.5 -99t76 -93t42.5 -93.5t22 -99.5q10 -67 25 -112.5t40.5 -73t64 -39.5t96.5 -12v-96h-20
q-89 0 -156.5 41.5t-96.5 126.5h-3q-52 -85 -157 -123q-42 -15 -89.5 -25t-106.5 -16.5t-134 -9t-172 -2.5q-146 0 -250.5 6.5t-178 19t-122 31t-82.5 42.5q-59 42 -92.5 106.5t-33.5 157.5q0 47 7.5 100t21.5 98h81q-11 -37 -18.5 -83t-7.5 -97q0 -77 25.5 -126.5
t69.5 -78.5q28 -19 74 -34t119.5 -25t178.5 -15.5t252 -5.5q155 0 256.5 8t163.5 30zM1034 1463h-110v105h110v-105zM1232 1463h-110v105h110v-105z" />
    <glyph glyph-name="uni063C.init" unicode="&#x63c;" horiz-adv-x="924" 
d="M0 -14q-50 0 -50 47q0 23 12.5 36t37.5 13h283q120 0 198 16t123.5 46t63.5 73t18 97q0 60 -31.5 120t-109.5 127.5t-210.5 144.5t-334.5 171v115l847 548v-106l-770 -496q147 -69 255.5 -129.5t185.5 -114.5t126 -103.5t77 -96t38.5 -91t10.5 -89.5q0 -161 -112 -244.5
t-344 -83.5h-314zM342 -307h-110v105h110v-105zM539 -307h-110v105h110v-105zM442 -472h-110v105h110v-105z" />
    <glyph glyph-name="uni063C.medi" unicode="&#x63c;" horiz-adv-x="1001" 
d="M0 -14q-23 0 -36.5 12.5t-13.5 35.5q0 17 12 32.5t38 15.5h283q107 0 183.5 14.5t125 43t71.5 72t23 102.5q0 60 -31.5 120t-109.5 127.5t-210.5 144.5t-334.5 171v115l847 548v-106l-770 -496q147 -69 253.5 -127t181.5 -109.5t122.5 -98t76 -92.5t42.5 -93t22 -99
q10 -67 25 -112.5t41 -73t64.5 -39.5t95.5 -12v-96h-22q-89 0 -155.5 41.5t-95.5 126.5h-3q-47 -79 -149.5 -123.5t-261.5 -44.5h-314v0zM496 -307h-110v105h110v-105zM693 -307h-110v105h110v-105zM596 -472h-110v105h110v-105z" />
    <glyph glyph-name="uni063C.fina" unicode="&#x63c;" horiz-adv-x="1848" 
d="M1377 112q71 25 113.5 73.5t42.5 128.5q0 60 -31.5 120.5t-109.5 128.5t-210.5 145t-334.5 170v117l847 545v-106l-770 -493q147 -69 253.5 -127t181.5 -110t122.5 -99t76 -93t42.5 -93.5t22 -99.5q10 -67 25 -112.5t40.5 -73t64 -39.5t96.5 -12v-96h-20
q-89 0 -156.5 41.5t-96.5 126.5h-3q-52 -85 -157 -123q-42 -15 -89.5 -25t-106.5 -16.5t-134 -9t-172 -2.5q-146 0 -250.5 6.5t-178 19t-122 31t-82.5 42.5q-59 42 -92.5 106.5t-33.5 157.5q0 47 7.5 100t21.5 98h81q-11 -37 -18.5 -83t-7.5 -97q0 -77 25.5 -126.5
t69.5 -78.5q28 -19 74 -34t119.5 -25t178.5 -15.5t252 -5.5q155 0 256.5 8t163.5 30zM881 -307h-110v105h110v-105zM1078 -307h-110v105h110v-105zM981 -472h-110v105h110v-105z" />
    <glyph glyph-name="afii57509" unicode="&#x6af;" horiz-adv-x="1771" arabic-form="isolated" 
d="M264 539q-11 -37 -18.5 -83t-7.5 -97q0 -77 25.5 -126.5t69.5 -78.5q28 -19 74 -34t119.5 -25t178.5 -15.5t252 -5.5q155 0 256.5 8t163.5 30q72 25 114 73.5t42 131.5q0 60 -31.5 120t-109.5 127.5t-210.5 144t-334.5 169.5v117l847 545v-106l-770 -493
q144 -70 251.5 -130.5t184.5 -115t126.5 -103.5t78.5 -95t40.5 -90.5t11.5 -89.5q0 -112 -53.5 -183t-146.5 -104q-42 -15 -89.5 -25t-107.5 -16t-135 -8.5t-172 -2.5q-146 0 -250.5 6.5t-178 19t-122 31t-82.5 42.5q-59 42 -92.5 106.5t-33.5 157.5q0 47 7.5 100t21.5 98
h81zM847 1155v100l847 539v-100z" />
    <glyph glyph-name="uniFB94" unicode="&#x6af;" horiz-adv-x="924" arabic-form="initial" 
d="M0 -14q-50 0 -50 47q0 23 12.5 36t37.5 13h283q120 0 198 16t123.5 46t63.5 73t18 97q0 60 -31.5 120t-109.5 127.5t-210.5 144.5t-334.5 171v115l847 548v-106l-770 -496q147 -69 255.5 -129.5t185.5 -114.5t126 -103.5t77 -96t38.5 -91t10.5 -89.5q0 -161 -112 -244.5
t-344 -83.5h-314zM0 1155v100l847 539v-100z" />
    <glyph glyph-name="uniFB95" unicode="&#x6af;" horiz-adv-x="1001" arabic-form="medial" 
d="M0 -14q-23 0 -36.5 12.5t-13.5 35.5q0 17 12 32.5t38 15.5h283q107 0 183.5 14.5t125 43t71.5 72t23 102.5q0 60 -31.5 120t-109.5 127.5t-210.5 144.5t-334.5 171v115l847 548v-106l-770 -496q147 -69 253.5 -127t181.5 -109.5t122.5 -98t76 -92.5t42.5 -93t22 -99
q10 -67 25 -112.5t41 -73t64.5 -39.5t95.5 -12v-96h-22q-89 0 -155.5 41.5t-95.5 126.5h-3q-47 -79 -149.5 -123.5t-261.5 -44.5h-314v0zM0 1155v100l847 539v-100z" />
    <glyph glyph-name="uniFB93" unicode="&#x6af;" horiz-adv-x="1848" arabic-form="final" 
d="M1377 112q71 25 113.5 73.5t42.5 128.5q0 60 -31.5 120.5t-109.5 128.5t-210.5 145t-334.5 170v117l847 545v-106l-770 -493q147 -69 253.5 -127t181.5 -110t122.5 -99t76 -93t42.5 -93.5t22 -99.5q10 -67 25 -112.5t40.5 -73t64 -39.5t96.5 -12v-96h-20
q-89 0 -156.5 41.5t-96.5 126.5h-3q-52 -85 -157 -123q-42 -15 -89.5 -25t-106.5 -16.5t-134 -9t-172 -2.5q-146 0 -250.5 6.5t-178 19t-122 31t-82.5 42.5q-59 42 -92.5 106.5t-33.5 157.5q0 47 7.5 100t21.5 98h81q-11 -37 -18.5 -83t-7.5 -97q0 -77 25.5 -126.5
t69.5 -78.5q28 -19 74 -34t119.5 -25t178.5 -15.5t252 -5.5q155 0 256.5 8t163.5 30zM847 1155v100l847 539v-100z" />
    <glyph glyph-name="uni06B0.init" unicode="&#x6b0;" horiz-adv-x="924" 
d="M0 -14q-50 0 -50 47q0 23 12.5 36t37.5 13h283q120 0 198 16t123.5 46t63.5 73t18 97q0 60 -31.5 120t-109.5 127.5t-210.5 144.5t-334.5 171v115l847 548v-106l-770 -496q147 -69 255.5 -129.5t185.5 -114.5t126 -103.5t77 -96t38.5 -91t10.5 -89.5q0 -161 -112 -244.5
t-344 -83.5h-314zM0 1155v100l847 539v-100zM534 1289q32 0 61 -12.5t50.5 -34t34.5 -51.5t13 -64q0 -32 -13 -61t-34.5 -51t-50.5 -34.5t-61 -12.5q-35 0 -64.5 12.5t-51 34.5t-34 50.5t-12.5 61.5q0 34 12 64t34 51.5t51.5 34t64.5 12.5zM534 1043q35 0 59.5 24.5
t24.5 59.5q0 37 -24.5 62t-59.5 25q-37 0 -62 -25t-25 -62q0 -35 25 -59.5t62 -24.5z" />
    <glyph glyph-name="uni06B0.medi" unicode="&#x6b0;" horiz-adv-x="1001" 
d="M0 -14q-23 0 -36.5 12.5t-13.5 35.5q0 17 12 32.5t38 15.5h283q107 0 183.5 14.5t125 43t71.5 72t23 102.5q0 60 -31.5 120t-109.5 127.5t-210.5 144.5t-334.5 171v115l847 548v-106l-770 -496q147 -69 253.5 -127t181.5 -109.5t122.5 -98t76 -92.5t42.5 -93t22 -99
q10 -67 25 -112.5t41 -73t64.5 -39.5t95.5 -12v-96h-22q-89 0 -155.5 41.5t-95.5 126.5h-3q-47 -79 -149.5 -123.5t-261.5 -44.5h-314v0zM0 1155v100l847 539v-100zM534 1289q32 0 61 -12.5t50.5 -34t34.5 -51.5t13 -64q0 -32 -13 -61t-34.5 -51t-50.5 -34.5t-61 -12.5
q-35 0 -64.5 12.5t-51 34.5t-34 50.5t-12.5 61.5q0 34 12 64t34 51.5t51.5 34t64.5 12.5zM534 1043q35 0 59.5 24.5t24.5 59.5q0 37 -24.5 62t-59.5 25q-37 0 -62 -25t-25 -62q0 -35 25 -59.5t62 -24.5z" />
    <glyph glyph-name="uni06B0.fina" unicode="&#x6b0;" horiz-adv-x="1848" 
d="M1377 112q71 25 113.5 73.5t42.5 128.5q0 60 -31.5 120.5t-109.5 128.5t-210.5 145t-334.5 170v117l847 545v-106l-770 -493q147 -69 253.5 -127t181.5 -110t122.5 -99t76 -93t42.5 -93.5t22 -99.5q10 -67 25 -112.5t40.5 -73t64 -39.5t96.5 -12v-96h-20
q-89 0 -156.5 41.5t-96.5 126.5h-3q-52 -85 -157 -123q-42 -15 -89.5 -25t-106.5 -16.5t-134 -9t-172 -2.5q-146 0 -250.5 6.5t-178 19t-122 31t-82.5 42.5q-59 42 -92.5 106.5t-33.5 157.5q0 47 7.5 100t21.5 98h81q-11 -37 -18.5 -83t-7.5 -97q0 -77 25.5 -126.5
t69.5 -78.5q28 -19 74 -34t119.5 -25t178.5 -15.5t252 -5.5q155 0 256.5 8t163.5 30zM847 1155v100l847 539v-100zM1381 1289q32 0 61 -12.5t50.5 -34t34.5 -51.5t13 -64q0 -32 -13 -61t-34.5 -51t-50.5 -34.5t-61 -12.5q-35 0 -64.5 12.5t-51 34.5t-34 50.5t-12.5 61.5
q0 34 12 64t34 51.5t51.5 34t64.5 12.5zM1381 1043q35 0 59.5 24.5t24.5 59.5q0 37 -24.5 62t-59.5 25q-37 0 -62 -25t-25 -62q0 -35 25 -59.5t62 -24.5z" />
    <glyph glyph-name="uni06B1" unicode="&#x6b1;" horiz-adv-x="1771" arabic-form="isolated" 
d="M264 539q-11 -37 -18.5 -83t-7.5 -97q0 -77 25.5 -126.5t69.5 -78.5q28 -19 74 -34t119.5 -25t178.5 -15.5t252 -5.5q155 0 256.5 8t163.5 30q72 25 114 73.5t42 131.5q0 60 -31.5 120t-109.5 127.5t-210.5 144t-334.5 169.5v117l847 545v-106l-770 -493
q144 -70 251.5 -130.5t184.5 -115t126.5 -103.5t78.5 -95t40.5 -90.5t11.5 -89.5q0 -112 -53.5 -183t-146.5 -104q-42 -15 -89.5 -25t-107.5 -16t-135 -8.5t-172 -2.5q-146 0 -250.5 6.5t-178 19t-122 31t-82.5 42.5q-59 42 -92.5 106.5t-33.5 157.5q0 47 7.5 100t21.5 98
h81zM847 1155v100l847 539v-100zM1111 1694h-110v105h110v-105zM1309 1694h-110v105h110v-105z" />
    <glyph glyph-name="uniFB9C" unicode="&#x6b1;" horiz-adv-x="924" arabic-form="initial" 
d="M0 -14q-50 0 -50 47q0 23 12.5 36t37.5 13h283q120 0 198 16t123.5 46t63.5 73t18 97q0 60 -31.5 120t-109.5 127.5t-210.5 144.5t-334.5 171v115l847 548v-106l-770 -496q147 -69 255.5 -129.5t185.5 -114.5t126 -103.5t77 -96t38.5 -91t10.5 -89.5q0 -161 -112 -244.5
t-344 -83.5h-314zM0 1155v100l847 539v-100zM264 1694h-110v105h110v-105zM462 1694h-110v105h110v-105z" />
    <glyph glyph-name="uniFB9D" unicode="&#x6b1;" horiz-adv-x="1001" arabic-form="medial" 
d="M0 -14q-23 0 -36.5 12.5t-13.5 35.5q0 17 12 32.5t38 15.5h283q107 0 183.5 14.5t125 43t71.5 72t23 102.5q0 60 -31.5 120t-109.5 127.5t-210.5 144.5t-334.5 171v115l847 548v-106l-770 -496q147 -69 253.5 -127t181.5 -109.5t122.5 -98t76 -92.5t42.5 -93t22 -99
q10 -67 25 -112.5t41 -73t64.5 -39.5t95.5 -12v-96h-22q-89 0 -155.5 41.5t-95.5 126.5h-3q-47 -79 -149.5 -123.5t-261.5 -44.5h-314v0zM0 1155v100l847 539v-100zM264 1694h-110v105h110v-105zM462 1694h-110v105h110v-105z" />
    <glyph glyph-name="uniFB9B" unicode="&#x6b1;" horiz-adv-x="1848" arabic-form="final" 
d="M1377 112q71 25 113.5 73.5t42.5 128.5q0 60 -31.5 120.5t-109.5 128.5t-210.5 145t-334.5 170v117l847 545v-106l-770 -493q147 -69 253.5 -127t181.5 -110t122.5 -99t76 -93t42.5 -93.5t22 -99.5q10 -67 25 -112.5t40.5 -73t64 -39.5t96.5 -12v-96h-20
q-89 0 -156.5 41.5t-96.5 126.5h-3q-52 -85 -157 -123q-42 -15 -89.5 -25t-106.5 -16.5t-134 -9t-172 -2.5q-146 0 -250.5 6.5t-178 19t-122 31t-82.5 42.5q-59 42 -92.5 106.5t-33.5 157.5q0 47 7.5 100t21.5 98h81q-11 -37 -18.5 -83t-7.5 -97q0 -77 25.5 -126.5
t69.5 -78.5q28 -19 74 -34t119.5 -25t178.5 -15.5t252 -5.5q155 0 256.5 8t163.5 30zM847 1155v100l847 539v-100zM1111 1694h-110v105h110v-105zM1309 1694h-110v105h110v-105z" />
    <glyph glyph-name="uni06B2.init" unicode="&#x6b2;" horiz-adv-x="924" 
d="M0 -14q-50 0 -50 47q0 23 12.5 36t37.5 13h283q120 0 198 16t123.5 46t63.5 73t18 97q0 60 -31.5 120t-109.5 127.5t-210.5 144.5t-334.5 171v115l847 548v-106l-770 -496q147 -69 255.5 -129.5t185.5 -114.5t126 -103.5t77 -96t38.5 -91t10.5 -89.5q0 -161 -112 -244.5
t-344 -83.5h-314zM0 1155v100l847 539v-100zM341 -307h-110v105h110v-105zM539 -307h-110v105h110v-105z" />
    <glyph glyph-name="uni06B2.medi" unicode="&#x6b2;" horiz-adv-x="1001" 
d="M0 -14q-23 0 -36.5 12.5t-13.5 35.5q0 17 12 32.5t38 15.5h283q107 0 183.5 14.5t125 43t71.5 72t23 102.5q0 60 -31.5 120t-109.5 127.5t-210.5 144.5t-334.5 171v115l847 548v-106l-770 -496q147 -69 253.5 -127t181.5 -109.5t122.5 -98t76 -92.5t42.5 -93t22 -99
q10 -67 25 -112.5t41 -73t64.5 -39.5t95.5 -12v-96h-22q-89 0 -155.5 41.5t-95.5 126.5h-3q-47 -79 -149.5 -123.5t-261.5 -44.5h-314v0zM0 1155v100l847 539v-100zM418 -307h-110v105h110v-105zM616 -307h-110v105h110v-105z" />
    <glyph glyph-name="uni06B2.fina" unicode="&#x6b2;" horiz-adv-x="1848" 
d="M1377 112q71 25 113.5 73.5t42.5 128.5q0 60 -31.5 120.5t-109.5 128.5t-210.5 145t-334.5 170v117l847 545v-106l-770 -493q147 -69 253.5 -127t181.5 -110t122.5 -99t76 -93t42.5 -93.5t22 -99.5q10 -67 25 -112.5t40.5 -73t64 -39.5t96.5 -12v-96h-20
q-89 0 -156.5 41.5t-96.5 126.5h-3q-52 -85 -157 -123q-42 -15 -89.5 -25t-106.5 -16.5t-134 -9t-172 -2.5q-146 0 -250.5 6.5t-178 19t-122 31t-82.5 42.5q-59 42 -92.5 106.5t-33.5 157.5q0 47 7.5 100t21.5 98h81q-11 -37 -18.5 -83t-7.5 -97q0 -77 25.5 -126.5
t69.5 -78.5q28 -19 74 -34t119.5 -25t178.5 -15.5t252 -5.5q155 0 256.5 8t163.5 30zM803 -307h-110v105h110v-105zM1001 -307h-110v105h110v-105zM847 1155v100l847 539v-100z" />
    <glyph glyph-name="uni06B3" unicode="&#x6b3;" horiz-adv-x="1771" arabic-form="isolated" 
d="M915 -489h-110v105h110v-105zM915 -307h-110v105h110v-105zM264 539q-11 -37 -18.5 -83t-7.5 -97q0 -77 25.5 -126.5t69.5 -78.5q28 -19 74 -34t119.5 -25t178.5 -15.5t252 -5.5q155 0 256.5 8t163.5 30q72 25 114 73.5t42 131.5q0 60 -31.5 120t-109.5 127.5t-210.5 144
t-334.5 169.5v117l847 545v-106l-770 -493q144 -70 251.5 -130.5t184.5 -115t126.5 -103.5t78.5 -95t40.5 -90.5t11.5 -89.5q0 -112 -53.5 -183t-146.5 -104q-42 -15 -89.5 -25t-107.5 -16t-135 -8.5t-172 -2.5q-146 0 -250.5 6.5t-178 19t-122 31t-82.5 42.5
q-59 42 -92.5 106.5t-33.5 157.5q0 47 7.5 100t21.5 98h81zM847 1155v100l847 539v-100z" />
    <glyph glyph-name="uniFB98" unicode="&#x6b3;" horiz-adv-x="924" arabic-form="initial" 
d="M0 -14q-50 0 -50 47q0 23 12.5 36t37.5 13h283q120 0 198 16t123.5 46t63.5 73t18 97q0 60 -31.5 120t-109.5 127.5t-210.5 144.5t-334.5 171v115l847 548v-106l-770 -496q147 -69 255.5 -129.5t185.5 -114.5t126 -103.5t77 -96t38.5 -91t10.5 -89.5q0 -161 -112 -244.5
t-344 -83.5h-314zM0 1155v100l847 539v-100zM376 -489h-110v105h110v-105zM376 -307h-110v105h110v-105z" />
    <glyph glyph-name="uniFB99" unicode="&#x6b3;" horiz-adv-x="1001" arabic-form="medial" 
d="M0 -14q-23 0 -36.5 12.5t-13.5 35.5q0 17 12 32.5t38 15.5h283q107 0 183.5 14.5t125 43t71.5 72t23 102.5q0 60 -31.5 120t-109.5 127.5t-210.5 144.5t-334.5 171v115l847 548v-106l-770 -496q147 -69 253.5 -127t181.5 -109.5t122.5 -98t76 -92.5t42.5 -93t22 -99
q10 -67 25 -112.5t41 -73t64.5 -39.5t95.5 -12v-96h-22q-89 0 -155.5 41.5t-95.5 126.5h-3q-47 -79 -149.5 -123.5t-261.5 -44.5h-314v0zM0 1155v100l847 539v-100zM530 -489h-110v105h110v-105zM530 -307h-110v105h110v-105z" />
    <glyph glyph-name="uniFB97" unicode="&#x6b3;" horiz-adv-x="1848" arabic-form="final" 
d="M1377 112q71 25 113.5 73.5t42.5 128.5q0 60 -31.5 120.5t-109.5 128.5t-210.5 145t-334.5 170v117l847 545v-106l-770 -493q147 -69 253.5 -127t181.5 -110t122.5 -99t76 -93t42.5 -93.5t22 -99.5q10 -67 25 -112.5t40.5 -73t64 -39.5t96.5 -12v-96h-20
q-89 0 -156.5 41.5t-96.5 126.5h-3q-52 -85 -157 -123q-42 -15 -89.5 -25t-106.5 -16.5t-134 -9t-172 -2.5q-146 0 -250.5 6.5t-178 19t-122 31t-82.5 42.5q-59 42 -92.5 106.5t-33.5 157.5q0 47 7.5 100t21.5 98h81q-11 -37 -18.5 -83t-7.5 -97q0 -77 25.5 -126.5
t69.5 -78.5q28 -19 74 -34t119.5 -25t178.5 -15.5t252 -5.5q155 0 256.5 8t163.5 30zM847 1155v100l847 539v-100zM915 -489h-110v105h110v-105zM915 -307h-110v105h110v-105z" />
    <glyph glyph-name="uni06B4.init" unicode="&#x6b4;" horiz-adv-x="924" 
d="M0 -14q-50 0 -50 47q0 23 12.5 36t37.5 13h283q120 0 198 16t123.5 46t63.5 73t18 97q0 60 -31.5 120t-109.5 127.5t-210.5 144.5t-334.5 171v115l847 548v-106l-770 -496q147 -69 255.5 -129.5t185.5 -114.5t126 -103.5t77 -96t38.5 -91t10.5 -89.5q0 -161 -112 -244.5
t-344 -83.5h-314zM0 1155v100l847 539v-100zM187 1617h-110v105h110v-105zM385 1617h-110v105h110v-105zM286 1799h-110v105h110v-105z" />
    <glyph glyph-name="uni06B4.medi" unicode="&#x6b4;" horiz-adv-x="1001" 
d="M0 -14q-23 0 -36.5 12.5t-13.5 35.5q0 17 12 32.5t38 15.5h283q107 0 183.5 14.5t125 43t71.5 72t23 102.5q0 60 -31.5 120t-109.5 127.5t-210.5 144.5t-334.5 171v115l847 548v-106l-770 -496q147 -69 253.5 -127t181.5 -109.5t122.5 -98t76 -92.5t42.5 -93t22 -99
q10 -67 25 -112.5t41 -73t64.5 -39.5t95.5 -12v-96h-22q-89 0 -155.5 41.5t-95.5 126.5h-3q-47 -79 -149.5 -123.5t-261.5 -44.5h-314v0zM0 1155v100l847 539v-100zM187 1617h-110v105h110v-105zM385 1617h-110v105h110v-105zM286 1799h-110v105h110v-105z" />
    <glyph glyph-name="uni06B4.fina" unicode="&#x6b4;" horiz-adv-x="1848" 
d="M1377 112q71 25 113.5 73.5t42.5 128.5q0 60 -31.5 120.5t-109.5 128.5t-210.5 145t-334.5 170v117l847 545v-106l-770 -493q147 -69 253.5 -127t181.5 -110t122.5 -99t76 -93t42.5 -93.5t22 -99.5q10 -67 25 -112.5t40.5 -73t64 -39.5t96.5 -12v-96h-20
q-89 0 -156.5 41.5t-96.5 126.5h-3q-52 -85 -157 -123q-42 -15 -89.5 -25t-106.5 -16.5t-134 -9t-172 -2.5q-146 0 -250.5 6.5t-178 19t-122 31t-82.5 42.5q-59 42 -92.5 106.5t-33.5 157.5q0 47 7.5 100t21.5 98h81q-11 -37 -18.5 -83t-7.5 -97q0 -77 25.5 -126.5
t69.5 -78.5q28 -19 74 -34t119.5 -25t178.5 -15.5t252 -5.5q155 0 256.5 8t163.5 30zM847 1155v100l847 539v-100zM1034 1617h-110v105h110v-105zM1232 1617h-110v105h110v-105zM1133 1799h-110v105h110v-105z" />
    <glyph glyph-name="uni06B5.init" unicode="&#x6b5;" horiz-adv-x="539" 
d="M76 82q63 0 106.5 11t69.5 36.5t37.5 67.5t11.5 103v1216h84v-1229q0 -80 -18 -137t-56 -93.5t-96 -53.5t-138 -17h-77q-35 0 -52.5 8t-17.5 40t17.5 40t52.5 8h76zM308 1694l-232 352h85l186 -274l183 274h85l-230 -352h-77z" />
    <glyph glyph-name="uni06B5.medi" unicode="&#x6b5;" horiz-adv-x="539" 
d="M385 254q0 -49 9.5 -82t28.5 -53t48 -28.5t68 -8.5v-96h-32q-59 0 -101.5 24t-65.5 72h-4q-26 -45 -71 -70.5t-111 -25.5h-154q-35 0 -52.5 8t-17.5 40q0 27 17.5 37.5t52.5 10.5h130q89 0 130 39t41 134v1261h84v-1262zM308 1694l-232 352h85l186 -274l183 274h85
l-230 -352h-77z" />
    <glyph glyph-name="uni06B5.fina" unicode="&#x6b5;" horiz-adv-x="1309" 
d="M264 353q-15 -66 -20.5 -123t-5.5 -108q0 -94 22 -163t70 -114t122.5 -67t179.5 -22q114 0 197 24t136.5 75.5t79.5 132.5t26 195v1333h84v-1225q0 -59 9.5 -98.5t29 -64.5t48.5 -35.5t67 -10.5v-96h-29q-43 0 -78.5 18t-54.5 53h-4q-11 -93 -47.5 -166.5t-101 -124.5
t-158 -78.5t-218.5 -27.5q-109 0 -195 27.5t-146 82.5t-91.5 138t-31.5 194q0 57 8 119.5t24 131.5h78zM1078 1694l-232 352h85l186 -274l183 274h85l-230 -352h-77z" />
    <glyph glyph-name="uni06B6.init" unicode="&#x6b6;" horiz-adv-x="539" 
d="M76 82q63 0 106.5 11t69.5 36.5t37.5 67.5t11.5 103v1216h84v-1229q0 -80 -18 -137t-56 -93.5t-96 -53.5t-138 -17h-77q-35 0 -52.5 8t-17.5 40t17.5 40t52.5 8h76zM401 1694h-110v105h110v-105z" />
    <glyph glyph-name="uni06B6.medi" unicode="&#x6b6;" horiz-adv-x="539" 
d="M385 254q0 -49 9.5 -82t28.5 -53t48 -28.5t68 -8.5v-96h-32q-59 0 -101.5 24t-65.5 72h-4q-26 -45 -71 -70.5t-111 -25.5h-154q-35 0 -52.5 8t-17.5 40q0 27 17.5 37.5t52.5 10.5h130q89 0 130 39t41 134v1261h84v-1262zM401 1694h-110v105h110v-105z" />
    <glyph glyph-name="uni06B6.fina" unicode="&#x6b6;" horiz-adv-x="1309" 
d="M264 353q-15 -66 -20.5 -123t-5.5 -108q0 -94 22 -163t70 -114t122.5 -67t179.5 -22q114 0 197 24t136.5 75.5t79.5 132.5t26 195v1333h84v-1225q0 -59 9.5 -98.5t29 -64.5t48.5 -35.5t67 -10.5v-96h-29q-43 0 -78.5 18t-54.5 53h-4q-11 -93 -47.5 -166.5t-101 -124.5
t-158 -78.5t-218.5 -27.5q-109 0 -195 27.5t-146 82.5t-91.5 138t-31.5 194q0 57 8 119.5t24 131.5h78zM1171 1694h-110v105h110v-105z" />
    <glyph glyph-name="uni06B7.init" unicode="&#x6b7;" horiz-adv-x="539" 
d="M76 82q63 0 106.5 11t69.5 36.5t37.5 67.5t11.5 103v1216h84v-1229q0 -80 -18 -137t-56 -93.5t-96 -53.5t-138 -17h-77q-35 0 -52.5 8t-17.5 40t17.5 40t52.5 8h76zM302 1694h-110v105h110v-105zM500 1694h-110v105h110v-105zM401 1876h-110v105h110v-105z" />
    <glyph glyph-name="uni06B7.medi" unicode="&#x6b7;" horiz-adv-x="539" 
d="M385 254q0 -49 9.5 -82t28.5 -53t48 -28.5t68 -8.5v-96h-32q-59 0 -101.5 24t-65.5 72h-4q-26 -45 -71 -70.5t-111 -25.5h-154q-35 0 -52.5 8t-17.5 40q0 27 17.5 37.5t52.5 10.5h130q89 0 130 39t41 134v1261h84v-1262zM302 1694h-110v105h110v-105zM500 1694h-110v105
h110v-105zM401 1876h-110v105h110v-105z" />
    <glyph glyph-name="uni06B7.fina" unicode="&#x6b7;" horiz-adv-x="1309" 
d="M264 353q-15 -66 -20.5 -123t-5.5 -108q0 -94 22 -163t70 -114t122.5 -67t179.5 -22q114 0 197 24t136.5 75.5t79.5 132.5t26 195v1333h84v-1225q0 -59 9.5 -98.5t29 -64.5t48.5 -35.5t67 -10.5v-96h-29q-43 0 -78.5 18t-54.5 53h-4q-11 -93 -47.5 -166.5t-101 -124.5
t-158 -78.5t-218.5 -27.5q-109 0 -195 27.5t-146 82.5t-91.5 138t-31.5 194q0 57 8 119.5t24 131.5h78zM1072 1694h-110v105h110v-105zM1270 1694h-110v105h110v-105zM1171 1876h-110v105h110v-105z" />
    <glyph glyph-name="uni06B8.init" unicode="&#x6b8;" horiz-adv-x="539" 
d="M76 82q63 0 106.5 11t69.5 36.5t37.5 67.5t11.5 103v1216h84v-1229q0 -80 -18 -137t-56 -93.5t-96 -53.5t-138 -17h-77q-35 0 -52.5 8t-17.5 40t17.5 40t52.5 8h76zM265 -307h-110v105h110v-105zM462 -307h-110v105h110v-105zM365 -472h-110v105h110v-105z" />
    <glyph glyph-name="uni06B8.medi" unicode="&#x6b8;" horiz-adv-x="539" 
d="M385 254q0 -49 9.5 -82t28.5 -53t48 -28.5t68 -8.5v-96h-32q-59 0 -101.5 24t-65.5 72h-4q-26 -45 -71 -70.5t-111 -25.5h-154q-35 0 -52.5 8t-17.5 40q0 27 17.5 37.5t52.5 10.5h130q89 0 130 39t41 134v1261h84v-1262zM265 -307h-110v105h110v-105zM462 -307h-110v105
h110v-105zM365 -472h-110v105h110v-105z" />
    <glyph glyph-name="uni06B8.fina" unicode="&#x6b8;" horiz-adv-x="1309" 
d="M1155 1516v-1183q0 -70 9.5 -118t28.5 -77.5t48 -42.5t68 -13v-96h-29q-34 0 -66.5 15t-58.5 42.5t-44.5 67t-24.5 87.5h-4q-61 -97 -176.5 -154.5t-287.5 -57.5q-109 0 -195 27.5t-146 82.5t-91.5 138t-31.5 194q0 57 8 119.5t24 131.5h78q-15 -66 -20.5 -123t-5.5 -108
q0 -94 22 -163t70 -114t122.5 -67t179.5 -22q215 0 327 90t112 263v1081h84zM606 -308h-110v105h110v-105zM803 -308h-110v105h110v-105zM706 -473h-110v105h110v-105z" />
    <glyph glyph-name="uni06B9.init" unicode="&#x6b9;" horiz-adv-x="539" 
d="M385 693v-362q0 -93 -22 -159t-62 -107t-97 -60t-126 -19h-78q-34 0 -52 12.5t-18 35.5t18 35.5t52 12.5h77q57 0 99 13t70 42t41.5 75.5t13.5 112.5v368h84zM399 -307h-110v105h110v-105zM399 847h-110v105h110v-105z" />
    <glyph glyph-name="uni06B9.medi" unicode="&#x6b9;" horiz-adv-x="616" 
d="M385 268q0 -49 12.5 -84t40 -57.5t71.5 -33.5t107 -11v-96h-48q-38 0 -73 9.5t-65 26t-53 40t-35 51.5h-4q-25 -56 -81 -91.5t-146 -35.5h-111q-34 0 -52 12.5t-18 35.5t18 35.5t52 12.5h96q103 0 154 43.5t51 142.5v425h84v-425zM402 -307h-110v105h110v-105zM402 848
h-110v105h110v-105z" />
    <glyph glyph-name="uni06B9.fina" unicode="&#x6b9;" horiz-adv-x="1309" 
d="M1060 716q7 -23 14 -59t13.5 -80.5t10.5 -96t5 -103.5q1 -23 1 -46.5t1 -46.5q1 -57 15.5 -95.5t40.5 -62.5t63.5 -34t84.5 -10v-96h-31q-69 0 -121 27.5t-80 78.5h-5q-23 -59 -61.5 -107.5t-92.5 -83t-125.5 -53.5t-160.5 -19q-214 0 -330.5 109.5t-116.5 332.5
q0 57 8 119.5t24 131.5h78q-15 -66 -20.5 -123t-5.5 -108q0 -94 21 -163t66.5 -114t117 -67t172.5 -22q89 0 159.5 23t119 72.5t74.5 127t26 185.5q0 82 -12.5 179.5t-35.5 203.5h83zM726 847h-110v105h110v-105zM726 -490h-110v105h110v-105z" />
    <glyph glyph-name="afii57514" unicode="&#x6ba;" horiz-adv-x="1232" arabic-form="isolated" 
d="M1029 425q22 -88 35.5 -174.5t13.5 -187.5q0 -139 -33.5 -238.5t-95.5 -163t-150.5 -93.5t-197.5 -30q-214 0 -330.5 109.5t-116.5 332.5q0 57 8 119.5t24 131.5h78q-15 -66 -20.5 -123t-5.5 -108q0 -94 21 -163t66.5 -114t117 -67t172.5 -22q89 0 159.5 23t119 72.5
t74.5 127t26 185.5q0 82 -12.5 179.5t-35.5 203.5h83z" />
    <glyph glyph-name="uniFB9F" unicode="&#x6ba;" horiz-adv-x="1271" arabic-form="final" 
d="M1029 425q9 -38 18 -81.5t17 -102.5q12 -81 62.5 -120t144.5 -39v-96h-23q-54 0 -98 19t-67 51q-2 0 -2.5 -0.5t-2.5 -0.5q0 -136 -33.5 -233.5t-95.5 -160.5t-150.5 -93t-197.5 -30q-214 0 -330.5 109.5t-116.5 332.5q0 57 8 119.5t24 131.5h78q-15 -66 -20.5 -123
t-5.5 -108q0 -94 21 -163t66.5 -114t117 -67t172.5 -22q89 0 159.5 23t119 72.5t74.5 127t26 185.5q0 82 -12.5 179.5t-35.5 203.5h83z" />
    <glyph glyph-name="uni06BB" unicode="&#x6bb;" horiz-adv-x="1232" arabic-form="isolated" 
d="M1029 425q22 -88 35.5 -174.5t13.5 -187.5q0 -139 -33.5 -238.5t-95.5 -163t-150.5 -93.5t-197.5 -30q-214 0 -330.5 109.5t-116.5 332.5q0 57 8 119.5t24 131.5h78q-15 -66 -20.5 -123t-5.5 -108q0 -94 21 -163t66.5 -114t117 -67t172.5 -22q89 0 159.5 23t119 72.5
t74.5 127t26 185.5q0 82 -12.5 179.5t-35.5 203.5h83zM309 775q24 -2 53.5 -3.5t51.5 -1.5v462h77v-336l3 -1q39 66 93.5 100t114.5 34q35 0 63.5 -14.5t48.5 -38.5t31 -55.5t11 -65.5q0 -53 -14.5 -85t-47 -49t-84.5 -22.5t-127 -5.5q-50 0 -88 0.5t-68.5 1t-55.5 2
t-49 3.5zM607 770q51 0 84 2t52.5 11t27.5 27t8 50q0 41 -28 66.5t-68 25.5q-27 0 -55 -12.5t-54 -35.5t-49 -57t-39 -77h121z" />
    <glyph glyph-name="uniFBA2" unicode="&#x6bb;" horiz-adv-x="616" arabic-form="initial" 
d="M385 693v-362q0 -93 -22 -159t-62 -107t-97 -60t-126 -19h-78q-34 0 -52 12.5t-18 35.5t18 35.5t52 12.5h77q57 0 99 13t70 42t41.5 75.5t13.5 112.5v368h84zM69 929q24 -2 53.5 -3.5t51.5 -1.5v462h77v-336l3 -1q39 66 93.5 100t114.5 34q35 0 63.5 -14.5t48.5 -38.5
t31 -55.5t11 -65.5q0 -53 -14.5 -85t-47 -49t-84.5 -22.5t-127 -5.5q-50 0 -88 0.5t-68.5 1t-55.5 2t-49 3.5zM367 924q51 0 84 2t52.5 11t27.5 27t8 50q0 41 -28 66.5t-68 25.5q-27 0 -55 -12.5t-54 -35.5t-49 -57t-39 -77h121z" />
    <glyph glyph-name="uniFBA3" unicode="&#x6bb;" horiz-adv-x="616" arabic-form="medial" 
d="M385 268q0 -49 12.5 -84t40 -57.5t71.5 -33.5t107 -11v-96h-48q-38 0 -73 9.5t-65 26t-53 40t-35 51.5h-4q-25 -56 -81 -91.5t-146 -35.5h-111q-34 0 -52 12.5t-18 35.5t18 35.5t52 12.5h96q103 0 154 43.5t51 142.5v425h84v-425zM69 929q24 -2 53.5 -3.5t51.5 -1.5v462
h77v-336l3 -1q39 66 93.5 100t114.5 34q35 0 63.5 -14.5t48.5 -38.5t31 -55.5t11 -65.5q0 -53 -14.5 -85t-47 -49t-84.5 -22.5t-127 -5.5q-50 0 -88 0.5t-68.5 1t-55.5 2t-49 3.5zM367 924q51 0 84 2t52.5 11t27.5 27t8 50q0 41 -28 66.5t-68 25.5q-27 0 -55 -12.5
t-54 -35.5t-49 -57t-39 -77h121z" />
    <glyph glyph-name="uniFBA1" unicode="&#x6bb;" horiz-adv-x="1271" arabic-form="final" 
d="M1029 425q9 -38 18 -81.5t17 -102.5q12 -81 62.5 -120t144.5 -39v-96h-23q-54 0 -98 19t-67 51q-2 0 -2.5 -0.5t-2.5 -0.5q0 -136 -33.5 -233.5t-95.5 -160.5t-150.5 -93t-197.5 -30q-214 0 -330.5 109.5t-116.5 332.5q0 57 8 119.5t24 131.5h78q-15 -66 -20.5 -123
t-5.5 -108q0 -94 21 -163t66.5 -114t117 -67t172.5 -22q89 0 159.5 23t119 72.5t74.5 127t26 185.5q0 82 -12.5 179.5t-35.5 203.5h83zM309 775q24 -2 53.5 -3.5t51.5 -1.5v462h77v-336l3 -1q39 66 93.5 100t114.5 34q35 0 63.5 -14.5t48.5 -38.5t31 -55.5t11 -65.5
q0 -53 -14.5 -85t-47 -49t-84.5 -22.5t-127 -5.5q-50 0 -88 0.5t-68.5 1t-55.5 2t-49 3.5zM607 770q51 0 84 2t52.5 11t27.5 27t8 50q0 41 -28 66.5t-68 25.5q-27 0 -55 -12.5t-54 -35.5t-49 -57t-39 -77h121z" />
    <glyph glyph-name="uni06BC.init" unicode="&#x6bc;" horiz-adv-x="539" 
d="M385 693v-362q0 -93 -22 -159t-62 -107t-97 -60t-126 -19h-78q-34 0 -52 12.5t-18 35.5t18 35.5t52 12.5h77q57 0 99 13t70 42t41.5 75.5t13.5 112.5v368h84zM402 847h-110v105h110v-105zM240 77q32 0 61 -12.5t50.5 -34t34.5 -51.5t13 -64q0 -32 -13 -61t-34.5 -51
t-50.5 -34.5t-61 -12.5q-35 0 -64.5 12.5t-51 34.5t-34 50.5t-12.5 61.5q0 34 12 64t34 51.5t51.5 34t64.5 12.5zM240 -169q35 0 59.5 24.5t24.5 59.5q0 37 -24.5 62t-59.5 25q-37 0 -62 -25t-25 -62q0 -35 25 -59.5t62 -24.5z" />
    <glyph glyph-name="uni06BC.medi" unicode="&#x6bc;" horiz-adv-x="616" 
d="M385 268q0 -49 12.5 -84t40 -57.5t71.5 -33.5t107 -11v-96h-48q-38 0 -73 9.5t-65 26t-53 40t-35 51.5h-4q-25 -56 -81 -91.5t-146 -35.5h-111q-34 0 -52 12.5t-18 35.5t18 35.5t52 12.5h96q103 0 154 43.5t51 142.5v425h84v-425zM402 847h-110v105h110v-105zM240 77
q32 0 61 -12.5t50.5 -34t34.5 -51.5t13 -64q0 -32 -13 -61t-34.5 -51t-50.5 -34.5t-61 -12.5q-35 0 -64.5 12.5t-51 34.5t-34 50.5t-12.5 61.5q0 34 12 64t34 51.5t51.5 34t64.5 12.5zM240 -169q35 0 59.5 24.5t24.5 59.5q0 37 -24.5 62t-59.5 25q-37 0 -62 -25t-25 -62
q0 -35 25 -59.5t62 -24.5z" />
    </font>
</defs>
</svg>
