<?xml version="1.0" encoding="UTF-8" standalone="no"?>
<!DOCTYPE svg PUBLIC "-//W3C//DTD SVG 1.1//EN" "http://www.w3.org/Graphics/SVG/1.1/DTD/svg11.dtd">
<svg xmlns="http://www.w3.org/2000/svg" width="100%" height="100%">
<metadata>
Created by FontXChange 20110222 at Fri Jul 27 17:13:21 2012
 By Ted Hoot
(c) 2008 Microsoft Corporation. All Rights Reserved.
</metadata>
<defs>
<font id="SegoeUI" horiz-adv-x="0">
  <font-face font-family="Segoe UI" font-weight="400" font-stretch="normal" units-per-em="2048" panose-1="2 11 5 2 4 2 4 2 2 3" ascent="1638" descent="-410" x-height="1024" cap-height="1434" bbox="-884 -514 3038 2149" underline-thickness="119" underline-position="-119" unicode-range="U+000D-FFFD"/>
<missing-glyph horiz-adv-x="1322" d="M166 0v1398h990v-1398h-990zM314 148h694v1102h-694v-1102z"/>
    <glyph glyph-name="uniFEFB" unicode="ﻟﺎ" horiz-adv-x="1116" arabic-form="isolated" d="M987 0h-698v188q268 192 424 514q-185 334 -701 779h275q314 -308 493 -613q76 228 76 480v208h131v-208q0 -333 -127 -633q127 -276 127 -563v-152zM856 188q0 181 -74 367q-128 -228 -301 -367h375z"/>
    <glyph glyph-name="uniFEFC" unicode="ﻠﺎ" horiz-adv-x="1219" arabic-form="final" d="M1219 0q-143 0 -222 87.5t-79 244.5v282q-49 -59 -72 -100q-21 -93 -131.5 -256t-218.5 -258h-248q171 121 322 307.5t151 276.5q0 149 -183 397t-485 500h283q454 -503 510 -846q72 83 72 129v792h131v-1212q0 -85 38.5 -120.5t126.5 -35.5h5v-188z"/>
    <glyph glyph-name="uniFEF7" unicode="ﻟﺄ" horiz-adv-x="1116" arabic-form="isolated" d="M987 0h-698v188q268 192 424 514q-185 334 -701 779h275q314 -308 493 -613q76 228 76 480v208h131v-208q0 -333 -127 -633q127 -276 127 -563v-152zM856 188q0 181 -74 367q-128 -228 -301 -367h375zM281 1610h-252v70h56q-43 24 -43 77q0 51 36.5 86t94.5 35 q55 0 86 -12v-74q-36 17 -84 17q-66 0 -66 -52q0 -32 34 -54.5t83 -22.5h55v-70z"/>
    <glyph glyph-name="uniFEF8" unicode="ﻠﺄ" horiz-adv-x="1219" arabic-form="final" d="M1219 0q-143 0 -222 87.5t-79 244.5v282q-49 -59 -72 -100q-21 -93 -131.5 -256t-218.5 -258h-248q171 121 322 307.5t151 276.5q0 149 -183 397t-485 500h283q454 -503 510 -846q72 83 72 129v792h131v-1212q0 -85 38.5 -120.5t126.5 -35.5h5v-188zM322 1610h-252v70h56 q-43 24 -43 77q0 51 36.5 86t94.5 35q55 0 86 -12v-74q-36 17 -84 17q-66 0 -66 -52q0 -32 34 -54.5t83 -22.5h55v-70z"/>
    <glyph glyph-name="uniFEF5" unicode="ﻟﺂ" horiz-adv-x="1116" arabic-form="isolated" d="M987 0h-698v188q268 192 424 514q-185 334 -701 779h275q314 -308 493 -613q76 228 76 480v208h131v-208q0 -333 -127 -633q127 -276 127 -563v-152zM856 188q0 181 -74 367q-128 -228 -301 -367h375zM383 1636q-51 -39 -111 -39q-25 0 -85.5 22.5t-86.5 22.5 q-36 0 -110 -45v74q60 41 110 41q26 0 86.5 -22.5t85.5 -22.5q51 0 111 43v-74z"/>
    <glyph glyph-name="uniFEF6" unicode="ﻠﺂ" horiz-adv-x="1219" arabic-form="final" d="M1219 0q-143 0 -222 87.5t-79 244.5v282q-49 -59 -72 -100q-21 -93 -131.5 -256t-218.5 -258h-248q171 121 322 307.5t151 276.5q0 149 -183 397t-485 500h283q454 -503 510 -846q72 83 72 129v792h131v-1212q0 -85 38.5 -120.5t126.5 -35.5h5v-188zM424 1636 q-51 -39 -111 -39q-25 0 -85.5 22.5t-86.5 22.5q-36 0 -110 -45v74q60 41 110 41q26 0 86.5 -22.5t85.5 -22.5q51 0 111 43v-74z"/>
    <glyph glyph-name="uniFEF9" unicode="ﻟﺈ" horiz-adv-x="1116" arabic-form="isolated" d="M987 0h-698v188q268 192 424 514q-185 334 -701 779h275q314 -308 493 -613q76 228 76 480v208h131v-208q0 -333 -127 -633q127 -276 127 -563v-152zM856 188q0 181 -74 367q-128 -228 -301 -367h375zM322 -362h-252v70h56q-43 24 -43 77q0 51 36.5 86t94.5 35 q55 0 86 -12v-74q-36 17 -84 17q-66 0 -66 -52q0 -32 34 -54.5t83 -22.5h55v-70z"/>
    <glyph glyph-name="uniFEFA" unicode="ﻠﺈ" horiz-adv-x="1219" arabic-form="final" d="M1219 0q-143 0 -222 87.5t-79 244.5v282q-49 -59 -72 -100q-21 -93 -131.5 -256t-218.5 -258h-248q171 121 322 307.5t151 276.5q0 149 -183 397t-485 500h283q454 -503 510 -846q72 83 72 129v792h131v-1212q0 -85 38.5 -120.5t126.5 -35.5h5v-188zM322 -362h-252v70h56 q-43 24 -43 77q0 51 36.5 86t94.5 35q55 0 86 -12v-74q-36 17 -84 17q-66 0 -66 -52q0 -32 34 -54.5t83 -22.5h55v-70z"/>
    <glyph glyph-name="allah" unicode="ﻟﻠہ" horiz-adv-x="1653" d="M1276 1590q0 -67 -34 -108q-36 -45 -101 -45q-64 0 -88 43q-29 -80 -113 -80q-125 0 -125 125q0 29 4 78h70q-4 -34 -4 -74q0 -59 55 -59q70 0 70 114v52h69v-43q0 -87 62 -87q65 0 65 84q0 54 -6 76h72q4 -30 4 -76zM1571 300q0 -144 -80.5 -230t-211.5 -86 q-147 0 -229 105q-82 -105 -230 -105q-152 0 -222 139q-53 104 -53 270q-34 -55 -99 -92t-129 -37q-119 0 -185 88q-60 79 -60 201q0 174 155 301q132 108 318 143v72h131v-695q0 -85 33 -141q38 -65 111 -65q77 0 123 64q41 58 41 142v910h131v-910q0 -84 40 -142 q44 -64 121 -64t123 64q41 58 41 142v910h131v-984zM545 569v293q-135 -28 -228 -98q-114 -86 -114 -209q0 -119 114 -119q144 0 228 133zM1010 1724v164h69v-164h-69z"/>
    <glyph glyph-name="uni06440671.isol" unicode="ﻟﭑ" horiz-adv-x="1116" d="M987 0h-698v188q268 192 424 514q-185 334 -701 779h275q314 -308 493 -613q76 228 76 480v208h131v-208q0 -333 -127 -633q127 -276 127 -563v-152zM856 188q0 181 -74 367q-128 -228 -301 -367h375zM369 1732q0 -69 -59 -113q-53 -39 -117 -39q-31 0 -83.5 20.5 t-80.5 20.5q-30 0 -84 -42v70q53 42 85 42q26 0 60 -10q15 74 60.5 120.5t104.5 46.5q114 0 114 -116zM299 1732q0 46 -44 46q-36 0 -65 -40q-26 -36 -34 -82q20 -6 37 -6q45 0 75.5 25.5t30.5 56.5z"/>
    <glyph glyph-name="uni06440671.fina" unicode="ﻠﭑ" horiz-adv-x="1219" d="M1219 0q-143 0 -222 87.5t-79 244.5v282q-49 -59 -72 -100q-21 -93 -131.5 -256t-218.5 -258h-248q171 121 322 307.5t151 276.5q0 149 -183 397t-485 500h283q454 -503 510 -846q72 83 72 129v792h131v-1212q0 -85 38.5 -120.5t126.5 -35.5h5v-188zM409 1732 q0 -69 -59 -113q-53 -39 -117 -39q-31 0 -83.5 20.5t-80.5 20.5q-30 0 -84 -42v70q53 42 85 42q26 0 60 -10q15 74 60.5 120.5t104.5 46.5q114 0 114 -116zM339 1732q0 46 -44 46q-36 0 -65 -40q-26 -36 -34 -82q20 -6 37 -6q45 0 75.5 25.5t30.5 56.5z"/>
    <glyph glyph-name="uniFDF2" unicode="اﻟﻠﻪ" horiz-adv-x="2129" arabic-form="isolated" d="M1276 1590q0 -67 -34 -108q-36 -45 -101 -45q-64 0 -88 43q-29 -80 -113 -80q-125 0 -125 125q0 29 4 78h70q-4 -34 -4 -74q0 -59 55 -59q70 0 70 114v52h69v-43q0 -87 62 -87q65 0 65 84q0 54 -6 76h72q4 -30 4 -76zM1571 300q0 -144 -80.5 -230t-211.5 -86 q-147 0 -229 105q-82 -105 -230 -105q-152 0 -222 139q-53 104 -53 270q-34 -55 -99 -92t-129 -37q-119 0 -185 88q-60 79 -60 201q0 174 155 301q132 108 318 143v72h131v-695q0 -85 33 -141q38 -65 111 -65q77 0 123 64q41 58 41 142v910h131v-910q0 -84 40 -142 q44 -64 121 -64t123 64q41 58 41 142v910h131v-984zM545 569v293q-135 -28 -228 -98q-114 -86 -114 -209q0 -119 114 -119q144 0 228 133zM1010 1724v164h69v-164h-69zM1955 0h-131v1556h131v-1556z"/>
    <glyph glyph-name="uniFDFC" unicode="رﻳﺎل" horiz-adv-x="2493" arabic-form="isolated" d="M963 248q0 -453 -455 -453q-245 0 -356 106.5t-111 336.5q0 123 20 251h138v-10q-27 -113 -27 -239q0 -144 76.5 -200t261.5 -56q321 0 321 276v1296h132v-1308zM1479 0q-142 0 -221.5 87.5t-79.5 244.5v1224h131v-1212q0 -85 38.5 -120.5t127.5 -35.5h4v-188zM1868 270 q0 -123 -88 -196.5t-240 -73.5h-90q-49 0 -86 51t-37 137h205q205 0 205 156v373h131v-447zM1468 -293h-147v147h147v-147zM1198 -293h-148v147h148v-147zM2286 516q105 -164 105 -330q0 -299 -227 -454.5t-582 -155.5v188q305 0 491.5 100t186.5 290q0 164 -166 350v12h192 z"/>
    <glyph glyph-name="uniFE8E" unicode="ا" horiz-adv-x="479" arabic-form="final" d="M479 0q-142 0 -221.5 87.5t-79.5 244.5v1224h131v-1212q0 -85 38.5 -120.5t127.5 -35.5h4v-188z"/>
    <glyph glyph-name="uniFE84" unicode="أ" horiz-adv-x="479" arabic-form="final" d="M479 0q-142 0 -221.5 87.5t-79.5 244.5v1224h131v-1212q0 -85 38.5 -120.5t127.5 -35.5h4v-188zM369 1610h-252v70h56q-43 24 -43 77q0 51 36.5 86t94.5 35q55 0 86 -12v-74q-36 17 -84 17q-66 0 -66 -52q0 -32 34 -54.5t83 -22.5h55v-70z"/>
    <glyph glyph-name="uniFE82" unicode="آ" horiz-adv-x="479" arabic-form="final" d="M479 0q-142 0 -221.5 87.5t-79.5 244.5v1224h131v-1212q0 -85 38.5 -120.5t127.5 -35.5h4v-188zM436 1676q-51 -39 -111 -39q-25 0 -85.5 22.5t-86.5 22.5q-36 0 -110 -45v74q60 41 110 41q26 0 86.5 -22.5t85.5 -22.5q51 0 111 43v-74z"/>
    <glyph glyph-name="uniFE88" unicode="إ" horiz-adv-x="479" arabic-form="final" d="M479 0q-142 0 -221.5 87.5t-79.5 244.5v1224h131v-1212q0 -85 38.5 -120.5t127.5 -35.5h4v-188zM369 -362h-252v70h56q-43 24 -43 77q0 51 36.5 86t94.5 35q55 0 86 -12v-74q-36 17 -84 17q-66 0 -66 -52q0 -32 34 -54.5t83 -22.5h55v-70z"/>
    <glyph glyph-name="uniFE91" unicode="ب" horiz-adv-x="500" arabic-form="initial" d="M418 270q0 -123 -88 -196.5t-240 -73.5h-90q-49 0 -86 51t-37 137h205q205 0 205 156v373h131v-447zM279 -293h-148v147h148v-147z"/>
    <glyph glyph-name="uniFE97" unicode="ت" horiz-adv-x="500" arabic-form="initial" d="M418 270q0 -123 -88 -196.5t-240 -73.5h-90q-49 0 -86 51t-37 137h205q205 0 205 156v373h131v-447zM500 891h-147v147h147v-147zM230 891h-148v147h148v-147z"/>
    <glyph glyph-name="uniFE9B" unicode="ث" horiz-adv-x="500" arabic-form="initial" d="M418 270q0 -123 -88 -196.5t-240 -73.5h-90q-49 0 -86 51t-37 137h205q205 0 205 156v373h131v-447zM352 1100h-148v147h148v-147zM499 891h-147v147h147v-147zM204 891h-147v147h147v-147z"/>
    <glyph glyph-name="uniFE9F" unicode="ج" horiz-adv-x="1112" arabic-form="initial" d="M1030 184q-178 0 -523.5 -92t-506.5 -92q-49 0 -86 51t-37 137h129q143 0 439.5 80.5t406.5 87.5q-303 273 -653 273h-95v186h105q81 0 157 -16q75 -16 149 -48q73 -31 149 -80q72 -47 153 -113q75 -61 165 -145l43 -41h2l3 1v-189zM703 -244h-148v147h148v-147z"/>
    <glyph glyph-name="uniFE9E" unicode="ج" horiz-adv-x="1112" arabic-form="final" d="M1112 0h-33q-340 0 -340 319v211q-245 -26 -383.5 -134t-138.5 -277q0 -171 123 -265t313 -94q269 0 430 111h11v-199q-160 -96 -439 -96q-248 0 -408.5 146t-160.5 393q0 248 217.5 396t544.5 148q-262 113 -629 113h-78v186h88q188 0 406 -77t409 -211v-131 q-144 0 -174 -2v-162q0 -102 50 -144.5t155 -42.5h37v-188zM586 12h-148v147h148v-147z"/>
    <glyph glyph-name="uniFEA3" unicode="ح" horiz-adv-x="1112" arabic-form="initial" d="M1030 184q-178 0 -523.5 -92t-506.5 -92q-49 0 -86 51t-37 137h129q143 0 439.5 80.5t406.5 87.5q-303 273 -653 273h-95v186h105q81 0 157 -16q75 -16 149 -48q73 -31 149 -80q72 -47 153 -113q75 -61 165 -145l43 -41h2l3 1v-189z"/>
    <glyph glyph-name="uniFEA2" unicode="ح" horiz-adv-x="1112" arabic-form="final" d="M1112 0h-33q-340 0 -340 319v211q-245 -26 -383.5 -134t-138.5 -277q0 -171 123 -265t313 -94q269 0 430 111h11v-199q-160 -96 -439 -96q-248 0 -408.5 146t-160.5 393q0 248 217.5 396t544.5 148q-262 113 -629 113h-78v186h88q188 0 406 -77t409 -211v-131 q-144 0 -174 -2v-162q0 -102 50 -144.5t155 -42.5h37v-188z"/>
    <glyph glyph-name="uniFEA7" unicode="خ" horiz-adv-x="1112" arabic-form="initial" d="M1030 184q-178 0 -523.5 -92t-506.5 -92q-49 0 -86 51t-37 137h129q143 0 439.5 80.5t406.5 87.5q-303 273 -653 273h-95v186h105q81 0 157 -16q75 -16 149 -48q73 -31 149 -80q72 -47 153 -113q75 -61 165 -145l43 -41h2l3 1v-189zM713 936h-148v147h148v-147z"/>
    <glyph glyph-name="uniFEA6" unicode="خ" horiz-adv-x="1112" arabic-form="final" d="M1112 0h-33q-340 0 -340 319v211q-245 -26 -383.5 -134t-138.5 -277q0 -171 123 -265t313 -94q269 0 430 111h11v-199q-160 -96 -439 -96q-248 0 -408.5 146t-160.5 393q0 248 217.5 396t544.5 148q-262 113 -629 113h-78v186h88q188 0 406 -77t409 -211v-131 q-144 0 -174 -2v-162q0 -102 50 -144.5t155 -42.5h37v-188zM769 1120h-148v147h148v-147z"/>
    <glyph glyph-name="uniFEB3" unicode="س" horiz-adv-x="1239" arabic-form="initial" d="M1157 188q0 -188 -182 -188h-82q-146 0 -199 72q-52 -72 -198 -72t-199 72q-55 -72 -215 -72h-82q-49 0 -86 51t-37 137h205q149 0 149 134v100h131v-100q0 -134 134 -134q133 0 133 134v100h131v-100q0 -134 133 -134t133 80v367h131v-447z"/>
    <glyph glyph-name="uniFEB7" unicode="ش" horiz-adv-x="1239" arabic-form="initial" d="M1157 188q0 -188 -182 -188h-82q-146 0 -199 72q-52 -72 -198 -72t-199 72q-55 -72 -215 -72h-82q-49 0 -86 51t-37 137h205q149 0 149 134v100h131v-100q0 -134 134 -134q133 0 133 134v100h131v-100q0 -134 133 -134t133 80v367h131v-447zM707 926h-148v147h148v-147z M854 717h-147v147h147v-147zM559 717h-147v147h147v-147z"/>
    <glyph glyph-name="uniFEBB" unicode="ص" horiz-adv-x="1731" arabic-form="initial" d="M551 188q233 327 410 477t342 150q149 0 268 -162t119 -352q0 -138 -127.5 -219.5t-345.5 -81.5h-758q-151 0 -230 82q-75 -82 -229 -82q-49 0 -86 51t-37 137h127q160 0 160 191v10h131v-10q0 -191 160 -191h96zM715 188h483q163 0 262 34.5t99 88.5q0 132 -84.5 225 t-174.5 93q-139 0 -277 -104t-308 -337z"/>
    <glyph glyph-name="uniFEBF" unicode="ض" horiz-adv-x="1731" arabic-form="initial" d="M551 188q233 327 410 477t342 150q149 0 268 -162t119 -352q0 -138 -127.5 -219.5t-345.5 -81.5h-758q-151 0 -230 82q-75 -82 -229 -82q-49 0 -86 51t-37 137h127q160 0 160 191v10h131v-10q0 -191 160 -191h96zM715 188h483q163 0 262 34.5t99 88.5q0 132 -84.5 225 t-174.5 93q-139 0 -277 -104t-308 -337zM1342 958h-148v147h148v-147z"/>
    <glyph glyph-name="uniFECB" unicode="ع" horiz-adv-x="1112" arabic-form="initial" d="M1012 184q-492 -184 -768 -184h-244q-49 0 -86 51t-37 137h406q-90 49 -142.5 142t-52.5 186q0 197 112 309.5t294 112.5q239 0 401 -82v-213h-10q-160 113 -383 113q-137 0 -210 -71t-73 -171q0 -147 99.5 -224t146.5 -77q29 0 197.5 46.5t349.5 113.5v-189z"/>
    <glyph glyph-name="uniFECC" unicode="ع" horiz-adv-x="803" arabic-form="medial" d="M803 0h-82q-145 0 -320 115q-174 -115 -319 -115h-82q-49 0 -86 51t-37 137h205q104 0 190 33q-211 200 -211 371q0 116 93.5 179t246.5 63q154 0 247 -63t93 -179q0 -171 -211 -371q87 -33 191 -33h82v-188zM401 289q95 68 152 143.5t57 126.5q0 84 -209 84 q-208 0 -208 -84q0 -51 57 -126.5t151 -143.5z"/>
    <glyph glyph-name="uniFECA" unicode="ع" horiz-adv-x="928" arabic-form="final" d="M928 0h-21q-193 0 -479 295q-108 -81 -159.5 -145t-51.5 -148q0 -106 95.5 -173t222.5 -67q186 0 362 129h10v-213q-164 -102 -370 -102q-185 0 -318 123t-133 303q0 117 61 199.5t199 181.5q-120 131 -166.5 203t-46.5 153q0 108 97.5 173t242.5 65q147 0 243.5 -64.5 t96.5 -177.5q0 -96 -51.5 -170t-229.5 -196q115 -115 191.5 -148t167.5 -33h37v-188zM451 455q120 81 172.5 133t52.5 104q0 40 -57.5 67t-145.5 27q-85 0 -138.5 -26.5t-53.5 -65.5q0 -36 38.5 -87.5t131.5 -151.5z"/>
    <glyph glyph-name="uniFECF" unicode="غ" horiz-adv-x="1112" arabic-form="initial" d="M1012 184q-492 -184 -768 -184h-244q-49 0 -86 51t-37 137h406q-90 49 -142.5 142t-52.5 186q0 197 112 309.5t294 112.5q239 0 401 -82v-213h-10q-160 113 -383 113q-137 0 -210 -71t-73 -171q0 -147 99.5 -224t146.5 -77q29 0 197.5 46.5t349.5 113.5v-189zM576 1112 h-148v147h148v-147z"/>
    <glyph glyph-name="uniFED0" unicode="غ" horiz-adv-x="803" arabic-form="medial" d="M803 0h-82q-145 0 -320 115q-174 -115 -319 -115h-82q-49 0 -86 51t-37 137h205q104 0 190 33q-211 200 -211 371q0 116 93.5 179t246.5 63q154 0 247 -63t93 -179q0 -171 -211 -371q87 -33 191 -33h82v-188zM401 289q95 68 152 143.5t57 126.5q0 84 -209 84 q-208 0 -208 -84q0 -51 57 -126.5t151 -143.5zM476 1008h-148v147h148v-147z"/>
    <glyph glyph-name="uniFECE" unicode="غ" horiz-adv-x="928" arabic-form="final" d="M928 0h-21q-193 0 -479 295q-108 -81 -159.5 -145t-51.5 -148q0 -106 95.5 -173t222.5 -67q186 0 362 129h10v-213q-164 -102 -370 -102q-185 0 -318 123t-133 303q0 117 61 199.5t199 181.5q-120 131 -166.5 203t-46.5 153q0 108 97.5 173t242.5 65q147 0 243.5 -64.5 t96.5 -177.5q0 -96 -51.5 -170t-229.5 -196q115 -115 191.5 -148t167.5 -33h37v-188zM451 455q120 81 172.5 133t52.5 104q0 40 -57.5 67t-145.5 27q-85 0 -138.5 -26.5t-53.5 -65.5q0 -36 38.5 -87.5t131.5 -151.5zM547 1151h-148v147h148v-147z"/>
    <glyph glyph-name="uniFED3" unicode="ف" horiz-adv-x="594" arabic-form="initial" d="M455 467q-41 -41 -127 -41q-111 0 -193 85.5t-82 231.5q0 151 82.5 263t167.5 112q113 0 194 -163.5t81 -444.5q0 -249 -105.5 -379.5t-302.5 -130.5h-170q-49 0 -86 51t-37 137h295q119 0 201 76.5t82 202.5zM442 647q0 112 -47.5 199.5t-93.5 87.5q-40 0 -81.5 -54 t-41.5 -130q0 -140 154 -140q67 0 110 37zM345 1292h-148v147h148v-147z"/>
    <glyph glyph-name="uniFED4" unicode="ف" horiz-adv-x="606" arabic-form="medial" d="M606 0h-41q-120 0 -262 100q-142 -100 -262 -100h-41q-49 0 -86 51t-37 137h205q54 0 111 17q-136 167 -136 311q0 143 69 230.5t177 87.5t177 -87.5t69 -230.5q0 -144 -135 -311q56 -17 110 -17h82v-188zM303 266q115 109 115 240q0 59 -31 98t-84 39t-84 -39t-31 -98 q0 -131 115 -240zM377 1008h-148v147h148v-147z"/>
    <glyph glyph-name="uniFED7" unicode="ق" horiz-adv-x="594" arabic-form="initial" d="M455 467q-41 -41 -127 -41q-111 0 -193 85.5t-82 231.5q0 151 82.5 263t167.5 112q113 0 194 -163.5t81 -444.5q0 -249 -105.5 -379.5t-302.5 -130.5h-170q-49 0 -86 51t-37 137h295q119 0 201 76.5t82 202.5zM442 647q0 112 -47.5 199.5t-93.5 87.5q-40 0 -81.5 -54 t-41.5 -130q0 -140 154 -140q67 0 110 37zM500 1292h-147v147h147v-147zM230 1292h-148v147h148v-147z"/>
    <glyph glyph-name="uniFED8" unicode="ق" horiz-adv-x="606" arabic-form="medial" d="M606 0h-41q-120 0 -262 100q-142 -100 -262 -100h-41q-49 0 -86 51t-37 137h205q54 0 111 17q-136 167 -136 311q0 143 69 230.5t177 87.5t177 -87.5t69 -230.5q0 -144 -135 -311q56 -17 110 -17h82v-188zM303 266q115 109 115 240q0 59 -31 98t-84 39t-84 -39t-31 -98 q0 -131 115 -240zM512 1008h-147v147h147v-147zM242 1008h-148v147h148v-147z"/>
    <glyph glyph-name="uniFEDB" unicode="ك" horiz-adv-x="807" arabic-form="initial" d="M725 1333l-422 -250q-41 -20 -74.5 -53t-33.5 -55q0 -56 92 -144l282 -268q127 -120 162 -180.5t35 -118.5q0 -264 -354 -264h-412q-49 0 -86 51t-37 137h533q107 0 148.5 25t41.5 84q0 38 -38.5 81.5t-162.5 160.5l-290 274q-105 101 -105 197q0 52 41 95t176 124 l504 301v-197z"/>
    <glyph glyph-name="uniFEDF" unicode="ل" horiz-adv-x="442" arabic-form="initial" d="M360 270q0 -123 -87.5 -196.5t-239.5 -73.5h-33q-49 0 -86 51t-37 137h148q204 0 204 156v1212h131v-1286z"/>
    <glyph glyph-name="uniFEE3" unicode="م" horiz-adv-x="803" arabic-form="initial" d="M-123 188h86q94 0 121 54t35 174q21 356 276 356q160 0 263.5 -119.5t103.5 -314.5q0 -161 -78 -257.5t-213 -96.5q-166 0 -268 157q-44 -91 -80.5 -116t-104.5 -25h-18q-49 0 -86 51t-37 137zM459 168q79 0 125.5 48.5t46.5 115.5q0 97 -58 173.5t-155 76.5 q-168 0 -168 -193q0 -87 57.5 -154t151.5 -67z"/>
    <glyph glyph-name="uniFEE7" unicode="ن" horiz-adv-x="500" arabic-form="initial" d="M418 270q0 -123 -88 -196.5t-240 -73.5h-90q-49 0 -86 51t-37 137h205q205 0 205 156v373h131v-447zM357 891h-148v147h148v-147z"/>
    <glyph glyph-name="uni06BE" unicode="ه" horiz-adv-x="922" arabic-form="initial" d="M115 1104h41q248 0 487.5 -270.5t239.5 -528.5q0 -305 -359 -305h-524q-49 0 -86 51t-37 137h244q-66 105 -66 215q0 170 68 269.5t180 99.5q132 0 218.5 -133t86.5 -301q0 -85 -37 -150h31q150 0 150 129q0 183 -173 390.5t-421 207.5h-43v189zM350 168q62 0 94.5 45.5 t32.5 118.5q0 101 -46.5 175.5t-127.5 74.5q-55 0 -86 -55t-31 -138q0 -89 45.5 -155t118.5 -66z"/>
    <glyph glyph-name="uniFBAB" unicode="ھ" horiz-adv-x="803" arabic-form="final" d="M803 0h-240q82 -59 82 -172q0 -109 -59.5 -180.5t-151.5 -71.5q-84 0 -166 118.5t-82 305.5h-186q-49 0 -86 51t-37 137h309q0 183 83.5 293.5t172.5 110.5q91 0 147 -65t56 -167q0 -118 -100 -172h258v-188zM311 188h99q44 0 74 40t30 96q0 32 -19 55.5t-51 23.5 q-47 0 -90 -60.5t-43 -154.5zM311 0q0 -97 40.5 -166.5t84.5 -69.5q78 0 78 89q0 58 -30 102.5t-74 44.5h-99z"/>
    <glyph glyph-name="uniFEEA" unicode="ه" horiz-adv-x="782" arabic-form="final" d="M782 0q-119 0 -178 79.5t-59 313.5q-34 -55 -99 -92t-129 -37q-108 0 -176.5 77.5t-68.5 211.5q0 148 126.5 275.5t346.5 168.5v72h131v-676q0 -111 25 -158t81 -47v-188zM545 569v293q-162 -33 -252 -118t-90 -189q0 -57 32.5 -88t81.5 -31q144 0 228 133z"/>
    <glyph glyph-name="uniFEF3" unicode="ي" horiz-adv-x="500" arabic-form="initial" d="M418 270q0 -123 -88 -196.5t-240 -73.5h-90q-49 0 -86 51t-37 137h205q205 0 205 156v373h131v-447zM418 -293h-147v147h147v-147zM148 -293h-148v147h148v-147z"/>
    <glyph glyph-name="uniFEF2" unicode="ي" horiz-adv-x="1212" arabic-form="final" d="M1212 0q-95 0 -152.5 44.5t-91 119t-72.5 197t-72.5 157.5t-84.5 35q-92 0 -92 -88q0 -55 72 -141q96 -115 96 -228q0 -264 -375 -264q-184 0 -296.5 122t-112.5 337q0 65 14 170h133v-10q-16 -66 -16 -158q0 -146 69 -209.5t211 -63.5q238 0 238 117q0 52 -74 142 q-94 111 -94 221q0 109 58 175t169 66q79 0 139 -44t113 -229t101.5 -232.5t119.5 -47.5v-188zM670 -424h-147v147h147v-147zM400 -424h-148v147h148v-147z"/>
    <glyph glyph-name="uniFE94" unicode="ة" horiz-adv-x="782" arabic-form="final" d="M782 0q-119 0 -178 79.5t-59 313.5q-34 -55 -99 -92t-129 -37q-108 0 -176.5 77.5t-68.5 211.5q0 148 126.5 275.5t346.5 168.5v72h131v-676q0 -111 25 -158t81 -47v-188zM545 569v293q-162 -33 -252 -118t-90 -189q0 -57 32.5 -88t81.5 -31q144 0 228 133zM623 1204 h-147v147h147v-147zM353 1204h-148v147h148v-147z"/>
    <glyph glyph-name="uniFEF0" unicode="ى" horiz-adv-x="1212" arabic-form="final" d="M1212 0q-95 0 -152.5 44.5t-91 119t-72.5 197t-72.5 157.5t-84.5 35q-92 0 -92 -88q0 -55 72 -141q96 -115 96 -228q0 -264 -375 -264q-184 0 -296.5 122t-112.5 337q0 65 14 170h133v-10q-16 -66 -16 -158q0 -146 69 -209.5t211 -63.5q238 0 238 117q0 52 -74 142 q-94 111 -94 221q0 109 58 175t169 66q79 0 139 -44t113 -229t101.5 -232.5t119.5 -47.5v-188z"/>
    <glyph glyph-name="uniFE8B" unicode="ئ" horiz-adv-x="500" arabic-form="initial" d="M418 270q0 -123 -88 -196.5t-240 -73.5h-90q-49 0 -86 51t-37 137h205q205 0 205 156v373h131v-447zM459 891h-252v70h56q-43 24 -43 77q0 51 36.5 86t94.5 35q55 0 86 -12v-74q-36 17 -84 17q-66 0 -66 -52q0 -32 34 -54.5t83 -22.5h55v-70z"/>
    <glyph glyph-name="uniFE8A" unicode="ئ" horiz-adv-x="1212" arabic-form="final" d="M1212 0q-95 0 -152.5 44.5t-91 119t-72.5 197t-72.5 157.5t-84.5 35q-92 0 -92 -88q0 -55 72 -141q96 -115 96 -228q0 -264 -375 -264q-184 0 -296.5 122t-112.5 337q0 65 14 170h133v-10q-16 -66 -16 -158q0 -146 69 -209.5t211 -63.5q238 0 238 117q0 52 -74 142 q-94 111 -94 221q0 109 58 175t169 66q79 0 139 -44t113 -229t101.5 -232.5t119.5 -47.5v-188zM397 715h-252v70h56q-43 24 -43 77q0 51 36.5 86t94.5 35q55 0 86 -12v-74q-36 17 -84 17q-66 0 -66 -52q0 -32 34 -54.5t83 -22.5h55v-70z"/>
    <glyph glyph-name="uni0621" unicode="ء" horiz-adv-x="844" arabic-form="isolated" d="M727 174l-545 -168v187l156 47q-88 21 -144.5 85.5t-56.5 143.5q0 139 85.5 221t219.5 82q119 0 209 -18v-187h-12q-90 23 -188 23q-183 0 -183 -139q0 -91 105 -129.5t143 -26.5l211 65v-186z"/>
    <glyph glyph-name="uni0622" unicode="آ" horiz-adv-x="479" arabic-form="isolated" d="M305 0h-131v1556h131v-1556zM432 1676q-51 -39 -111 -39q-25 0 -85.5 22.5t-86.5 22.5q-36 0 -110 -45v74q60 41 110 41q26 0 86.5 -22.5t85.5 -22.5q51 0 111 43v-74z"/>
    <glyph glyph-name="uni0623" unicode="أ" horiz-adv-x="479" arabic-form="isolated" d="M305 0h-131v1556h131v-1556zM365 1610h-252v70h56q-43 24 -43 77q0 51 36.5 86t94.5 35q55 0 86 -12v-74q-36 17 -84 17q-66 0 -66 -52q0 -32 34 -54.5t83 -22.5h55v-70z"/>
    <glyph glyph-name="uni0624" unicode="ؤ" horiz-adv-x="868" arabic-form="final" d="M657 154q-41 -41 -110 -41q-110 0 -189 85t-79 232q0 151 79.5 263t163.5 112q105 0 184.5 -164.5t79.5 -443.5q0 -304 -200.5 -462.5t-585.5 -158.5v188q325 0 491 101t166 289zM645 340q0 93 -42 184.5t-83 91.5q-39 0 -74.5 -57.5t-35.5 -122.5q0 -59 39.5 -97 t101.5 -38q65 0 94 39zM631 979h-252v70h56q-43 24 -43 77q0 51 36.5 86t94.5 35q55 0 86 -12v-74q-36 17 -84 17q-66 0 -66 -52q0 -32 34 -54.5t83 -22.5h55v-70z"/>
    <glyph glyph-name="uni0625" unicode="إ" horiz-adv-x="479" arabic-form="isolated" d="M305 0h-131v1556h131v-1556zM365 -362h-252v70h56q-43 24 -43 77q0 51 36.5 86t94.5 35q55 0 86 -12v-74q-36 17 -84 17q-66 0 -66 -52q0 -32 34 -54.5t83 -22.5h55v-70z"/>
    <glyph glyph-name="uni0626" unicode="ئ" horiz-adv-x="1311" arabic-form="isolated" d="M1239 866h-10q-150 88 -320 88q-82 0 -136 -36t-54 -87q0 -44 38 -83.5t200.5 -122t218 -144.5t55.5 -147q0 -161 -177.5 -247.5t-525.5 -86.5q-497 0 -497 442q0 99 20 252h133v-10q-22 -135 -22 -240q0 -133 87.5 -194.5t280.5 -61.5q277 0 423.5 42t146.5 108 q0 42 -47 81.5t-195.5 111.5t-209 143.5t-60.5 159.5q0 122 94 213.5t246 91.5q167 0 311 -60v-213zM410 866h-252v70h56q-43 24 -43 77q0 51 36.5 86t94.5 35q55 0 86 -12v-74q-36 17 -84 17q-66 0 -66 -52q0 -32 34 -54.5t83 -22.5h55v-70z"/>
    <glyph glyph-name="uni0627" unicode="ا" horiz-adv-x="479" arabic-form="isolated" d="M305 0h-131v1556h131v-1556z"/>
    <glyph glyph-name="uni0628" unicode="ب" horiz-adv-x="1464" arabic-form="final" d="M1382 291q0 -140 -120.5 -215.5t-354.5 -75.5h-327q-500 0 -500 477q0 114 31 240h131v-10q-31 -111 -31 -218q0 -160 87 -230.5t284 -70.5h317q170 0 261 39t91 138v352h131v-426zM877 -293h-148v147h148v-147z"/>
    <glyph glyph-name="uni0629" unicode="ة" horiz-adv-x="635" arabic-form="isolated" d="M113 930q216 -13 348.5 -176.5t132.5 -360.5q0 -184 -75.5 -294.5t-190.5 -110.5q-123 0 -195 100t-72 285q0 198 134 377q-37 10 -82 10v170zM463 393q0 203 -164 314q-106 -137 -106 -334q0 -95 37 -146t98 -51q135 0 135 217zM527 1104h-147v147h147v-147zM257 1104 h-148v147h148v-147z"/>
    <glyph glyph-name="uni062A" unicode="ت" horiz-adv-x="1464" arabic-form="final" d="M1382 291q0 -140 -120.5 -215.5t-354.5 -75.5h-327q-500 0 -500 477q0 114 31 240h131v-10q-31 -111 -31 -218q0 -160 87 -230.5t284 -70.5h317q170 0 261 39t91 138v352h131v-426zM971 815h-147v147h147v-147zM701 815h-148v147h148v-147z"/>
    <glyph glyph-name="uni062B" unicode="ث" horiz-adv-x="1464" arabic-form="final" d="M1382 291q0 -140 -120.5 -215.5t-354.5 -75.5h-327q-500 0 -500 477q0 114 31 240h131v-10q-31 -111 -31 -218q0 -160 87 -230.5t284 -70.5h317q170 0 261 39t91 138v352h131v-426zM836 1024h-148v147h148v-147zM983 815h-147v147h147v-147zM688 815h-147v147h147v-147z "/>
    <glyph glyph-name="uni062C" unicode="ج" horiz-adv-x="1112" arabic-form="isolated" d="M1094 -328q-160 -96 -439 -96q-248 0 -408.5 146t-160.5 393q0 248 217.5 396t544.5 148q-262 113 -629 113h-78v186h88q188 0 406 -77t409 -211v-131h-147q-319 0 -499.5 -114.5t-180.5 -305.5q0 -171 123 -265t313 -94q269 0 430 111h11v-199zM728 66h-148v147h148 v-147z"/>
    <glyph glyph-name="uni062D" unicode="ح" horiz-adv-x="1112" arabic-form="isolated" d="M1094 -328q-160 -96 -439 -96q-248 0 -408.5 146t-160.5 393q0 248 217.5 396t544.5 148q-262 113 -629 113h-78v186h88q188 0 406 -77t409 -211v-131h-147q-319 0 -499.5 -114.5t-180.5 -305.5q0 -171 123 -265t313 -94q269 0 430 111h11v-199z"/>
    <glyph glyph-name="uni062E" unicode="خ" horiz-adv-x="1112" arabic-form="isolated" d="M1094 -328q-160 -96 -439 -96q-248 0 -408.5 146t-160.5 393q0 248 217.5 396t544.5 148q-262 113 -629 113h-78v186h88q188 0 406 -77t409 -211v-131h-147q-319 0 -499.5 -114.5t-180.5 -305.5q0 -171 123 -265t313 -94q269 0 430 111h11v-199zM769 1120h-148v147h148 v-147z"/>
    <glyph glyph-name="uni062F" unicode="د" horiz-adv-x="696" arabic-form="final" d="M190 956q465 -341 465 -632q0 -148 -94.5 -236t-271.5 -88h-279v188h277q111 0 174 39t63 95q0 183 -344 399v235h10z"/>
    <glyph glyph-name="uni0630" unicode="ذ" horiz-adv-x="696" arabic-form="final" d="M190 956q465 -341 465 -632q0 -148 -94.5 -236t-271.5 -88h-279v188h277q111 0 174 39t63 95q0 183 -344 399v235h10zM205 1130h-148v147h148v-147z"/>
    <glyph glyph-name="uni0631" unicode="ر" horiz-adv-x="993" arabic-form="isolated" d="M786 516q105 -164 105 -330q0 -299 -227 -454.5t-582 -155.5v188q305 0 491.5 100t186.5 290q0 164 -166 350v12h192z"/>
    <glyph glyph-name="uni0632" unicode="ز" horiz-adv-x="993" arabic-form="isolated" d="M786 516q105 -164 105 -330q0 -299 -227 -454.5t-582 -155.5v188q305 0 491.5 100t186.5 290q0 164 -166 350v12h192zM742 690h-148v147h148v-147z"/>
    <glyph glyph-name="uni0633" unicode="س" horiz-adv-x="1688" arabic-form="final" d="M1606 188q0 -188 -183 -188h-82q-146 0 -198 72q-53 -72 -199 -72q-106 0 -158 68q-73 -492 -411 -492q-159 0 -262 135t-103 381q0 169 27 309h131v-16q-27 -133 -27 -295q0 -154 62 -240t172 -86q305 0 305 558v100h131v-100q0 -134 133 -134t133 134v100h131v-100 q0 -134 133 -134q134 0 134 80v367h131v-447z"/>
    <glyph glyph-name="uni0634" unicode="ش" horiz-adv-x="1688" arabic-form="final" d="M1606 188q0 -188 -183 -188h-82q-146 0 -198 72q-53 -72 -199 -72q-106 0 -158 68q-73 -492 -411 -492q-159 0 -262 135t-103 381q0 169 27 309h131v-16q-27 -133 -27 -295q0 -154 62 -240t172 -86q305 0 305 558v100h131v-100q0 -134 133 -134t133 134v100h131v-100 q0 -134 133 -134q134 0 134 80v367h131v-447zM1161 926h-148v147h148v-147zM1308 717h-147v147h147v-147zM1013 717h-147v147h147v-147z"/>
    <glyph glyph-name="uni0635" unicode="ص" horiz-adv-x="2232" arabic-form="final" d="M1053 188q232 327 409.5 477t341.5 150q150 0 268.5 -162t118.5 -352q0 -138 -127 -219.5t-346 -81.5h-743q-115 0 -191 49q-79 -473 -409 -473q-159 0 -262 135t-103 381q0 169 27 309h131v-16q-27 -133 -27 -295q0 -154 62 -240t172 -86q305 0 305 558v100h131v-43 q0 -191 160 -191h82zM1204 188h496q162 0 261 34.5t99 88.5q0 132 -84 225t-174 93q-275 0 -598 -441z"/>
    <glyph glyph-name="uni0636" unicode="ض" horiz-adv-x="2232" arabic-form="final" d="M1053 188q232 327 409.5 477t341.5 150q150 0 268.5 -162t118.5 -352q0 -138 -127 -219.5t-346 -81.5h-743q-115 0 -191 49q-79 -473 -409 -473q-159 0 -262 135t-103 381q0 169 27 309h131v-16q-27 -133 -27 -295q0 -154 62 -240t172 -86q305 0 305 558v100h131v-43 q0 -191 160 -191h82zM1204 188h496q162 0 261 34.5t99 88.5q0 132 -84 225t-174 93q-275 0 -598 -441zM1844 958h-148v147h148v-147z"/>
    <glyph glyph-name="uni0637" unicode="ط" horiz-adv-x="1188" arabic-form="medial" d="M303 397q256 418 498 418q139 0 242.5 -159.5t103.5 -354.5q0 -138 -127.5 -219.5t-345.5 -81.5h-674q-49 0 -86 51t-37 137h285l10 27v1341h131v-1159zM303 188h352q163 0 262 34.5t99 88.5q0 133 -71.5 225.5t-145.5 92.5q-122 0 -228 -96t-268 -345z"/>
    <glyph glyph-name="uni0638" unicode="ظ" horiz-adv-x="1188" arabic-form="medial" d="M303 397q256 418 498 418q139 0 242.5 -159.5t103.5 -354.5q0 -138 -127.5 -219.5t-345.5 -81.5h-674q-49 0 -86 51t-37 137h285l10 27v1341h131v-1159zM303 188h352q163 0 262 34.5t99 88.5q0 133 -71.5 225.5t-145.5 92.5q-122 0 -228 -96t-268 -345zM795 958h-148v147 h148v-147z"/>
    <glyph glyph-name="uni0639" unicode="ع" horiz-adv-x="1116" arabic-form="isolated" d="M1069 -319q-176 -105 -426 -105q-266 0 -413.5 127t-147.5 350q0 230 199 363q-138 107 -138 241q0 182 110.5 290t283.5 108q95 0 213 -27v-188h-11q-108 30 -194 30q-123 0 -197 -58t-74 -159q0 -109 109 -184l504 186v-174l-416 -151q-120 -42 -189 -115.5t-69 -159.5 q0 -133 116 -214t312 -81q99 0 218 38.5t200 95.5h10v-213z"/>
    <glyph glyph-name="uni063A" unicode="غ" horiz-adv-x="1116" arabic-form="isolated" d="M1069 -319q-176 -105 -426 -105q-266 0 -413.5 127t-147.5 350q0 230 199 363q-138 107 -138 241q0 182 110.5 290t283.5 108q95 0 213 -27v-188h-11q-108 30 -194 30q-123 0 -197 -58t-74 -159q0 -109 109 -184l504 186v-174l-416 -151q-120 -42 -189 -115.5t-69 -159.5 q0 -133 116 -214t312 -81q99 0 218 38.5t200 95.5h10v-213zM582 1229h-148v147h148v-147z"/>
    <glyph glyph-name="uni0641" unicode="ف" horiz-adv-x="1618" arabic-form="final" d="M1339 1292h-147v148h147v-148zM1561 291q0 -140 -121 -215.5t-355 -75.5h-505q-500 0 -500 477q0 114 31 240h131v-10q-31 -111 -31 -218q0 -160 87 -230.5t284 -70.5h495q170 0 261.5 39t91.5 138v102q-39 -41 -111 -41q-110 0 -192.5 85.5t-82.5 231.5q0 151 83 263 t167 112q113 0 190 -162.5t77 -445.5v-219zM1419 653q0 93 -42.5 185t-84.5 92q-36 0 -76 -59t-40 -121q0 -58 42 -97t105 -39q55 0 96 39z"/>
    <glyph glyph-name="uni0642" unicode="ق" horiz-adv-x="1192" arabic-form="final" d="M1053 1090h-148v147h148v-147zM782 1090h-147v147h147v-147zM995 264q-38 -41 -110 -41q-111 0 -193 85.5t-82 232.5q0 150 82.5 262t167.5 112q112 0 189 -162.5t77 -445.5q0 -336 -160.5 -533.5t-437.5 -197.5q-219 0 -354 142.5t-135 375.5q0 85 27 199h131v-10 q-27 -96 -27 -177q0 -160 92.5 -251t267.5 -91q208 0 331.5 132t133.5 368zM985 451q0 92 -43 184t-84 92q-36 0 -76.5 -59t-40.5 -121q0 -58 42.5 -96.5t105.5 -38.5q55 0 96 39z"/>
    <glyph glyph-name="uni0643" unicode="ك" horiz-adv-x="1229" arabic-form="final" d="M1147 270q0 -123 -88 -196.5t-240 -73.5h-426q-165 0 -253.5 79t-88.5 230q0 40 8 121h134v-10q-11 -57 -11 -109q0 -123 211 -123h418q205 0 205 156v1212h131v-1286zM645 879q-137 0 -137 -48q0 -28 57 -40l64 -15q84 -18 84 -92q0 -67 -77 -104t-196 -37v69 q203 0 203 66q0 17 -19.5 25t-100.5 25t-81 99q0 58 54.5 89.5t148.5 31.5v-69z"/>
    <glyph glyph-name="uni0644" unicode="ل" horiz-adv-x="1044" arabic-form="isolated" d="M963 248q0 -453 -455 -453q-245 0 -356 106.5t-111 336.5q0 123 20 251h138v-10q-27 -113 -27 -239q0 -144 76.5 -200t261.5 -56q321 0 321 276v1296h132v-1308z"/>
    <glyph glyph-name="uni0645" unicode="م" horiz-adv-x="696" arabic-form="final" d="M696 0h-405q-150 0 -150 -113v-311h-110v313q0 299 272 299h207q-74 84 -123.5 124t-95.5 40q-86 0 -86 -114h-111q0 114 53 179.5t144 65.5q108 0 198 -74t207 -221v-188z"/>
    <glyph glyph-name="uni0646" unicode="ن" horiz-adv-x="1085" arabic-form="final" d="M627 500h-148v147h148v-147zM1028 401q27 -120 27 -229q0 -277 -130 -436.5t-372 -159.5t-372 159.5t-130 436.5q0 109 27 229h131v-10q-27 -96 -27 -207q0 -420 371 -420t371 420q0 57 -14 137l-13 70v10h131z"/>
    <glyph glyph-name="uni0647" unicode="ه" horiz-adv-x="635" arabic-form="isolated" d="M113 930q216 -13 348.5 -176.5t132.5 -360.5q0 -184 -75.5 -294.5t-190.5 -110.5q-123 0 -195 100t-72 285q0 198 134 377q-37 10 -82 10v170zM463 393q0 203 -164 314q-106 -137 -106 -334q0 -95 37 -146t98 -51q135 0 135 217z"/>
    <glyph glyph-name="uni0648" unicode="و" horiz-adv-x="868" arabic-form="final" d="M657 154q-41 -41 -110 -41q-110 0 -189 85t-79 232q0 151 79.5 263t163.5 112q105 0 184.5 -164.5t79.5 -443.5q0 -304 -200.5 -462.5t-585.5 -158.5v188q325 0 491 101t166 289zM645 340q0 93 -42 184.5t-83 91.5q-39 0 -74.5 -57.5t-35.5 -122.5q0 -59 39.5 -97 t101.5 -38q65 0 94 39z"/>
    <glyph glyph-name="uni0649" unicode="ى" horiz-adv-x="1311" arabic-form="isolated" d="M1239 866h-10q-150 88 -320 88q-82 0 -136 -36t-54 -87q0 -44 38 -83.5t200.5 -122t218 -144.5t55.5 -147q0 -161 -177.5 -247.5t-525.5 -86.5q-497 0 -497 442q0 99 20 252h133v-10q-22 -135 -22 -240q0 -133 87.5 -194.5t280.5 -61.5q277 0 423.5 42t146.5 108 q0 42 -47 81.5t-195.5 111.5t-209 143.5t-60.5 159.5q0 122 94 213.5t246 91.5q167 0 311 -60v-213z"/>
    <glyph glyph-name="uni064A" unicode="ي" horiz-adv-x="1311" arabic-form="isolated" d="M1239 866h-10q-150 88 -320 88q-82 0 -136 -36t-54 -87q0 -44 38 -83.5t200.5 -122t218 -144.5t55.5 -147q0 -161 -177.5 -247.5t-525.5 -86.5q-497 0 -497 442q0 99 20 252h133v-10q-22 -135 -22 -240q0 -133 87.5 -194.5t280.5 -61.5q277 0 423.5 42t146.5 108 q0 42 -47 81.5t-195.5 111.5t-209 143.5t-60.5 159.5q0 122 94 213.5t246 91.5q167 0 311 -60v-213zM756 -293h-147v147h147v-147zM486 -293h-148v147h148v-147z"/>
    <glyph glyph-name="uni066E.medi" unicode="ى" horiz-adv-x="500" arabic-form="initial" d="M418 270q0 -123 -88 -196.5t-240 -73.5h-90q-49 0 -86 51t-37 137h205q205 0 205 156v373h131v-447z"/>
    <glyph glyph-name="uniFEE0" unicode="ل" horiz-adv-x="442" arabic-form="medial" d="M360 270q0 -123 -87.5 -196.5t-239.5 -73.5h-33q-49 0 -86 51t-37 137h148q204 0 204 156v1212h131v-1286z"/>
    <glyph glyph-name="uni067E" unicode="پ" horiz-adv-x="1464" arabic-form="final" d="M1382 291q0 -140 -120.5 -215.5t-354.5 -75.5h-327q-500 0 -500 477q0 114 31 240h131v-10q-31 -111 -31 -218q0 -160 87 -230.5t284 -70.5h317q170 0 261 39t91 138v352h131v-426zM1024 -221h-147v147h147v-147zM729 -221h-147v147h147v-147zM877 -430h-148v147h148 v-147z"/>
    <glyph glyph-name="uniFB58" unicode="پ" horiz-adv-x="500" arabic-form="initial" d="M418 270q0 -123 -88 -196.5t-240 -73.5h-90q-49 0 -86 51t-37 137h205q205 0 205 156v373h131v-447zM426 -221h-147v147h147v-147zM131 -221h-147v147h147v-147zM279 -430h-148v147h148v-147z"/>
    <glyph glyph-name="uni0686" unicode="چ" horiz-adv-x="1112" arabic-form="isolated" d="M1094 -328q-160 -96 -439 -96q-248 0 -408.5 146t-160.5 393q0 248 217.5 396t544.5 148q-262 113 -629 113h-78v186h88q188 0 406 -77t409 -211v-131h-147q-319 0 -499.5 -114.5t-180.5 -305.5q0 -171 123 -265t313 -94q269 0 430 111h11v-199zM874 147h-147v148h147 v-148zM580 147h-148v148h148v-148zM727 -61h-147v147h147v-147z"/>
    <glyph glyph-name="uniFB7B" unicode="چ" horiz-adv-x="1112" arabic-form="final" d="M1112 0h-33q-135 0 -196.5 76t-61.5 243v218q-284 -14 -444 -126t-160 -292q0 -171 123 -265t313 -94q269 0 430 111h11v-199q-160 -96 -439 -96q-248 0 -408.5 146t-160.5 393q0 248 217.5 396t544.5 148q-262 113 -629 113h-78v186h88q188 0 406 -77t409 -211v-131h-92 v-164q0 -118 31 -152.5t92 -34.5h37v-188zM739 111h-147v147h147v-147zM444 111h-147v147h147v-147zM592 -98h-148v147h148v-147z"/>
    <glyph glyph-name="uniFB7C" unicode="چ" horiz-adv-x="1112" arabic-form="initial" d="M1030 184q-178 0 -523.5 -92t-506.5 -92q-49 0 -86 51t-37 137h129q143 0 439.5 80.5t406.5 87.5q-303 273 -653 273h-95v186h105q81 0 157 -16q75 -16 149 -48q73 -31 149 -80q72 -47 153 -113q75 -61 165 -145l43 -41h2l3 1v-189zM850 -221h-148v147h148v-147z M555 -221h-147v147h147v-147zM702 -430h-147v147h147v-147z"/>
    <glyph glyph-name="uni0698" unicode="ژ" horiz-adv-x="993" arabic-form="isolated" d="M786 516q105 -164 105 -330q0 -299 -227 -454.5t-582 -155.5v188q305 0 491.5 100t186.5 290q0 164 -166 350v12h192zM741 899h-148v147h148v-147zM888 690h-147v147h147v-147zM593 690h-147v147h147v-147z"/>
    <glyph glyph-name="uni06A9" unicode="ک" horiz-adv-x="1217" arabic-form="final" d="M819 188q107 0 149 25t42 84q0 38 -39 81.5t-162 160.5l-291 274q-104 101 -104 197q0 52 40.5 95t176.5 124l504 301v-197l-422 -250q-41 -20 -75 -53t-34 -55q0 -56 92 -144l283 -268q127 -120 162 -180.5t35 -118.5q0 -264 -355 -264h-428q-165 0 -253.5 79t-88.5 230 q0 40 8 121h134v-10q-11 -57 -11 -109q0 -123 211 -123h426z"/>
    <glyph glyph-name="uniFB90" unicode="ک" horiz-adv-x="807" arabic-form="initial" d="M725 1333l-422 -250q-41 -20 -74.5 -53t-33.5 -55q0 -56 92 -144l282 -268q127 -120 162 -180.5t35 -118.5q0 -264 -354 -264h-412q-49 0 -86 51t-37 137h533q107 0 148.5 25t41.5 84q0 38 -38.5 81.5t-162.5 160.5l-290 274q-105 101 -105 197q0 52 41 95t176 124 l504 301v-197z"/>
    <glyph glyph-name="uni06AF" unicode="گ" horiz-adv-x="1217" arabic-form="final" d="M819 188q107 0 149 25t42 84q0 38 -39 81.5t-162 160.5l-291 274q-104 101 -104 197q0 52 40.5 95t176.5 124l504 301v-197l-422 -250q-41 -20 -75 -53t-34 -55q0 -56 92 -144l283 -268q127 -120 162 -180.5t35 -118.5q0 -264 -355 -264h-428q-165 0 -253.5 79t-88.5 230 q0 40 8 121h134v-10q-11 -57 -11 -109q0 -123 211 -123h426zM1110 1649l-672 -402v101l672 401v-100z"/>
    <glyph glyph-name="uniFB94" unicode="گ" horiz-adv-x="807" arabic-form="initial" d="M725 1333l-422 -250q-41 -20 -74.5 -53t-33.5 -55q0 -56 92 -144l282 -268q127 -120 162 -180.5t35 -118.5q0 -264 -354 -264h-412q-49 0 -86 51t-37 137h533q107 0 148.5 25t41.5 84q0 38 -38.5 81.5t-162.5 160.5l-290 274q-105 101 -105 197q0 52 41 95t176 124 l504 301v-197zM700 1649l-671 -402v101l671 401v-100z"/>
    <glyph glyph-name="uni06CC" unicode="ی" horiz-adv-x="1311" arabic-form="isolated" d="M1239 866h-10q-150 88 -320 88q-82 0 -136 -36t-54 -87q0 -44 38 -83.5t200.5 -122t218 -144.5t55.5 -147q0 -161 -177.5 -247.5t-525.5 -86.5q-497 0 -497 442q0 99 20 252h133v-10q-22 -135 -22 -240q0 -133 87.5 -194.5t280.5 -61.5q277 0 423.5 42t146.5 108 q0 42 -47 81.5t-195.5 111.5t-209 143.5t-60.5 159.5q0 122 94 213.5t246 91.5q167 0 311 -60v-213z"/>
    <glyph glyph-name="uniFBFD" unicode="ی" horiz-adv-x="1212" arabic-form="final" d="M1212 0q-95 0 -152.5 44.5t-91 119t-72.5 197t-72.5 157.5t-84.5 35q-92 0 -92 -88q0 -55 72 -141q96 -115 96 -228q0 -264 -375 -264q-184 0 -296.5 122t-112.5 337q0 65 14 170h133v-10q-16 -66 -16 -158q0 -146 69 -209.5t211 -63.5q238 0 238 117q0 52 -74 142 q-94 111 -94 221q0 109 58 175t169 66q79 0 139 -44t113 -229t101.5 -232.5t119.5 -47.5v-188z"/>
    <glyph glyph-name="uniFBFE" unicode="ی" horiz-adv-x="500" arabic-form="initial" d="M418 270q0 -123 -88 -196.5t-240 -73.5h-90q-49 0 -86 51t-37 137h205q205 0 205 156v373h131v-447zM418 -293h-147v147h147v-147zM148 -293h-148v147h148v-147z"/>
    <glyph glyph-name="uniFBA5" unicode="ۀ" horiz-adv-x="782" arabic-form="final" d="M782 0q-119 0 -178 79.5t-59 313.5q-34 -55 -99 -92t-129 -37q-108 0 -176.5 77.5t-68.5 211.5q0 148 126.5 275.5t346.5 168.5v72h131v-676q0 -111 25 -158t81 -47v-188zM545 569v293q-162 -33 -252 -118t-90 -189q0 -57 32.5 -88t81.5 -31q144 0 228 133zM463 1204 h-252v70h56q-43 24 -43 77q0 51 36.5 86t94.5 35q55 0 86 -12v-74q-36 17 -84 17q-66 0 -66 -52q0 -32 34 -54.5t83 -22.5h55v-70z"/>
    <glyph glyph-name="uni06C0" unicode="ۀ" horiz-adv-x="635" arabic-form="isolated" d="M113 930q216 -13 348.5 -176.5t132.5 -360.5q0 -184 -75.5 -294.5t-190.5 -110.5q-123 0 -195 100t-72 285q0 198 134 377q-37 10 -82 10v170zM463 393q0 203 -164 314q-106 -137 -106 -334q0 -95 37 -146t98 -51q135 0 135 217zM367 1104h-252v70h56q-43 24 -43 77 q0 51 36.5 86t94.5 35q55 0 86 -12v-74q-36 17 -84 17q-66 0 -66 -52q0 -32 34 -54.5t83 -22.5h55v-70z"/>
    <glyph glyph-name="uniFEDE" unicode="ل" horiz-adv-x="1044" arabic-form="final" d="M963 248q0 -453 -455 -453q-245 0 -356 106.5t-111 336.5q0 123 20 251h138v-10q-27 -113 -27 -239q0 -144 76.5 -200t261.5 -56q321 0 321 276v1296h132v-1308z"/>
    <glyph glyph-name="uni0679" unicode="ٹ" horiz-adv-x="1464" arabic-form="final" d="M1382 291q0 -140 -120.5 -215.5t-354.5 -75.5h-327q-500 0 -500 477q0 114 31 240h131v-10q-31 -111 -31 -218q0 -160 87 -230.5t284 -70.5h317q170 0 261 39t91 138v352h131v-426zM937 908q0 -108 -160 -108h-227v67h66v413h57v-328q59 141 140 141q57 0 93 -67 q31 -56 31 -118zM882 912q0 35 -15 69q-20 45 -55 45q-59 0 -139 -159h97q112 0 112 45z"/>
    <glyph glyph-name="uniFB68" unicode="ٹ" horiz-adv-x="500" arabic-form="initial" d="M418 270q0 -123 -88 -196.5t-240 -73.5h-90q-49 0 -86 51t-37 137h205q205 0 205 156v373h131v-447zM437 908q0 -108 -160 -108h-227v67h66v413h57v-328q59 141 140 141q57 0 93 -67q31 -56 31 -118zM382 912q0 35 -15 69q-20 45 -55 45q-59 0 -139 -159h97q112 0 112 45 z"/>
    <glyph glyph-name="uni0688" unicode="ڈ" horiz-adv-x="696" arabic-form="final" d="M190 956q465 -341 465 -632q0 -148 -94.5 -236t-271.5 -88h-279v188h277q111 0 174 39t63 95q0 183 -344 399v235h10zM487 1208q0 -108 -160 -108h-227v67h66v413h57v-328q59 141 140 141q57 0 93 -67q31 -56 31 -118zM432 1212q0 35 -15 69q-20 45 -55 45 q-59 0 -139 -159h97q112 0 112 45z"/>
    <glyph glyph-name="uni0691" unicode="ڑ" horiz-adv-x="993" arabic-form="isolated" d="M786 516q105 -164 105 -330q0 -299 -227 -454.5t-582 -155.5v188q305 0 491.5 100t186.5 290q0 164 -166 350v12h192zM777 808q0 -108 -160 -108h-227v67h66v413h57v-328q59 141 140 141q57 0 93 -67q31 -56 31 -118zM722 812q0 35 -15 69q-20 45 -55 45q-59 0 -139 -159 h97q112 0 112 45z"/>
    <glyph glyph-name="uni06BA" unicode="ں" horiz-adv-x="1085" arabic-form="final" d="M1028 401q27 -120 27 -229q0 -277 -130 -436.5t-372 -159.5t-372 159.5t-130 436.5q0 109 27 229h131v-10q-27 -96 -27 -207q0 -420 371 -420t371 420q0 57 -14 137l-13 70v10h131z"/>
    <glyph glyph-name="uni06C1" unicode="ہ" horiz-adv-x="1088" arabic-form="final" d="M1088 0q-251 0 -302 206q-20 80 -40 114q-33 55 -92 55q-103 0 -212 -183q-87 -148 -167 -368h-175v10q163 363 241 482q148 223 311 223q194 0 270 -242q21 -67 43.5 -88t122.5 -21v-188z"/>
    <glyph glyph-name="uniFBA8" unicode="ہ" horiz-adv-x="500" arabic-form="initial" d="M418 270q0 -133 -100 -206q-89 -64 -228 -64h-90q-61 0 -96 67q-27 54 -27 121h205q205 0 205 156v373h131v-447zM272 -231h-125v125q0 39 32 70q36 36 93 36v-49q-72 0 -72 -57h72v-125z"/>
    <glyph glyph-name="uniFBA9" unicode="ہ" horiz-adv-x="1021" arabic-form="medial" d="M1020 0q-68 0 -163.5 94t-140.5 94q-94 0 -158 -60q-80 -73 -141 -258h-145q-23 118 -25 231q-10 -13 -27 -27q-55 -45 -74 -55q-39 -19 -86 -19h-60q-62 0 -96 67q-27 53 -27 121h205q94 0 133 41q26 27 52 115l110 373h151q-22 -67 -65 -201q-12 -39 -55 -216 q-24 -101 -28 -246q53 129 151 221q82 77 193 77q81 0 176.5 -82t119.5 -82v-188zM402 -380h-125v125q0 46 40 72q36 24 85 24v-49q-72 0 -72 -47h72v-125z"/>
    <glyph glyph-name="uni06D2" unicode="ے" horiz-adv-x="1753" arabic-form="isolated" d="M1883 -112q0 -68 -27 -121q-34 -67 -96 -67h-1300q-441 0 -441 189q0 91 78 147q50 36 193 88q163 60 244 105q75 42 190 205q96 136 171 136q98 0 199 -182v-188l-78 122q-65 91 -103 91q-20 0 -100 -115q-91 -133 -164 -178q-99 -62 -284 -119q-140 -43 -140 -67 q0 -46 173 -46h1485z"/>
    <glyph glyph-name="uniFBAF" unicode="ے" horiz-adv-x="1753" arabic-form="final" d="M1883 -242q0 -68 -27 -121q-34 -67 -96 -67h-1300q-213 0 -331 63q-110 59 -110 157q0 111 111 186q326 158 701 185t645 27h277v-188h-283q-262 0 -544 -8.5t-515 -64.5q-186 -53 -186 -107q0 -52 173 -62h1485z"/>
    <glyph glyph-name="uni06D3" unicode="ۓ" horiz-adv-x="1753" arabic-form="isolated" d="M1883 -112q0 -68 -27 -121q-34 -67 -96 -67h-1300q-441 0 -441 189q0 91 78 147q50 36 193 88q163 60 244 105q75 42 190 205q96 136 171 136q98 0 199 -182v-188l-78 122q-65 91 -103 91q-20 0 -100 -115q-91 -133 -164 -178q-99 -62 -284 -119q-140 -43 -140 -67 q0 -46 173 -46h1485zM996 725h-252v70h56q-43 24 -43 77q0 51 36.5 86t94.5 35q55 0 86 -12v-74q-36 17 -84 17q-66 0 -66 -52q0 -32 34 -54.5t83 -22.5h55v-70z"/>
    <glyph glyph-name="uniFBB1" unicode="ۓ" horiz-adv-x="1753" arabic-form="final" d="M1883 -242q0 -68 -27 -121q-34 -67 -96 -67h-1300q-213 0 -331 63q-110 59 -110 157q0 111 111 186q326 158 701 185t645 27h277v-188h-283q-262 0 -544 -8.5t-515 -64.5q-186 -53 -186 -107q0 -52 173 -62h1485zM1236 660h-252v70h56q-43 24 -43 77q0 51 36.5 86 t94.5 35q55 0 86 -12v-74q-36 17 -84 17q-66 0 -66 -52q0 -32 34 -54.5t83 -22.5h55v-70z"/>
    <glyph glyph-name="uni06A4" unicode="ڤ" horiz-adv-x="1618" arabic-form="final" d="M1499 1292h-147v147h147v-147zM1561 291q0 -140 -121 -215.5t-355 -75.5h-505q-500 0 -500 477q0 114 31 240h131v-10q-31 -111 -31 -218q0 -160 87 -230.5t284 -70.5h495q170 0 261.5 39t91.5 138v102q-39 -41 -111 -41q-110 0 -192.5 85.5t-82.5 231.5q0 151 83 263 t167 112q113 0 190 -162.5t77 -445.5v-219zM1419 653q0 93 -42.5 185t-84.5 92q-36 0 -76 -59t-40 -121q0 -58 42 -97t105 -39q55 0 96 39zM1057 1292v147h147v-147h-147zM1204 1501v147h148v-147h-148z"/>
    <glyph glyph-name="uniFB6C" unicode="ڤ" horiz-adv-x="594" arabic-form="initial" d="M455 467q-41 -41 -127 -41q-111 0 -193 85.5t-82 231.5q0 151 82.5 263t167.5 112q113 0 194 -163.5t81 -444.5q0 -249 -105.5 -379.5t-302.5 -130.5h-170q-49 0 -86 51t-37 137h295q119 0 201 76.5t82 202.5zM442 647q0 112 -47.5 199.5t-93.5 87.5q-40 0 -81.5 -54 t-41.5 -130q0 -140 154 -140q67 0 110 37zM381 1501h-148v147h148v-147zM528 1292h-147v147h147v-147zM233 1292h-147v147h147v-147z"/>
    <glyph glyph-name="uniFB6D" unicode="ڤ" horiz-adv-x="606" arabic-form="medial" d="M606 0h-41q-120 0 -262 100q-142 -100 -262 -100h-41q-49 0 -86 51t-37 137h205q54 0 111 17q-136 167 -136 311q0 143 69 230.5t177 87.5t177 -87.5t69 -230.5q0 -144 -135 -311q56 -17 110 -17h82v-188zM303 266q115 109 115 240q0 59 -31 98t-84 39t-84 -39t-31 -98 q0 -131 115 -240zM381 1217h-148v147h148v-147zM528 1008h-147v147h147v-147zM233 1008h-147v147h147v-147z"/>
    <glyph glyph-name="uniFBA6" unicode="ہ" horiz-adv-x="635" arabic-form="isolated" d="M113 930q216 -13 348.5 -176.5t132.5 -360.5q0 -184 -75.5 -294.5t-190.5 -110.5q-123 0 -195 100t-72 285q0 198 134 377q-37 10 -82 10v170zM463 393q0 203 -164 314q-106 -137 -106 -334q0 -95 37 -146t98 -51q135 0 135 217z"/>
    <glyph glyph-name="uni06A1.init" unicode="ٯ" horiz-adv-x="594" d="M455 467q-41 -41 -127 -41q-111 0 -193 85.5t-82 231.5q0 151 82.5 263t167.5 112q113 0 194 -163.5t81 -444.5q0 -249 -105.5 -379.5t-302.5 -130.5h-170q-49 0 -86 51t-37 137h295q119 0 201 76.5t82 202.5zM442 647q0 112 -47.5 199.5t-93.5 87.5q-40 0 -81.5 -54 t-41.5 -130q0 -140 154 -140q67 0 110 37z"/>
    <glyph glyph-name="uni06A1.medi" unicode="ٯ" horiz-adv-x="606" d="M606 0h-41q-120 0 -262 100q-142 -100 -262 -100h-41q-49 0 -86 51t-37 137h205q54 0 111 17q-136 167 -136 311q0 143 69 230.5t177 87.5t177 -87.5t69 -230.5q0 -144 -135 -311q56 -17 110 -17h82v-188zM303 266q115 109 115 240q0 59 -31 98t-84 39t-84 -39t-31 -98 q0 -131 115 -240z"/>
    <glyph glyph-name="uni0671" unicode="ٱ" horiz-adv-x="479" arabic-form="isolated" d="M305 0h-131v1556h131v-1556zM429 1763q0 -69 -59 -113q-53 -39 -117 -39q-31 0 -83.5 20.5t-80.5 20.5q-30 0 -84 -42v70q53 42 85 42q26 0 60 -10q15 74 60.5 120.5t104.5 46.5q114 0 114 -116zM359 1763q0 46 -44 46q-36 0 -65 -40q-26 -36 -34 -82q20 -6 37 -6 q45 0 75.5 25.5t30.5 56.5z"/>
    <glyph glyph-name="uniFB51" unicode="ٱ" horiz-adv-x="479" arabic-form="final" d="M479 0q-142 0 -221.5 87.5t-79.5 244.5v1224h131v-1212q0 -85 38.5 -120.5t127.5 -35.5h4v-188zM429 1763q0 -69 -59 -113q-53 -39 -117 -39q-31 0 -83.5 20.5t-80.5 20.5q-30 0 -84 -42v70q53 42 85 42q26 0 60 -10q15 74 60.5 120.5t104.5 46.5q114 0 114 -116z M359 1763q0 46 -44 46q-36 0 -65 -40q-26 -36 -34 -82q20 -6 37 -6q45 0 75.5 25.5t30.5 56.5z"/>
    <glyph glyph-name="uni0672.fina" unicode="ٲ" horiz-adv-x="479" d="M479 0q-142 0 -221.5 87.5t-79.5 244.5v1224h131v-1212q0 -85 38.5 -120.5t127.5 -35.5h4v-188zM393 1620h-176q-24 0 -50.5 7t-34.5 7q-32 0 -90 -45v74q53 41 90 41q12 0 34 -8.5t33 -8.5q-45 25 -45 80q0 54 38 87.5t93 33.5t86 -12v-74q-36 17 -84 17q-66 0 -66 -52 q0 -37 42 -59q35 -18 75 -18h55v-70z"/>
    <glyph glyph-name="uni0673.fina" unicode="ٳ" horiz-adv-x="479" d="M479 0q-142 0 -221.5 87.5t-79.5 244.5v1224h131v-1212q0 -85 38.5 -120.5t127.5 -35.5h4v-188zM393 -362h-176q-24 0 -50.5 7t-34.5 7q-32 0 -90 -45v74q53 41 90 41q12 0 34 -8.5t33 -8.5q-45 25 -45 80q0 54 38 87.5t93 33.5t86 -12v-74q-36 17 -84 17q-66 0 -66 -52 q0 -37 42 -59q35 -18 75 -18h55v-70z"/>
    <glyph glyph-name="uni0675.fina" unicode="ٵ" horiz-adv-x="640" d="M640 1310h-252v70h56q-43 24 -43 77q0 54 38 87.5t93 33.5t86 -12v-74q-36 17 -84 17q-66 0 -66 -52q0 -37 42 -59q35 -18 75 -18h55v-70zM640 0h-167q-135 0 -215 88t-80 244v1224h131v-1212q0 -156 166 -156h165v-188z"/>
    <glyph glyph-name="uni0677" unicode="ٷ" horiz-adv-x="868" arabic-form="isolated" d="M657 154q-41 -41 -110 -41q-110 0 -189 85t-79 232q0 151 79.5 263t163.5 112q105 0 184.5 -164.5t79.5 -443.5q0 -304 -200.5 -462.5t-585.5 -158.5v188q325 0 491 101t166 289zM645 340q0 93 -42 184.5t-83 91.5q-39 0 -74.5 -57.5t-35.5 -122.5q0 -59 39.5 -97 t101.5 -38q65 0 94 39zM831 979h-252v70h56q-43 24 -43 77q0 51 36.5 86t94.5 35q55 0 86 -12v-74q-36 17 -84 17q-66 0 -66 -52q0 -32 34 -54.5t83 -22.5h55v-70zM437 979l-94 23q-127 -77 -276 -86v70q100 2 200 45q-94 37 -94 114q0 55 35 88t92 33q54 0 91.5 -35 t37.5 -88q0 -43 -39 -88l47 -10v-66zM327 1070q32 33 32 73q0 22 -17 38t-40 16q-59 0 -59 -54q0 -51 84 -73z"/>
    <glyph glyph-name="uni0678.fina" unicode="ٸ" horiz-adv-x="1212" d="M1212 0q-95 0 -152.5 44.5t-91 119t-72.5 197t-72.5 157.5t-84.5 35q-92 0 -92 -88q0 -55 72 -141q96 -115 96 -228q0 -264 -375 -264q-184 0 -296.5 122t-112.5 337q0 65 14 170h133v-10q-16 -66 -16 -158q0 -146 69 -209.5t211 -63.5q238 0 238 117q0 52 -74 142 q-94 111 -94 221q0 109 58 175t169 66q79 0 139 -44t113 -229t101.5 -232.5t119.5 -47.5v-188zM1056 915h-252v70h56q-43 24 -43 77q0 51 36.5 86t94.5 35q55 0 86 -12v-74q-36 17 -84 17q-66 0 -66 -52q0 -32 34 -54.5t83 -22.5h55v-70z"/>
    <glyph glyph-name="uni067A" unicode="ٺ" horiz-adv-x="1464" arabic-form="final" d="M1382 291q0 -140 -120.5 -215.5t-354.5 -75.5h-327q-500 0 -500 477q0 114 31 240h131v-10q-31 -111 -31 -218q0 -160 87 -230.5t284 -70.5h317q170 0 261 39t91 138v352h131v-426zM836 1024h-147v147h147v-147zM836 815h-147v148h147v-148z"/>
    <glyph glyph-name="uniFB60" unicode="ٺ" horiz-adv-x="500" arabic-form="initial" d="M418 270q0 -123 -88 -196.5t-240 -73.5h-90q-49 0 -86 51t-37 137h205q205 0 205 156v373h131v-447zM357 1100h-147v147h147v-147zM357 891h-147v148h147v-148z"/>
    <glyph glyph-name="uni067B" unicode="ٻ" horiz-adv-x="1464" arabic-form="final" d="M1382 291q0 -140 -120.5 -215.5t-354.5 -75.5h-327q-500 0 -500 477q0 114 31 240h131v-10q-31 -111 -31 -218q0 -160 87 -230.5t284 -70.5h317q170 0 261 39t91 138v352h131v-426zM836 -221h-147v147h147v-147zM836 -430h-147v148h147v-148z"/>
    <glyph glyph-name="uniFB54" unicode="ٻ" horiz-adv-x="500" arabic-form="initial" d="M418 270q0 -123 -88 -196.5t-240 -73.5h-90q-49 0 -86 51t-37 137h205q205 0 205 156v373h131v-447zM279 -221h-147v147h147v-147zM279 -430h-147v148h147v-148z"/>
    <glyph glyph-name="uni067C.init" unicode="ټ" horiz-adv-x="500" d="M418 270q0 -123 -88 -196.5t-240 -73.5h-90q-49 0 -86 51t-37 137h205q205 0 205 156v373h131v-447zM500 891h-147v147h147v-147zM230 891h-148v147h148v-147zM214 79q59 0 101 -42t42 -102q0 -59 -42 -101t-101 -42q-60 0 -102 42t-42 101q0 60 42 102t102 42zM214 -142 q32 0 54.5 22.5t22.5 54.5t-22.5 55t-54.5 23t-55 -23t-23 -55t23 -54.5t55 -22.5z"/>
    <glyph glyph-name="uni067D.init" unicode="ٽ" horiz-adv-x="500" d="M418 270q0 -123 -88 -196.5t-240 -73.5h-90q-49 0 -86 51t-37 137h205q205 0 205 156v373h131v-447zM357 891h-148v147h148v-147zM504 1100h-147v147h147v-147zM209 1100h-147v147h147v-147z"/>
    <glyph glyph-name="uni067F" unicode="ٿ" horiz-adv-x="1464" arabic-form="final" d="M1382 291q0 -140 -120.5 -215.5t-354.5 -75.5h-327q-500 0 -500 477q0 114 31 240h131v-10q-31 -111 -31 -218q0 -160 87 -230.5t284 -70.5h317q170 0 261 39t91 138v352h131v-426zM971 1024h-147v147h147v-147zM701 1024h-148v147h148v-147zM971 815h-147v147h147v-147z M701 815h-148v147h148v-147z"/>
    <glyph glyph-name="uniFB64" unicode="ٿ" horiz-adv-x="500" arabic-form="initial" d="M418 270q0 -123 -88 -196.5t-240 -73.5h-90q-49 0 -86 51t-37 137h205q205 0 205 156v373h131v-447zM492 1100h-147v147h147v-147zM222 1100h-148v147h148v-147zM492 891h-147v147h147v-147zM222 891h-148v147h148v-147z"/>
    <glyph glyph-name="uni0680" unicode="ڀ" horiz-adv-x="1464" arabic-form="final" d="M1382 291q0 -140 -120.5 -215.5t-354.5 -75.5h-327q-500 0 -500 477q0 114 31 240h131v-10q-31 -111 -31 -218q0 -160 87 -230.5t284 -70.5h317q170 0 261 39t91 138v352h131v-426zM971 -221h-147v147h147v-147zM701 -221h-148v147h148v-147zM971 -430h-147v147h147v-147 zM701 -430h-148v147h148v-147z"/>
    <glyph glyph-name="uniFB5C" unicode="ڀ" horiz-adv-x="500" arabic-form="initial" d="M418 270q0 -123 -88 -196.5t-240 -73.5h-90q-49 0 -86 51t-37 137h205q205 0 205 156v373h131v-447zM418 -221h-147v147h147v-147zM148 -221h-148v147h148v-147zM418 -430h-147v147h147v-147zM148 -430h-148v147h148v-147z"/>
    <glyph glyph-name="uni0681.init" unicode="ځ" horiz-adv-x="1112" d="M1030 184q-178 0 -523.5 -92t-506.5 -92q-49 0 -86 51t-37 137h129q143 0 439.5 80.5t406.5 87.5q-303 273 -653 273h-95v186h105q81 0 157 -16q75 -16 149 -48q73 -31 149 -80q72 -47 153 -113q75 -61 165 -145l43 -41h2l3 1v-189zM756 936h-252v70h56q-43 24 -43 77 q0 51 36.5 86t94.5 35q55 0 86 -12v-74q-36 17 -84 17q-66 0 -66 -52q0 -32 34 -54.5t83 -22.5h55v-70z"/>
    <glyph glyph-name="uni0681.fina" unicode="ځ" horiz-adv-x="1112" d="M1112 0h-33q-340 0 -340 319v211q-245 -26 -383.5 -134t-138.5 -277q0 -171 123 -265t313 -94q269 0 430 111h11v-199q-160 -96 -439 -96q-248 0 -408.5 146t-160.5 393q0 248 217.5 396t544.5 148q-262 113 -629 113h-78v186h88q188 0 406 -77t409 -211v-131 q-144 0 -174 -2v-162q0 -102 50 -144.5t155 -42.5h37v-188zM756 1120h-252v70h56q-43 24 -43 77q0 51 36.5 86t94.5 35q55 0 86 -12v-74q-36 17 -84 17q-66 0 -66 -52q0 -32 34 -54.5t83 -22.5h55v-70z"/>
    <glyph glyph-name="uni0682.init" unicode="ڂ" horiz-adv-x="1112" d="M1030 184q-178 0 -523.5 -92t-506.5 -92q-49 0 -86 51t-37 137h129q143 0 439.5 80.5t406.5 87.5q-303 273 -653 273h-95v186h105q81 0 157 -16q75 -16 149 -48q73 -31 149 -80q72 -47 153 -113q75 -61 165 -145l43 -41h2l3 1v-189zM713 1145h-147v147h147v-147zM713 936 h-147v148h147v-148z"/>
    <glyph glyph-name="uni0682.fina" unicode="ڂ" horiz-adv-x="1112" d="M1112 0h-33q-340 0 -340 319v211q-245 -26 -383.5 -134t-138.5 -277q0 -171 123 -265t313 -94q269 0 430 111h11v-199q-160 -96 -439 -96q-248 0 -408.5 146t-160.5 393q0 248 217.5 396t544.5 148q-262 113 -629 113h-78v186h88q188 0 406 -77t409 -211v-131 q-144 0 -174 -2v-162q0 -102 50 -144.5t155 -42.5h37v-188zM769 1329h-147v147h147v-147zM769 1120h-147v148h147v-148z"/>
    <glyph glyph-name="uni0683" unicode="ڃ" horiz-adv-x="1112" arabic-form="isolated" d="M1094 -328q-160 -96 -439 -96q-248 0 -408.5 146t-160.5 393q0 248 217.5 396t544.5 148q-262 113 -629 113h-78v186h88q188 0 406 -77t409 -211v-131h-147q-319 0 -499.5 -114.5t-180.5 -305.5q0 -171 123 -265t313 -94q269 0 430 111h11v-199zM863 66h-147v147h147 v-147zM593 66h-148v147h148v-147z"/>
    <glyph glyph-name="uniFB77" unicode="ڃ" horiz-adv-x="1112" arabic-form="final" d="M1112 0h-33q-340 0 -340 319v211q-245 -26 -383.5 -134t-138.5 -277q0 -171 123 -265t313 -94q269 0 430 111h11v-199q-160 -96 -439 -96q-248 0 -408.5 146t-160.5 393q0 248 217.5 396t544.5 148q-262 113 -629 113h-78v186h88q188 0 406 -77t409 -211v-131 q-144 0 -174 -2v-162q0 -102 50 -144.5t155 -42.5h37v-188zM716 12h-147v147h147v-147zM446 12h-148v147h148v-147z"/>
    <glyph glyph-name="uniFB78" unicode="ڃ" horiz-adv-x="1112" arabic-form="initial" d="M1030 184q-178 0 -523.5 -92t-506.5 -92q-49 0 -86 51t-37 137h129q143 0 439.5 80.5t406.5 87.5q-303 273 -653 273h-95v186h105q81 0 157 -16q75 -16 149 -48q73 -31 149 -80q72 -47 153 -113q75 -61 165 -145l43 -41h2l3 1v-189zM838 -244h-147v147h147v-147z M568 -244h-148v147h148v-147z"/>
    <glyph glyph-name="uni0684" unicode="ڄ" horiz-adv-x="1112" arabic-form="isolated" d="M1094 -328q-160 -96 -439 -96q-248 0 -408.5 146t-160.5 393q0 248 217.5 396t544.5 148q-262 113 -629 113h-78v186h88q188 0 406 -77t409 -211v-131h-147q-319 0 -499.5 -114.5t-180.5 -305.5q0 -171 123 -265t313 -94q269 0 430 111h11v-199zM728 149h-147v147h147 v-147zM728 -60h-147v148h147v-148z"/>
    <glyph glyph-name="uniFB73" unicode="ڄ" horiz-adv-x="1112" arabic-form="final" d="M1112 0h-33q-340 0 -340 319v211q-245 -26 -383.5 -134t-138.5 -277q0 -171 123 -265t313 -94q269 0 430 111h11v-199q-160 -96 -439 -96q-248 0 -408.5 146t-160.5 393q0 248 217.5 396t544.5 148q-262 113 -629 113h-78v186h88q188 0 406 -77t409 -211v-131 q-144 0 -174 -2v-162q0 -102 50 -144.5t155 -42.5h37v-188zM601 111h-147v147h147v-147zM601 -98h-147v148h147v-148z"/>
    <glyph glyph-name="uniFB74" unicode="ڄ" horiz-adv-x="1112" arabic-form="initial" d="M1030 184q-178 0 -523.5 -92t-506.5 -92q-49 0 -86 51t-37 137h129q143 0 439.5 80.5t406.5 87.5q-303 273 -653 273h-95v186h105q81 0 157 -16q75 -16 149 -48q73 -31 149 -80q72 -47 153 -113q75 -61 165 -145l43 -41h2l3 1v-189zM703 -221h-147v147h147v-147z M703 -430h-147v148h147v-148z"/>
    <glyph glyph-name="uni0685.init" unicode="څ" horiz-adv-x="1112" d="M1030 184q-178 0 -523.5 -92t-506.5 -92q-49 0 -86 51t-37 137h129q143 0 439.5 80.5t406.5 87.5q-303 273 -653 273h-95v186h105q81 0 157 -16q75 -16 149 -48q73 -31 149 -80q72 -47 153 -113q75 -61 165 -145l43 -41h2l3 1v-189zM713 1145h-148v147h148v-147zM860 936 h-147v147h147v-147zM565 936h-147v147h147v-147z"/>
    <glyph glyph-name="uni0685.fina" unicode="څ" horiz-adv-x="1112" d="M1112 0h-33q-340 0 -340 319v211q-245 -26 -383.5 -134t-138.5 -277q0 -171 123 -265t313 -94q269 0 430 111h11v-199q-160 -96 -439 -96q-248 0 -408.5 146t-160.5 393q0 248 217.5 396t544.5 148q-262 113 -629 113h-78v186h88q188 0 406 -77t409 -211v-131 q-144 0 -174 -2v-162q0 -102 50 -144.5t155 -42.5h37v-188zM769 1329h-148v147h148v-147zM916 1120h-147v147h147v-147zM621 1120h-147v147h147v-147z"/>
    <glyph glyph-name="uni0687" unicode="ڇ" horiz-adv-x="1112" arabic-form="isolated" d="M1094 -328q-160 -96 -439 -96q-248 0 -408.5 146t-160.5 393q0 248 217.5 396t544.5 148q-262 113 -629 113h-78v186h88q188 0 406 -77t409 -211v-131h-147q-319 0 -499.5 -114.5t-180.5 -305.5q0 -171 123 -265t313 -94q269 0 430 111h11v-199zM856 149h-147v147h147 v-147zM586 149h-148v147h148v-147zM856 -60h-147v147h147v-147zM586 -60h-148v147h148v-147z"/>
    <glyph glyph-name="uniFB7F" unicode="ڇ" horiz-adv-x="1112" arabic-form="final" d="M1112 0h-33q-145 0 -207 90q-51 75 -51 229v218q-237 -12 -396 -97q-208 -111 -208 -321q0 -177 134 -274q118 -85 302 -85q269 0 430 111h11v-199q-160 -96 -439 -96q-250 0 -407 143q-162 149 -162 396q0 273 256 421q212 123 506 123q-262 113 -629 113h-78v186h88 q200 0 428 -85q206 -76 387 -203v-131h-92v-164q0 -92 17 -130q27 -57 106 -57h37v-188zM774 111h-147v147h147v-147zM504 111h-148v147h148v-147zM774 -98h-147v147h147v-147zM504 -98h-148v147h148v-147z"/>
    <glyph glyph-name="uniFB80" unicode="ڇ" horiz-adv-x="1112" arabic-form="initial" d="M1030 184q-178 0 -523.5 -92t-506.5 -92q-49 0 -86 51t-37 137h129q143 0 439.5 80.5t406.5 87.5q-303 273 -653 273h-95v186h105q81 0 157 -16q75 -16 149 -48q73 -31 149 -80q72 -47 153 -113q75 -61 165 -145l43 -41h2l3 1v-189zM838 -221h-147v147h147v-147z M568 -221h-148v147h148v-147zM838 -430h-147v147h147v-147zM568 -430h-148v147h148v-147z"/>
    <glyph glyph-name="uni068C" unicode="ڌ" horiz-adv-x="696" arabic-form="final" d="M190 956q465 -341 465 -632q0 -148 -94.5 -236t-271.5 -88h-279v188h277q111 0 174 39t63 95q0 183 -344 399v235h10zM418 1130h-147v147h147v-147zM148 1130h-148v147h148v-147z"/>
    <glyph glyph-name="uni068D" unicode="ڍ" horiz-adv-x="696" arabic-form="final" d="M190 956q465 -341 465 -632q0 -148 -94.5 -236t-271.5 -88h-279v188h277q111 0 174 39t63 95q0 183 -344 399v235h10zM516 -293h-147v147h147v-147zM246 -293h-148v147h148v-147z"/>
    <glyph glyph-name="uni068E" unicode="ڎ" horiz-adv-x="696" arabic-form="final" d="M190 956q465 -341 465 -632q0 -148 -94.5 -236t-271.5 -88h-279v188h277q111 0 174 39t63 95q0 183 -344 399v235h10zM291 1339h-148v147h148v-147zM438 1130h-147v147h147v-147zM143 1130h-147v147h147v-147z"/>
    <glyph glyph-name="uni0692.fina" unicode="ڒ" horiz-adv-x="993" d="M786 516q104 -164 105 -328h102v-188q-49 0 -86 51q-15 20 -22 41q-32 -231 -221 -360q-227 -156 -582 -156v188q306 0 491 100q187 100 187 290q0 165 -166 350v12h192zM796 962l-133 -270h-74l-133 270h73l97 -202l97 202h73z"/>
    <glyph glyph-name="uni0693.fina" unicode="ړ" horiz-adv-x="993" d="M786 516q104 -164 105 -328h102v-188q-49 0 -86 51q-15 20 -22 41q-32 -231 -221 -360q-227 -156 -582 -156v188q306 0 491 100q187 100 187 290q0 165 -166 350v12h192zM768 -141q59 0 101 -42t42 -102q0 -59 -42 -101t-101 -42q-60 0 -102 42t-42 101q0 60 42 102 t102 42zM768 -362q32 0 54.5 22.5t22.5 54.5t-22.5 55t-54.5 23t-55 -23t-23 -55t23 -54.5t55 -22.5z"/>
    <glyph glyph-name="uni0694.fina" unicode="ڔ" horiz-adv-x="993" d="M786 516q104 -164 105 -328h102v-188q-49 0 -86 51q-15 20 -22 41q-32 -231 -221 -360q-227 -156 -582 -156v188q306 0 491 100q187 100 187 290q0 165 -166 350v12h192zM881 -428h-148v147h148v-147z"/>
    <glyph glyph-name="uni0695.fina" unicode="ڕ" horiz-adv-x="993" d="M891 257q0 -18 -1 -35t-3 -34h106v-188q-49 0 -86 51q-22 29 -31 72q-48 -195 -243 -288q-191 -90 -551 -90v188q295 0 432 35q246 64 246 257q0 165 -166 350v12h192q105 -164 105 -330zM693 -269l-133 -161h-74l-133 161h73l97 -114l97 114h73z"/>
    <glyph glyph-name="uni0696.fina" unicode="ږ" horiz-adv-x="993" d="M786 516q104 -164 105 -328h102v-188q-49 0 -86 51q-15 20 -22 41q-32 -231 -221 -360q-227 -156 -582 -156v188q306 0 491 100q187 100 187 290q0 165 -166 350v12h192zM881 -428h-148v147h148v-147zM481 0h-148v147h148v-147z"/>
    <glyph glyph-name="uni0697.fina" unicode="ڗ" horiz-adv-x="993" d="M786 516q104 -164 105 -328h102v-188q-49 0 -86 51q-15 20 -22 41q-32 -231 -221 -360q-227 -156 -582 -156v188q306 0 491 100q187 100 187 290q0 165 -166 350v12h192zM817 690h-147v147h147v-147zM547 690h-148v147h148v-147z"/>
    <glyph glyph-name="uni0699.fina" unicode="ڙ" horiz-adv-x="993" d="M786 516q104 -164 105 -328h102v-188q-49 0 -86 51q-15 20 -22 41q-32 -231 -221 -360q-227 -156 -582 -156v188q306 0 491 100q187 100 187 290q0 165 -166 350v12h192zM817 899h-147v147h147v-147zM547 899h-148v147h148v-147zM817 690h-147v147h147v-147zM547 690 h-148v147h148v-147z"/>
    <glyph glyph-name="uni069A.init" unicode="ښ" horiz-adv-x="1239" d="M1157 188q0 -188 -182 -188h-82q-146 0 -199 72q-52 -72 -198 -72t-199 72q-55 -72 -215 -72h-82q-49 0 -86 51t-37 137h205q149 0 149 134v100h131v-100q0 -134 134 -134q133 0 133 134v100h131v-100q0 -134 133 -134t133 80v367h131v-447zM767 717h-148v147h148v-147z M767 -293h-148v147h148v-147z"/>
    <glyph glyph-name="uni069B.init" unicode="ڛ" horiz-adv-x="1239" d="M1157 188q0 -188 -182 -188h-82q-146 0 -199 72q-52 -72 -198 -72t-199 72q-55 -72 -215 -72h-82q-49 0 -86 51t-37 137h205q149 0 149 134v100h131v-100q0 -134 134 -134q133 0 133 134v100h131v-100q0 -134 133 -134t133 80v367h131v-447zM767 -430h-148v147h148v-147z M914 -221h-147v147h147v-147zM619 -221h-147v147h147v-147z"/>
    <glyph glyph-name="uni069C.init" unicode="ڜ" horiz-adv-x="1239" d="M1157 188q0 -188 -182 -188h-82q-146 0 -199 72q-52 -72 -198 -72t-199 72q-55 -72 -215 -72h-82q-49 0 -86 51t-37 137h205q149 0 149 134v100h131v-100q0 -134 134 -134q133 0 133 134v100h131v-100q0 -134 133 -134t133 80v367h131v-447zM767 -430h-148v147h148v-147z M914 -221h-147v147h147v-147zM619 -221h-147v147h147v-147zM707 926h-148v147h148v-147zM854 717h-147v147h147v-147zM559 717h-147v147h147v-147z"/>
    <glyph glyph-name="uni069D.init" unicode="ڝ" horiz-adv-x="1731" d="M551 188q233 327 410 477t342 150q149 0 268 -162t119 -352q0 -138 -127.5 -219.5t-345.5 -81.5h-758q-151 0 -230 82q-75 -82 -229 -82q-49 0 -86 51t-37 137h127q160 0 160 191v10h131v-10q0 -191 160 -191h96zM715 188h483q163 0 262 34.5t99 88.5q0 132 -84.5 225 t-174.5 93q-139 0 -277 -104t-308 -337zM1418 -293h-147v147h147v-147zM1148 -293h-148v147h148v-147z"/>
    <glyph glyph-name="uni069E.init" unicode="ڞ" horiz-adv-x="1731" d="M551 188q233 327 410 477t342 150q149 0 268 -162t119 -352q0 -138 -127.5 -219.5t-345.5 -81.5h-758q-151 0 -230 82q-75 -82 -229 -82q-49 0 -86 51t-37 137h127q160 0 160 191v10h131v-10q0 -191 160 -191h96zM715 188h483q163 0 262 34.5t99 88.5q0 132 -84.5 225 t-174.5 93q-139 0 -277 -104t-308 -337zM1342 1167h-148v147h148v-147zM1489 958h-147v147h147v-147zM1194 958h-147v147h147v-147z"/>
    <glyph glyph-name="uni06A0.init" unicode="ڠ" horiz-adv-x="1112" d="M1012 184q-492 -184 -768 -184h-244q-49 0 -86 51t-37 137h406q-90 49 -142.5 142t-52.5 186q0 197 112 309.5t294 112.5q239 0 401 -82v-213h-10q-160 113 -383 113q-137 0 -210 -71t-73 -171q0 -147 99.5 -224t146.5 -77q29 0 197.5 46.5t349.5 113.5v-189zM576 1321 h-148v147h148v-147zM723 1112h-147v147h147v-147zM428 1112h-147v147h147v-147z"/>
    <glyph glyph-name="uni06A0.medi" unicode="ڠ" horiz-adv-x="803" d="M803 0h-82q-145 0 -320 115q-174 -115 -319 -115h-82q-49 0 -86 51t-37 137h205q104 0 190 33q-211 200 -211 371q0 116 93.5 179t246.5 63q154 0 247 -63t93 -179q0 -171 -211 -371q87 -33 191 -33h82v-188zM401 289q95 68 152 143.5t57 126.5q0 84 -209 84 q-208 0 -208 -84q0 -51 57 -126.5t151 -143.5zM476 1217h-148v147h148v-147zM623 1008h-147v147h147v-147zM328 1008h-147v147h147v-147z"/>
    <glyph glyph-name="uni06A0.fina" unicode="ڠ" horiz-adv-x="928" d="M928 0h-21q-193 0 -479 295q-108 -81 -159.5 -145t-51.5 -148q0 -106 95.5 -173t222.5 -67q186 0 362 129h10v-213q-164 -102 -370 -102q-185 0 -318 123t-133 303q0 117 61 199.5t199 181.5q-120 131 -166.5 203t-46.5 153q0 108 97.5 173t242.5 65q147 0 243.5 -64.5 t96.5 -177.5q0 -96 -51.5 -170t-229.5 -196q115 -115 191.5 -148t167.5 -33h37v-188zM451 455q120 81 172.5 133t52.5 104q0 40 -57.5 67t-145.5 27q-85 0 -138.5 -26.5t-53.5 -65.5q0 -36 38.5 -87.5t131.5 -151.5zM547 1360h-148v147h148v-147zM694 1151h-147v147h147 v-147zM399 1151h-147v147h147v-147z"/>
    <glyph glyph-name="uni06A2.init" unicode="ڢ" horiz-adv-x="594" d="M455 467q-41 -41 -127 -41q-111 0 -193 85.5t-82 231.5q0 151 82.5 263t167.5 112q113 0 194 -163.5t81 -444.5q0 -249 -105.5 -379.5t-302.5 -130.5h-170q-49 0 -86 51t-37 137h295q119 0 201 76.5t82 202.5zM442 647q0 112 -47.5 199.5t-93.5 87.5q-40 0 -81.5 -54 t-41.5 -130q0 -140 154 -140q67 0 110 37zM381 -293h-148v147h148v-147z"/>
    <glyph glyph-name="uni06A2.medi" unicode="ڢ" horiz-adv-x="606" d="M606 0h-41q-120 0 -262 100q-142 -100 -262 -100h-41q-49 0 -86 51t-37 137h205q54 0 111 17q-136 167 -136 311q0 143 69 230.5t177 87.5t177 -87.5t69 -230.5q0 -144 -135 -311q56 -17 110 -17h82v-188zM303 266q115 109 115 240q0 59 -31 98t-84 39t-84 -39t-31 -98 q0 -131 115 -240zM381 -293h-148v147h148v-147z"/>
    <glyph glyph-name="uni06A3.init" unicode="ڣ" horiz-adv-x="594" d="M455 467q-41 -41 -127 -41q-111 0 -193 85.5t-82 231.5q0 151 82.5 263t167.5 112q113 0 194 -163.5t81 -444.5q0 -249 -105.5 -379.5t-302.5 -130.5h-170q-49 0 -86 51t-37 137h295q119 0 201 76.5t82 202.5zM442 647q0 112 -47.5 199.5t-93.5 87.5q-40 0 -81.5 -54 t-41.5 -130q0 -140 154 -140q67 0 110 37zM381 -293h-148v147h148v-147zM345 1292h-148v147h148v-147z"/>
    <glyph glyph-name="uni06A3.medi" unicode="ڣ" horiz-adv-x="606" d="M606 0h-41q-120 0 -262 100q-142 -100 -262 -100h-41q-49 0 -86 51t-37 137h205q54 0 111 17q-136 167 -136 311q0 143 69 230.5t177 87.5t177 -87.5t69 -230.5q0 -144 -135 -311q56 -17 110 -17h82v-188zM303 266q115 109 115 240q0 59 -31 98t-84 39t-84 -39t-31 -98 q0 -131 115 -240zM381 -293h-148v147h148v-147zM377 1008h-148v147h148v-147z"/>
    <glyph glyph-name="uni06A5.init" unicode="ڥ" horiz-adv-x="594" d="M455 467q-41 -41 -127 -41q-111 0 -193 85.5t-82 231.5q0 151 82.5 263t167.5 112q113 0 194 -163.5t81 -444.5q0 -249 -105.5 -379.5t-302.5 -130.5h-170q-49 0 -86 51t-37 137h295q119 0 201 76.5t82 202.5zM442 647q0 112 -47.5 199.5t-93.5 87.5q-40 0 -81.5 -54 t-41.5 -130q0 -140 154 -140q67 0 110 37zM381 -430h-148v147h148v-147zM528 -221h-147v147h147v-147zM233 -221h-147v147h147v-147z"/>
    <glyph glyph-name="uni06A5.medi" unicode="ڥ" horiz-adv-x="606" d="M606 0h-41q-120 0 -262 100q-142 -100 -262 -100h-41q-49 0 -86 51t-37 137h205q54 0 111 17q-136 167 -136 311q0 143 69 230.5t177 87.5t177 -87.5t69 -230.5q0 -144 -135 -311q56 -17 110 -17h82v-188zM303 266q115 109 115 240q0 59 -31 98t-84 39t-84 -39t-31 -98 q0 -131 115 -240zM381 -430h-148v147h148v-147zM528 -221h-147v147h147v-147zM233 -221h-147v147h147v-147z"/>
    <glyph glyph-name="uni06A6" unicode="ڦ" horiz-adv-x="1618" arabic-form="final" d="M1561 291q0 -291 -476 -291h-505q-500 0 -500 477q0 114 31 240h131v-10q-31 -111 -31 -218q0 -171 104 -242q86 -59 267 -59h495q353 0 353 177v102q-39 -41 -111 -41q-109 0 -192 86t-83 231q0 117 65 236q77 139 185 139q150 0 220 -246q47 -164 47 -362v-219z M1419 653q0 68 -33 161q-40 116 -94 116q-45 0 -83 -70q-33 -61 -33 -110q0 -60 43 -98t104 -38q55 0 96 39zM1486 1501h-147v147h147v-147zM1216 1501h-148v147h148v-147zM1486 1292h-147v147h147v-147zM1216 1292h-148v147h148v-147z"/>
    <glyph glyph-name="uniFB70" unicode="ڦ" horiz-adv-x="594" arabic-form="initial" d="M455 467q-41 -41 -127 -41q-111 0 -193 85.5t-82 231.5q0 151 82.5 263t167.5 112q113 0 194 -163.5t81 -444.5q0 -249 -105.5 -379.5t-302.5 -130.5h-170q-49 0 -86 51t-37 137h295q119 0 201 76.5t82 202.5zM442 647q0 112 -47.5 199.5t-93.5 87.5q-40 0 -81.5 -54 t-41.5 -130q0 -140 154 -140q67 0 110 37zM500 1501h-147v147h147v-147zM230 1501h-148v147h148v-147zM500 1292h-147v147h147v-147zM230 1292h-148v147h148v-147z"/>
    <glyph glyph-name="uniFB71" unicode="ڦ" horiz-adv-x="606" arabic-form="medial" d="M606 0h-41q-120 0 -262 100q-142 -100 -262 -100h-41q-49 0 -86 51t-37 137h205q54 0 111 17q-136 167 -136 311q0 143 69 230.5t177 87.5t177 -87.5t69 -230.5q0 -144 -135 -311q56 -17 110 -17h82v-188zM303 266q115 109 115 240q0 59 -31 98t-84 39t-84 -39t-31 -98 q0 -131 115 -240zM512 1217h-147v147h147v-147zM242 1217h-148v147h148v-147zM512 1008h-147v147h147v-147zM242 1008h-148v147h148v-147z"/>
    <glyph glyph-name="uni06AA.init" unicode="ڪ" horiz-adv-x="2003" d="M1979 341q0 -230 -426 -297q-279 -44 -1145 -44h-420q-62 0 -96 67q-27 53 -27 121h545q1363 0 1363 159q0 70 -107 70q-152 0 -590.5 -32.5t-656.5 -32.5q-114 0 -181 53t-67 151q0 176 291 361q106 67 350 179v-197q-448 -191 -448 -308q0 -54 105 -54q213 0 607 31.5 t596 31.5q157 0 237 -77q70 -68 70 -182z"/>
    <glyph glyph-name="uni06AB.init" unicode="ګ" horiz-adv-x="807" d="M725 1333l-422 -250q-41 -20 -74.5 -53t-33.5 -55q0 -56 92 -144l282 -268q127 -120 162 -180.5t35 -118.5q0 -264 -354 -264h-412q-49 0 -86 51t-37 137h533q107 0 148.5 25t41.5 84q0 38 -38.5 81.5t-162.5 160.5l-290 274q-105 101 -105 197q0 52 41 95t176 124 l504 301v-197zM514 1261q59 0 101 -42t42 -102q0 -59 -42 -101t-101 -42q-60 0 -102 42t-42 101q0 60 42 102t102 42zM514 1040q32 0 54.5 22.5t22.5 54.5t-22.5 55t-54.5 23t-55 -23t-23 -55t23 -54.5t55 -22.5z"/>
    <glyph glyph-name="uni06AC.init" unicode="ڬ" horiz-adv-x="807" d="M725 1333l-422 -250q-41 -20 -74.5 -53t-33.5 -55q0 -56 92 -144l282 -268q127 -120 162 -180.5t35 -118.5q0 -264 -354 -264h-412q-49 0 -86 51t-37 137h533q107 0 148.5 25t41.5 84q0 38 -38.5 81.5t-162.5 160.5l-290 274q-105 101 -105 197q0 52 41 95t176 124 l504 301v-197zM281 1383h-148v147h148v-147z"/>
    <glyph glyph-name="uni06AD" unicode="ڭ" horiz-adv-x="1229" arabic-form="final" d="M1147 270q0 -123 -88 -196.5t-240 -73.5h-426q-165 0 -253.5 79t-88.5 230q0 40 8 121h134v-10q-11 -57 -11 -109q0 -123 211 -123h418q205 0 205 156v1212h131v-1286zM645 879q-137 0 -137 -48q0 -28 57 -40l64 -15q84 -18 84 -92q0 -67 -77 -104t-196 -37v69 q203 0 203 66q0 17 -19.5 25t-100.5 25t-81 99q0 58 54.5 89.5t148.5 31.5v-69zM731 1409h-148v147h148v-147zM878 1200h-147v147h147v-147zM583 1200h-147v147h147v-147z"/>
    <glyph glyph-name="uniFBD5" unicode="ڭ" horiz-adv-x="807" arabic-form="initial" d="M725 1333l-422 -250q-41 -20 -74.5 -53t-33.5 -55q0 -56 92 -144l282 -268q127 -120 162 -180.5t35 -118.5q0 -264 -354 -264h-412q-49 0 -86 51t-37 137h533q107 0 148.5 25t41.5 84q0 38 -38.5 81.5t-162.5 160.5l-290 274q-105 101 -105 197q0 52 41 95t176 124 l504 301v-197zM301 1669h-148v147h148v-147zM448 1460h-147v147h147v-147zM153 1460h-147v147h147v-147z"/>
    <glyph glyph-name="uni06AE.init" unicode="ڮ" horiz-adv-x="807" d="M725 1333l-422 -250q-41 -20 -74.5 -53t-33.5 -55q0 -56 92 -144l282 -268q127 -120 162 -180.5t35 -118.5q0 -264 -354 -264h-412q-49 0 -86 51t-37 137h533q107 0 148.5 25t41.5 84q0 38 -38.5 81.5t-162.5 160.5l-290 274q-105 101 -105 197q0 52 41 95t176 124 l504 301v-197zM381 -430h-148v147h148v-147zM528 -221h-147v147h147v-147zM233 -221h-147v147h147v-147z"/>
    <glyph glyph-name="uni06B0.init" unicode="ڰ" horiz-adv-x="807" d="M725 1333l-422 -250q-41 -20 -74.5 -53t-33.5 -55q0 -56 92 -144l282 -268q127 -120 162 -180.5t35 -118.5q0 -264 -354 -264h-412q-49 0 -86 51t-37 137h533q107 0 148.5 25t41.5 84q0 38 -38.5 81.5t-162.5 160.5l-290 274q-105 101 -105 197q0 52 41 95t176 124 l504 301v-197zM700 1649l-671 -402v101l671 401v-100zM514 1261q59 0 101 -42t42 -102q0 -59 -42 -101t-101 -42q-60 0 -102 42t-42 101q0 60 42 102t102 42zM514 1040q32 0 54.5 22.5t22.5 54.5t-22.5 55t-54.5 23t-55 -23t-23 -55t23 -54.5t55 -22.5z"/>
    <glyph glyph-name="uni06B1" unicode="ڱ" horiz-adv-x="1217" arabic-form="final" d="M819 188q107 0 149 25t42 84q0 38 -39 81.5t-162 160.5l-291 274q-104 101 -104 197q0 52 40.5 95t176.5 124l504 301v-197l-422 -250q-41 -20 -75 -53t-34 -55q0 -56 92 -144l283 -268q127 -120 162 -180.5t35 -118.5q0 -264 -355 -264h-428q-165 0 -253.5 79t-88.5 230 q0 40 8 121h134v-10q-11 -57 -11 -109q0 -123 211 -123h426zM1110 1649l-672 -402v101l672 401v-100zM827 1670h-147v147h147v-147zM557 1670h-148v147h148v-147z"/>
    <glyph glyph-name="uniFB9C" unicode="ڱ" horiz-adv-x="807" arabic-form="initial" d="M725 1333l-422 -250q-41 -20 -74.5 -53t-33.5 -55q0 -56 92 -144l282 -268q127 -120 162 -180.5t35 -118.5q0 -264 -354 -264h-412q-49 0 -86 51t-37 137h533q107 0 148.5 25t41.5 84q0 38 -38.5 81.5t-162.5 160.5l-290 274q-105 101 -105 197q0 52 41 95t176 124 l504 301v-197zM700 1649l-671 -402v101l671 401v-100zM418 1670h-147v147h147v-147zM148 1670h-148v147h148v-147z"/>
    <glyph glyph-name="uni06B2.init" unicode="ڲ" horiz-adv-x="807" d="M725 1333l-422 -250q-41 -20 -74.5 -53t-33.5 -55q0 -56 92 -144l282 -268q127 -120 162 -180.5t35 -118.5q0 -264 -354 -264h-412q-49 0 -86 51t-37 137h533q107 0 148.5 25t41.5 84q0 38 -38.5 81.5t-162.5 160.5l-290 274q-105 101 -105 197q0 52 41 95t176 124 l504 301v-197zM700 1649l-671 -402v101l671 401v-100zM516 -293h-147v147h147v-147zM246 -293h-148v147h148v-147z"/>
    <glyph glyph-name="uni06B3" unicode="ڳ" horiz-adv-x="1217" arabic-form="final" d="M819 188q107 0 149 25t42 84q0 38 -39 81.5t-162 160.5l-291 274q-104 101 -104 197q0 52 40.5 95t176.5 124l504 301v-197l-422 -250q-41 -20 -75 -53t-34 -55q0 -56 92 -144l283 -268q127 -120 162 -180.5t35 -118.5q0 -264 -355 -264h-428q-165 0 -253.5 79t-88.5 230 q0 40 8 121h134v-10q-11 -57 -11 -109q0 -123 211 -123h426zM1110 1649l-672 -402v101l672 401v-100zM681 -221h-147v147h147v-147zM681 -430h-147v148h147v-148z"/>
    <glyph glyph-name="uniFB98" unicode="ڳ" horiz-adv-x="807" arabic-form="initial" d="M725 1333l-422 -250q-41 -20 -74.5 -53t-33.5 -55q0 -56 92 -144l282 -268q127 -120 162 -180.5t35 -118.5q0 -264 -354 -264h-412q-49 0 -86 51t-37 137h533q107 0 148.5 25t41.5 84q0 38 -38.5 81.5t-162.5 160.5l-290 274q-105 101 -105 197q0 52 41 95t176 124 l504 301v-197zM700 1649l-671 -402v101l671 401v-100zM381 -221h-147v147h147v-147zM381 -430h-147v148h147v-148z"/>
    <glyph glyph-name="uni06B4.init" unicode="ڴ" horiz-adv-x="807" d="M725 1333l-422 -250q-41 -20 -74.5 -53t-33.5 -55q0 -56 92 -144l282 -268q127 -120 162 -180.5t35 -118.5q0 -264 -354 -264h-412q-49 0 -86 51t-37 137h533q107 0 148.5 25t41.5 84q0 38 -38.5 81.5t-162.5 160.5l-290 274q-105 101 -105 197q0 52 41 95t176 124 l504 301v-197zM700 1649l-671 -402v101l671 401v-100zM141 1741h-148v147h148v-147zM288 1532h-147v147h147v-147zM-7 1532h-147v147h147v-147z"/>
    <glyph glyph-name="uni06B5.init" unicode="ڵ" horiz-adv-x="442" d="M360 270q0 -123 -87.5 -196.5t-239.5 -73.5h-33q-49 0 -86 51t-37 137h148q204 0 204 156v1212h131v-1286zM399 1880l-133 -270h-74l-133 270h73l97 -202l97 202h73z"/>
    <glyph glyph-name="uni06B5.medi" unicode="ڵ" horiz-adv-x="442" d="M360 270q0 -123 -87.5 -196.5t-239.5 -73.5h-33q-49 0 -86 51t-37 137h148q204 0 204 156v1212h131v-1286zM399 1880l-133 -270h-74l-133 270h73l97 -202l97 202h73z"/>
    <glyph glyph-name="uni06B6.init" unicode="ڶ" horiz-adv-x="442" d="M360 270q0 -123 -87.5 -196.5t-239.5 -73.5h-33q-49 0 -86 51t-37 137h148q204 0 204 156v1212h131v-1286zM299 1662h-148v147h148v-147z"/>
    <glyph glyph-name="uni06B6.medi" unicode="ڶ" horiz-adv-x="442" d="M360 270q0 -123 -87.5 -196.5t-239.5 -73.5h-33q-49 0 -86 51t-37 137h148q204 0 204 156v1212h131v-1286zM299 1662h-148v147h148v-147z"/>
    <glyph glyph-name="uni06B7.init" unicode="ڷ" horiz-adv-x="442" d="M294 1741h-148v147h148v-147zM441 1532h-147v147h147v-147zM146 1532h-147v147h147v-147zM360 270q0 -134 -100 -206q-88 -64 -227 -64h-33q-61 0 -96 67q-27 54 -27 121h148q204 0 204 156v1129h131v-1203z"/>
    <glyph glyph-name="uni06B7.medi" unicode="ڷ" horiz-adv-x="442" d="M294 1741h-148v147h148v-147zM441 1532h-147v147h147v-147zM146 1532h-147v147h147v-147zM360 270q0 -134 -100 -206q-88 -64 -227 -64h-33q-61 0 -96 67q-27 54 -27 121h148q204 0 204 156v1129h131v-1203z"/>
    <glyph glyph-name="uni06B8.init" unicode="ڸ" horiz-adv-x="442" d="M360 270q0 -123 -87.5 -196.5t-239.5 -73.5h-33q-49 0 -86 51t-37 137h148q204 0 204 156v1212h131v-1286zM295 -430h-148v147h148v-147zM442 -221h-147v147h147v-147zM147 -221h-147v147h147v-147z"/>
    <glyph glyph-name="uni06B8.medi" unicode="ڸ" horiz-adv-x="442" d="M360 270q0 -123 -87.5 -196.5t-239.5 -73.5h-33q-49 0 -86 51t-37 137h148q204 0 204 156v1212h131v-1286zM295 -430h-148v147h148v-147zM442 -221h-147v147h147v-147zM147 -221h-147v147h147v-147z"/>
    <glyph glyph-name="uni06B9.init" unicode="ڹ" horiz-adv-x="500" d="M418 270q0 -123 -88 -196.5t-240 -73.5h-90q-49 0 -86 51t-37 137h205q205 0 205 156v373h131v-447zM357 891h-148v147h148v-147zM279 -293h-148v147h148v-147z"/>
    <glyph glyph-name="uni06BB" unicode="ڻ" horiz-adv-x="1085" arabic-form="final" d="M1028 401q27 -120 27 -229q0 -277 -130 -436.5t-372 -159.5t-372 159.5t-130 436.5q0 109 27 229h131v-10q-27 -96 -27 -207q0 -420 371 -420t371 420q0 57 -14 137l-13 70v10h131zM747 608q0 -108 -160 -108h-227v67h66v413h57v-328q59 141 140 141q57 0 93 -67 q31 -56 31 -118zM692 612q0 35 -15 69q-20 45 -55 45q-59 0 -139 -159h97q112 0 112 45z"/>
    <glyph glyph-name="uni06BC.init" unicode="ڼ" horiz-adv-x="500" d="M418 270q0 -123 -88 -196.5t-240 -73.5h-90q-49 0 -86 51t-37 137h205q205 0 205 156v373h131v-447zM357 891h-148v147h148v-147zM214 79q59 0 101 -42t42 -102q0 -59 -42 -101t-101 -42q-60 0 -102 42t-42 101q0 60 42 102t102 42zM214 -142q32 0 54.5 22.5t22.5 54.5 t-22.5 55t-54.5 23t-55 -23t-23 -55t23 -54.5t55 -22.5z"/>
    <glyph glyph-name="uni06BD.init" unicode="ڽ" horiz-adv-x="500" d="M418 270q0 -123 -88 -196.5t-240 -73.5h-90q-49 0 -86 51t-37 137h205q205 0 205 156v373h131v-447zM426 -221h-147v147h147v-147zM131 -221h-147v147h147v-147zM279 -430h-148v147h148v-147z"/>
    <glyph glyph-name="uni06BF.init" unicode="ڿ" horiz-adv-x="1112" d="M1030 184q-178 0 -523.5 -92t-506.5 -92q-49 0 -86 51t-37 137h129q143 0 439.5 80.5t406.5 87.5q-303 273 -653 273h-95v186h105q81 0 157 -16q75 -16 149 -48q73 -31 149 -80q72 -47 153 -113q75 -61 165 -145l43 -41h2l3 1v-189zM850 -221h-148v147h148v-147z M555 -221h-147v147h147v-147zM702 -430h-147v147h147v-147zM713 936h-148v147h148v-147z"/>
    <glyph glyph-name="uni06BF.fina" unicode="ڿ" horiz-adv-x="1112" d="M1112 0h-33q-135 0 -196.5 76t-61.5 243v218q-284 -14 -444 -126t-160 -292q0 -171 123 -265t313 -94q269 0 430 111h11v-199q-160 -96 -439 -96q-248 0 -408.5 146t-160.5 393q0 248 217.5 396t544.5 148q-262 113 -629 113h-78v186h88q188 0 406 -77t409 -211v-131h-92 v-164q0 -118 31 -152.5t92 -34.5h37v-188zM739 111h-147v147h147v-147zM444 111h-147v147h147v-147zM592 -98h-148v147h148v-147zM769 1120h-148v147h148v-147z"/>
    <glyph glyph-name="uni06C5" unicode="ۅ" horiz-adv-x="868" arabic-form="final" d="M786 197q0 -331 -236 -489q-200 -132 -550 -132v188q417 0 573 167h-402v108h468q18 52 18 115q-41 -41 -110 -41q-126 0 -200 98q-68 89 -68 219q0 116 63 235q74 140 180 140q144 0 215 -249q49 -170 49 -359zM645 340q0 67 -32 160q-40 116 -93 116q-47 0 -81 -69 q-29 -59 -29 -111q0 -60 40 -97.5t101 -37.5q65 0 94 39z"/>
    <glyph glyph-name="uni06C6" unicode="ۆ" horiz-adv-x="868" arabic-form="final" d="M657 154q-41 -41 -110 -41q-110 0 -189 85t-79 232q0 151 79.5 263t163.5 112q105 0 184.5 -164.5t79.5 -443.5q0 -304 -200.5 -462.5t-585.5 -158.5v188q325 0 491 101t166 289zM645 340q0 93 -42 184.5t-83 91.5q-39 0 -74.5 -57.5t-35.5 -122.5q0 -59 39.5 -97 t101.5 -38q65 0 94 39zM646 1249l-133 -270h-74l-133 270h73l97 -202l97 202h73z"/>
    <glyph glyph-name="uni06C7" unicode="ۇ" horiz-adv-x="868" arabic-form="final" d="M657 154q-41 -41 -110 -41q-110 0 -189 85t-79 232q0 151 79.5 263t163.5 112q105 0 184.5 -164.5t79.5 -443.5q0 -304 -200.5 -462.5t-585.5 -158.5v188q325 0 491 101t166 289zM645 340q0 93 -42 184.5t-83 91.5q-39 0 -74.5 -57.5t-35.5 -122.5q0 -59 39.5 -97 t101.5 -38q65 0 94 39zM627 1169q0 -78 -45.5 -151.5t-130.5 -148.5l-50 50q38 32 76.5 78t61.5 97q-14 -7 -31.5 -9t-31.5 -2q-26 0 -47 10t-35 25.5t-21.5 35.5t-7.5 41q0 59 35 91t90 32q69 0 103 -40t34 -109z"/>
    <glyph glyph-name="uni06C8" unicode="ۈ" horiz-adv-x="868" arabic-form="final" d="M657 154q-41 -41 -110 -41q-110 0 -189 85t-79 232q0 151 79.5 263t163.5 112q105 0 184.5 -164.5t79.5 -443.5q0 -304 -200.5 -462.5t-585.5 -158.5v188q325 0 491 101t166 289zM645 340q0 93 -42 184.5t-83 91.5q-39 0 -74.5 -57.5t-35.5 -122.5q0 -59 39.5 -97 t101.5 -38q65 0 94 39zM522 979h-70v513h70v-513z"/>
    <glyph glyph-name="uni06C9" unicode="ۉ" horiz-adv-x="868" arabic-form="final" d="M657 154q-41 -41 -110 -41q-110 0 -189 85t-79 232q0 151 79.5 263t163.5 112q105 0 184.5 -164.5t79.5 -443.5q0 -304 -200.5 -462.5t-585.5 -158.5v188q325 0 491 101t166 289zM645 340q0 93 -42 184.5t-83 91.5q-39 0 -74.5 -57.5t-35.5 -122.5q0 -59 39.5 -97 t101.5 -38q65 0 94 39zM623 979l-127 202l-127 -202h-73l163 270h74l163 -270h-73z"/>
    <glyph glyph-name="uni06CB" unicode="ۋ" horiz-adv-x="868" arabic-form="final" d="M657 154q-41 -41 -110 -41q-110 0 -189 85t-79 232q0 151 79.5 263t163.5 112q105 0 184.5 -164.5t79.5 -443.5q0 -304 -200.5 -462.5t-585.5 -158.5v188q325 0 491 101t166 289zM645 340q0 93 -42 184.5t-83 91.5q-39 0 -74.5 -57.5t-35.5 -122.5q0 -59 39.5 -97 t101.5 -38q65 0 94 39zM584 1188h-148v147h148v-147zM731 979h-147v147h147v-147zM436 979h-147v147h147v-147z"/>
    <glyph glyph-name="uni06CD.fina" unicode="ۍ" horiz-adv-x="1424" d="M1424 0q-169 0 -243 164q-5 11 -68 189q-48 135 -77 165q-33 35 -85 35q-92 0 -92 -88q0 -55 72 -141q96 -115 96 -228q0 -264 -375 -264q-197 0 -307 134q-102 124 -102 325q0 40 6 102l-244 -78v96l391 131v-10q-22 -135 -22 -240q0 -272 280 -272q238 0 238 117 q0 53 -74 142q-94 112 -94 221q0 111 58.5 176t168.5 65q113 0 174 -84q39 -53 77.5 -188t67.5 -184q57 -97 154 -97v-188z"/>
    <glyph glyph-name="uni06CE.init" unicode="ێ" horiz-adv-x="500" d="M418 270q0 -123 -88 -196.5t-240 -73.5h-90q-49 0 -86 51t-37 137h205q205 0 205 156v373h131v-447zM418 -293h-147v147h147v-147zM148 -293h-148v147h148v-147zM457 1161l-133 -270h-74l-133 270h73l97 -202l97 202h73z"/>
    <glyph glyph-name="uni06CE.fina" unicode="ێ" horiz-adv-x="1212" d="M1212 0q-95 0 -152.5 44.5t-91 119t-72.5 197t-72.5 157.5t-84.5 35q-92 0 -92 -88q0 -55 72 -141q96 -115 96 -228q0 -264 -375 -264q-184 0 -296.5 122t-112.5 337q0 65 14 170h133v-10q-16 -66 -16 -158q0 -146 69 -209.5t211 -63.5q238 0 238 117q0 52 -74 142 q-94 111 -94 221q0 109 58 175t169 66q79 0 139 -44t113 -229t101.5 -232.5t119.5 -47.5v-188zM466 985l-133 -270h-74l-133 270h73l97 -202l97 202h73z"/>
    <glyph glyph-name="uni06D0" unicode="ې" horiz-adv-x="1311" arabic-form="isolated" d="M1239 866h-10q-150 88 -320 88q-82 0 -136 -36t-54 -87q0 -44 38 -83.5t200.5 -122t218 -144.5t55.5 -147q0 -161 -177.5 -247.5t-525.5 -86.5q-497 0 -497 442q0 99 20 252h133v-10q-22 -135 -22 -240q0 -133 87.5 -194.5t280.5 -61.5q277 0 423.5 42t146.5 108 q0 42 -47 81.5t-195.5 111.5t-209 143.5t-60.5 159.5q0 122 94 213.5t246 91.5q167 0 311 -60v-213zM621 -221h-147v147h147v-147zM621 -430h-147v148h147v-148z"/>
    <glyph glyph-name="uniFBE5" unicode="ې" horiz-adv-x="1212" arabic-form="final" d="M1212 0q-157 0 -235 163q-47 151 -95 303q-51 163 -143 163t-92 -88q0 -47 68.5 -137t68.5 -178q0 -125 -78 -183q-83 -61 -266 -61q-200 0 -307 104q-102 100 -102 275q0 65 14 170h133v-10q-16 -66 -16 -158q0 -104 69 -150q65 -43 211 -43q118 0 162.5 22.5t44.5 81.5 q0 46 -68.5 133.5t-68.5 168.5q0 111 58.5 176t168.5 65q144 0 208 -163q43 -151 86 -303q56 -163 179 -163v-188zM511 -221h-147v147h147v-147zM511 -430h-147v148h147v-148z"/>
    <glyph glyph-name="uni06D1.fina" unicode="ۑ" horiz-adv-x="1212" d="M1212 0q-157 0 -235 163q-47 151 -95 303q-51 163 -143 163t-92 -88q0 -47 68.5 -137t68.5 -178q0 -125 -78 -183q-83 -61 -266 -61q-200 0 -307 104q-102 100 -102 275q0 65 14 170h133v-10q-16 -66 -16 -158q0 -104 69 -150q65 -43 211 -43q118 0 162.5 22.5t44.5 81.5 q0 46 -68.5 133.5t-68.5 168.5q0 111 58.5 176t168.5 65q144 0 208 -163q43 -151 86 -303q56 -163 179 -163v-188zM688 -221h-147v147h147v-147zM393 -221h-147v147h147v-147zM541 -430h-148v147h148v-147z"/>
    <glyph glyph-name="uni06FA.init" unicode="ۺ" horiz-adv-x="1239" d="M1157 188q0 -188 -182 -188h-82q-146 0 -199 72q-52 -72 -198 -72t-199 72q-55 -72 -215 -72h-82q-49 0 -86 51t-37 137h205q149 0 149 134v100h131v-100q0 -134 134 -134q133 0 133 134v100h131v-100q0 -134 133 -134t133 80v367h131v-447zM767 -293h-148v147h148v-147z M707 926h-148v147h148v-147zM854 717h-147v147h147v-147zM559 717h-147v147h147v-147z"/>
    <glyph glyph-name="uni06FB.init" unicode="ۻ" horiz-adv-x="1731" d="M551 188q233 327 410 477t342 150q149 0 268 -162t119 -352q0 -138 -127.5 -219.5t-345.5 -81.5h-758q-151 0 -230 82q-75 -82 -229 -82q-49 0 -86 51t-37 137h127q160 0 160 191v10h131v-10q0 -191 160 -191h96zM715 188h483q163 0 262 34.5t99 88.5q0 132 -84.5 225 t-174.5 93q-139 0 -277 -104t-308 -337zM1342 958h-148v147h148v-147zM1283 -293h-148v147h148v-147z"/>
    <glyph glyph-name="uni06FC.init" unicode="ۼ" horiz-adv-x="1112" d="M1012 184q-492 -184 -768 -184h-244q-49 0 -86 51t-37 137h406q-90 49 -142.5 142t-52.5 186q0 197 112 309.5t294 112.5q239 0 401 -82v-213h-10q-160 113 -383 113q-137 0 -210 -71t-73 -171q0 -147 99.5 -224t146.5 -77q29 0 197.5 46.5t349.5 113.5v-189zM576 1112 h-148v147h148v-147zM576 400h-148v147h148v-147z"/>
    <glyph glyph-name="uni06FC.medi" unicode="ۼ" horiz-adv-x="803" d="M803 0h-82q-145 0 -320 115q-174 -115 -319 -115h-82q-49 0 -86 51t-37 137h205q104 0 190 33q-211 200 -211 371q0 116 93.5 179t246.5 63q154 0 247 -63t93 -179q0 -171 -211 -371q87 -33 191 -33h82v-188zM401 289q95 68 152 143.5t57 126.5q0 84 -209 84 q-208 0 -208 -84q0 -51 57 -126.5t151 -143.5zM476 1008h-148v147h148v-147zM476 -293h-148v147h148v-147z"/>
    <glyph glyph-name="uni06FC.fina" unicode="ۼ" horiz-adv-x="928" d="M928 0h-21q-193 0 -479 295q-108 -81 -159.5 -145t-51.5 -148q0 -106 95.5 -173t222.5 -67q186 0 362 129h10v-213q-164 -102 -370 -102q-185 0 -318 123t-133 303q0 117 61 199.5t199 181.5q-120 131 -166.5 203t-46.5 153q0 108 97.5 173t242.5 65q147 0 243.5 -64.5 t96.5 -177.5q0 -96 -51.5 -170t-229.5 -196q115 -115 191.5 -148t167.5 -33h37v-188zM451 455q120 81 172.5 133t52.5 104q0 40 -57.5 67t-145.5 27q-85 0 -138.5 -26.5t-53.5 -65.5q0 -36 38.5 -87.5t131.5 -151.5zM547 1151h-148v147h148v-147zM521 -80h-148v147h148v-147 z"/>
    <glyph glyph-name="uni06EE.fina" unicode="ۮ" horiz-adv-x="696" d="M190 956q465 -341 465 -632q0 -148 -94.5 -236t-271.5 -88h-279v188h277q111 0 174 39t63 95q0 183 -344 399v235h10zM363 1100l-127 202l-127 -202h-73l163 270h74l163 -270h-73z"/>
    <glyph glyph-name="uni06EF.fina" unicode="ۯ" horiz-adv-x="993" d="M786 516q104 -164 105 -328h102v-188q-49 0 -86 51q-15 20 -22 41q-32 -231 -221 -360q-227 -156 -582 -156v188q306 0 491 100q187 100 187 290q0 165 -166 350v12h192zM753 690l-127 202l-127 -202h-73l163 270h74l163 -270h-73z"/>
    <glyph glyph-name="uni06FF.isol" unicode="ۿ" horiz-adv-x="922" d="M115 1104h41q248 0 487.5 -270.5t239.5 -528.5q0 -305 -359 -305h-524q-49 0 -86 51t-37 137h244q-66 105 -66 215q0 170 68 269.5t180 99.5q132 0 218.5 -133t86.5 -301q0 -85 -37 -150h31q150 0 150 129q0 183 -173 390.5t-421 207.5h-43v189zM350 168q62 0 94.5 45.5 t32.5 118.5q0 101 -46.5 175.5t-127.5 74.5q-55 0 -86 -55t-31 -138q0 -89 45.5 -155t118.5 -66zM543 1220l-127 202l-127 -202h-73l163 270h74l163 -270h-73z"/>
    <glyph glyph-name="uni06FF.medi" unicode="ۿ" horiz-adv-x="803" d="M803 0h-240q82 -59 82 -172q0 -109 -59.5 -180.5t-151.5 -71.5q-84 0 -166 118.5t-82 305.5h-186q-49 0 -86 51t-37 137h309q0 183 83.5 293.5t172.5 110.5q91 0 147 -65t56 -167q0 -118 -100 -172h258v-188zM311 188h99q44 0 74 40t30 96q0 32 -19 55.5t-51 23.5 q-47 0 -90 -60.5t-43 -154.5zM311 0q0 -97 40.5 -166.5t84.5 -69.5q78 0 78 89q0 58 -30 102.5t-74 44.5h-99zM543 800l-127 202l-127 -202h-73l163 270h74l163 -270h-73z"/>
    <glyph glyph-name="uni06FF.fina" unicode="ۿ" horiz-adv-x="803" d="M803 0h-240q82 -59 82 -172q0 -109 -59.5 -180.5t-151.5 -71.5q-84 0 -166 118.5t-82 305.5h-186q-49 0 -86 51t-37 137h309q0 183 83.5 293.5t172.5 110.5q91 0 147 -65t56 -167q0 -118 -100 -172h258v-188zM311 188h99q44 0 74 40t30 96q0 32 -19 55.5t-51 23.5 q-47 0 -90 -60.5t-43 -154.5zM311 0q0 -97 40.5 -166.5t84.5 -69.5q78 0 78 89q0 58 -30 102.5t-74 44.5h-99zM543 800l-127 202l-127 -202h-73l163 270h74l163 -270h-73z"/>
    <glyph glyph-name="uniFC60" unicode="ﱠ" arabic-form="isolated" d="M457 1546q4 -30 4 -76q0 -71 -37 -112t-98 -41q-64 0 -88 43q-29 -80 -113 -80q-125 0 -125 125q0 29 4 78h70q-4 -34 -4 -74q0 -59 55 -59q70 0 70 114v52h69v-43q0 -87 62 -87q65 0 65 84q0 54 -6 76h72zM446 1614l-430 -74v74l430 74v-74z"/>
    <glyph glyph-name="uniFC61" unicode="ﱡ" arabic-form="isolated" d="M457 1546q4 -30 4 -76q0 -71 -37 -112t-98 -41q-64 0 -88 43q-29 -80 -113 -80q-125 0 -125 125q0 29 4 78h70q-4 -34 -4 -74q0 -59 55 -59q70 0 70 114v52h69v-43q0 -87 62 -87q65 0 65 84q0 54 -6 76h72zM418 1602l-94 22q-128 -77 -277 -86v70q100 2 201 45 q-94 37 -94 114q0 55 34.5 88t92.5 33q54 0 91.5 -34.5t37.5 -88.5q0 -43 -39 -88l47 -10v-65zM307 1692q33 33 33 73q0 22 -17.5 38t-39.5 16q-60 0 -60 -54q0 -51 84 -73z"/>
    <glyph glyph-name="uniFC62" unicode="ﱢ" arabic-form="isolated" d="M457 1686q4 -30 4 -76q0 -72 -37 -113t-98 -41q-64 0 -88 43q-29 -80 -113 -80q-125 0 -125 125q0 29 4 78h70q-4 -33 -4 -74q0 -59 55 -59q70 0 70 115v51h69v-43q0 -86 62 -86q65 0 65 84q0 53 -6 76h72zM446 1354l-430 -74v74l430 73v-73z"/>
    <glyph glyph-name="uniFC5E" unicode="ﱞ" arabic-form="isolated" d="M459 1600l-97 24q-113 -71 -299 -90l15 188q1 12 -5 18.5t-18 6.5l-55 -2v70l82 2q23 1 40.5 -15t16.5 -39l-10 -157q86 11 162 45q-96 30 -96 116q0 121 129 121q55 0 91 -33t36 -88q0 -49 -41 -94l49 -6v-67zM461 1470q0 -67 -34 -108q-36 -45 -101 -45q-64 0 -88 43 q-29 -80 -113 -80q-125 0 -125 125q0 29 4 78h70q-4 -34 -4 -74q0 -59 55 -59q70 0 70 114v52h69v-43q0 -87 62 -87q65 0 65 84q0 54 -6 76h72q4 -30 4 -76zM381 1765q0 54 -55 54q-62 0 -62 -54q0 -53 84 -73q33 33 33 73z"/>
    <glyph glyph-name="uniFC5F" unicode="ﱟ" arabic-form="isolated" d="M497 1836q4 -30 4 -76q0 -72 -37 -113t-98 -41q-64 0 -88 43q-29 -80 -113 -80q-125 0 -125 125q0 29 4 78h70q-4 -33 -4 -74q0 -59 55 -59q70 0 70 115v51h69v-43q0 -86 62 -86q65 0 65 84q0 53 -6 76h72zM486 1504l-430 -74v74l430 73v-73zM486 1354l-430 -74v74 l430 74v-74z"/>
    <glyph glyph-name="uniFEAE" unicode="ر" horiz-adv-x="993" arabic-form="final" d="M786 516q104 -164 105 -328h102v-188q-49 0 -86 51q-15 20 -22 41q-32 -231 -221 -360q-227 -156 -582 -156v188q306 0 491 100q187 100 187 290q0 165 -166 350v12h192z"/>
    <glyph glyph-name="uniFEB0" unicode="ز" horiz-adv-x="993" arabic-form="final" d="M786 516q104 -164 105 -328h102v-188q-49 0 -86 51q-15 20 -22 41q-32 -231 -221 -360q-227 -156 -582 -156v188q306 0 491 100q187 100 187 290q0 165 -166 350v12h192zM742 690h-148v147h148v-147z"/>
    <glyph glyph-name="uniFB8B" unicode="ژ" horiz-adv-x="993" arabic-form="final" d="M786 516q104 -164 105 -328h102v-188q-49 0 -86 51q-15 20 -22 41q-32 -231 -221 -360q-227 -156 -582 -156v188q306 0 491 100q187 100 187 290q0 165 -166 350v12h192zM741 899h-148v147h148v-147zM888 690h-147v147h147v-147zM593 690h-147v147h147v-147z"/>
    <glyph glyph-name="uniFB8D" unicode="ڑ" horiz-adv-x="993" arabic-form="final" d="M786 516q104 -164 105 -328h102v-188q-49 0 -86 51q-15 20 -22 41q-32 -231 -221 -360q-227 -156 -582 -156v188q306 0 491 100q187 100 187 290q0 165 -166 350v12h192zM777 808q0 -108 -160 -108h-227v67h66v413h57v-328q59 141 140 141q57 0 93 -67q31 -56 31 -118z M722 812q0 35 -15 69q-20 45 -55 45q-59 0 -139 -159h97q112 0 112 45z"/>
    <glyph glyph-name="uni06D5.fina" unicode="ە" horiz-adv-x="782" d="M782 0q-119 0 -178 79.5t-59 313.5q-34 -55 -99 -92t-129 -37q-108 0 -176.5 77.5t-68.5 211.5q0 148 126.5 275.5t346.5 168.5v72h131v-676q0 -111 25 -158t81 -47v-188zM545 569v293q-162 -33 -252 -118t-90 -189q0 -57 32.5 -88t81.5 -31q144 0 228 133z"/>
    <glyph glyph-name=".notdef" horiz-adv-x="1322" d="M166 0v1398h990v-1398h-990zM314 148h694v1102h-694v-1102z"/>
    <glyph glyph-name="null" unicode=""/>
    <glyph glyph-name="nonmarkingreturn" horiz-adv-x="199"/>
    <glyph glyph-name="space" unicode=" " horiz-adv-x="561"/>
    <glyph glyph-name="exclam" unicode="!" horiz-adv-x="582" d="M375 1434l-19 -1030h-135l-18 1030h172zM291 -18q-46 0 -78.5 32t-32.5 78t32.5 78.5t78.5 32.5q45 0 78 -32.5t33 -78.5t-33 -78t-78 -32z"/>
    <glyph glyph-name="quotedbl" unicode="&quot;" horiz-adv-x="803" d="M323 1434l-30 -447h-115l-30 447h175zM655 1434l-30 -447h-115l-30 447h175z"/>
    <glyph glyph-name="numbersign" unicode="#" horiz-adv-x="1210" d="M1166 1032l-23 -106h-261l-63 -300h281l-27 -106h-275l-88 -397h-126l86 397h-250l-84 -397h-125l84 397h-262l20 106h265l61 300h-277l21 106h277l84 402h126l-84 -402h252l86 402h123l-84 -402h263zM758 926h-252l-66 -300h254z"/>
    <glyph glyph-name="dollar" unicode="$" horiz-adv-x="1104" d="M616 8v-217h-104v209q-213 0 -346 86v174q58 -51 158.5 -85.5t187.5 -34.5v512q-220 106 -285 195.5t-65 211.5q0 145 99 250.5t251 126.5v180h104v-176q196 -6 271 -56v-170q-102 80 -271 86v-528q208 -99 284.5 -191.5t76.5 -210.5q0 -142 -95.5 -238.5t-265.5 -123.5z M512 828v466q-84 -17 -133 -74.5t-49 -139.5q0 -86 40 -141t142 -111zM616 600v-452q193 42 193 208q0 138 -193 244z"/>
    <glyph glyph-name="percent" unicode="%" horiz-adv-x="1676" d="M404 715q-148 0 -236 97.5t-88 260.5q0 178 93 280.5t251 102.5q153 0 237.5 -95t84.5 -267t-94.5 -275.5t-247.5 -103.5zM418 1346q-95 0 -150 -70.5t-55 -193.5q0 -121 54 -188.5t147 -67.5q94 0 147 70t53 194q0 121 -52.5 188.5t-143.5 67.5zM1364 1434l-920 -1444 h-143l919 1444h144zM1258 -22q-148 0 -236 98t-88 260q0 178 94 281.5t250 103.5q152 0 237 -96t85 -269q0 -171 -94.5 -274.5t-247.5 -103.5zM1272 608q-96 0 -150.5 -70t-54.5 -194q0 -119 54 -186.5t147 -67.5q94 0 147 70.5t53 193.5q0 122 -52.5 188t-143.5 66z"/>
    <glyph glyph-name="ampersand" unicode="&amp;" horiz-adv-x="1639" d="M1445 -23q-57 0 -100.5 15.5t-80.5 44t-71.5 69.5t-72.5 93q-40 -43 -92.5 -83t-116.5 -71t-140 -49.5t-165 -18.5q-108 0 -198 27t-154 79.5t-99.5 129.5t-35.5 177q0 153 87 261.5t246 177.5q-30 22 -60 51.5t-53.5 67t-38 83t-14.5 99.5q0 79 28.5 140t78.5 103 t118 63.5t147 21.5q78 0 142.5 -21.5t111 -61.5t72.5 -96t26 -125q0 -120 -68.5 -199.5t-205.5 -135.5q69 -27 125 -66t103.5 -87t88.5 -103t81 -114q81 113 122 249t41 285q0 38 -4.5 71.5t-12.5 66.5h159q8 -33 9.5 -62.5t3.5 -70.5q0 -91 -19 -183t-51 -178.5 t-74.5 -164.5t-89.5 -143q35 -48 64 -83.5t58.5 -59.5t61 -35.5t71.5 -11.5q30 0 61 8t64 20v-152q-36 -14 -75.5 -21t-77.5 -7zM606 119q76 0 140 16.5t118 44t98 64t80 76.5q-61 95 -112.5 162.5t-104 116.5t-112 84t-137.5 65q-63 -25 -116 -55.5t-91.5 -72t-60.5 -96.5 t-22 -129q0 -68 25 -120t68.5 -86.5t101.5 -52t125 -17.5zM856 1140q0 50 -18.5 85t-47 58t-63.5 33.5t-69 10.5q-98 0 -156.5 -53t-59.5 -144q0 -41 12.5 -77t35 -67t52.5 -55t64 -41q126 44 188 102.5t62 147.5z"/>
    <glyph glyph-name="quotesingle" unicode="'" horiz-adv-x="471" d="M323 1434l-30 -447h-115l-30 447h175z"/>
    <glyph glyph-name="parenleft" unicode="(" horiz-adv-x="618" d="M596 -326h-146q-310 354 -310 873q0 521 310 887h148q-314 -380 -314 -885q0 -501 312 -875z"/>
    <glyph glyph-name="parenleft" unicode="﴾" horiz-adv-x="618" d="M596 -326h-146q-310 354 -310 873q0 521 310 887h148q-314 -380 -314 -885q0 -501 312 -875z"/>
    <glyph glyph-name="parenright" unicode=")" horiz-adv-x="618" d="M170 -326h-146q312 374 312 875q0 505 -314 885h148q312 -366 312 -887q0 -519 -312 -873z"/>
    <glyph glyph-name="parenright" unicode="﴿" horiz-adv-x="618" d="M170 -326h-146q312 374 312 875q0 505 -314 885h148q312 -366 312 -887q0 -519 -312 -873z"/>
    <glyph glyph-name="asterisk" unicode="*" horiz-adv-x="854" d="M780 1104l-274 -56l190 -243l-110 -76l-156 265l-158 -265l-110 76l190 243l-276 56l45 125l262 -99l-23 304h138l-23 -304l263 99z"/>
    <glyph glyph-name="plus" unicode="+" horiz-adv-x="1401" d="M1172 530h-404v-403h-133v403h-403v134h403v403h133v-403h404v-134z"/>
    <glyph glyph-name="comma" unicode="," horiz-adv-x="444" d="M316 228l-160 -492h-117l117 492h160z"/>
    <glyph glyph-name="hyphen" unicode="-" horiz-adv-x="819" d="M690 506h-546v129h546v-129z"/>
    <glyph glyph-name="hyphen" unicode="‐" horiz-adv-x="819" d="M690 506h-546v129h546v-129z"/>
    <glyph glyph-name="period" unicode="." horiz-adv-x="444" d="M223 -22q-46 0 -78.5 33t-32.5 79t32.5 79.5t78.5 33.5q47 0 80 -33.5t33 -79.5t-33 -79t-80 -33z"/>
    <glyph glyph-name="slash" unicode="/" horiz-adv-x="798" d="M813 1434l-688 -1672h-153l686 1672h155z"/>
    <glyph glyph-name="zero" unicode="0" horiz-adv-x="1104" d="M538 -24q-213 0 -332.5 183t-119.5 529q0 380 124.5 575t359.5 195q450 0 450 -735q0 -364 -127 -555.5t-355 -191.5zM561 1319q-307 0 -307 -623q0 -582 301 -582q297 0 297 592q0 613 -291 613z"/>
    <glyph glyph-name="one" unicode="1" horiz-adv-x="1104" d="M987 0h-811v144h324v1114l-332 -99v156l496 151v-1322h323v-144z"/>
    <glyph glyph-name="two" unicode="2" horiz-adv-x="1104" d="M960 0h-864v146l418 419q160 160 228.5 266.5t68.5 227.5q0 124 -71 192t-202 68q-192 0 -368 -164v172q168 131 391 131q192 0 302 -104t110 -279q0 -138 -76 -269.5t-273 -326.5l-331 -327v-4h667v-148z"/>
    <glyph glyph-name="three" unicode="3" horiz-adv-x="1104" d="M131 53v177q147 -116 332 -116q150 0 239.5 75t89.5 202q0 281 -399 281h-119v139h113q355 0 355 264q0 244 -271 244q-151 0 -285 -103v160q138 82 326 82q181 0 289.5 -96t108.5 -246q0 -283 -288 -364v-4q155 -15 246.5 -108.5t91.5 -233.5q0 -193 -138.5 -311.5 t-365.5 -118.5q-204 0 -325 77z"/>
    <glyph glyph-name="four" unicode="4" horiz-adv-x="1104" d="M1034 381h-184v-381h-162v381h-674v107l638 946h198v-920h184v-133zM688 514v620q0 66 4 148h-4q-14 -36 -55 -110l-441 -658h496z"/>
    <glyph glyph-name="five" unicode="5" horiz-adv-x="1104" d="M164 35v174q147 -95 299 -95t245 86t93 228q0 141 -95 220t-272 79q-60 0 -225 -12v719h694v-148h-539v-420q66 4 122 4q230 0 356 -115.5t126 -316.5q0 -208 -135.5 -335t-371.5 -127q-199 0 -297 59z"/>
    <glyph glyph-name="six" unicode="6" horiz-adv-x="1104" d="M934 1417v-155q-111 57 -234 57q-191 0 -305.5 -170t-114.5 -455h4q100 203 328 203q188 0 299 -120.5t111 -322.5q0 -211 -127 -344.5t-323 -133.5q-216 0 -339 172t-123 483q0 377 161 602t425 225q150 0 238 -41zM576 758q-127 0 -206 -86t-79 -203q0 -147 78.5 -251 t208.5 -104q124 0 200 90.5t76 229.5q0 152 -73 238t-205 86z"/>
    <glyph glyph-name="seven" unicode="7" horiz-adv-x="1104" d="M1010 1382l-568 -1382h-170l537 1286h-723v148h924v-52z"/>
    <glyph glyph-name="eight" unicode="8" horiz-adv-x="1104" d="M410 752v4q-258 120 -258 348q0 155 118 254.5t304 99.5q168 0 276 -93t108 -239q0 -238 -266 -370v-4q314 -112 314 -388q0 -178 -128 -283t-356 -105q-184 0 -303 104t-119 270q0 276 310 402zM790 1106q0 99 -62 156t-169 57q-100 0 -169.5 -59.5t-69.5 -151.5 q0 -187 233 -282q237 98 237 280zM542 674q-274 -109 -274 -316q0 -107 79.5 -175.5t209.5 -68.5q124 0 202.5 67.5t78.5 170.5q0 216 -296 322z"/>
    <glyph glyph-name="nine" unicode="9" horiz-adv-x="1104" d="M172 24v158q120 -68 254 -68q195 0 303.5 157t108.5 446q-2 -1 -4 0q-92 -185 -320 -185q-184 0 -302 125t-118 322q0 210 129.5 344.5t331.5 134.5q212 0 330.5 -167.5t118.5 -487.5q0 -397 -154 -612t-428 -215q-144 0 -250 48zM540 1319q-119 0 -198.5 -89.5 t-79.5 -227.5q0 -151 78 -237.5t211 -86.5q116 0 196.5 79t80.5 193q0 163 -80 266t-208 103z"/>
    <glyph glyph-name="colon" unicode=":" horiz-adv-x="444" d="M223 824q-46 0 -78.5 33t-32.5 79t32.5 78t78.5 32q47 0 80 -32t33 -78t-33 -79t-80 -33zM223 -22q-46 0 -78.5 33t-32.5 79t32.5 79.5t78.5 33.5q47 0 80 -33.5t33 -79.5t-33 -79t-80 -33z"/>
    <glyph glyph-name="semicolon" unicode=";" horiz-adv-x="444" d="M226 824q-47 0 -79.5 33t-32.5 79t32.5 78t79.5 32q46 0 79 -32t33 -78t-33 -79t-79 -33zM316 228l-160 -492h-117l117 492h160z"/>
    <glyph glyph-name="less" unicode="&lt;" horiz-adv-x="1401" d="M1132 127l-860 432v59l860 482v-150l-642 -356v-4l642 -314v-149z"/>
    <glyph glyph-name="equal" unicode="=" horiz-adv-x="1401" d="M1172 744h-940v132h940v-132zM1172 318h-940v132h940v-132z"/>
    <glyph glyph-name="greater" unicode="&gt;" horiz-adv-x="1401" d="M1132 559l-860 -432v149l644 312v6l-644 356v150l860 -482v-59z"/>
    <glyph glyph-name="question" unicode="?" horiz-adv-x="918" d="M335 398q-9 26 -16 67.5t-7 82.5q0 64 25.5 115.5t63.5 96.5t83 86.5t83 84t63.5 89t25.5 102.5q0 48 -18.5 85t-50.5 62t-74 37.5t-89 12.5q-169 0 -293 -133v176q153 96 317 96q76 0 143 -20t117.5 -59.5t79.5 -98.5t29 -137q0 -74 -26 -132t-65.5 -106.5t-85.5 -90.5 t-85.5 -83.5t-65.5 -86.5t-26 -99q0 -46 11 -83.5t22 -63.5h-161zM425 -18q-44 0 -78 32q-33 32 -33 78q0 47 33 78q33 33 78 33t78 -33q33 -31 33 -78q0 -46 -33 -78q-34 -32 -78 -32z"/>
    <glyph glyph-name="at" unicode="@" horiz-adv-x="1956" d="M1164 420h-5q-73 -238 -287 -238q-137 0 -220.5 101t-83.5 272q0 226 115.5 375.5t303.5 149.5q72 0 128.5 -37t72.5 -93h4q2 28 10 115h125q-47 -551 -47 -561q0 -207 119 -207q108 0 179.5 117t71.5 303q0 275 -174 449t-482 174q-297 0 -491 -208t-194 -520 q0 -307 184.5 -495.5t497.5 -188.5q247 0 422 82v-124q-173 -74 -432 -74q-364 0 -586.5 219.5t-222.5 574.5q0 366 233.5 607t596.5 241q340 0 563 -202t223 -527q0 -238 -117.5 -390.5t-286.5 -152.5q-219 0 -220 238zM985 964q-124 0 -200.5 -118t-76.5 -293 q0 -118 51.5 -186t137.5 -68q124 0 196.5 123.5t72.5 327.5q0 214 -181 214z"/>
    <glyph glyph-name="A" unicode="A" horiz-adv-x="1321" d="M1298 0h-186l-152 402h-608l-143 -402h-187l550 1434h174zM905 553l-225 611q-11 30 -22 96h-4q-10 -61 -23 -96l-223 -611h497z"/>
    <glyph glyph-name="B" unicode="B" horiz-adv-x="1174" d="M188 0v1434h408q186 0 295 -91t109 -237q0 -122 -66 -212t-182 -128v-4q145 -17 232 -109.5t87 -240.5q0 -184 -132 -298t-333 -114h-418zM356 1282v-463h172q138 0 217 66.5t79 187.5q0 209 -275 209h-193zM356 668v-516h228q148 0 229.5 70t81.5 192q0 254 -346 254 h-193z"/>
    <glyph glyph-name="C" unicode="C" horiz-adv-x="1268" d="M1164 60q-159 -84 -396 -84q-306 0 -490 197t-184 517q0 344 207 556t525 212q204 0 338 -59v-179q-154 86 -340 86q-247 0 -400.5 -165t-153.5 -441q0 -262 143.5 -417.5t376.5 -155.5q216 0 374 96v-163z"/>
    <glyph glyph-name="D" unicode="D" horiz-adv-x="1436" d="M188 0v1434h396q758 0 758 -699q0 -332 -210.5 -533.5t-563.5 -201.5h-380zM356 1282v-1130h214q282 0 439 151t157 428q0 551 -586 551h-224z"/>
    <glyph glyph-name="E" unicode="E" horiz-adv-x="1036" d="M948 0h-760v1434h728v-152h-560v-477h518v-151h-518v-502h592v-152z"/>
    <glyph glyph-name="F" unicode="F" horiz-adv-x="1000" d="M916 1282h-560v-496h518v-151h-518v-635h-168v1434h728v-152z"/>
    <glyph glyph-name="G" unicode="G" horiz-adv-x="1405" d="M1260 98q-216 -122 -480 -122q-307 0 -496.5 198t-189.5 524q0 333 210.5 546.5t533.5 213.5q234 0 393 -76v-186q-174 110 -412 110q-241 0 -395 -166t-154 -430q0 -272 143 -427.5t388 -155.5q168 0 291 67v402h-314v152h482v-650z"/>
    <glyph glyph-name="H" unicode="H" horiz-adv-x="1454" d="M1266 0h-168v654h-742v-654h-168v1434h168v-629h742v629h168v-1434z"/>
    <glyph glyph-name="I" unicode="I" horiz-adv-x="545" d="M496 1434v-144h-140v-1146h140v-144h-448v144h140v1146h-140v144h448z"/>
    <glyph glyph-name="J" unicode="J" horiz-adv-x="731" d="M555 514q0 -255 -108 -396.5t-289 -141.5q-84 0 -138 24v166q54 -39 140 -39q227 0 227 385v922h168v-920z"/>
    <glyph glyph-name="K" unicode="K" horiz-adv-x="1188" d="M1186 0h-234l-554 656q-31 37 -38 50h-4v-706h-168v1434h168v-674h4q14 22 38 49l536 625h209l-615 -688z"/>
    <glyph glyph-name="L" unicode="L" horiz-adv-x="964" d="M932 0h-744v1434h168v-1282h576v-152z"/>
    <glyph glyph-name="M" unicode="M" horiz-adv-x="1839" d="M1650 0h-167v962q0 114 14 279h-4q-24 -97 -43 -139l-490 -1102h-82l-489 1094q-21 48 -43 147h-4q8 -86 8 -281v-960h-162v1434h222l440 -1000q51 -115 66 -172h6q43 118 69 176l449 996h210v-1434z"/>
    <glyph glyph-name="N" unicode="N" horiz-adv-x="1532" d="M1344 0h-206l-738 1143q-28 43 -46 90h-6q8 -46 8 -197v-1036h-168v1434h218l718 -1125q45 -70 58 -96h4q-10 62 -10 211v1010h168v-1434z"/>
    <glyph glyph-name="O" unicode="O" horiz-adv-x="1544" d="M766 -24q-305 0 -488.5 201t-183.5 523q0 346 187 552t509 206q297 0 478.5 -200t181.5 -523q0 -351 -186 -555t-498 -204zM778 1306q-226 0 -367 -163t-141 -428t137.5 -426.5t358.5 -161.5q236 0 372 154t136 431q0 284 -132 439t-364 155z"/>
    <glyph glyph-name="P" unicode="P" horiz-adv-x="1147" d="M356 542v-542h-168v1434h394q230 0 356.5 -112t126.5 -316t-140.5 -334t-379.5 -130h-189zM356 1282v-588h176q174 0 265.5 79.5t91.5 224.5q0 284 -336 284h-197z"/>
    <glyph glyph-name="Q" unicode="Q" horiz-adv-x="1544" d="M756 -24q-64 0 -130 12.5t-128 38t-118.5 63t-102.5 87.5q-183 200 -183 523q0 347 186 552q188 206 514 206q292 0 474 -200t182 -523q0 -136 -30.5 -256.5t-92.5 -217.5t-156 -164.5t-222 -96.5q52 -56 97.5 -99t91 -72.5t94.5 -44.5t108 -15q16 0 35 1.5t38.5 5 t37.5 8t33 10.5v-162q-16 -5 -36 -8.5t-40.5 -6t-40.5 -4t-37 -1.5q-96 0 -172.5 28.5t-143 78t-128.5 115.5t-130 142zM778 1306q-226 0 -367 -163t-141 -428q0 -264 137 -427q138 -161 359 -161q236 0 372 154t136 431q0 285 -132 439q-132 155 -364 155z"/>
    <glyph glyph-name="R" unicode="R" horiz-adv-x="1225" d="M1216 0h-200l-240 402q-33 56 -64 95.5t-63.5 64.5t-70 36.5t-84.5 11.5h-138v-610h-168v1434h428q94 0 173.5 -23.5t138 -71.5t91.5 -119.5t33 -167.5q0 -75 -22.5 -137.5t-64 -111.5t-100 -83.5t-131.5 -53.5v-4q36 -16 62.5 -36.5t50.5 -48.5t47.5 -63.5t52.5 -82.5z M356 1282v-520h228q63 0 116.5 19t92.5 54.5t61 87t22 115.5q0 115 -74.5 179.5t-215.5 64.5h-230z"/>
    <glyph glyph-name="S" unicode="S" horiz-adv-x="1088" d="M121 58v198q34 -30 81.5 -54t100 -40.5t105.5 -25.5t98 -9q155 0 231.5 57.5t76.5 165.5q0 58 -25.5 101t-70.5 78.5t-106.5 68t-132.5 68.5q-75 38 -140 77t-113 86t-75.5 106.5t-27.5 139.5q0 98 43 170.5t113 119.5t159.5 70t182.5 23q212 0 309 -51v-189 q-127 88 -326 88q-55 0 -110 -11.5t-98 -37.5t-70 -67t-27 -100q0 -55 20.5 -95t60.5 -73t97.5 -64t132.5 -68q77 -38 146 -80t121 -93t82.5 -113t30.5 -142q0 -106 -41.5 -179.5t-112 -119.5t-162.5 -66.5t-194 -20.5q-34 0 -84 5.5t-102 16t-98.5 26t-74.5 34.5z"/>
    <glyph glyph-name="T" unicode="T" horiz-adv-x="1073" d="M1036 1282h-414v-1282h-168v1282h-413v152h995v-152z"/>
    <glyph glyph-name="U" unicode="U" horiz-adv-x="1407" d="M1237 580q0 -604 -545 -604q-522 0 -522 581v877h168v-866q0 -441 372 -441q359 0 359 426v881h168v-854z"/>
    <glyph glyph-name="V" unicode="V" horiz-adv-x="1272" d="M1254 1434l-531 -1434h-185l-520 1434h187l397 -1137q19 -55 29 -127h4q8 60 33 129l405 1135h181z"/>
    <glyph glyph-name="W" unicode="W" horiz-adv-x="1913" d="M1888 1434l-405 -1434h-197l-295 1048q-19 67 -23 146h-4q-6 -74 -26 -144l-297 -1050h-195l-420 1434h185l305 -1100q19 -69 24 -144h5q5 53 31 144l317 1100h161l304 -1108q16 -57 24 -134h4q4 52 27 138l293 1104h182z"/>
    <glyph glyph-name="X" unicode="X" horiz-adv-x="1208" d="M1178 0h-205l-330 549q-15 25 -33 71h-4q-10 -23 -34 -71l-340 -549h-206l480 721l-442 713h206l293 -504q29 -50 51 -100h4q32 66 56 104l305 500h193l-451 -711z"/>
    <glyph glyph-name="Y" unicode="Y" horiz-adv-x="1132" d="M1120 1434l-473 -904v-530h-168v526l-461 908h191l321 -648q6 -12 35 -88h3q10 34 38 88l336 648h178z"/>
    <glyph glyph-name="Z" unicode="Z" horiz-adv-x="1168" d="M1124 1394l-840 -1242h820v-152h-1071v47l833 1235h-766v152h1024v-40z"/>
    <glyph glyph-name="bracketleft" unicode="[" horiz-adv-x="618" d="M568 -326h-368v1760h368v-119h-222v-1522h222v-119z"/>
    <glyph glyph-name="backslash" unicode="\" horiz-adv-x="776" d="M798 -240h-151l-673 1674h155z"/>
    <glyph glyph-name="bracketright" unicode="]" horiz-adv-x="618" d="M420 -326h-367v119h221v1522h-221v119h367v-1760z"/>
    <glyph glyph-name="asciicircum" unicode="^" horiz-adv-x="1401" d="M1174 624h-150l-332 619h-6l-309 -619h-147l422 834h65z"/>
    <glyph glyph-name="underscore" unicode="_" horiz-adv-x="850" d="M850 -297h-850v119h850v-119z"/>
    <glyph glyph-name="grave" unicode="`" horiz-adv-x="549" d="M471 1218h-127l-262 328h168z"/>
    <glyph glyph-name="a" unicode="a" horiz-adv-x="1042" d="M899 0h-164v160h-4q-107 -184 -315 -184q-153 0 -239.5 81t-86.5 215q0 287 338 334l307 43q0 261 -211 261q-185 0 -334 -126v168q151 96 348 96q361 0 361 -382v-666zM735 518l-247 -34q-114 -16 -172 -56.5t-58 -143.5q0 -75 53.5 -122.5t142.5 -47.5 q122 0 201.5 85.5t79.5 216.5v102z"/>
    <glyph glyph-name="b" unicode="b" horiz-adv-x="1204" d="M334 148h-4v-148h-164v1516h164v-672h4q121 204 354 204q197 0 308.5 -137.5t111.5 -368.5q0 -257 -125 -411.5t-342 -154.5q-203 0 -307 172zM330 561v-143q0 -127 82.5 -215.5t209.5 -88.5q149 0 233.5 114t84.5 317q0 171 -79 268t-214 97q-143 0 -230 -99.5 t-87 -249.5z"/>
    <glyph glyph-name="c" unicode="c" horiz-adv-x="946" d="M864 47q-118 -71 -280 -71q-219 0 -353.5 142.5t-134.5 369.5q0 253 145 406.5t387 153.5q135 0 238 -50v-168q-114 80 -244 80q-157 0 -257.5 -112.5t-100.5 -295.5q0 -180 94.5 -284t253.5 -104q134 0 252 89v-156z"/>
    <glyph glyph-name="d" unicode="d" horiz-adv-x="1206" d="M1040 0h-164v174h-4q-114 -198 -352 -198q-193 0 -308.5 137.5t-115.5 374.5q0 254 128 407t341 153q211 0 307 -166h4v634h164v-1516zM876 463v151q0 124 -82 210t-208 86q-150 0 -236 -110t-86 -304q0 -177 82.5 -279.5t221.5 -102.5q137 0 222.5 99t85.5 250z"/>
    <glyph glyph-name="e" unicode="e" horiz-adv-x="1071" d="M989 471h-723q4 -171 92 -264t242 -93q173 0 318 114v-154q-135 -98 -357 -98q-217 0 -341 139.5t-124 392.5q0 239 135.5 389.5t336.5 150.5t311 -130t110 -361v-86zM821 610q-1 142 -68.5 221t-187.5 79q-116 0 -197 -83t-100 -217h553z"/>
    <glyph glyph-name="f" unicode="f" horiz-adv-x="641" d="M672 1372q-48 27 -109 27q-172 0 -172 -217v-158h240v-140h-240v-884h-163v884h-175v140h175v166q0 161 93 254.5t232 93.5q75 0 119 -18v-148z"/>
    <glyph glyph-name="g" unicode="g" horiz-adv-x="1206" d="M1040 82q0 -564 -540 -564q-190 0 -332 72v164q173 -96 330 -96q378 0 378 402v112h-4q-117 -196 -352 -196q-191 0 -307.5 136.5t-116.5 366.5q0 261 125.5 415t343.5 154q207 0 307 -166h4v142h164v-942zM876 463v151q0 122 -82.5 209t-205.5 87q-152 0 -238 -110.5 t-86 -309.5q0 -171 82.5 -273.5t218.5 -102.5q138 0 224.5 98t86.5 251z"/>
    <glyph glyph-name="h" unicode="h" horiz-adv-x="1159" d="M1016 0h-164v590q0 320 -238 320q-120 0 -202 -92.5t-82 -237.5v-580h-164v1516h164v-662h4q118 194 336 194q346 0 346 -417v-631z"/>
    <glyph glyph-name="i" unicode="i" horiz-adv-x="496" d="M250 1284q-44 0 -75 30t-31 76t31 76.5t75 30.5q45 0 76.5 -30.5t31.5 -76.5q0 -44 -31.5 -75t-76.5 -31zM330 0h-164v1024h164v-1024z"/>
    <glyph glyph-name="j" unicode="j" horiz-adv-x="496" d="M330 43q0 -252 -101.5 -388.5t-290.5 -136.5q-70 0 -136 32v153q74 -45 140 -45q224 0 224 358v1008h164v-981zM250 1284q-44 0 -75 30t-31 76t31 76.5t75 30.5q45 0 76.5 -30.5t31.5 -76.5q0 -44 -31.5 -75t-76.5 -31z"/>
    <glyph glyph-name="k" unicode="k" horiz-adv-x="1018" d="M1016 0h-230l-452 492h-4v-492h-164v1516h164v-961h4l430 469h215l-475 -494z"/>
    <glyph glyph-name="l" unicode="l" horiz-adv-x="496" d="M330 0h-164v1516h164v-1516z"/>
    <glyph glyph-name="m" unicode="m" horiz-adv-x="1764" d="M1620 0h-164v588q0 170 -52.5 246t-176.5 76q-105 0 -178.5 -96t-73.5 -230v-584h-164v608q0 302 -233 302q-108 0 -178 -90.5t-70 -235.5v-584h-164v1024h164v-162h4q109 186 318 186q105 0 183 -58.5t107 -153.5q114 212 340 212q338 0 338 -417v-631z"/>
    <glyph glyph-name="n" unicode="n" horiz-adv-x="1159" d="M1016 0h-164v584q0 326 -238 326q-123 0 -203.5 -92.5t-80.5 -233.5v-584h-164v1024h164v-170h4q116 194 336 194q168 0 257 -108.5t89 -313.5v-626z"/>
    <glyph glyph-name="o" unicode="o" horiz-adv-x="1200" d="M594 -24q-227 0 -362.5 143.5t-135.5 380.5q0 258 141 403t381 145q229 0 357.5 -141t128.5 -391q0 -245 -138.5 -392.5t-371.5 -147.5zM606 910q-158 0 -250 -107.5t-92 -296.5q0 -182 93 -287t249 -105q159 0 244.5 103t85.5 293q0 192 -85.5 296t-244.5 104z"/>
    <glyph glyph-name="p" unicode="p" horiz-adv-x="1204" d="M334 148h-4v-619h-164v1495h164v-180h4q121 204 354 204q198 0 309 -137.5t111 -368.5q0 -257 -125 -411.5t-342 -154.5q-199 0 -307 172zM330 561v-143q0 -127 82.5 -215.5t209.5 -88.5q149 0 233.5 114t84.5 317q0 171 -79 268t-214 97q-143 0 -230 -99.5t-87 -249.5z "/>
    <glyph glyph-name="q" unicode="q" horiz-adv-x="1206" d="M1040 -471h-164v647h-4q-107 -200 -350 -200q-193 0 -309.5 137.5t-116.5 374.5q0 255 128 407.5t344 152.5q210 0 304 -166h4v142h164v-1495zM876 461v149q0 126 -82.5 213t-209.5 87q-148 0 -234 -109.5t-86 -308.5q0 -177 83 -277.5t214 -100.5q144 0 229.5 98.5 t85.5 248.5z"/>
    <glyph glyph-name="r" unicode="r" horiz-adv-x="712" d="M700 858q-43 33 -124 33q-105 0 -175.5 -99t-70.5 -270v-522h-164v1024h164v-211h4q35 108 107 168.5t161 60.5q64 0 98 -14v-170z"/>
    <glyph glyph-name="s" unicode="s" horiz-adv-x="869" d="M104 37v176q134 -99 295 -99q216 0 216 144q0 41 -18.5 69.5t-50 50.5t-74 39.5t-91.5 36.5q-68 27 -119.5 54.5t-86 62t-52 78.5t-17.5 103q0 72 33 127.5t88 93t125.5 56.5t145.5 19q133 0 238 -46v-166q-113 74 -260 74q-46 0 -83 -10.5t-63.5 -29.5t-41 -45.5 t-14.5 -58.5q0 -40 14.5 -67t42.5 -48t68 -38t91 -37q68 -26 122 -53.5t92 -62t58.5 -79.5t20.5 -107q0 -76 -33.5 -132t-89.5 -93t-129 -55t-153 -18q-158 0 -274 61z"/>
    <glyph glyph-name="t" unicode="t" horiz-adv-x="694" d="M641 10q-58 -32 -153 -32q-269 0 -269 300v606h-176v140h176v250l164 53v-303h258v-140h-258v-577q0 -103 35 -147t116 -44q62 0 107 34v-140z"/>
    <glyph glyph-name="u" unicode="u" horiz-adv-x="1159" d="M994 0h-164v162h-4q-102 -186 -316 -186q-366 0 -366 436v612h163v-586q0 -324 248 -324q120 0 197.5 88.5t77.5 231.5v590h164v-1024z"/>
    <glyph glyph-name="v" unicode="v" horiz-adv-x="981" d="M971 1024l-408 -1024h-161l-388 1024h180l260 -744q29 -82 36 -143h4q10 77 32 139l272 748h173z"/>
    <glyph glyph-name="w" unicode="w" horiz-adv-x="1480" d="M1456 1024l-307 -1024h-170l-211 733q-12 42 -16 95h-4q-3 -36 -21 -93l-229 -735h-164l-310 1024h172l212 -770q10 -35 14 -92h8q3 44 18 94l236 768h150l212 -772q10 -37 15 -92h8q2 39 17 92l208 772h162z"/>
    <glyph glyph-name="x" unicode="x" horiz-adv-x="940" d="M914 1024l-344 -518l338 -506h-191l-201 332q-19 31 -45 78h-4q-5 -9 -47 -78l-205 -332h-189l349 502l-334 522h191l198 -350q22 -39 43 -80h4l256 430h181z"/>
    <glyph glyph-name="y" unicode="y" horiz-adv-x="991" d="M981 1024l-471 -1188q-126 -318 -354 -318q-64 0 -107 13v147q53 -18 97 -18q124 0 186 148l82 194l-400 1022h182l277 -788q5 -15 21 -78h6q5 24 20 76l291 790h170z"/>
    <glyph glyph-name="z" unicode="z" horiz-adv-x="926" d="M880 977l-606 -837h600v-140h-841v51l606 833h-549v140h790v-47z"/>
    <glyph glyph-name="braceleft" unicode="{" horiz-adv-x="618" d="M555 -326q-307 4 -307 310v300q0 202 -156 212v116q156 10 156 216v292q0 310 307 314v-128q-159 -4 -159 -198v-293q0 -210 -150 -258v-4q150 -45 150 -256v-289q0 -111 35.5 -158.5t123.5 -49.5v-126z"/>
    <glyph glyph-name="bar" unicode="|" horiz-adv-x="490" d="M320 -482h-148v2048h148v-2048z"/>
    <glyph glyph-name="braceright" unicode="}" horiz-adv-x="618" d="M528 496q-156 -10 -156 -212v-300q0 -306 -306 -310v126q87 2 123.5 50t36.5 158v289q0 211 149 256v4q-149 48 -149 258v293q0 194 -160 198v128q306 -4 306 -314v-292q0 -206 156 -216v-116z"/>
    <glyph glyph-name="asciitilde" unicode="~" horiz-adv-x="1401" d="M1194 750q-7 -148 -80.5 -229t-199.5 -81q-109 0 -265 109q-97 67 -159 67q-140 0 -146 -176h-135q5 143 79.5 226.5t201.5 83.5q106 0 235 -88q132 -90 197 -90q61 0 98 49t39 129h135z"/>
    <glyph glyph-name="Adieresis" unicode="Ä" horiz-adv-x="1321" d="M1298 0h-186l-152 402h-608l-143 -402h-187l550 1434h174zM905 553l-225 611q-11 30 -22 96h-4q-10 -61 -23 -96l-223 -611h497zM840 1565q-40 0 -69 28t-29 71q0 42 28 70t68 28q42 0 71 -28.5t29 -69.5t-28 -70t-70 -29zM456 1565q-42 0 -71.5 29.5t-29.5 69.5 q0 42 28.5 70t69.5 28t71 -28.5t30 -69.5t-29 -70t-69 -29z"/>
    <glyph glyph-name="Aring" unicode="Å" horiz-adv-x="1321" d="M1298 0h-186l-152 402h-608l-143 -402h-187l529 1378q-101 52 -101 164q0 89 60 144t152 55q88 0 144 -54.5t56 -138.5q0 -112 -96 -166zM656 1659q-50 0 -82 -31.5t-32 -79.5q0 -114 114 -114q48 0 81 33t33 81q0 49 -33 80t-81 31zM905 553l-225 611q-11 30 -22 96h-4 q-10 -61 -23 -96l-223 -611h497z"/>
    <glyph glyph-name="Ccedilla" unicode="Ç" horiz-adv-x="1268" d="M1164 60q-159 -84 -396 -84q-306 0 -490 197t-184 517q0 344 207 556t525 212q204 0 338 -59v-179q-154 86 -340 86q-247 0 -400.5 -165t-153.5 -441q0 -262 143.5 -417.5t376.5 -155.5q216 0 374 96v-163zM960 -256q0 -176 -275 -176q-38 0 -65 2v90q43 -6 70 -6 q141 0 141 90q0 78 -129 78q-10 0 -41 -4v182h108v-104q88 0 139.5 -40t51.5 -112z"/>
    <glyph glyph-name="Eacute" unicode="É" horiz-adv-x="1036" d="M948 0h-760v1434h728v-152h-560v-477h518v-151h-518v-502h592v-152zM803 1893l-262 -328h-127l223 328h166z"/>
    <glyph glyph-name="Ntilde" unicode="Ñ" horiz-adv-x="1532" d="M1344 0h-206l-738 1143q-28 43 -46 90h-6q8 -46 8 -197v-1036h-168v1434h218l718 -1125q45 -70 58 -96h4q-10 62 -10 211v1010h168v-1434zM1113 1803q0 -105 -48 -171.5t-130 -66.5q-71 0 -162 52q-77 43 -119 43q-88 0 -88 -113h-94q0 107 48 171.5t134 64.5 q65 0 149 -52q74 -44 128 -44q84 0 84 116h98z"/>
    <glyph glyph-name="Odieresis" unicode="Ö" horiz-adv-x="1544" d="M766 -24q-305 0 -488.5 201t-183.5 523q0 346 187 552t509 206q297 0 478.5 -200t181.5 -523q0 -351 -186 -555t-498 -204zM778 1306q-226 0 -367 -163t-141 -428t137.5 -426.5t358.5 -161.5q236 0 372 154t136 431q0 284 -132 439t-364 155zM968 1563q-40 0 -69 28 t-29 71q0 42 28 70t68 28q42 0 71 -28.5t29 -69.5t-28 -70t-70 -29zM584 1563q-42 0 -71.5 29.5t-29.5 69.5q0 42 28.5 70t69.5 28t71 -28.5t30 -69.5t-29 -70t-69 -29z"/>
    <glyph glyph-name="Udieresis" unicode="Ü" horiz-adv-x="1407" d="M1237 580q0 -604 -545 -604q-522 0 -522 581v877h168v-866q0 -441 372 -441q359 0 359 426v881h168v-854zM895 1567q-40 0 -69 28t-29 71q0 42 28 70t68 28q42 0 71 -28.5t29 -69.5t-28 -70t-70 -29zM511 1567q-42 0 -71.5 29.5t-29.5 69.5q0 42 28.5 70t69.5 28 t71 -28.5t30 -69.5t-29 -70t-69 -29z"/>
    <glyph glyph-name="aacute" unicode="á" horiz-adv-x="1042" d="M899 0h-164v160h-4q-107 -184 -315 -184q-153 0 -239.5 81t-86.5 215q0 287 338 334l307 43q0 261 -211 261q-185 0 -334 -126v168q151 96 348 96q361 0 361 -382v-666zM735 518l-247 -34q-114 -16 -172 -56.5t-58 -143.5q0 -75 53.5 -122.5t142.5 -47.5 q122 0 201.5 85.5t79.5 216.5v102zM757 1546l-262 -328h-127l223 328h166z"/>
    <glyph glyph-name="agrave" unicode="à" horiz-adv-x="1042" d="M899 0h-164v160h-4q-107 -184 -315 -184q-153 0 -239.5 81t-86.5 215q0 287 338 334l307 43q0 261 -211 261q-185 0 -334 -126v168q151 96 348 96q361 0 361 -382v-666zM735 518l-247 -34q-114 -16 -172 -56.5t-58 -143.5q0 -75 53.5 -122.5t142.5 -47.5 q122 0 201.5 85.5t79.5 216.5v102zM674 1218h-127l-262 328h168z"/>
    <glyph glyph-name="acircumflex" unicode="â" horiz-adv-x="1042" d="M899 0h-164v160h-4q-107 -184 -315 -184q-153 0 -239.5 81t-86.5 215q0 287 338 334l307 43q0 261 -211 261q-185 0 -334 -126v168q151 96 348 96q361 0 361 -382v-666zM735 518l-247 -34q-114 -16 -172 -56.5t-58 -143.5q0 -75 53.5 -122.5t142.5 -47.5 q122 0 201.5 85.5t79.5 216.5v102zM806 1218h-122l-164 230l-165 -230h-113l215 332h133z"/>
    <glyph glyph-name="adieresis" unicode="ä" horiz-adv-x="1042" d="M899 0h-164v160h-4q-107 -184 -315 -184q-153 0 -239.5 81t-86.5 215q0 287 338 334l307 43q0 261 -211 261q-185 0 -334 -126v168q151 96 348 96q361 0 361 -382v-666zM735 518l-247 -34q-114 -16 -172 -56.5t-58 -143.5q0 -75 53.5 -122.5t142.5 -47.5 q122 0 201.5 85.5t79.5 216.5v102zM708 1218q-40 0 -69 28t-29 71q0 42 28 70t68 28q42 0 71 -28.5t29 -69.5t-28 -70t-70 -29zM324 1218q-42 0 -71.5 29.5t-29.5 69.5q0 42 28.5 70t69.5 28t71 -28.5t30 -69.5t-29 -70t-69 -29z"/>
    <glyph glyph-name="atilde" unicode="ã" horiz-adv-x="1042" d="M899 0h-164v160h-4q-107 -184 -315 -184q-153 0 -239.5 81t-86.5 215q0 287 338 334l307 43q0 261 -211 261q-185 0 -334 -126v168q151 96 348 96q361 0 361 -382v-666zM735 518l-247 -34q-114 -16 -172 -56.5t-58 -143.5q0 -75 53.5 -122.5t142.5 -47.5 q122 0 201.5 85.5t79.5 216.5v102zM844 1458q0 -105 -48 -171.5t-130 -66.5q-71 0 -162 52q-77 43 -119 43q-88 0 -88 -113h-94q0 107 48 171.5t134 64.5q65 0 149 -52q74 -44 128 -44q84 0 84 116h98z"/>
    <glyph glyph-name="aring" unicode="å" horiz-adv-x="1042" d="M899 0h-164v160h-4q-107 -184 -315 -184q-153 0 -239.5 81t-86.5 215q0 287 338 334l307 43q0 261 -211 261q-185 0 -334 -126v168q151 96 348 96q361 0 361 -382v-666zM735 518l-247 -34q-114 -16 -172 -56.5t-58 -143.5q0 -75 53.5 -122.5t142.5 -47.5 q122 0 201.5 85.5t79.5 216.5v102zM517 1176q-87 0 -144.5 52.5t-57.5 137.5q0 90 59 144t150 54q89 0 146 -54t57 -138t-61 -140t-149 -56zM517 1483q-48 0 -80 -32.5t-32 -80.5q0 -112 112 -112q50 0 83 32t33 80q0 49 -33 81t-83 32z"/>
    <glyph glyph-name="ccedilla" unicode="ç" horiz-adv-x="946" d="M864 47q-118 -71 -280 -71q-219 0 -353.5 142.5t-134.5 369.5q0 253 145 406.5t387 153.5q135 0 238 -50v-168q-114 80 -244 80q-157 0 -257.5 -112.5t-100.5 -295.5q0 -180 94.5 -284t253.5 -104q134 0 252 89v-156zM778 -256q0 -176 -275 -176q-38 0 -65 2v90 q43 -6 70 -6q141 0 141 90q0 78 -129 78q-10 0 -41 -4v182h108v-104q88 0 139.5 -40t51.5 -112z"/>
    <glyph glyph-name="eacute" unicode="é" horiz-adv-x="1071" d="M989 471h-723q4 -171 92 -264t242 -93q173 0 318 114v-154q-135 -98 -357 -98q-217 0 -341 139.5t-124 392.5q0 239 135.5 389.5t336.5 150.5t311 -130t110 -361v-86zM821 610q-1 142 -68.5 221t-187.5 79q-116 0 -197 -83t-100 -217h553zM795 1546l-262 -328h-127 l223 328h166z"/>
    <glyph glyph-name="egrave" unicode="è" horiz-adv-x="1071" d="M989 471h-723q4 -171 92 -264t242 -93q173 0 318 114v-154q-135 -98 -357 -98q-217 0 -341 139.5t-124 392.5q0 239 135.5 389.5t336.5 150.5t311 -130t110 -361v-86zM821 610q-1 142 -68.5 221t-187.5 79q-116 0 -197 -83t-100 -217h553zM725 1218h-127l-262 328h168z "/>
    <glyph glyph-name="ecircumflex" unicode="ê" horiz-adv-x="1071" d="M989 471h-723q4 -171 92 -264t242 -93q173 0 318 114v-154q-135 -98 -357 -98q-217 0 -341 139.5t-124 392.5q0 239 135.5 389.5t336.5 150.5t311 -130t110 -361v-86zM821 610q-1 142 -68.5 221t-187.5 79q-116 0 -197 -83t-100 -217h553zM840 1218h-122l-164 230 l-165 -230h-113l215 332h133z"/>
    <glyph glyph-name="edieresis" unicode="ë" horiz-adv-x="1071" d="M989 471h-723q4 -171 92 -264t242 -93q173 0 318 114v-154q-135 -98 -357 -98q-217 0 -341 139.5t-124 392.5q0 239 135.5 389.5t336.5 150.5t311 -130t110 -361v-86zM821 610q-1 142 -68.5 221t-187.5 79q-116 0 -197 -83t-100 -217h553zM746 1218q-40 0 -69 28t-29 71 q0 42 28 70t68 28q42 0 71 -28.5t29 -69.5t-28 -70t-70 -29zM362 1218q-42 0 -71.5 29.5t-29.5 69.5q0 42 28.5 70t69.5 28t71 -28.5t30 -69.5t-29 -70t-69 -29z"/>
    <glyph glyph-name="iacute" unicode="í" horiz-adv-x="496" d="M330 0h-164v1024h164v-1024zM477 1546l-262 -328h-127l223 328h166z"/>
    <glyph glyph-name="igrave" unicode="ì" horiz-adv-x="496" d="M330 0h-164v1024h164v-1024zM369 1218h-127l-262 328h168z"/>
    <glyph glyph-name="icircumflex" unicode="î" horiz-adv-x="496" d="M330 0h-164v1024h164v-1024zM519 1218h-122l-164 230l-165 -230h-113l215 332h133z"/>
    <glyph glyph-name="idieresis" unicode="ï" horiz-adv-x="496" d="M330 0h-164v1024h164v-1024zM430 1218q-40 0 -69 28t-29 71q0 42 28 70t68 28q42 0 71 -28.5t29 -69.5t-28 -70t-70 -29zM46 1218q-42 0 -71.5 29.5t-29.5 69.5q0 42 28.5 70t69.5 28t71 -28.5t30 -69.5t-29 -70t-69 -29z"/>
    <glyph glyph-name="ntilde" unicode="ñ" horiz-adv-x="1159" d="M1016 0h-164v584q0 326 -238 326q-123 0 -203.5 -92.5t-80.5 -233.5v-584h-164v1024h164v-170h4q116 194 336 194q168 0 257 -108.5t89 -313.5v-626zM908 1458q0 -105 -48 -171.5t-130 -66.5q-71 0 -162 52q-77 43 -119 43q-88 0 -88 -113h-94q0 107 48 171.5t134 64.5 q65 0 149 -52q74 -44 128 -44q84 0 84 116h98z"/>
    <glyph glyph-name="oacute" unicode="ó" horiz-adv-x="1200" d="M594 -24q-227 0 -362.5 143.5t-135.5 380.5q0 258 141 403t381 145q229 0 357.5 -141t128.5 -391q0 -245 -138.5 -392.5t-371.5 -147.5zM606 910q-158 0 -250 -107.5t-92 -296.5q0 -182 93 -287t249 -105q159 0 244.5 103t85.5 293q0 192 -85.5 296t-244.5 104zM846 1546 l-262 -328h-127l223 328h166z"/>
    <glyph glyph-name="ograve" unicode="ò" horiz-adv-x="1200" d="M594 -24q-227 0 -362.5 143.5t-135.5 380.5q0 258 141 403t381 145q229 0 357.5 -141t128.5 -391q0 -245 -138.5 -392.5t-371.5 -147.5zM606 910q-158 0 -250 -107.5t-92 -296.5q0 -182 93 -287t249 -105q159 0 244.5 103t85.5 293q0 192 -85.5 296t-244.5 104zM747 1218 h-127l-262 328h168z"/>
    <glyph glyph-name="ocircumflex" unicode="ô" horiz-adv-x="1200" d="M594 -24q-227 0 -362.5 143.5t-135.5 380.5q0 258 141 403t381 145q229 0 357.5 -141t128.5 -391q0 -245 -138.5 -392.5t-371.5 -147.5zM606 910q-158 0 -250 -107.5t-92 -296.5q0 -182 93 -287t249 -105q159 0 244.5 103t85.5 293q0 192 -85.5 296t-244.5 104zM885 1218 h-122l-164 230l-165 -230h-113l215 332h133z"/>
    <glyph glyph-name="odieresis" unicode="ö" horiz-adv-x="1200" d="M594 -24q-227 0 -362.5 143.5t-135.5 380.5q0 258 141 403t381 145q229 0 357.5 -141t128.5 -391q0 -245 -138.5 -392.5t-371.5 -147.5zM606 910q-158 0 -250 -107.5t-92 -296.5q0 -182 93 -287t249 -105q159 0 244.5 103t85.5 293q0 192 -85.5 296t-244.5 104zM793 1218 q-40 0 -69 28t-29 71q0 42 28 70t68 28q42 0 71 -28.5t29 -69.5t-28 -70t-70 -29zM409 1218q-42 0 -71.5 29.5t-29.5 69.5q0 42 28.5 70t69.5 28t71 -28.5t30 -69.5t-29 -70t-69 -29z"/>
    <glyph glyph-name="otilde" unicode="õ" horiz-adv-x="1200" d="M594 -24q-227 0 -362.5 143.5t-135.5 380.5q0 258 141 403t381 145q229 0 357.5 -141t128.5 -391q0 -245 -138.5 -392.5t-371.5 -147.5zM606 910q-158 0 -250 -107.5t-92 -296.5q0 -182 93 -287t249 -105q159 0 244.5 103t85.5 293q0 192 -85.5 296t-244.5 104zM931 1458 q0 -105 -48 -171.5t-130 -66.5q-71 0 -162 52q-77 43 -119 43q-88 0 -88 -113h-94q0 107 48 171.5t134 64.5q65 0 149 -52q74 -44 128 -44q84 0 84 116h98z"/>
    <glyph glyph-name="uacute" unicode="ú" horiz-adv-x="1159" d="M994 0h-164v162h-4q-102 -186 -316 -186q-366 0 -366 436v612h163v-586q0 -324 248 -324q120 0 197.5 88.5t77.5 231.5v590h164v-1024zM840 1546l-262 -328h-127l223 328h166z"/>
    <glyph glyph-name="ugrave" unicode="ù" horiz-adv-x="1159" d="M994 0h-164v162h-4q-102 -186 -316 -186q-366 0 -366 436v612h163v-586q0 -324 248 -324q120 0 197.5 88.5t77.5 231.5v590h164v-1024zM705 1218h-127l-262 328h168z"/>
    <glyph glyph-name="ucircumflex" unicode="û" horiz-adv-x="1159" d="M994 0h-164v162h-4q-102 -186 -316 -186q-366 0 -366 436v612h163v-586q0 -324 248 -324q120 0 197.5 88.5t77.5 231.5v590h164v-1024zM854 1218h-122l-164 230l-165 -230h-113l215 332h133z"/>
    <glyph glyph-name="udieresis" unicode="ü" horiz-adv-x="1159" d="M994 0h-164v162h-4q-102 -186 -316 -186q-366 0 -366 436v612h163v-586q0 -324 248 -324q120 0 197.5 88.5t77.5 231.5v590h164v-1024zM770 1218q-40 0 -69 28t-29 71q0 42 28 70t68 28q42 0 71 -28.5t29 -69.5t-28 -70t-70 -29zM386 1218q-42 0 -71.5 29.5t-29.5 69.5 q0 42 28.5 70t69.5 28t71 -28.5t30 -69.5t-29 -70t-69 -29z"/>
    <glyph glyph-name="dagger" unicode="†" horiz-adv-x="768" d="M728 893l-262 30l-40 -694h-76l-40 694l-262 -30v150l302 -20l-40 410h156l-40 -410l302 20v-150z"/>
    <glyph glyph-name="degree" unicode="°" horiz-adv-x="772" d="M385 897q-115 0 -196 81.5t-81 197.5q0 115 80 194.5t195 79.5q116 0 197.5 -80t81.5 -194q0 -116 -81 -197.5t-196 -81.5zM385 1333q-65 0 -111 -46t-46 -111q0 -67 45 -114.5t110 -47.5t112 48t47 114t-46 111.5t-111 45.5z"/>
    <glyph glyph-name="cent" unicode="¢" horiz-adv-x="1104" d="M952 209q-96 -59 -221 -69v-189h-125v191q-193 22 -307.5 161t-114.5 346q0 219 114.5 366.5t307.5 184.5v213h125v-203q123 -2 221 -51v-172q-101 71 -221 78v-785q122 12 221 86v-157zM606 291v761q-119 -31 -186.5 -133.5t-67.5 -252.5t68 -249t186 -126z"/>
    <glyph glyph-name="sterling" unicode="£" horiz-adv-x="1104" d="M1006 0h-900v135q218 69 218 313v187h-197v141h197v254q0 188 109 308t282 120q117 0 213 -41v-155q-100 57 -211 57q-229 0 -229 -307v-236h296v-141h-296v-156q0 -242 -193 -339h711v-140z"/>
    <glyph glyph-name="section" unicode="§" horiz-adv-x="918" d="M658 416q90 -74 90 -186q0 -132 -100 -214t-255 -82q-131 0 -239 56v158q130 -74 250 -74q84 0 130 39.5t46 99.5q0 53 -35.5 89.5t-180.5 113.5q-233 122 -233 317q0 163 147 244q-106 83 -106 223q0 127 93.5 209t246.5 82q130 0 219 -43v-158q-101 62 -223 62 q-168 0 -168 -144q0 -55 40.5 -100t203.5 -123q223 -107 223 -293q0 -170 -149 -276zM398 905q-101 -51 -101 -159q0 -72 56.5 -126.5t197.5 -117.5q88 68 88 172q0 72 -52.5 122.5t-188.5 108.5z"/>
    <glyph glyph-name="bullet" unicode="•" horiz-adv-x="832" d="M418 408q-104 0 -179 73t-75 177q0 103 75 178.5t179 75.5t177 -75t73 -179t-73 -177t-177 -73z"/>
    <glyph glyph-name="paragraph" unicode="¶" horiz-adv-x="938" d="M834 1331h-128v-1331h-106v1331h-158v-1331h-108v903q-108 0 -179 76t-71 191q0 117 74.5 190.5t181.5 73.5h494v-103z"/>
    <glyph glyph-name="germandbls" unicode="ß" horiz-adv-x="1114" d="M461 2v160q75 -48 170 -48q109 0 177 73.5t68 197.5q0 150 -100 243.5t-278 113.5v130q118 20 194 103t76 197q0 108 -55 167.5t-152 59.5q-231 0 -231 -309v-1090h-164v1114q0 192 110 308t296 116q166 0 265 -95t99 -251q0 -127 -75 -228t-195 -140v-5 q378 -75 378 -426q0 -177 -111 -297t-294 -120q-101 0 -178 26z"/>
    <glyph glyph-name="sfthyphen" unicode="­" horiz-adv-x="819" d="M690 506h-546v129h546v-129z"/>
    <glyph glyph-name="registered" unicode="®" horiz-adv-x="1823" d="M912 -33q-311 0 -530.5 219.5t-219.5 530.5t219.5 530.5t530.5 219.5q310 0 529.5 -219.5t219.5 -530.5t-219.5 -530.5t-529.5 -219.5zM912 1379q-274 0 -468 -194t-194 -468t194 -467.5t468 -193.5t467.5 193.5t193.5 467.5t-193.5 468t-467.5 194zM1276 248h-162 l-104 229q-79 172 -170 172h-88v-401h-133v954h268q167 0 257.5 -70t90.5 -190q0 -98 -63.5 -167t-177.5 -93v-4q79 -17 157 -176zM752 1088v-326h143q197 0 197 164q0 88 -53 125t-168 37h-119z"/>
    <glyph glyph-name="copyright" unicode="©" horiz-adv-x="1823" d="M912 -33q-311 0 -530.5 219.5t-219.5 530.5t219.5 530.5t530.5 219.5q310 0 529.5 -219.5t219.5 -530.5t-219.5 -530.5t-529.5 -219.5zM912 1379q-274 0 -468 -194t-194 -468t194 -467.5t468 -193.5t467.5 193.5t193.5 467.5t-193.5 468t-467.5 194zM1213 266 q-114 -69 -269 -69q-209 0 -350 141.5t-141 353.5q0 247 144.5 394t375.5 147q132 0 236 -53v-150q-95 72 -254 72q-156 0 -257.5 -106.5t-101.5 -286.5q0 -174 103.5 -279.5t263.5 -105.5q146 0 250 78v-136z"/>
    <glyph glyph-name="trademark" unicode="™" horiz-adv-x="1583" d="M1396 772h-108v478h-4l-219 -478h-59l-214 478h-4v-478h-102v662h127l225 -496h4l228 496h126v-662zM602 1336h-209v-564h-111v564h-206v98h526v-98z"/>
    <glyph glyph-name="acute" unicode="´" horiz-adv-x="578" d="M524 1546l-262 -328h-127l223 328h166z"/>
    <glyph glyph-name="dieresis" unicode="¨" horiz-adv-x="848" d="M610 1218q-40 0 -69 28t-29 71q0 42 28 70t68 28q42 0 71 -28.5t29 -69.5t-28 -70t-70 -29zM226 1218q-42 0 -71.5 29.5t-29.5 69.5q0 42 28.5 70t69.5 28t71 -28.5t30 -69.5t-29 -70t-69 -29z"/>
    <glyph glyph-name="notequal" unicode="≠" horiz-adv-x="1403" d="M1172 318h-550l-163 -318h-141l164 318h-250v132h319l149 294h-468v132h538l158 312h141l-159 -312h262v-132h-330l-152 -294h482v-132z"/>
    <glyph glyph-name="AE" unicode="Æ" horiz-adv-x="1762" d="M1667 0h-759v402h-510l-193 -402h-195l700 1434h924v-152h-559v-477h519v-151h-519v-502h592v-152zM908 553v729h-95l-346 -729h441z"/>
    <glyph glyph-name="Oslash" unicode="Ø" horiz-adv-x="1544" d="M324 131l-152 -182l-78 65l158 191q-158 195 -158 495q0 343 186.5 550.5t509.5 207.5q234 0 402 -129l135 162l78 -63l-139 -166q184 -200 184 -527q0 -351 -186 -555t-498 -204q-266 0 -442 155zM1090 1204q-126 102 -312 102q-227 0 -367.5 -164t-140.5 -427 q0 -223 98 -373zM1157 1130l-725 -866q131 -137 334 -137q236 0 372 154.5t136 430.5q0 260 -117 418z"/>
    <glyph glyph-name="infinity" unicode="∞" horiz-adv-x="1673" d="M836 482q-168 -275 -382 -275q-165 0 -268.5 106.5t-103.5 278.5q0 162 108 277.5t264 115.5q236 0 386 -273q164 273 380 273q166 0 270 -106.5t104 -278.5q0 -161 -108 -277t-266 -116q-226 0 -384 275zM901 596q131 -260 319 -260q109 0 174.5 72.5t65.5 191.5 q0 112 -68 186t-172 74q-173 0 -319 -264zM774 598q-132 262 -320 262q-110 0 -175.5 -75t-65.5 -193q0 -110 67.5 -183t173.5 -73q176 0 320 262z"/>
    <glyph glyph-name="plusminus" unicode="±" horiz-adv-x="1401" d="M1172 652h-404v-404h-131v404h-405v132h405v404h131v-404h404v-132zM1172 0h-940v133h940v-133z"/>
    <glyph glyph-name="lessequal" unicode="≤" horiz-adv-x="1403" d="M1132 254l-860 434v58l860 481v-150l-642 -354v-4l642 -313v-152zM1172 0h-940v133h940v-133z"/>
    <glyph glyph-name="greaterequal" unicode="≥" horiz-adv-x="1403" d="M1132 690l-860 -434v152l644 309v6l-644 357v149l860 -481v-58zM1172 0h-940v133h940v-133z"/>
    <glyph glyph-name="yen" unicode="¥" horiz-adv-x="1104" d="M1042 1434l-356 -656h285v-139h-334v-207h334v-139h-334v-293h-164v293h-344v139h344v207h-344v139h291l-352 656h192l250 -514q28 -58 47 -111h4q13 42 49 117l252 508h180z"/>
    <glyph glyph-name="mu1" unicode="µ" horiz-adv-x="1182" d="M1048 0h-170q-23 72 -23 168h-5q-84 -191 -279 -191q-167 0 -238 123h-4v-496h-163v1420h163v-626q0 -127 69 -202t180 -75q121 0 196.5 86t75.5 231v586h166v-759q0 -188 32 -265z"/>
    <glyph glyph-name="partialdiff" unicode="∂" horiz-adv-x="1096" d="M862 872h4q26 476 -266 476q-123 0 -246 -80l39 156q119 65 248 65q194 0 290.5 -132t96.5 -423q0 -221 -65 -461t-200 -368.5t-319 -128.5q-166 0 -266 106.5t-100 287.5q0 272 147.5 471t374.5 199q178 0 262 -168zM850 692q-58 209 -230 209q-160 0 -267 -157 t-107 -367q0 -122 56.5 -192.5t153.5 -70.5q151 0 259 159.5t135 418.5z"/>
    <glyph glyph-name="summation" unicode="∑" horiz-adv-x="1263" d="M1210 -469h-1159v78l676 883l-639 852v90h1082v-154h-836l594 -784l-625 -812h907v-153z"/>
    <glyph glyph-name="product" unicode="∏" horiz-adv-x="1544" d="M1362 -469h-168v1749h-838v-1749h-168v1903h1174v-1903z"/>
    <glyph glyph-name="integral" unicode="∫" horiz-adv-x="1105" d="M916 1372q-48 27 -111 27q-170 0 -170 -217v-1322q0 -158 -93.5 -252t-232.5 -94q-75 0 -119 19v147q48 -26 109 -26q172 0 172 217v1319q0 160 93.5 254t231.5 94q76 0 120 -18v-148z"/>
    <glyph glyph-name="ordfeminine" unicode="ª" horiz-adv-x="803" d="M688 717h-129v100h-4q-79 -119 -231 -119q-109 0 -175.5 59.5t-66.5 152.5q0 202 248 235l229 31q0 168 -151 168q-136 0 -254 -86v128q111 70 266 70q126 0 197 -72t71 -202v-465zM559 1075l-180 -25q-168 -23 -168 -134q0 -51 38.5 -83t102.5 -32q82 0 144.5 61 t62.5 146v67z"/>
    <glyph glyph-name="ordmasculine" unicode="º" horiz-adv-x="882" d="M436 696q-167 0 -262.5 100.5t-95.5 272.5q0 181 102.5 283t271.5 102q163 0 257 -99.5t94 -270.5q0 -178 -99.5 -283t-267.5 -105zM444 1344q-106 0 -168.5 -72t-62.5 -199q0 -124 59.5 -194t169.5 -70q105 0 166.5 71.5t61.5 194.5q0 126 -60.5 197.5t-165.5 71.5z"/>
    <glyph glyph-name="Ohm" unicode="Ω" horiz-adv-x="1546" d="M1449 0h-519v147q345 255 345 633q0 245 -139 387.5t-358 142.5q-222 0 -363 -142t-141 -387q0 -378 346 -634v-147h-520v148l348 -1q-348 235 -348 638q0 313 185 493t487 180q309 0 493 -178.5t184 -493.5q0 -402 -347 -639l347 1v-148z"/>
    <glyph glyph-name="ae" unicode="æ" horiz-adv-x="1704" d="M1622 471h-725q3 -171 91 -264t241 -93q177 0 321 114v-154q-132 -98 -358 -98q-270 0 -383 229h-4q-145 -229 -387 -229q-153 0 -240.5 80.5t-87.5 215.5q0 300 383 324l262 16q0 298 -215 298q-175 0 -330 -122v164q148 96 348 96q232 0 300 -200h4q116 200 356 200 q202 0 313 -130.5t111 -362.5v-84zM1454 610q-2 144 -68.5 222t-185.5 78q-116 0 -199 -82t-102 -218h555zM735 410v63l-203 -12q-139 -8 -207.5 -49t-68.5 -136q0 -73 53 -117.5t143 -44.5q119 0 201 84.5t82 211.5z"/>
    <glyph glyph-name="oslash" unicode="ø" horiz-adv-x="1200" d="M1174 1048l-168 -180q98 -138 98 -346q0 -252 -139 -399t-371 -147q-192 0 -318 102l-145 -160l-82 78l149 164q-102 137 -102 340q0 258 142 403t382 145q184 0 308 -98l162 176zM821 836q-79 74 -215 74q-159 0 -250.5 -107.5t-91.5 -296.5q0 -132 50 -224zM891 742 l-508 -552q87 -76 221 -76q163 0 248.5 104t85.5 294q0 134 -47 230z"/>
    <glyph glyph-name="questiondown" unicode="¿" horiz-adv-x="918" d="M625 630q9 -26 16 -67.5t7 -82.5q0 -64 -25.5 -115.5t-63.5 -96.5t-83 -86.5t-83 -84t-63.5 -89t-25.5 -102.5q0 -48 18.5 -85t50.5 -62t74 -37.5t89 -12.5q169 0 293 133v-176q-153 -96 -317 -96q-76 0 -143 20t-117 59.5t-79.5 98.5t-29.5 137q0 74 26 132t65.5 106.5 t85.5 90.5t85.5 83.5t65.5 86.5t26 99q0 46 -11 83.5t-22 63.5h161zM535 1046q44 0 78 -32q33 -31 33 -78q0 -46 -33 -78q-33 -33 -78 -33t-78 33q-33 32 -33 78q0 47 33 78q34 32 78 32z"/>
    <glyph glyph-name="nonbreakingspace" unicode=" " horiz-adv-x="561"/>
    <glyph glyph-name="exclamdown" unicode="¡" horiz-adv-x="582" d="M291 826q-46 0 -78.5 32t-32.5 78t32.5 78t78.5 32q45 0 78 -32t33 -78t-33 -78t-78 -32zM379 -406h-172l19 1030h134z"/>
    <glyph glyph-name="logicalnot" unicode="¬" horiz-adv-x="1401" d="M1172 254h-132v430h-808v133h940v-563z"/>
    <glyph glyph-name="radical" unicode="√" horiz-adv-x="1331" d="M1114 1516l-389 -1516h-113l-319 750h-170v120h264l275 -661l334 1307h118z"/>
    <glyph glyph-name="florin" unicode="ƒ" horiz-adv-x="1104" d="M952 1266q-48 28 -108 28q-146 0 -170 -160l-31 -208h166v-138h-187l-90 -648q-58 -418 -348 -418q-31 0 -90 16v143q36 -21 86 -21q150 0 190 292l91 636h-103v138h124l28 219q17 131 104.5 210t221.5 79q64 0 116 -19v-149z"/>
    <glyph glyph-name="approxequal" unicode="≈" horiz-adv-x="1403" d="M1194 960q-7 -146 -80.5 -227t-199.5 -81q-109 0 -265 108q-97 68 -159 68q-140 0 -146 -176h-135q5 144 79.5 226t201.5 82q106 0 235 -88q132 -90 197 -90q61 0 98 49t39 129h135zM1194 549q-7 -147 -80.5 -228t-199.5 -81q-109 0 -265 108q-94 66 -159 66 q-140 0 -146 -174h-135q5 143 79.5 226t201.5 83q106 0 235 -88q132 -91 197 -91q61 0 98 50t39 129h135z"/>
    <glyph glyph-name="Delta" unicode="Δ" horiz-adv-x="1320" d="M1272 0h-1221v76l521 1358h174l526 -1358v-76zM1057 152l-361 968q-33 88 -38 142h-4q-6 -48 -40 -142l-352 -968h795z"/>
    <glyph glyph-name="guillemotleft" unicode="«" horiz-adv-x="1036" d="M946 200h-168l-299 336l299 344h170l-307 -344zM557 200h-166l-299 336l299 344h166l-303 -344z"/>
    <glyph glyph-name="guillemotright" unicode="»" horiz-adv-x="1036" d="M948 538l-301 -338h-165l302 338l-302 342h165zM559 538l-299 -338h-170l308 338l-308 342h170z"/>
    <glyph glyph-name="ellipsis" unicode="…" horiz-adv-x="1501" d="M1252 -18q-46 0 -77.5 32t-31.5 78t31.5 79.5t77.5 33.5q45 0 77.5 -33.5t32.5 -79.5t-32.5 -78t-77.5 -32zM750 -18q-46 0 -78.5 32t-32.5 78t32.5 79.5t78.5 33.5q45 0 77.5 -33.5t32.5 -79.5t-32.5 -78t-77.5 -32zM248 -18q-46 0 -77 32t-31 78t31 79.5t77 33.5 q45 0 77.5 -33.5t32.5 -79.5t-32 -78t-78 -32z"/>
    <glyph glyph-name="Agrave" unicode="À" horiz-adv-x="1321" d="M1298 0h-186l-152 402h-608l-143 -402h-187l550 1434h174zM905 553l-225 611q-11 30 -22 96h-4q-10 -61 -23 -96l-223 -611h497zM758 1566h-127l-262 328h168z"/>
    <glyph glyph-name="Atilde" unicode="Ã" horiz-adv-x="1321" d="M1298 0h-186l-152 402h-608l-143 -402h-187l550 1434h174zM905 553l-225 611q-11 30 -22 96h-4q-10 -61 -23 -96l-223 -611h497zM977 1803q0 -105 -48 -171.5t-130 -66.5q-71 0 -162 52q-77 43 -119 43q-88 0 -88 -113h-94q0 107 48 171.5t134 64.5q65 0 149 -52 q74 -44 128 -44q84 0 84 116h98z"/>
    <glyph glyph-name="Otilde" unicode="Õ" horiz-adv-x="1544" d="M766 -24q-305 0 -488.5 201t-183.5 523q0 346 187 552t509 206q297 0 478.5 -200t181.5 -523q0 -351 -186 -555t-498 -204zM778 1306q-226 0 -367 -163t-141 -428t137.5 -426.5t358.5 -161.5q236 0 372 154t136 431q0 284 -132 439t-364 155zM1103 1802 q0 -105 -48 -171.5t-130 -66.5q-71 0 -162 52q-77 43 -119 43q-88 0 -88 -113h-94q0 107 48 171.5t134 64.5q65 0 149 -52q74 -44 128 -44q84 0 84 116h98z"/>
    <glyph glyph-name="OE" unicode="Œ" horiz-adv-x="1906" d="M1810 0h-720q-16 0 -138 -14q-98 -10 -182 -10q-312 0 -494 201t-182 523q0 346 189.5 552t514.5 206q90 0 178 -10q112 -14 114 -14h688v-152h-560v-477h518v-151h-518v-502h592v-152zM1050 160v1118q-160 28 -268 28q-229 0 -370.5 -166t-141.5 -425q0 -258 139.5 -423 t366.5 -165q116 0 274 33z"/>
    <glyph glyph-name="oe" unicode="œ" horiz-adv-x="1900" d="M1825 471h-725q3 -171 91.5 -264t242.5 -93q175 0 319 114v-154q-136 -98 -357 -98q-270 0 -382 237h-4q-131 -237 -416 -237q-229 0 -363.5 143t-134.5 379q0 258 142 404t382 146q294 0 402 -235h4q119 235 385 235q196 0 305 -131.5t109 -357.5v-88zM1657 610 q-2 142 -69 221t-183 79q-120 0 -203.5 -85.5t-99.5 -214.5h555zM606 910q-158 0 -250 -108.5t-92 -299.5q0 -180 92 -284t248 -104q159 0 245.5 102.5t86.5 291.5q0 194 -86.5 298t-243.5 104z"/>
    <glyph glyph-name="endash" unicode="–" horiz-adv-x="1024" d="M1024 506h-1024v129h1024v-129z"/>
    <glyph glyph-name="emdash" unicode="—" horiz-adv-x="2048" d="M2048 506h-2048v129h2048v-129z"/>
    <glyph glyph-name="quotedblleft" unicode="“" horiz-adv-x="772" d="M668 1458l-111 -446h-147l141 446h117zM364 1458l-108 -446h-150l140 446h118z"/>
    <glyph glyph-name="quotedblright" unicode="”" horiz-adv-x="772" d="M672 1458l-140 -446h-118l108 446h150zM368 1458l-140 -446h-118l111 446h147z"/>
    <glyph glyph-name="quoteleft" unicode="‘" horiz-adv-x="469" d="M364 1458l-108 -446h-150l140 446h118z"/>
    <glyph glyph-name="quoteright" unicode="’" horiz-adv-x="469" d="M368 1458l-140 -446h-118l111 446h147z"/>
    <glyph glyph-name="divide" unicode="÷" horiz-adv-x="1401" d="M708 868q-44 0 -74 30.5t-30 74.5q0 45 29 77t75 32q103 0 103 -107q0 -47 -30.5 -77t-72.5 -30zM1172 530h-940v134h940v-134zM704 112q-44 0 -75 30t-31 73q0 45 30 78t76 33q101 0 101 -109q0 -45 -29 -75t-72 -30z"/>
    <glyph glyph-name="lozenge" unicode="◊" horiz-adv-x="1195" d="M1088 717l-453 -717h-76l-451 715l451 719h76zM954 717l-356 575l-356 -575l356 -577z"/>
    <glyph glyph-name="ydieresis" unicode="ÿ" horiz-adv-x="991" d="M981 1024l-471 -1188q-126 -318 -354 -318q-64 0 -107 13v147q53 -18 97 -18q124 0 186 148l82 194l-400 1022h182l277 -788q5 -15 21 -78h6q5 24 20 76l291 790h170zM689 1218q-40 0 -69 28t-29 71q0 42 28 70t68 28q42 0 71 -28.5t29 -69.5t-28 -70t-70 -29zM305 1218 q-42 0 -71.5 29.5t-29.5 69.5q0 42 28.5 70t69.5 28t71 -28.5t30 -69.5t-29 -70t-69 -29z"/>
    <glyph glyph-name="Ydieresis" unicode="Ÿ" horiz-adv-x="1132" d="M1120 1434l-473 -904v-530h-168v526l-461 908h191l321 -648q6 -12 35 -88h3q10 34 38 88l336 648h178zM759 1565q-40 0 -69 28t-29 71q0 42 28 70t68 28q42 0 71 -28.5t29 -69.5t-28 -70t-70 -29zM375 1565q-42 0 -71.5 29.5t-29.5 69.5q0 42 28.5 70t69.5 28t71 -28.5 t30 -69.5t-29 -70t-69 -29z"/>
    <glyph glyph-name="fraction" unicode="⁄" horiz-adv-x="354" d="M690 1434l-858 -1434h-144l859 1434h143z"/>
    <glyph glyph-name="fraction" unicode="∕" horiz-adv-x="354" d="M690 1434l-858 -1434h-144l859 1434h143z"/>
    <glyph glyph-name="Euro" unicode="€" horiz-adv-x="1104" d="M1014 50q-133 -74 -282 -74q-427 0 -509 506h-121v140h108q-4 31 -4 77q0 48 6 108h-110v140h131q51 240 192.5 375.5t343.5 135.5q137 0 245 -56v-162q-114 78 -256 78q-125 0 -222.5 -100.5t-136.5 -270.5h497v-140h-519q-8 -99 -1 -185h520v-140h-504 q72 -366 350 -366q131 0 272 87v-153z"/>
    <glyph glyph-name="guilsinglleft" unicode="‹" horiz-adv-x="647" d="M557 200h-166l-299 336l299 344h168l-305 -344z"/>
    <glyph glyph-name="guilsinglright" unicode="›" horiz-adv-x="647" d="M559 538l-301 -338h-166l304 338l-304 342h166z"/>
    <glyph glyph-name="fi" unicode="ﬁ" horiz-adv-x="1136" d="M672 1372q-48 27 -109 27q-172 0 -172 -217v-158h240v-140h-240v-884h-163v884h-175v140h175v166q0 161 93 254.5t232 93.5q75 0 119 -18v-148zM893 1284q-45 0 -76 30t-31 76q0 45 31 76t76 31t77 -30.5t32 -76.5q0 -44 -32 -75t-77 -31zM973 0h-164v1024h164v-1024z "/>
    <glyph glyph-name="fl" unicode="ﬂ" horiz-adv-x="1136" d="M672 1372q-48 27 -109 27q-172 0 -172 -217v-158h240v-140h-240v-884h-163v884h-175v140h175v166q0 161 93 254.5t232 93.5q75 0 119 -18v-148zM975 0h-162v1516h162v-1516z"/>
    <glyph glyph-name="daggerdbl" unicode="‡" horiz-adv-x="768" d="M728 519l-302 20l40 -310h-156l40 310l-302 -20v150l262 -30l58 192l-58 192l-262 -30v150l302 -20l-40 310h156l-40 -310l302 20v-150l-262 30l-58 -192l58 -192l262 30v-150z"/>
    <glyph glyph-name="periodcentered" unicode="·" horiz-adv-x="444" d="M223 510q-46 0 -78.5 33t-32.5 79q0 47 32.5 80t78.5 33q47 0 80 -33t33 -80q0 -46 -33 -79t-80 -33z"/>
    <glyph glyph-name="quotesinglbase" unicode="‚" horiz-adv-x="469" d="M346 217l-141 -445h-117l110 445h148z"/>
    <glyph glyph-name="quotedblbase" unicode="„" horiz-adv-x="772" d="M649 217l-139 -445h-119l109 445h149zM346 217l-141 -445h-117l110 445h148z"/>
    <glyph glyph-name="perthousand" unicode="‰" horiz-adv-x="2478" d="M404 715q-148 0 -236 97.5t-88 260.5q0 178 93 280.5t251 102.5q153 0 237.5 -95t84.5 -267t-94.5 -275.5t-247.5 -103.5zM418 1346q-95 0 -150 -70.5t-55 -193.5q0 -121 54 -188.5t147 -67.5q94 0 147 70t53 194q0 121 -52.5 188.5t-143.5 67.5zM1366 1434l-922 -1444 h-143l921 1444h144zM2056 -22q-148 0 -236 98t-88 260q0 177 94.5 281t249.5 104q153 0 237.5 -95.5t84.5 -269.5q0 -171 -94 -274.5t-248 -103.5zM2070 608q-96 0 -150 -70.5t-54 -193.5q0 -120 53.5 -187t146.5 -67q95 0 148 70.5t53 193.5q0 121 -53 187.5t-144 66.5z M1258 -22q-148 0 -236 98t-88 260q0 178 94 281.5t250 103.5q152 0 237 -96t85 -269q0 -171 -94.5 -274.5t-247.5 -103.5zM1272 608q-96 0 -150.5 -70t-54.5 -194q0 -119 54 -186.5t147 -67.5q94 0 147 70.5t53 193.5q0 122 -52.5 188t-143.5 66z"/>
    <glyph glyph-name="Acircumflex" unicode="Â" horiz-adv-x="1321" d="M1298 0h-186l-152 402h-608l-143 -402h-187l550 1434h174zM905 553l-225 611q-11 30 -22 96h-4q-10 -61 -23 -96l-223 -611h497zM927 1565h-122l-164 230l-165 -230h-113l215 332h133z"/>
    <glyph glyph-name="Ecircumflex" unicode="Ê" horiz-adv-x="1036" d="M948 0h-760v1434h728v-152h-560v-477h518v-151h-518v-502h592v-152zM827 1567h-122l-164 230l-165 -230h-113l215 332h133z"/>
    <glyph glyph-name="Aacute" unicode="Á" horiz-adv-x="1321" d="M1298 0h-186l-152 402h-608l-143 -402h-187l550 1434h174zM905 553l-225 611q-11 30 -22 96h-4q-10 -61 -23 -96l-223 -611h497zM867 1894l-262 -328h-127l223 328h166z"/>
    <glyph glyph-name="Edieresis" unicode="Ë" horiz-adv-x="1036" d="M948 0h-760v1434h728v-152h-560v-477h518v-151h-518v-502h592v-152zM749 1566q-40 0 -69 28t-29 71q0 42 28 70t68 28q42 0 71 -28.5t29 -69.5t-28 -70t-70 -29zM365 1566q-42 0 -71.5 29.5t-29.5 69.5q0 42 28.5 70t69.5 28t71 -28.5t30 -69.5t-29 -70t-69 -29z"/>
    <glyph glyph-name="Egrave" unicode="È" horiz-adv-x="1036" d="M948 0h-760v1434h728v-152h-560v-477h518v-151h-518v-502h592v-152zM703 1566h-127l-262 328h168z"/>
    <glyph glyph-name="Iacute" unicode="Í" horiz-adv-x="545" d="M496 1434v-144h-140v-1146h140v-144h-448v144h140v1146h-140v144h448zM509 1894l-262 -328h-127l223 328h166z"/>
    <glyph glyph-name="Icircumflex" unicode="Î" horiz-adv-x="545" d="M496 1434v-144h-140v-1146h140v-144h-448v144h140v1146h-140v144h448zM560 1567h-122l-164 230l-165 -230h-113l215 332h133z"/>
    <glyph glyph-name="Idieresis" unicode="Ï" horiz-adv-x="545" d="M496 1434v-144h-140v-1146h140v-144h-448v144h140v1146h-140v144h448zM470 1566q-40 0 -69 28t-29 71q0 42 28 70t68 28q42 0 71 -28.5t29 -69.5t-28 -70t-70 -29zM86 1566q-42 0 -71.5 29.5t-29.5 69.5q0 42 28.5 70t69.5 28t71 -28.5t30 -69.5t-29 -70t-69 -29z"/>
    <glyph glyph-name="Igrave" unicode="Ì" horiz-adv-x="545" d="M496 1434v-144h-140v-1146h140v-144h-448v144h140v1146h-140v144h448zM416 1566h-127l-262 328h168z"/>
    <glyph glyph-name="Oacute" unicode="Ó" horiz-adv-x="1544" d="M766 -24q-305 0 -488.5 201t-183.5 523q0 346 187 552t509 206q297 0 478.5 -200t181.5 -523q0 -351 -186 -555t-498 -204zM778 1306q-226 0 -367 -163t-141 -428t137.5 -426.5t358.5 -161.5q236 0 372 154t136 431q0 284 -132 439t-364 155zM1028 1894l-262 -328h-127 l223 328h166z"/>
    <glyph glyph-name="Ocircumflex" unicode="Ô" horiz-adv-x="1544" d="M766 -24q-305 0 -488.5 201t-183.5 523q0 346 187 552t509 206q297 0 478.5 -200t181.5 -523q0 -351 -186 -555t-498 -204zM778 1306q-226 0 -367 -163t-141 -428t137.5 -426.5t358.5 -161.5q236 0 372 154t136 431q0 284 -132 439t-364 155zM1063 1566h-122l-164 230 l-165 -230h-113l215 332h133z"/>
    <glyph glyph-name="Ograve" unicode="Ò" horiz-adv-x="1544" d="M766 -24q-305 0 -488.5 201t-183.5 523q0 346 187 552t509 206q297 0 478.5 -200t181.5 -523q0 -351 -186 -555t-498 -204zM778 1306q-226 0 -367 -163t-141 -428t137.5 -426.5t358.5 -161.5q236 0 372 154t136 431q0 284 -132 439t-364 155zM880 1566h-127l-262 328h168 z"/>
    <glyph glyph-name="Uacute" unicode="Ú" horiz-adv-x="1407" d="M1237 580q0 -604 -545 -604q-522 0 -522 581v877h168v-866q0 -441 372 -441q359 0 359 426v881h168v-854zM960 1893l-262 -328h-127l223 328h166z"/>
    <glyph glyph-name="Ucircumflex" unicode="Û" horiz-adv-x="1407" d="M1237 580q0 -604 -545 -604q-522 0 -522 581v877h168v-866q0 -441 372 -441q359 0 359 426v881h168v-854zM987 1567h-122l-164 230l-165 -230h-113l215 332h133z"/>
    <glyph glyph-name="Ugrave" unicode="Ù" horiz-adv-x="1407" d="M1237 580q0 -604 -545 -604q-522 0 -522 581v877h168v-866q0 -441 372 -441q359 0 359 426v881h168v-854zM830 1566h-127l-262 328h168z"/>
    <glyph glyph-name="dotlessi" unicode="ı" horiz-adv-x="496" d="M330 0h-164v1024h164v-1024z"/>
    <glyph glyph-name="circumflex" unicode="ˆ" horiz-adv-x="760" d="M656 1218h-122l-164 230l-165 -230h-113l215 332h133z"/>
    <glyph glyph-name="tilde" unicode="˜" horiz-adv-x="690" d="M676 1458q0 -105 -48 -171.5t-130 -66.5q-71 0 -162 52q-77 43 -119 43q-88 0 -88 -113h-94q0 107 48 171.5t134 64.5q65 0 149 -52q74 -44 128 -44q84 0 84 116h98z"/>
    <glyph glyph-name="macron" unicode="ˉ" horiz-adv-x="635" d="M570 1218h-508v109h508v-109z"/>
    <glyph glyph-name="breve" unicode="˘" horiz-adv-x="622" d="M586 1470q-10 -113 -88.5 -182.5t-190.5 -69.5q-117 0 -191 69t-79 183h100q12 -155 172 -155q68 0 116.5 42t58.5 113h102z"/>
    <glyph glyph-name="dotaccent" unicode="˙" horiz-adv-x="412" d="M207 1218q-40 0 -69.5 28.5t-29.5 70.5q0 40 29 68t70 28t69.5 -27.5t28.5 -68.5t-28.5 -70t-69.5 -29z"/>
    <glyph glyph-name="ring" unicode="˚" horiz-adv-x="574" d="M284 1176q-87 0 -144.5 52.5t-57.5 137.5q0 90 59 144t150 54q89 0 146 -54t57 -138t-61 -140t-149 -56zM284 1483q-48 0 -80 -32.5t-32 -80.5q0 -112 112 -112q50 0 83 32t33 80q0 49 -33 81t-83 32z"/>
    <glyph glyph-name="cedilla" unicode="¸" horiz-adv-x="420" d="M391 -256q0 -176 -275 -176q-38 0 -65 2v90q43 -6 70 -6q141 0 141 90q0 78 -129 78q-10 0 -41 -4v182h108v-104q88 0 139.5 -40t51.5 -112z"/>
    <glyph glyph-name="hungarumlaut" unicode="˝" horiz-adv-x="664" d="M647 1536l-245 -318h-97l209 318h133zM400 1536l-240 -318h-96l206 318h130z"/>
    <glyph glyph-name="ogonek" unicode="˛" horiz-adv-x="379" d="M338 0q-150 -141 -150 -223q0 -70 68 -70q30 0 56 13v-107q-30 -13 -82 -13q-76 0 -122 40t-46 110q0 122 157 250h119z"/>
    <glyph glyph-name="caron" unicode="ˇ" horiz-adv-x="760" d="M664 1548l-214 -330h-132l-216 330h115l164 -229l164 229h119z"/>
    <glyph glyph-name="Lslash" unicode="Ł" horiz-adv-x="964" d="M932 0h-744v547l-155 -97v152l155 96v736h168v-631l328 203v-154l-328 -200v-500h576v-152z"/>
    <glyph glyph-name="lslash" unicode="ł" horiz-adv-x="561" d="M530 811l-174 -123v-688h-164v578l-170 -119v157l170 119v781h164v-670l174 122v-157z"/>
    <glyph glyph-name="Scaron" unicode="Š" horiz-adv-x="1088" d="M121 58v198q34 -30 81.5 -54t100 -40.5t105.5 -25.5t98 -9q155 0 231.5 57.5t76.5 165.5q0 58 -25.5 101t-70.5 78.5t-106.5 68t-132.5 68.5q-75 38 -140 77t-113 86t-75.5 106.5t-27.5 139.5q0 98 43 170.5t113 119.5t159.5 70t182.5 23q212 0 309 -51v-189 q-127 88 -326 88q-55 0 -110 -11.5t-98 -37.5t-70 -67t-27 -100q0 -55 20.5 -95t60.5 -73t97.5 -64t132.5 -68q77 -38 146 -80t121 -93t82.5 -113t30.5 -142q0 -106 -41.5 -179.5t-112 -119.5t-162.5 -66.5t-194 -20.5q-34 0 -84 5.5t-102 16t-98.5 26t-74.5 34.5zM826 1898 l-214 -330h-132l-216 330h115l164 -229l164 229h119z"/>
    <glyph glyph-name="scaron" unicode="š" horiz-adv-x="869" d="M104 37v176q134 -99 295 -99q216 0 216 144q0 41 -18.5 69.5t-50 50.5t-74 39.5t-91.5 36.5q-68 27 -119.5 54.5t-86 62t-52 78.5t-17.5 103q0 72 33 127.5t88 93t125.5 56.5t145.5 19q133 0 238 -46v-166q-113 74 -260 74q-46 0 -83 -10.5t-63.5 -29.5t-41 -45.5 t-14.5 -58.5q0 -40 14.5 -67t42.5 -48t68 -38t91 -37q68 -26 122 -53.5t92 -62t58.5 -79.5t20.5 -107q0 -76 -33.5 -132t-89.5 -93t-129 -55t-153 -18q-158 0 -274 61zM682 1548l-214 -330h-132l-216 330h115l164 -229l164 229h119z"/>
    <glyph glyph-name="Zcaron" unicode="Ž" horiz-adv-x="1168" d="M1124 1394l-840 -1242h820v-152h-1071v47l833 1235h-766v152h1024v-40zM900 1895l-214 -330h-132l-216 330h115l164 -229l164 229h119z"/>
    <glyph glyph-name="zcaron" unicode="ž" horiz-adv-x="926" d="M880 977l-606 -837h600v-140h-841v51l606 833h-549v140h790v-47zM782 1548l-214 -330h-132l-216 330h115l164 -229l164 229h119z"/>
    <glyph glyph-name="brokenbar" unicode="¦" horiz-adv-x="490" d="M320 715h-148v851h148v-851zM320 -482h-148v852h148v-852z"/>
    <glyph glyph-name="Eth" unicode="Ð" horiz-adv-x="1436" d="M188 0v641h-160v155h160v638h396q758 0 758 -699q0 -334 -210.5 -534.5t-563.5 -200.5h-380zM356 1282v-486h336v-155h-336v-489h214q282 0 439 151t157 428q0 551 -586 551h-224z"/>
    <glyph glyph-name="eth" unicode="ð" horiz-adv-x="1145" d="M786 968l4 3q-90 162 -198 266l-299 -151l-51 98l270 131q-118 105 -264 201h221q75 -52 172 -136l289 144l55 -94l-264 -130q327 -307 327 -774q0 -240 -129 -394t-351 -154t-347 140t-125 382q0 243 130 394.5t350 151.5q123 0 210 -78zM582 910q-148 0 -233 -108.5 t-85 -295.5q0 -181 83 -286.5t231 -105.5q139 0 220.5 108t81.5 288q0 400 -298 400z"/>
    <glyph glyph-name="Yacute" unicode="Ý" horiz-adv-x="1132" d="M1120 1434l-473 -904v-530h-168v526l-461 908h191l321 -648q6 -12 35 -88h3q10 34 38 88l336 648h178zM831 1894l-262 -328h-127l223 328h166z"/>
    <glyph glyph-name="yacute" unicode="ý" horiz-adv-x="991" d="M981 1024l-471 -1188q-126 -318 -354 -318q-64 0 -107 13v147q53 -18 97 -18q124 0 186 148l82 194l-400 1022h182l277 -788q5 -15 21 -78h6q5 24 20 76l291 790h170zM762 1546l-262 -328h-127l223 328h166z"/>
    <glyph glyph-name="Thorn" unicode="Þ" horiz-adv-x="1147" d="M356 318v-318h-168v1434h168v-226h226q232 0 357.5 -111.5t125.5 -316.5q0 -204 -141.5 -333t-381.5 -129h-186zM356 1057v-588h176q173 0 265 78t92 223q0 287 -336 287h-197z"/>
    <glyph glyph-name="thorn" unicode="þ" horiz-adv-x="1204" d="M334 148h-4v-619h-164v1987h164v-672h4q121 204 354 204q198 0 309 -137.5t111 -368.5q0 -257 -125 -411.5t-342 -154.5q-199 0 -307 172zM330 561v-143q0 -127 82.5 -215.5t209.5 -88.5q149 0 233.5 114t84.5 317q0 171 -79 268t-214 97q-143 0 -230 -99.5t-87 -249.5z "/>
    <glyph glyph-name="minus" unicode="−" horiz-adv-x="1401" d="M1172 530h-940v134h940v-134z"/>
    <glyph glyph-name="multiply" unicode="×" horiz-adv-x="1401" d="M1134 258l-94 -94l-340 340l-338 -340l-94 94l340 338l-340 340l94 94l338 -340l340 340l94 -94l-340 -340z"/>
    <glyph glyph-name="onenumerator" horiz-adv-x="719" d="M639 584h-504v112h185v594l-193 -55v125l323 96v-760h189v-112z"/>
    <glyph glyph-name="twonumerator" horiz-adv-x="750" d="M658 584h-554v114l240 236q104 102 132 156.5t28 109.5q0 58 -38 94.5t-100 36.5q-118 0 -216 -102v149q84 76 235 76q118 0 187 -66t69 -174q0 -153 -205 -348l-164 -156v-4h386v-122z"/>
    <glyph glyph-name="threenumerator" horiz-adv-x="750" d="M129 616v142q103 -76 217 -76q80 0 126 37.5t46 101.5q0 141 -219 141h-84v118h80q197 0 197 134q0 119 -144 119q-94 0 -186 -69v139q87 51 213 51q113 0 180 -59.5t67 -155.5q0 -151 -145 -205v-4q177 -42 177 -202q0 -117 -85 -191t-227 -74q-137 0 -213 53z"/>
    <glyph glyph-name="onehalf" unicode="½" horiz-adv-x="1906" d="M639 584h-504v112h185v594l-193 -55v125l323 96v-760h189v-112zM1393 1434l-858 -1434h-144l859 1434h143zM1748 1h-554v114l240 236q104 102 132 156.5t28 109.5q0 58 -38 94.5t-100 36.5q-118 0 -216 -102v149q84 76 235 76q118 0 187 -66t69 -174q0 -153 -205 -348 l-164 -156v-4h386v-122z"/>
    <glyph glyph-name="onequarter" unicode="¼" horiz-adv-x="1856" d="M639 584h-504v112h185v594l-193 -55v125l323 96v-760h189v-112zM1393 1434l-858 -1434h-144l859 1434h143zM1706 204h-110v-204h-132v204h-393v92l369 554h156v-537h110v-109zM1468 724h-4q-12 -31 -38 -73l-218 -338h256v323q0 32 4 88z"/>
    <glyph glyph-name="threequarters" unicode="¾" horiz-adv-x="1950" d="M129 616v142q103 -76 217 -76q80 0 126 37.5t46 101.5q0 141 -219 141h-84v118h80q197 0 197 134q0 119 -144 119q-94 0 -186 -69v139q87 51 213 51q113 0 180 -59.5t67 -155.5q0 -151 -145 -205v-4q177 -42 177 -202q0 -117 -85 -191t-227 -74q-137 0 -213 53z M1464 1434l-858 -1434h-144l859 1434h143zM1771 204h-110v-204h-132v204h-393v92l369 554h156v-537h110v-109zM1533 724h-4q-12 -31 -38 -73l-218 -338h256v323q0 32 4 88z"/>
    <glyph glyph-name="franc" unicode="₣" horiz-adv-x="1000" d="M600 278h-244v-278h-168v278h-160v156h160v1000h728v-152h-560v-496h518v-151h-518v-201h244v-156z"/>
    <glyph glyph-name="Gbreve" unicode="Ğ" horiz-adv-x="1405" d="M1260 98q-216 -122 -480 -122q-307 0 -496.5 198t-189.5 524q0 333 210.5 546.5t533.5 213.5q234 0 393 -76v-186q-174 110 -412 110q-241 0 -395 -166t-154 -430q0 -272 143 -427.5t388 -155.5q168 0 291 67v402h-314v152h482v-650zM1068 1817q-10 -113 -88.5 -182.5 t-190.5 -69.5q-117 0 -191 69t-79 183h100q12 -155 172 -155q68 0 116.5 42t58.5 113h102z"/>
    <glyph glyph-name="gbreve" unicode="ğ" horiz-adv-x="1206" d="M1040 82q0 -564 -540 -564q-190 0 -332 72v164q173 -96 330 -96q378 0 378 402v112h-4q-117 -196 -352 -196q-191 0 -307.5 136.5t-116.5 366.5q0 261 125.5 415t343.5 154q207 0 307 -166h4v142h164v-942zM876 463v151q0 122 -82.5 209t-205.5 87q-152 0 -238 -110.5 t-86 -309.5q0 -171 82.5 -273.5t218.5 -102.5q138 0 224.5 98t86.5 251zM868 1470q-10 -113 -88.5 -182.5t-190.5 -69.5q-117 0 -191 69t-79 183h100q12 -155 172 -155q68 0 116.5 42t58.5 113h102z"/>
    <glyph glyph-name="Idotaccent" unicode="İ" horiz-adv-x="545" d="M496 1434v-144h-140v-1146h140v-144h-448v144h140v1146h-140v144h448zM272 1567q-40 0 -69.5 28.5t-29.5 70.5q0 40 29 68t70 28t69.5 -27.5t28.5 -68.5t-28.5 -70t-69.5 -29z"/>
    <glyph glyph-name="Scedilla" unicode="Ş" horiz-adv-x="1088" d="M121 58v198q34 -30 81.5 -54t100 -40.5t105.5 -25.5t98 -9q155 0 231.5 57.5t76.5 165.5q0 58 -25.5 101t-70.5 78.5t-106.5 68t-132.5 68.5q-75 38 -140 77t-113 86t-75.5 106.5t-27.5 139.5q0 98 43 170.5t113 119.5t159.5 70t182.5 23q212 0 309 -51v-189 q-127 88 -326 88q-55 0 -110 -11.5t-98 -37.5t-70 -67t-27 -100q0 -55 20.5 -95t60.5 -73t97.5 -64t132.5 -68q77 -38 146 -80t121 -93t82.5 -113t30.5 -142q0 -106 -41.5 -179.5t-112 -119.5t-162.5 -66.5t-194 -20.5q-34 0 -84 5.5t-102 16t-98.5 26t-74.5 34.5zM765 -256 q0 -176 -275 -176q-38 0 -65 2v90q43 -6 70 -6q141 0 141 90q0 78 -129 78q-10 0 -41 -4v182h108v-104q88 0 139.5 -40t51.5 -112z"/>
    <glyph glyph-name="scedilla" unicode="ş" horiz-adv-x="869" d="M104 37v176q134 -99 295 -99q216 0 216 144q0 41 -18.5 69.5t-50 50.5t-74 39.5t-91.5 36.5q-68 27 -119.5 54.5t-86 62t-52 78.5t-17.5 103q0 72 33 127.5t88 93t125.5 56.5t145.5 19q133 0 238 -46v-166q-113 74 -260 74q-46 0 -83 -10.5t-63.5 -29.5t-41 -45.5 t-14.5 -58.5q0 -40 14.5 -67t42.5 -48t68 -38t91 -37q68 -26 122 -53.5t92 -62t58.5 -79.5t20.5 -107q0 -76 -33.5 -132t-89.5 -93t-129 -55t-153 -18q-158 0 -274 61zM650 -256q0 -176 -275 -176q-38 0 -65 2v90q43 -6 70 -6q141 0 141 90q0 78 -129 78q-10 0 -41 -4v182 h108v-104q88 0 139.5 -40t51.5 -112z"/>
    <glyph glyph-name="Cacute" unicode="Ć" horiz-adv-x="1268" d="M1164 60q-159 -84 -396 -84q-306 0 -490 197t-184 517q0 344 207 556t525 212q204 0 338 -59v-179q-154 86 -340 86q-247 0 -400.5 -165t-153.5 -441q0 -262 143.5 -417.5t376.5 -155.5q216 0 374 96v-163zM993 1894l-262 -328h-127l223 328h166z"/>
    <glyph glyph-name="cacute" unicode="ć" horiz-adv-x="946" d="M864 47q-118 -71 -280 -71q-219 0 -353.5 142.5t-134.5 369.5q0 253 145 406.5t387 153.5q135 0 238 -50v-168q-114 80 -244 80q-157 0 -257.5 -112.5t-100.5 -295.5q0 -180 94.5 -284t253.5 -104q134 0 252 89v-156zM815 1546l-262 -328h-127l223 328h166z"/>
    <glyph glyph-name="Ccaron" unicode="Č" horiz-adv-x="1268" d="M1164 60q-159 -84 -396 -84q-306 0 -490 197t-184 517q0 344 207 556t525 212q204 0 338 -59v-179q-154 86 -340 86q-247 0 -400.5 -165t-153.5 -441q0 -262 143.5 -417.5t376.5 -155.5q216 0 374 96v-163zM1054 1896l-214 -330h-132l-216 330h115l164 -229l164 229h119z "/>
    <glyph glyph-name="ccaron" unicode="č" horiz-adv-x="946" d="M864 47q-118 -71 -280 -71q-219 0 -353.5 142.5t-134.5 369.5q0 253 145 406.5t387 153.5q135 0 238 -50v-168q-114 80 -244 80q-157 0 -257.5 -112.5t-100.5 -295.5q0 -180 94.5 -284t253.5 -104q134 0 252 89v-156zM858 1548l-214 -330h-132l-216 330h115l164 -229 l164 229h119z"/>
    <glyph glyph-name="dcroat" unicode="đ" horiz-adv-x="1206" d="M1040 0h-164v174h-4q-114 -198 -352 -198q-193 0 -308.5 137.5t-115.5 374.5q0 254 128 407t341 153q208 0 307 -166h4v320h-331v134h331v180h164v-180h136v-134h-136v-1202zM876 463v151q0 124 -82 210t-208 86q-150 0 -236 -110t-86 -304q0 -177 82.5 -279.5 t221.5 -102.5q136 0 222 99t86 250z"/>
    <glyph glyph-name="uni00AF" unicode="¯" horiz-adv-x="850" d="M850 1396h-850v120h850v-120z"/>
    <glyph glyph-name="uni2219" unicode="∙" horiz-adv-x="444" d="M223 510q-46 0 -78.5 33t-32.5 79q0 47 32.5 80t78.5 33q47 0 80 -33t33 -80q0 -46 -33 -79t-80 -33z"/>
    <glyph glyph-name="Abreve" unicode="Ă" horiz-adv-x="1321" d="M1298 0h-186l-152 402h-608l-143 -402h-187l550 1434h174zM905 553l-225 611q-11 30 -22 96h-4q-10 -61 -23 -96l-223 -611h497zM932 1819q-10 -113 -88.5 -182.5t-190.5 -69.5q-117 0 -191 69t-79 183h100q12 -155 172 -155q68 0 116.5 42t58.5 113h102z"/>
    <glyph glyph-name="abreve" unicode="ă" horiz-adv-x="1042" d="M899 0h-164v160h-4q-107 -184 -315 -184q-153 0 -239.5 81t-86.5 215q0 287 338 334l307 43q0 261 -211 261q-185 0 -334 -126v168q151 96 348 96q361 0 361 -382v-666zM735 518l-247 -34q-114 -16 -172 -56.5t-58 -143.5q0 -75 53.5 -122.5t142.5 -47.5 q122 0 201.5 85.5t79.5 216.5v102zM805 1470q-10 -113 -88.5 -182.5t-190.5 -69.5q-117 0 -191 69t-79 183h100q12 -155 172 -155q68 0 116.5 42t58.5 113h102z"/>
    <glyph glyph-name="Aogonek" unicode="Ą" horiz-adv-x="1321" d="M1298 0h-186l-152 402h-608l-143 -402h-187l550 1434h174zM905 553l-225 611q-11 30 -22 96h-4q-10 -61 -23 -96l-223 -611h497zM1227 0q-150 -141 -150 -223q0 -70 68 -70q30 0 56 13v-107q-30 -13 -82 -13q-76 0 -122 40t-46 110q0 122 157 250h119z"/>
    <glyph glyph-name="aogonek" unicode="ą" horiz-adv-x="1042" d="M899 0h-164v160h-4q-107 -184 -315 -184q-153 0 -239.5 81t-86.5 215q0 287 338 334l307 43q0 261 -211 261q-185 0 -334 -126v168q151 96 348 96q361 0 361 -382v-666zM735 518l-247 -34q-114 -16 -172 -56.5t-58 -143.5q0 -75 53.5 -122.5t142.5 -47.5 q122 0 201.5 85.5t79.5 216.5v102zM850 0q-150 -141 -150 -223q0 -70 68 -70q30 0 56 13v-107q-30 -13 -82 -13q-76 0 -122 40t-46 110q0 122 157 250h119z"/>
    <glyph glyph-name="Dcaron" unicode="Ď" horiz-adv-x="1436" d="M188 0v1434h396q758 0 758 -699q0 -332 -210.5 -533.5t-563.5 -201.5h-380zM356 1282v-1130h214q282 0 439 151t157 428q0 551 -586 551h-224zM962 1896l-214 -330h-132l-216 330h115l164 -229l164 229h119z"/>
    <glyph glyph-name="dcaron" unicode="ď" horiz-adv-x="1381" d="M1040 0h-164v174h-4q-114 -198 -352 -198q-193 0 -308.5 137.5t-115.5 374.5q0 254 128 407t341 153q211 0 307 -166h4v634h164v-1516zM876 463v151q0 124 -82 210t-208 86q-150 0 -236 -110t-86 -304q0 -177 82.5 -279.5t221.5 -102.5q137 0 222.5 99t85.5 250z M1459 1516l-166 -260h-123l117 260h172z"/>
    <glyph glyph-name="Dcroat" unicode="Đ" horiz-adv-x="1436" d="M188 0v641h-160v155h160v638h396q758 0 758 -699q0 -334 -210.5 -534.5t-563.5 -200.5h-380zM356 1282v-486h336v-155h-336v-489h214q282 0 439 151t157 428q0 551 -586 551h-224z"/>
    <glyph glyph-name="Eogonek" unicode="Ę" horiz-adv-x="1036" d="M948 0h-760v1434h728v-152h-560v-477h518v-151h-518v-502h592v-152zM865 0q-150 -141 -150 -223q0 -70 68 -70q30 0 56 13v-107q-30 -13 -82 -13q-76 0 -122 40t-46 110q0 122 157 250h119z"/>
    <glyph glyph-name="eogonek" unicode="ę" horiz-adv-x="1071" d="M989 471h-723q4 -171 92 -264t242 -93q173 0 318 114v-154q-135 -98 -357 -98q-217 0 -341 139.5t-124 392.5q0 239 135.5 389.5t336.5 150.5t311 -130t110 -361v-86zM821 610q-1 142 -68.5 221t-187.5 79q-116 0 -197 -83t-100 -217h553zM755 0q-150 -141 -150 -223 q0 -70 68 -70q30 0 56 13v-107q-30 -13 -82 -13q-76 0 -122 40t-46 110q0 122 157 250h119z"/>
    <glyph glyph-name="Ecaron" unicode="Ě" horiz-adv-x="1036" d="M948 0h-760v1434h728v-152h-560v-477h518v-151h-518v-502h592v-152zM841 1896l-214 -330h-132l-216 330h115l164 -229l164 229h119z"/>
    <glyph glyph-name="ecaron" unicode="ě" horiz-adv-x="1071" d="M989 471h-723q4 -171 92 -264t242 -93q173 0 318 114v-154q-135 -98 -357 -98q-217 0 -341 139.5t-124 392.5q0 239 135.5 389.5t336.5 150.5t311 -130t110 -361v-86zM821 610q-1 142 -68.5 221t-187.5 79q-116 0 -197 -83t-100 -217h553zM844 1548l-214 -330h-132 l-216 330h115l164 -229l164 229h119z"/>
    <glyph glyph-name="Lacute" unicode="Ĺ" horiz-adv-x="964" d="M932 0h-744v1434h168v-1282h576v-152zM856 1894l-262 -328h-127l223 328h166z"/>
    <glyph glyph-name="lacute" unicode="ĺ" horiz-adv-x="496" d="M330 0h-164v1516h164v-1516zM531 1979l-262 -328h-127l223 328h166z"/>
    <glyph glyph-name="Lcaron" unicode="Ľ" horiz-adv-x="964" d="M932 0h-744v1434h168v-1282h576v-152zM905 1434l-166 -260h-123l117 260h172z"/>
    <glyph glyph-name="lcaron" unicode="ľ" horiz-adv-x="629" d="M330 0h-164v1516h164v-1516zM707 1510l-166 -260h-123l117 260h172z"/>
    <glyph glyph-name="Ldot" unicode="Ŀ" horiz-adv-x="964" d="M932 0h-744v1434h168v-1282h576v-152zM736 666q-40 0 -69.5 28.5t-29.5 70.5q0 40 29 68t70 28t69.5 -27.5t28.5 -68.5t-28.5 -70t-69.5 -29z"/>
    <glyph glyph-name="ldot" unicode="ŀ" horiz-adv-x="645" d="M330 0h-164v1516h164v-1516zM549 666q-40 0 -69.5 28.5t-29.5 70.5q0 40 29 68t70 28t69.5 -27.5t28.5 -68.5t-28.5 -70t-69.5 -29z"/>
    <glyph glyph-name="Nacute" unicode="Ń" horiz-adv-x="1532" d="M1344 0h-206l-738 1143q-28 43 -46 90h-6q8 -46 8 -197v-1036h-168v1434h218l718 -1125q45 -70 58 -96h4q-10 62 -10 211v1010h168v-1434zM1006 1894l-262 -328h-127l223 328h166z"/>
    <glyph glyph-name="nacute" unicode="ń" horiz-adv-x="1159" d="M1016 0h-164v584q0 326 -238 326q-123 0 -203.5 -92.5t-80.5 -233.5v-584h-164v1024h164v-170h4q116 194 336 194q168 0 257 -108.5t89 -313.5v-626zM836 1546l-262 -328h-127l223 328h166z"/>
    <glyph glyph-name="Ncaron" unicode="Ň" horiz-adv-x="1532" d="M1344 0h-206l-738 1143q-28 43 -46 90h-6q8 -46 8 -197v-1036h-168v1434h218l718 -1125q45 -70 58 -96h4q-10 62 -10 211v1010h168v-1434zM1046 1896l-214 -330h-132l-216 330h115l164 -229l164 229h119z"/>
    <glyph glyph-name="ncaron" unicode="ň" horiz-adv-x="1159" d="M1016 0h-164v584q0 326 -238 326q-123 0 -203.5 -92.5t-80.5 -233.5v-584h-164v1024h164v-170h4q116 194 336 194q168 0 257 -108.5t89 -313.5v-626zM882 1548l-214 -330h-132l-216 330h115l164 -229l164 229h119z"/>
    <glyph glyph-name="Ohungarumlaut" unicode="Ő" horiz-adv-x="1544" d="M766 -24q-305 0 -488.5 201t-183.5 523q0 346 187 552t509 206q297 0 478.5 -200t181.5 -523q0 -351 -186 -555t-498 -204zM778 1306q-226 0 -367 -163t-141 -428t137.5 -426.5t358.5 -161.5q236 0 372 154t136 431q0 284 -132 439t-364 155zM1128 1886l-245 -318h-97 l209 318h133zM881 1886l-240 -318h-96l206 318h130z"/>
    <glyph glyph-name="ohungarumlaut" unicode="ő" horiz-adv-x="1200" d="M594 -24q-227 0 -362.5 143.5t-135.5 380.5q0 258 141 403t381 145q229 0 357.5 -141t128.5 -391q0 -245 -138.5 -392.5t-371.5 -147.5zM606 910q-158 0 -250 -107.5t-92 -296.5q0 -182 93 -287t249 -105q159 0 244.5 103t85.5 293q0 192 -85.5 296t-244.5 104zM966 1536 l-245 -318h-97l209 318h133zM719 1536l-240 -318h-96l206 318h130z"/>
    <glyph glyph-name="Racute" unicode="Ŕ" horiz-adv-x="1225" d="M1216 0h-200l-240 402q-33 56 -64 95.5t-63.5 64.5t-70 36.5t-84.5 11.5h-138v-610h-168v1434h428q94 0 173.5 -23.5t138 -71.5t91.5 -119.5t33 -167.5q0 -75 -22.5 -137.5t-64 -111.5t-100 -83.5t-131.5 -53.5v-4q36 -16 62.5 -36.5t50.5 -48.5t47.5 -63.5t52.5 -82.5z M356 1282v-520h228q63 0 116.5 19t92.5 54.5t61 87t22 115.5q0 115 -74.5 179.5t-215.5 64.5h-230zM875 1894l-262 -328h-127l223 328h166z"/>
    <glyph glyph-name="racute" unicode="ŕ" horiz-adv-x="712" d="M700 858q-43 33 -124 33q-105 0 -175.5 -99t-70.5 -270v-522h-164v1024h164v-211h4q35 108 107 168.5t161 60.5q64 0 98 -14v-170zM688 1546l-262 -328h-127l223 328h166z"/>
    <glyph glyph-name="Rcaron" unicode="Ř" horiz-adv-x="1225" d="M1216 0h-200l-240 402q-33 56 -64 95.5t-63.5 64.5t-70 36.5t-84.5 11.5h-138v-610h-168v1434h428q94 0 173.5 -23.5t138 -71.5t91.5 -119.5t33 -167.5q0 -75 -22.5 -137.5t-64 -111.5t-100 -83.5t-131.5 -53.5v-4q36 -16 62.5 -36.5t50.5 -48.5t47.5 -63.5t52.5 -82.5z M356 1282v-520h228q63 0 116.5 19t92.5 54.5t61 87t22 115.5q0 115 -74.5 179.5t-215.5 64.5h-230zM891 1896l-214 -330h-132l-216 330h115l164 -229l164 229h119z"/>
    <glyph glyph-name="rcaron" unicode="ř" horiz-adv-x="712" d="M700 858q-43 33 -124 33q-105 0 -175.5 -99t-70.5 -270v-522h-164v1024h164v-211h4q35 108 107 168.5t161 60.5q64 0 98 -14v-170zM713 1548l-214 -330h-132l-216 330h115l164 -229l164 229h119z"/>
    <glyph glyph-name="Sacute" unicode="Ś" horiz-adv-x="1088" d="M121 58v198q34 -30 81.5 -54t100 -40.5t105.5 -25.5t98 -9q155 0 231.5 57.5t76.5 165.5q0 58 -25.5 101t-70.5 78.5t-106.5 68t-132.5 68.5q-75 38 -140 77t-113 86t-75.5 106.5t-27.5 139.5q0 98 43 170.5t113 119.5t159.5 70t182.5 23q212 0 309 -51v-189 q-127 88 -326 88q-55 0 -110 -11.5t-98 -37.5t-70 -67t-27 -100q0 -55 20.5 -95t60.5 -73t97.5 -64t132.5 -68q77 -38 146 -80t121 -93t82.5 -113t30.5 -142q0 -106 -41.5 -179.5t-112 -119.5t-162.5 -66.5t-194 -20.5q-34 0 -84 5.5t-102 16t-98.5 26t-74.5 34.5zM821 1893 l-262 -328h-127l223 328h166z"/>
    <glyph glyph-name="sacute" unicode="ś" horiz-adv-x="869" d="M104 37v176q134 -99 295 -99q216 0 216 144q0 41 -18.5 69.5t-50 50.5t-74 39.5t-91.5 36.5q-68 27 -119.5 54.5t-86 62t-52 78.5t-17.5 103q0 72 33 127.5t88 93t125.5 56.5t145.5 19q133 0 238 -46v-166q-113 74 -260 74q-46 0 -83 -10.5t-63.5 -29.5t-41 -45.5 t-14.5 -58.5q0 -40 14.5 -67t42.5 -48t68 -38t91 -37q68 -26 122 -53.5t92 -62t58.5 -79.5t20.5 -107q0 -76 -33.5 -132t-89.5 -93t-129 -55t-153 -18q-158 0 -274 61zM714 1546l-262 -328h-127l223 328h166z"/>
    <glyph glyph-name="Tcedilla" unicode="Ţ" horiz-adv-x="1073" d="M1036 1282h-414v-1282h-168v1282h-413v152h995v-152zM764 -256q0 -176 -275 -176q-38 0 -65 2v90q43 -6 70 -6q141 0 141 90q0 78 -129 78q-10 0 -41 -4v182h108v-104q88 0 139.5 -40t51.5 -112z"/>
    <glyph glyph-name="tcedilla" unicode="ţ" horiz-adv-x="694" d="M641 10q-58 -32 -153 -32q-269 0 -269 300v606h-176v140h176v250l164 53v-303h258v-140h-258v-577q0 -103 35 -147t116 -44q62 0 107 34v-140zM666 -256q0 -176 -275 -176q-38 0 -65 2v90q43 -6 70 -6q141 0 141 90q0 78 -129 78q-10 0 -41 -4v182h108v-104 q88 0 139.5 -40t51.5 -112z"/>
    <glyph glyph-name="Tcaron" unicode="Ť" horiz-adv-x="1073" d="M1036 1282h-414v-1282h-168v1282h-413v152h995v-152zM821 1896l-214 -330h-132l-216 330h115l164 -229l164 229h119z"/>
    <glyph glyph-name="tcaron" unicode="ť" horiz-adv-x="901" d="M641 10q-58 -32 -153 -32q-269 0 -269 300v606h-176v140h176v250l164 53v-303h258v-140h-258v-577q0 -103 35 -147t116 -44q62 0 107 34v-140zM979 1394l-166 -260h-123l117 260h172z"/>
    <glyph glyph-name="Uring" unicode="Ů" horiz-adv-x="1407" d="M1237 580q0 -604 -545 -604q-522 0 -522 581v877h168v-866q0 -441 372 -441q359 0 359 426v881h168v-854zM682 1567q-87 0 -144.5 52.5t-57.5 137.5q0 90 59 144t150 54q89 0 146 -54t57 -138t-61 -140t-149 -56zM682 1874q-48 0 -80 -32.5t-32 -80.5q0 -112 112 -112 q50 0 83 32t33 80q0 49 -33 81t-83 32z"/>
    <glyph glyph-name="uring" unicode="ů" horiz-adv-x="1159" d="M994 0h-164v162h-4q-102 -186 -316 -186q-366 0 -366 436v612h163v-586q0 -324 248 -324q120 0 197.5 88.5t77.5 231.5v590h164v-1024zM564 1176q-87 0 -144.5 52.5t-57.5 137.5q0 90 59 144t150 54q89 0 146 -54t57 -138t-61 -140t-149 -56zM564 1483q-48 0 -80 -32.5 t-32 -80.5q0 -112 112 -112q50 0 83 32t33 80q0 49 -33 81t-83 32z"/>
    <glyph glyph-name="Uhungarumlaut" unicode="Ű" horiz-adv-x="1407" d="M1237 580q0 -604 -545 -604q-522 0 -522 581v877h168v-866q0 -441 372 -441q359 0 359 426v881h168v-854zM1050 1884l-245 -318h-97l209 318h133zM803 1884l-240 -318h-96l206 318h130z"/>
    <glyph glyph-name="uhungarumlaut" unicode="ű" horiz-adv-x="1159" d="M994 0h-164v162h-4q-102 -186 -316 -186q-366 0 -366 436v612h163v-586q0 -324 248 -324q120 0 197.5 88.5t77.5 231.5v590h164v-1024zM908 1536l-245 -318h-97l209 318h133zM661 1536l-240 -318h-96l206 318h130z"/>
    <glyph glyph-name="Zacute" unicode="Ź" horiz-adv-x="1168" d="M1124 1394l-840 -1242h820v-152h-1071v47l833 1235h-766v152h1024v-40zM868 1895l-262 -328h-127l223 328h166z"/>
    <glyph glyph-name="zacute" unicode="ź" horiz-adv-x="926" d="M880 977l-606 -837h600v-140h-841v51l606 833h-549v140h790v-47zM723 1546l-262 -328h-127l223 328h166z"/>
    <glyph glyph-name="Zdotaccent" unicode="Ż" horiz-adv-x="1168" d="M1124 1394l-840 -1242h820v-152h-1071v47l833 1235h-766v152h1024v-40zM594 1566q-40 0 -69.5 28.5t-29.5 70.5q0 40 29 68t70 28t69.5 -27.5t28.5 -68.5t-28.5 -70t-69.5 -29z"/>
    <glyph glyph-name="zdotaccent" unicode="ż" horiz-adv-x="926" d="M880 977l-606 -837h600v-140h-841v51l606 833h-549v140h790v-47zM486 1218q-40 0 -69.5 28.5t-29.5 70.5q0 40 29 68t70 28t69.5 -27.5t28.5 -68.5t-28.5 -70t-69.5 -29z"/>
    <glyph glyph-name="Gamma" unicode="Γ" horiz-adv-x="966" d="M932 1278h-575v-1278h-169v1434h744v-156z"/>
    <glyph glyph-name="Theta" unicode="Θ" horiz-adv-x="1544" d="M766 -24q-304 0 -488 199.5t-184 524.5q0 343 186.5 550.5t509.5 207.5q297 0 478.5 -200t181.5 -523q0 -351 -185.5 -555t-498.5 -204zM777 1306q-225 0 -365.5 -163t-140.5 -427q0 -266 137 -427.5t358 -161.5q236 0 371.5 154t135.5 432q0 280 -131.5 436.5 t-364.5 156.5zM1041 638h-537v156h537v-156z"/>
    <glyph glyph-name="Phi" unicode="Φ" horiz-adv-x="1544" d="M850 186v-201h-156v201h-43q-249 0 -402 158t-153 410q0 246 152.5 395t404.5 149h41v149h156v-149h42q252 0 403.5 -149.5t151.5 -394.5q0 -253 -154 -410.5t-399 -157.5h-44zM850 1156v-820h44q182 0 285.5 110t103.5 306q0 185 -105.5 294.5t-285.5 109.5h-42z M694 336v820h-41q-179 0 -286 -109t-107 -296q0 -196 103.5 -305.5t287.5 -109.5h43z"/>
    <glyph glyph-name="alpha" unicode="α" horiz-adv-x="1258" d="M1221 5q-53 -13 -95 -13q-154 0 -208 293h-4q-148 -309 -414 -309q-186 0 -298 143.5t-112 362.5q0 250 129 408t349 158q126 0 225 -75t150 -211h4l85 262h172l-193 -502q34 -219 72 -297.5t98 -78.5q23 0 40 5v-146zM873 520q-38 190 -116 291t-188 101 q-142 0 -226.5 -121t-84.5 -299q0 -158 71.5 -265t192.5 -107q106 0 192.5 90.5t144.5 266.5z"/>
    <glyph glyph-name="delta" unicode="δ" horiz-adv-x="1196" d="M999 1470v-183q-168 101 -340 101q-100 0 -160.5 -34.5t-60.5 -92.5q0 -47 52 -99.5t172 -125.5q162 -99 255 -176t141.5 -172.5t48.5 -206.5q0 -233 -141 -369.5t-380 -136.5q-219 0 -356.5 133.5t-137.5 348.5q0 155 106 284t309 217q-238 147 -238 310q0 128 104 197 t286 69q164 0 340 -64zM634 883q-366 -148 -366 -425q0 -157 90.5 -249.5t240.5 -92.5q157 0 250 96t93 257q0 117 -71.5 212.5t-236.5 201.5z"/>
    <glyph glyph-name="epsilon" unicode="ε" horiz-adv-x="897" d="M827 22q-130 -47 -325 -47t-307.5 82.5t-112.5 219.5q0 93 69.5 161t183.5 89v4q-86 18 -150 82.5t-64 147.5q0 136 106.5 212t284.5 76q143 0 270 -45v-165q-133 71 -280 71q-215 0 -215 -147q0 -75 81 -121t206 -46q73 0 118 4v-146q-73 4 -140 4q-304 0 -304 -178 q0 -75 70.5 -120.5t198.5 -45.5q167 0 310 73v-165z"/>
    <glyph glyph-name="sigma" unicode="σ" horiz-adv-x="1177" d="M1154 892h-256q142 -182 142 -403q0 -227 -126 -370t-338 -143q-219 0 -349 143.5t-130 382.5q0 522 521 522h536v-132zM750 892h-118q-366 0 -366 -397q0 -172 84.5 -275.5t225.5 -103.5q137 0 216.5 104.5t79.5 279.5q0 220 -122 392z"/>
    <glyph glyph-name="tau" unicode="τ" horiz-adv-x="998" d="M965 892h-391v-618q0 -142 116 -142q54 0 108 20v-142q-66 -22 -138 -22q-249 0 -249 288v616h-141q-114 0 -236 -88v148q76 72 240 72h691v-132z"/>
    <glyph glyph-name="phi" unicode="φ" horiz-adv-x="1432" d="M822 -24q-4 -4 -34 0v-458h-148v458q-24 -4 -28 0q-236 0 -376 144t-140 390q0 315 210 514h194q-236 -216 -236 -518q0 -184 95.5 -287t250.5 -103h30v661q0 271 274 271q188 0 305 -148.5t117 -399.5q0 -233 -140.5 -378.5t-373.5 -145.5zM788 116h34q152 0 249 105.5 t97 286.5q0 180 -73.5 290t-176.5 110q-130 0 -130 -129v-663z"/>
    <glyph glyph-name="underscoredbl" unicode="‗" horiz-adv-x="850" d="M0 -277v119h850v-119h-850zM0 -514v119h850v-119h-850z"/>
    <glyph glyph-name="exclamdbl" unicode="‼" horiz-adv-x="983" d="M375 1434l-19 -1030h-135l-18 1030h172zM291 -18q-46 0 -78.5 32t-32.5 78t32.5 78.5t78.5 32.5q45 0 78 -32.5t33 -78.5t-33 -78t-78 -32zM776 1434l-19 -1030h-135l-18 1030h172zM692 -18q-46 0 -78.5 32t-32.5 78t32.5 78.5t78.5 32.5q45 0 78 -32.5t33 -78.5t-33 -78 t-78 -32z"/>
    <glyph glyph-name="nsuperior" unicode="ⁿ" horiz-adv-x="803" d="M238 717h-128v719h128v-115h4q67 135 210 135q120 0 187 -74t67 -206v-459h-130v451q0 176 -151 176q-74 0 -130.5 -60.5t-56.5 -145.5v-421z"/>
    <glyph glyph-name="peseta" unicode="₧" horiz-adv-x="2274" d="M356 542v-542h-168v1434h312q462 0 462 -428q0 -210 -132 -337t-367 -127h-107zM356 1282v-588h94q336 0 336 304q0 284 -315 284h-115zM1552 10q-58 -32 -153 -32q-131 0 -189.5 71t-58.5 229v464h-155v138h155v250l164 54v-304h237v-138h-237v-435q0 -191 131 -191 q59 0 106 34v-140zM1620 37v176q121 -99 258 -99q162 0 162 114q0 40 -32 80t-278 132q-108 62 -108 178q0 121 92 193.5t238 72.5q130 0 208 -46v-160q-96 68 -210 68q-72 0 -116 -31.5t-44 -81.5q0 -57 108 -101q94 -39 164.5 -70.5t108 -87.5t37.5 -130 q0 -125 -88 -196.5t-242 -71.5q-162 0 -258 61z"/>
    <glyph glyph-name="IJ" unicode="Ĳ" horiz-adv-x="1276" d="M496 1434v-144h-140v-1146h140v-144h-448v144h140v1146h-140v144h448zM1102 514q0 -255 -108 -396.5t-289 -141.5q-84 0 -138 24v166q54 -39 140 -39q227 0 227 385v922h168v-920z"/>
    <glyph glyph-name="ij" unicode="ĳ" horiz-adv-x="1014" d="M250 1284q-44 0 -75 30t-31 76t31 76.5t75 30.5q45 0 76.5 -30.5t31.5 -76.5q0 -44 -31.5 -75t-76.5 -31zM330 0h-164v1024h164v-1024zM848 43q0 -252 -101.5 -388.5t-290.5 -136.5q-70 0 -136 32v153q74 -45 140 -45q224 0 224 358v1008h164v-981zM768 1284 q-44 0 -75 30t-31 76t31 76.5t75 30.5q45 0 76.5 -30.5t31.5 -76.5q0 -44 -31.5 -75t-76.5 -31z"/>
    <glyph glyph-name="napostrophe" unicode="ŉ" horiz-adv-x="1241" d="M1098 0h-164v584q0 326 -238 326q-123 0 -203.5 -92.5t-80.5 -233.5v-584h-164v1024h164v-170h4q116 194 336 194q168 0 257 -108.5t89 -313.5v-626zM217 1458l-140 -446h-118l111 446h147z"/>
    <glyph glyph-name="minute" unicode="′" horiz-adv-x="469" d="M350 1434l-104 -447h-116l86 447h134z"/>
    <glyph glyph-name="second" unicode="″" horiz-adv-x="772" d="M644 1434l-106 -447h-116l86 447h136zM361 1434l-105 -447h-115l85 447h135z"/>
    <glyph glyph-name="uni2105" unicode="℅" horiz-adv-x="1646" d="M759 1271q-79 67 -169 67q-118 0 -189.5 -97.5t-71.5 -224.5q0 -188 154 -188q86 0 204 79l-31 -141q-102 -53 -194 -53q-128 0 -199 79.5t-71 214.5q0 191 114 319t298 128q114 0 187 -50zM1526 1434l-1229 -1434h-147l1228 1434h148zM1164 -20q-141 0 -215.5 82 t-74.5 214q0 178 112 311t281 133q131 0 207 -78t76 -214q0 -181 -110.5 -314.5t-275.5 -133.5zM1264 610q-108 0 -182 -105t-74 -230q0 -184 160 -184q104 0 175.5 99t71.5 233q0 187 -151 187z"/>
    <glyph glyph-name="uni2113" unicode="ℓ" horiz-adv-x="662" d="M14 422l178 236v454q0 226 61.5 302.5t172.5 76.5q100 0 159.5 -67.5t59.5 -171.5q0 -195 -285 -586v-416q0 -90 14 -110.5t44 -20.5q48 0 198 107v-162q-112 -88 -225 -88q-199 0 -199 241v225l-80 -98zM360 899q109 187 127.5 243.5t18.5 109.5q0 118 -76 118 q-29 0 -49.5 -31t-20.5 -213v-227z"/>
    <glyph glyph-name="uni25A1" unicode="□" horiz-adv-x="1237" d="M146 944h944v-944h-944v944zM221 868v-792h793v792h-793z"/>
    <glyph glyph-name="uni25AA" unicode="▪" horiz-adv-x="725" d="M594 908v-464h-463v464h463z"/>
    <glyph glyph-name="uni25AB" unicode="▫" horiz-adv-x="725" d="M131 908h463v-464h-463v464zM207 832v-312h311v312h-311z"/>
    <glyph glyph-name="uni25CF" unicode="●" horiz-adv-x="1237" d="M1059 578q0 -184 -128.5 -312.5t-310.5 -128.5q-184 0 -313 128.5t-129 312.5q0 185 131 312.5t309 127.5q183 0 312 -130t129 -310z"/>
    <glyph glyph-name="openbullet" unicode="◦" horiz-adv-x="725" d="M614 678q0 -106 -73 -179t-178 -73q-103 0 -177 74t-74 178q0 102 73 176t178 74q103 0 177 -74t74 -176zM188 678q0 -74 51.5 -125t124.5 -51q74 0 124 51t50 125q0 73 -51 123.5t-125 50.5q-72 0 -123 -51.5t-51 -122.5z"/>
    <glyph glyph-name="Amacron" unicode="Ā" horiz-adv-x="1321" d="M1298 0h-186l-152 402h-608l-143 -402h-187l550 1434h174zM905 553l-225 611q-11 30 -22 96h-4q-10 -61 -23 -96l-223 -611h497zM912 1567h-508v109h508v-109z"/>
    <glyph glyph-name="amacron" unicode="ā" horiz-adv-x="1042" d="M899 0h-164v160h-4q-107 -184 -315 -184q-153 0 -239.5 81t-86.5 215q0 287 338 334l307 43q0 261 -211 261q-185 0 -334 -126v168q151 96 348 96q361 0 361 -382v-666zM735 518l-247 -34q-114 -16 -172 -56.5t-58 -143.5q0 -75 53.5 -122.5t142.5 -47.5 q122 0 201.5 85.5t79.5 216.5v102zM800 1218h-508v109h508v-109z"/>
    <glyph glyph-name="Ccircumflex" unicode="Ĉ" horiz-adv-x="1268" d="M1164 60q-159 -84 -396 -84q-306 0 -490 197t-184 517q0 344 207 556t525 212q204 0 338 -59v-179q-154 86 -340 86q-247 0 -400.5 -165t-153.5 -441q0 -262 143.5 -417.5t376.5 -155.5q216 0 374 96v-163zM1047 1568h-122l-164 230l-165 -230h-113l215 332h133z"/>
    <glyph glyph-name="ccircumflex" unicode="ĉ" horiz-adv-x="946" d="M864 47q-118 -71 -280 -71q-219 0 -353.5 142.5t-134.5 369.5q0 253 145 406.5t387 153.5q135 0 238 -50v-168q-114 80 -244 80q-157 0 -257.5 -112.5t-100.5 -295.5q0 -180 94.5 -284t253.5 -104q134 0 252 89v-156zM840 1218h-122l-164 230l-165 -230h-113l215 332h133 z"/>
    <glyph glyph-name="Cdotaccent" unicode="Ċ" horiz-adv-x="1268" d="M1164 60q-159 -84 -396 -84q-306 0 -490 197t-184 517q0 344 207 556t525 212q204 0 338 -59v-179q-154 86 -340 86q-247 0 -400.5 -165t-153.5 -441q0 -262 143.5 -417.5t376.5 -155.5q216 0 374 96v-163zM768 1567q-40 0 -69.5 28.5t-29.5 70.5q0 40 29 68t70 28 t69.5 -27.5t28.5 -68.5t-28.5 -70t-69.5 -29z"/>
    <glyph glyph-name="cdotaccent" unicode="ċ" horiz-adv-x="946" d="M864 47q-118 -71 -280 -71q-219 0 -353.5 142.5t-134.5 369.5q0 253 145 406.5t387 153.5q135 0 238 -50v-168q-114 80 -244 80q-157 0 -257.5 -112.5t-100.5 -295.5q0 -180 94.5 -284t253.5 -104q134 0 252 89v-156zM595 1218q-40 0 -69.5 28.5t-29.5 70.5q0 40 29 68 t70 28t69.5 -27.5t28.5 -68.5t-28.5 -70t-69.5 -29z"/>
    <glyph glyph-name="Emacron" unicode="Ē" horiz-adv-x="1036" d="M948 0h-760v1434h728v-152h-560v-477h518v-151h-518v-502h592v-152zM824 1566h-508v109h508v-109z"/>
    <glyph glyph-name="emacron" unicode="ē" horiz-adv-x="1071" d="M989 471h-723q4 -171 92 -264t242 -93q173 0 318 114v-154q-135 -98 -357 -98q-217 0 -341 139.5t-124 392.5q0 239 135.5 389.5t336.5 150.5t311 -130t110 -361v-86zM821 610q-1 142 -68.5 221t-187.5 79q-116 0 -197 -83t-100 -217h553zM820 1218h-508v109h508v-109z "/>
    <glyph glyph-name="Ebreve" unicode="Ĕ" horiz-adv-x="1036" d="M948 0h-760v1434h728v-152h-560v-477h518v-151h-518v-502h592v-152zM829 1820q-10 -113 -88.5 -182.5t-190.5 -69.5q-117 0 -191 69t-79 183h100q12 -155 172 -155q68 0 116.5 42t58.5 113h102z"/>
    <glyph glyph-name="ebreve" unicode="ĕ" horiz-adv-x="1071" d="M989 471h-723q4 -171 92 -264t242 -93q173 0 318 114v-154q-135 -98 -357 -98q-217 0 -341 139.5t-124 392.5q0 239 135.5 389.5t336.5 150.5t311 -130t110 -361v-86zM821 610q-1 142 -68.5 221t-187.5 79q-116 0 -197 -83t-100 -217h553zM831 1470 q-10 -113 -88.5 -182.5t-190.5 -69.5q-117 0 -191 69t-79 183h100q12 -155 172 -155q68 0 116.5 42t58.5 113h102z"/>
    <glyph glyph-name="Edotaccent" unicode="Ė" horiz-adv-x="1036" d="M948 0h-760v1434h728v-152h-560v-477h518v-151h-518v-502h592v-152zM550 1567q-40 0 -69.5 28.5t-29.5 70.5q0 40 29 68t70 28t69.5 -27.5t28.5 -68.5t-28.5 -70t-69.5 -29z"/>
    <glyph glyph-name="edotaccent" unicode="ė" horiz-adv-x="1071" d="M989 471h-723q4 -171 92 -264t242 -93q173 0 318 114v-154q-135 -98 -357 -98q-217 0 -341 139.5t-124 392.5q0 239 135.5 389.5t336.5 150.5t311 -130t110 -361v-86zM821 610q-1 142 -68.5 221t-187.5 79q-116 0 -197 -83t-100 -217h553zM576 1218q-40 0 -69.5 28.5 t-29.5 70.5q0 40 29 68t70 28t69.5 -27.5t28.5 -68.5t-28.5 -70t-69.5 -29z"/>
    <glyph glyph-name="Gcircumflex" unicode="Ĝ" horiz-adv-x="1405" d="M1260 98q-216 -122 -480 -122q-307 0 -496.5 198t-189.5 524q0 333 210.5 546.5t533.5 213.5q234 0 393 -76v-186q-174 110 -412 110q-241 0 -395 -166t-154 -430q0 -272 143 -427.5t388 -155.5q168 0 291 67v402h-314v152h482v-650zM1061 1568h-122l-164 230l-165 -230 h-113l215 332h133z"/>
    <glyph glyph-name="gcircumflex" unicode="ĝ" horiz-adv-x="1206" d="M1040 82q0 -564 -540 -564q-190 0 -332 72v164q173 -96 330 -96q378 0 378 402v112h-4q-117 -196 -352 -196q-191 0 -307.5 136.5t-116.5 366.5q0 261 125.5 415t343.5 154q207 0 307 -166h4v142h164v-942zM876 463v151q0 122 -82.5 209t-205.5 87q-152 0 -238 -110.5 t-86 -309.5q0 -171 82.5 -273.5t218.5 -102.5q138 0 224.5 98t86.5 251zM865 1218h-122l-164 230l-165 -230h-113l215 332h133z"/>
    <glyph glyph-name="Gdotaccent" unicode="Ġ" horiz-adv-x="1405" d="M1260 98q-216 -122 -480 -122q-307 0 -496.5 198t-189.5 524q0 333 210.5 546.5t533.5 213.5q234 0 393 -76v-186q-174 110 -412 110q-241 0 -395 -166t-154 -430q0 -272 143 -427.5t388 -155.5q168 0 291 67v402h-314v152h482v-650zM798 1567q-40 0 -69.5 28.5 t-29.5 70.5q0 40 29 68t70 28t69.5 -27.5t28.5 -68.5t-28.5 -70t-69.5 -29z"/>
    <glyph glyph-name="gdotaccent" unicode="ġ" horiz-adv-x="1206" d="M1040 82q0 -564 -540 -564q-190 0 -332 72v164q173 -96 330 -96q378 0 378 402v112h-4q-117 -196 -352 -196q-191 0 -307.5 136.5t-116.5 366.5q0 261 125.5 415t343.5 154q207 0 307 -166h4v142h164v-942zM876 463v151q0 122 -82.5 209t-205.5 87q-152 0 -238 -110.5 t-86 -309.5q0 -171 82.5 -273.5t218.5 -102.5q138 0 224.5 98t86.5 251zM575 1218q-40 0 -69.5 28.5t-29.5 70.5q0 40 29 68t70 28t69.5 -27.5t28.5 -68.5t-28.5 -70t-69.5 -29z"/>
    <glyph glyph-name="Gcommaaccent" unicode="Ģ" horiz-adv-x="1405" d="M1260 98q-216 -122 -480 -122q-307 0 -496.5 198t-189.5 524q0 333 210.5 546.5t533.5 213.5q234 0 393 -76v-186q-174 110 -412 110q-241 0 -395 -166t-154 -430q0 -272 143 -427.5t388 -155.5q168 0 291 67v402h-314v152h482v-650zM885 -119l-166 -260h-123l117 260 h172z"/>
    <glyph glyph-name="gcommaaccent" unicode="ģ" horiz-adv-x="1206" d="M1040 82q0 -564 -540 -564q-193 0 -332 72v164q174 -96 330 -96q378 0 378 402v112h-4q-116 -196 -352 -196q-190 0 -307 137.5t-117 365.5q0 261 125.5 415t343.5 154q209 0 307 -166h4v142h164v-942zM876 463v151q0 121 -82 208.5t-206 87.5q-154 0 -239 -111t-85 -309 q0 -170 83 -273t218 -103q139 0 225 97.5t86 251.5zM471 1218l166 260h123l-117 -260h-172z"/>
    <glyph glyph-name="Hcircumflex" unicode="Ĥ" horiz-adv-x="1454" d="M1266 0h-168v654h-742v-654h-168v1434h168v-629h742v629h168v-1434zM1006 1566h-122l-164 230l-165 -230h-113l215 332h133z"/>
    <glyph glyph-name="hcircumflex" unicode="ĥ" horiz-adv-x="1159" d="M1016 0h-164v590q0 320 -238 320q-120 0 -202 -92.5t-82 -237.5v-580h-164v1516h164v-662h4q118 194 336 194q346 0 346 -417v-631zM912 1647h-122l-164 230l-165 -230h-113l215 332h133z"/>
    <glyph glyph-name="Hbar" unicode="Ħ" horiz-adv-x="1454" d="M1266 0h-168v654h-742v-654h-168v1028h-160v152h160v254h168v-254h742v254h168v-254h160v-152h-160v-1028zM356 1028v-223h742v223h-742z"/>
    <glyph glyph-name="hbar" unicode="ħ" horiz-adv-x="1159" d="M1016 0h-164v590q0 320 -238 320q-120 0 -202 -92.5t-82 -237.5v-580h-164v1202h-136v134h136v180h164v-180h332v-134h-332v-348h4q120 194 336 194q168 0 257 -107t89 -310v-631z"/>
    <glyph glyph-name="Itilde" unicode="Ĩ" horiz-adv-x="545" d="M496 1434v-144h-140v-1146h140v-144h-448v144h140v1146h-140v144h448zM593 1804q0 -105 -48 -171.5t-130 -66.5q-71 0 -162 52q-77 43 -119 43q-88 0 -88 -113h-94q0 107 48 171.5t134 64.5q65 0 149 -52q74 -44 128 -44q84 0 84 116h98z"/>
    <glyph glyph-name="itilde" unicode="ĩ" horiz-adv-x="496" d="M330 0h-164v1024h164v-1024zM558 1458q0 -105 -48 -171.5t-130 -66.5q-71 0 -162 52q-77 43 -119 43q-88 0 -88 -113h-94q0 107 48 171.5t134 64.5q65 0 149 -52q74 -44 128 -44q84 0 84 116h98z"/>
    <glyph glyph-name="Imacron" unicode="Ī" horiz-adv-x="545" d="M496 1434v-144h-140v-1146h140v-144h-448v144h140v1146h-140v144h448zM527 1566h-508v109h508v-109z"/>
    <glyph glyph-name="imacron" unicode="ī" horiz-adv-x="496" d="M330 0h-164v1024h164v-1024zM491 1218h-508v109h508v-109z"/>
    <glyph glyph-name="Ibreve" unicode="Ĭ" horiz-adv-x="545" d="M496 1434v-144h-140v-1146h140v-144h-448v144h140v1146h-140v144h448zM547 1818q-10 -113 -88.5 -182.5t-190.5 -69.5q-117 0 -191 69t-79 183h100q12 -155 172 -155q68 0 116.5 42t58.5 113h102z"/>
    <glyph glyph-name="ibreve" unicode="ĭ" horiz-adv-x="496" d="M330 0h-164v1024h164v-1024zM512 1470q-10 -113 -88.5 -182.5t-190.5 -69.5q-117 0 -191 69t-79 183h100q12 -155 172 -155q68 0 116.5 42t58.5 113h102z"/>
    <glyph glyph-name="Iogonek" unicode="Į" horiz-adv-x="545" d="M496 1434v-144h-140v-1146h140v-144h-448v144h140v1146h-140v144h448zM427 0q-150 -141 -150 -223q0 -70 68 -70q30 0 56 13v-107q-30 -13 -82 -13q-76 0 -122 40t-46 110q0 122 157 250h119z"/>
    <glyph glyph-name="iogonek" unicode="į" horiz-adv-x="496" d="M250 1284q-44 0 -75 30t-31 76t31 76.5t75 30.5q45 0 76.5 -30.5t31.5 -76.5q0 -44 -31.5 -75t-76.5 -31zM330 0h-164v1024h164v-1024zM331 0q-150 -141 -150 -223q0 -70 68 -70q30 0 56 13v-107q-30 -13 -82 -13q-76 0 -122 40t-46 110q0 122 157 250h119z"/>
    <glyph glyph-name="Jcircumflex" unicode="Ĵ" horiz-adv-x="731" d="M555 514q0 -255 -108 -396.5t-289 -141.5q-84 0 -138 24v166q54 -39 140 -39q227 0 227 385v922h168v-920zM754 1566h-122l-164 230l-165 -230h-113l215 332h133z"/>
    <glyph glyph-name="jcircumflex" unicode="ĵ" horiz-adv-x="496" d="M330 43q0 -252 -101.5 -388.5t-290.5 -136.5q-70 0 -136 32v153q74 -45 140 -45q224 0 224 358v1008h164v-981zM527 1218h-122l-164 230l-165 -230h-113l215 332h133z"/>
    <glyph glyph-name="Kcommaaccent" unicode="Ķ" horiz-adv-x="1188" d="M1186 0h-234l-554 656q-31 37 -38 50h-4v-706h-168v1434h168v-674h4q14 22 38 49l536 625h209l-615 -688zM742 -119l-166 -260h-123l117 260h172z"/>
    <glyph glyph-name="kcommaaccent" unicode="ķ" horiz-adv-x="1018" d="M1016 0h-230l-452 492h-4v-492h-164v1516h164v-961h4l430 469h215l-475 -494zM643 -119l-166 -260h-123l117 260h172z"/>
    <glyph glyph-name="kgreenlandic" unicode="ĸ" horiz-adv-x="1018" d="M1016 0h-230l-452 492h-4v-492h-164v1024h164v-469h4l430 469h215l-475 -494z"/>
    <glyph glyph-name="Lcommaaccent" unicode="Ļ" horiz-adv-x="964" d="M932 0h-744v1434h168v-1282h576v-152zM766 -256q0 -176 -275 -176q-38 0 -65 2v90q43 -6 70 -6q141 0 141 90q0 78 -129 78q-10 0 -41 -4v182h108v-104q88 0 139.5 -40t51.5 -112z"/>
    <glyph glyph-name="lcommaaccent" unicode="ļ" horiz-adv-x="496" d="M330 0h-164v1516h164v-1516zM477 -256q0 -176 -275 -176q-38 0 -65 2v90q43 -6 70 -6q141 0 141 90q0 78 -129 78q-10 0 -41 -4v182h108v-104q88 0 139.5 -40t51.5 -112z"/>
    <glyph glyph-name="Ncommaaccent" unicode="Ņ" horiz-adv-x="1532" d="M1344 0h-206l-738 1143q-28 43 -46 90h-6q8 -46 8 -197v-1036h-168v1434h218l718 -1125q45 -70 58 -96h4q-10 62 -10 211v1010h168v-1434zM870 -119l-166 -260h-123l117 260h172z"/>
    <glyph glyph-name="ncommaaccent" unicode="ņ" horiz-adv-x="1159" d="M1016 0h-164v584q0 326 -238 326q-123 0 -203.5 -92.5t-80.5 -233.5v-584h-164v1024h164v-170h4q116 194 336 194q168 0 257 -108.5t89 -313.5v-626zM693 -119l-166 -260h-123l117 260h172z"/>
    <glyph glyph-name="Eng" unicode="Ŋ" horiz-adv-x="1532" d="M400 1143q-22 32 -46 90h-6q8 -53 8 -197v-1036h-168v1434h218l718 -1066q2 -2 58 -104h4q-10 72 -10 220v950h168v-1370q0 -486 -365 -486q-76 0 -137 31v165q78 -44 141 -44q189 0 189 270z"/>
    <glyph glyph-name="eng" unicode="ŋ" horiz-adv-x="1159" d="M1016 26q0 -448 -358 -448q-76 0 -138 31v165q78 -44 142 -44q190 0 190 270v584q0 326 -238 326q-122 0 -203 -92.5t-81 -233.5v-584h-164v1024h164v-170h4q117 194 336 194q346 0 346 -422v-600z"/>
    <glyph glyph-name="Omacron" unicode="Ō" horiz-adv-x="1544" d="M766 -24q-305 0 -488.5 201t-183.5 523q0 346 187 552t509 206q297 0 478.5 -200t181.5 -523q0 -351 -186 -555t-498 -204zM778 1306q-226 0 -367 -163t-141 -428t137.5 -426.5t358.5 -161.5q236 0 372 154t136 431q0 284 -132 439t-364 155zM1032 1566h-508v109h508 v-109z"/>
    <glyph glyph-name="omacron" unicode="ō" horiz-adv-x="1200" d="M594 -24q-227 0 -362.5 143.5t-135.5 380.5q0 258 141 403t381 145q229 0 357.5 -141t128.5 -391q0 -245 -138.5 -392.5t-371.5 -147.5zM606 910q-158 0 -250 -107.5t-92 -296.5q0 -182 93 -287t249 -105q159 0 244.5 103t85.5 293q0 192 -85.5 296t-244.5 104zM864 1218 h-508v109h508v-109z"/>
    <glyph glyph-name="Obreve" unicode="Ŏ" horiz-adv-x="1544" d="M766 -24q-305 0 -488.5 201t-183.5 523q0 346 187 552t509 206q297 0 478.5 -200t181.5 -523q0 -351 -186 -555t-498 -204zM778 1306q-226 0 -367 -163t-141 -428t137.5 -426.5t358.5 -161.5q236 0 372 154t136 431q0 284 -132 439t-364 155zM1057 1820 q-10 -113 -88.5 -182.5t-190.5 -69.5q-117 0 -191 69t-79 183h100q12 -155 172 -155q68 0 116.5 42t58.5 113h102z"/>
    <glyph glyph-name="obreve" unicode="ŏ" horiz-adv-x="1200" d="M594 -24q-227 0 -362.5 143.5t-135.5 380.5q0 258 141 403t381 145q229 0 357.5 -141t128.5 -391q0 -245 -138.5 -392.5t-371.5 -147.5zM606 910q-158 0 -250 -107.5t-92 -296.5q0 -182 93 -287t249 -105q159 0 244.5 103t85.5 293q0 192 -85.5 296t-244.5 104zM895 1470 q-10 -113 -88.5 -182.5t-190.5 -69.5q-117 0 -191 69t-79 183h100q12 -155 172 -155q68 0 116.5 42t58.5 113h102z"/>
    <glyph glyph-name="Rcommaaccent" unicode="Ŗ" horiz-adv-x="1225" d="M1216 0h-200l-240 402q-33 56 -64 95.5t-63.5 64.5t-70 36.5t-84.5 11.5h-138v-610h-168v1434h428q94 0 173.5 -23.5t138 -71.5t91.5 -119.5t33 -167.5q0 -75 -22.5 -137.5t-64 -111.5t-100 -83.5t-131.5 -53.5v-4q36 -16 62.5 -36.5t50.5 -48.5t47.5 -63.5t52.5 -82.5z M356 1282v-520h228q63 0 116.5 19t92.5 54.5t61 87t22 115.5q0 115 -74.5 179.5t-215.5 64.5h-230zM736 -119l-166 -260h-123l117 260h172z"/>
    <glyph glyph-name="rcommaaccent" unicode="ŗ" horiz-adv-x="712" d="M700 858q-43 33 -124 33q-105 0 -175.5 -99t-70.5 -270v-522h-164v1024h164v-211h4q35 108 107 168.5t161 60.5q64 0 98 -14v-170zM533 -119l-166 -260h-123l117 260h172z"/>
    <glyph glyph-name="Scircumflex" unicode="Ŝ" horiz-adv-x="1088" d="M121 58v198q34 -30 81.5 -54t100 -40.5t105.5 -25.5t98 -9q155 0 231.5 57.5t76.5 165.5q0 58 -25.5 101t-70.5 78.5t-106.5 68t-132.5 68.5q-75 38 -140 77t-113 86t-75.5 106.5t-27.5 139.5q0 98 43 170.5t113 119.5t159.5 70t182.5 23q212 0 309 -51v-189 q-127 88 -326 88q-55 0 -110 -11.5t-98 -37.5t-70 -67t-27 -100q0 -55 20.5 -95t60.5 -73t97.5 -64t132.5 -68q77 -38 146 -80t121 -93t82.5 -113t30.5 -142q0 -106 -41.5 -179.5t-112 -119.5t-162.5 -66.5t-194 -20.5q-34 0 -84 5.5t-102 16t-98.5 26t-74.5 34.5zM833 1566 h-122l-164 230l-165 -230h-113l215 332h133z"/>
    <glyph glyph-name="scircumflex" unicode="ŝ" horiz-adv-x="869" d="M104 37v176q134 -99 295 -99q216 0 216 144q0 41 -18.5 69.5t-50 50.5t-74 39.5t-91.5 36.5q-68 27 -119.5 54.5t-86 62t-52 78.5t-17.5 103q0 72 33 127.5t88 93t125.5 56.5t145.5 19q133 0 238 -46v-166q-113 74 -260 74q-46 0 -83 -10.5t-63.5 -29.5t-41 -45.5 t-14.5 -58.5q0 -40 14.5 -67t42.5 -48t68 -38t91 -37q68 -26 122 -53.5t92 -62t58.5 -79.5t20.5 -107q0 -76 -33.5 -132t-89.5 -93t-129 -55t-153 -18q-158 0 -274 61zM711 1218h-122l-164 230l-165 -230h-113l215 332h133z"/>
    <glyph glyph-name="Tbar" unicode="Ŧ" horiz-adv-x="1073" d="M1036 1282h-414v-486h246v-155h-246v-641h-168v641h-249v155h249v486h-413v152h995v-152z"/>
    <glyph glyph-name="tbar" unicode="ŧ" horiz-adv-x="694" d="M631 547h-248v-240q0 -103 34.5 -147t116.5 -44q60 0 107 34v-140q-58 -32 -153 -32q-269 0 -269 300v269h-163v133h163v204h-176v140h176v250q4 2 82 27l82 26v-303h258v-140h-258v-204h248v-133z"/>
    <glyph glyph-name="Utilde" unicode="Ũ" horiz-adv-x="1407" d="M1237 580q0 -604 -545 -604q-522 0 -522 581v877h168v-866q0 -441 372 -441q359 0 359 426v881h168v-854zM1027 1806q0 -105 -48 -171.5t-130 -66.5q-71 0 -162 52q-77 43 -119 43q-88 0 -88 -113h-94q0 107 48 171.5t134 64.5q65 0 149 -52q74 -44 128 -44q84 0 84 116 h98z"/>
    <glyph glyph-name="utilde" unicode="ũ" horiz-adv-x="1159" d="M994 0h-164v162h-4q-102 -186 -316 -186q-366 0 -366 436v612h163v-586q0 -324 248 -324q120 0 197.5 88.5t77.5 231.5v590h164v-1024zM890 1458q0 -105 -48 -171.5t-130 -66.5q-71 0 -162 52q-77 43 -119 43q-88 0 -88 -113h-94q0 107 48 171.5t134 64.5q65 0 149 -52 q74 -44 128 -44q84 0 84 116h98z"/>
    <glyph glyph-name="Umacron" unicode="Ū" horiz-adv-x="1407" d="M1237 580q0 -604 -545 -604q-522 0 -522 581v877h168v-866q0 -441 372 -441q359 0 359 426v881h168v-854zM955 1566h-508v109h508v-109z"/>
    <glyph glyph-name="umacron" unicode="ū" horiz-adv-x="1159" d="M994 0h-164v162h-4q-102 -186 -316 -186q-366 0 -366 436v612h163v-586q0 -324 248 -324q120 0 197.5 88.5t77.5 231.5v590h164v-1024zM819 1218h-508v109h508v-109z"/>
    <glyph glyph-name="Ubreve" unicode="Ŭ" horiz-adv-x="1407" d="M1237 580q0 -604 -545 -604q-522 0 -522 581v877h168v-866q0 -441 372 -441q359 0 359 426v881h168v-854zM974 1818q-10 -113 -88.5 -182.5t-190.5 -69.5q-117 0 -191 69t-79 183h100q12 -155 172 -155q68 0 116.5 42t58.5 113h102z"/>
    <glyph glyph-name="ubreve" unicode="ŭ" horiz-adv-x="1159" d="M994 0h-164v162h-4q-102 -186 -316 -186q-366 0 -366 436v612h163v-586q0 -324 248 -324q120 0 197.5 88.5t77.5 231.5v590h164v-1024zM839 1470q-10 -113 -88.5 -182.5t-190.5 -69.5q-117 0 -191 69t-79 183h100q12 -155 172 -155q68 0 116.5 42t58.5 113h102z"/>
    <glyph glyph-name="Uogonek" unicode="Ų" horiz-adv-x="1407" d="M1237 580q0 -604 -545 -604q-522 0 -522 581v877h168v-866q0 -441 372 -441q359 0 359 426v881h168v-854zM866 0q-150 -141 -150 -223q0 -70 68 -70q30 0 56 13v-107q-30 -13 -82 -13q-76 0 -122 40t-46 110q0 122 157 250h119z"/>
    <glyph glyph-name="uogonek" unicode="ų" horiz-adv-x="1159" d="M994 0h-164v162h-4q-102 -186 -316 -186q-366 0 -366 436v612h163v-586q0 -324 248 -324q120 0 197.5 88.5t77.5 231.5v590h164v-1024zM994 0q-150 -141 -150 -223q0 -70 68 -70q30 0 56 13v-107q-30 -13 -82 -13q-76 0 -122 40t-46 110q0 122 157 250h119z"/>
    <glyph glyph-name="Wcircumflex" unicode="Ŵ" horiz-adv-x="1913" d="M1888 1434l-405 -1434h-197l-295 1048q-19 67 -23 146h-4q-6 -74 -26 -144l-297 -1050h-195l-420 1434h185l305 -1100q19 -69 24 -144h5q5 53 31 144l317 1100h161l304 -1108q16 -57 24 -134h4q4 52 27 138l293 1104h182zM1259 1566h-122l-164 230l-165 -230h-113 l215 332h133z"/>
    <glyph glyph-name="wcircumflex" unicode="ŵ" horiz-adv-x="1480" d="M1456 1024l-307 -1024h-170l-211 733q-12 42 -16 95h-4q-3 -36 -21 -93l-229 -735h-164l-310 1024h172l212 -770q10 -35 14 -92h8q3 44 18 94l236 768h150l212 -772q10 -37 15 -92h8q2 39 17 92l208 772h162zM1040 1218h-122l-164 230l-165 -230h-113l215 332h133z"/>
    <glyph glyph-name="Ycircumflex" unicode="Ŷ" horiz-adv-x="1132" d="M1120 1434l-473 -904v-530h-168v526l-461 908h191l321 -648q6 -12 35 -88h3q10 34 38 88l336 648h178zM853 1565h-122l-164 230l-165 -230h-113l215 332h133z"/>
    <glyph glyph-name="ycircumflex" unicode="ŷ" horiz-adv-x="991" d="M981 1024l-471 -1188q-126 -318 -354 -318q-64 0 -107 13v147q53 -18 97 -18q124 0 186 148l82 194l-400 1022h182l277 -788q5 -15 21 -78h6q5 24 20 76l291 790h170zM796 1218h-122l-164 230l-165 -230h-113l215 332h133z"/>
    <glyph glyph-name="longs" unicode="ſ" horiz-adv-x="494" d="M610 1372q-46 27 -108 27q-172 0 -172 -217v-1182h-164v1190q0 161 94.5 254.5t231.5 93.5q74 0 118 -18v-148z"/>
    <glyph glyph-name="Aringacute" unicode="Ǻ" horiz-adv-x="1321" d="M1298 0h-186l-152 402h-608l-143 -402h-187l529 1378q-101 52 -101 164q0 89 60 144t152 55q88 0 144 -54.5t56 -138.5q0 -112 -96 -166zM656 1659q-50 0 -82 -31.5t-32 -79.5q0 -114 114 -114q48 0 81 33t33 81q0 49 -33 80t-81 31zM905 553l-225 611q-11 30 -22 96h-4 q-10 -61 -23 -96l-223 -611h497zM924 2130l-262 -328h-127l223 328h166z"/>
    <glyph glyph-name="aringacute" unicode="ǻ" horiz-adv-x="1042" d="M899 0h-164v160h-4q-107 -184 -315 -184q-153 0 -239.5 81t-86.5 215q0 287 338 334l307 43q0 261 -211 261q-185 0 -334 -126v168q151 96 348 96q361 0 361 -382v-666zM735 518l-247 -34q-114 -16 -172 -56.5t-58 -143.5q0 -75 53.5 -122.5t142.5 -47.5 q122 0 201.5 85.5t79.5 216.5v102zM517 1114q-87 0 -144.5 52.5t-57.5 137.5q0 90 59 144t150 54q89 0 146 -54t57 -138t-61 -140t-149 -56zM517 1421q-48 0 -80 -32.5t-32 -80.5q0 -112 112 -112q50 0 83 32t33 80q0 49 -33 81t-83 32zM792 1894l-262 -328h-127l223 328 h166z"/>
    <glyph glyph-name="AEacute" unicode="Ǽ" horiz-adv-x="1762" d="M1667 0h-759v402h-510l-193 -402h-195l700 1434h924v-152h-559v-477h519v-151h-519v-502h592v-152zM908 553v729h-95l-346 -729h441zM1340 1894l-262 -328h-127l223 328h166z"/>
    <glyph glyph-name="aeacute" unicode="ǽ" horiz-adv-x="1704" d="M1622 471h-725q3 -171 91 -264t241 -93q177 0 321 114v-154q-132 -98 -358 -98q-270 0 -383 229h-4q-145 -229 -387 -229q-153 0 -240.5 80.5t-87.5 215.5q0 300 383 324l262 16q0 298 -215 298q-175 0 -330 -122v164q148 96 348 96q232 0 300 -200h4q116 200 356 200 q202 0 313 -130.5t111 -362.5v-84zM1454 610q-2 144 -68.5 222t-185.5 78q-116 0 -199 -82t-102 -218h555zM735 410v63l-203 -12q-139 -8 -207.5 -49t-68.5 -136q0 -73 53 -117.5t143 -44.5q119 0 201 84.5t82 211.5zM1121 1546l-262 -328h-127l223 328h166z"/>
    <glyph glyph-name="Oslashacute" unicode="Ǿ" horiz-adv-x="1544" d="M324 131l-152 -182l-78 65l158 191q-158 195 -158 495q0 343 186.5 550.5t509.5 207.5q234 0 402 -129l135 162l78 -63l-139 -166q184 -200 184 -527q0 -351 -186 -555t-498 -204q-266 0 -442 155zM1090 1204q-126 102 -312 102q-227 0 -367.5 -164t-140.5 -427 q0 -223 98 -373zM1157 1130l-725 -866q131 -137 334 -137q236 0 372 154.5t136 430.5q0 260 -117 418zM1030 1894l-262 -328h-127l223 328h166z"/>
    </font>
</defs>
</svg>
