<?xml version="1.0" standalone="no"?>
<!DOCTYPE svg PUBLIC "-//W3C//DTD SVG 1.1//EN" "http://www.w3.org/Graphics/SVG/1.1/DTD/svg11.dtd" >
<svg>
<metadata>
Created by FontForge 20090622 at Tue May 26 14:00:42 2015
 By deploy user
Copyright &#194;&#169; 2013, Natanael Gama (www.ndiscovered.com . info(at)ndiscovered.com), with Reserved Font Name Exo. This Font Software is licensed under the SIL Open Font License, Version 1.1.
</metadata>
<defs>
<font id="Exo2.0-Medium" horiz-adv-x="572" >
  <font-face 
    font-family="Exo 2.0 Medium"
    font-weight="500"
    font-stretch="normal"
    units-per-em="1000"
    panose-1="0 0 6 0 0 0 0 0 0 0"
    ascent="800"
    descent="-200"
    x-height="488"
    cap-height="690"
    bbox="-175 -278 1225 939"
    underline-thickness="50"
    underline-position="-50"
    unicode-range="U+0020-U+FB02"
  />
<missing-glyph horiz-adv-x="600" 
 />
    <glyph glyph-name="fi" unicode="fi" horiz-adv-x="618" 
d="M539 488v-488h-96v413h-231v-413h-97v413h-88v70l88 5v73q0 77 33.5 116.5t111.5 39.5q76 0 117 -7v-72h-83q-46 0 -64 -19.5t-18 -68.5v-62h327zM467 696h46q28 0 28 -28v-56q0 -29 -28 -29h-46q-29 0 -29 29v56q0 28 29 28z" />
    <glyph glyph-name="fl" unicode="fl" horiz-adv-x="679" 
d="M659 66l11 -62q-29 -13 -94 -13q-57 0 -90 30.5t-33 85.5v532h-160q-45 1 -63.5 -19t-18.5 -70v-62h142v-75h-142v-413h-97v413h-88v70l88 5v73q0 77 34 117t111 39q217 0 291 -12v-576q0 -63 63 -63h46z" />
    <glyph glyph-name="f_f" unicode="ff" horiz-adv-x="721" 
d="M728 638h-98q-45 0 -63.5 -17t-18.5 -59v-74h151v-75h-151v-413h-98v413h-238v-413h-97v413h-88v70l88 5v74q0 69 36.5 106.5t108.5 37.5q75 0 123 -7l-8 -72h-81q-47 0 -64.5 -15.5t-17.5 -60.5v-63h238v85q0 71 34 107.5t111 36.5q95 0 141 -7z" />
    <glyph glyph-name="f_f_i" unicode="ffi" horiz-adv-x="943" 
d="M865 488v-488h-96v413h-230v-413h-97v413h-239v-413h-97v413h-79v70l79 4v75q0 69 36.5 106.5t108.5 37.5q76 0 124 -7l-8 -72h-82q-46 0 -64 -15.5t-18 -60.5v-63h239v73q0 77 33.5 116.5t111.5 39.5t119 -7v-72h-85q-46 0 -64 -19.5t-18 -68.5v-62h326zM794 696h45
q29 0 29 -28v-56q0 -29 -29 -29h-45q-29 0 -29 29v56q0 28 29 28z" />
    <glyph glyph-name="f_f_l" unicode="ffl" horiz-adv-x="1016" 
d="M995 66l11 -62q-29 -13 -94 -13q-57 0 -90 30.5t-33 85.5v532h-159q-46 1 -64 -19t-18 -70v-62h142v-75h-142v-413h-98v413h-238v-413h-97v413h-88v70l88 5v74q0 69 36.5 106.5t108.5 37.5q75 0 123 -7l-8 -72h-81q-47 0 -64.5 -15.5t-17.5 -60.5v-63h238v73q0 77 34 117
t111 39q217 0 291 -12v-576q0 -63 63 -63h46z" />
    <glyph glyph-name=".notdef" horiz-adv-x="600" 
 />
    <glyph glyph-name=".null" horiz-adv-x="0" 
 />
    <glyph glyph-name="nonmarkingreturn" horiz-adv-x="333" 
 />
    <glyph glyph-name="space" unicode=" " horiz-adv-x="222" 
 />
    <glyph glyph-name="exclam" unicode="!" horiz-adv-x="277" 
d="M187 396l-10 -183h-77l-10 183v299h97v-299zM127 124h24q20 0 28 -8t8 -27v-53q0 -20 -8 -28t-28 -8h-24q-20 0 -27.5 8t-7.5 28v53q0 19 8 27t27 8z" />
    <glyph glyph-name="quotedbl" unicode="&#x22;" horiz-adv-x="358" 
d="M139 474h-66l-6 216h78zM286 474h-66l-6 216h78z" />
    <glyph glyph-name="numbersign" unicode="#" horiz-adv-x="688" 
d="M525 444l-30 -173h109l-12 -61h-108l-36 -210h-77l37 210h-175l-36 -210h-77l37 210h-116l12 61h114l31 173h-115l12 61h113l32 185h77l-32 -185h174l32 185h77l-32 -185h110l-12 -61h-109zM449 444h-175l-30 -173h174z" />
    <glyph glyph-name="dollar" unicode="$" horiz-adv-x="565" 
d="M319 390l57 -16q77 -21 108.5 -68t31.5 -128q0 -115 -52 -152.5t-184 -37.5l-9 -113h-51l9 114q-83 4 -165 19l7 77q128 -3 166 -4l18 226l-63 17q-74 20 -105.5 67.5t-31.5 128.5q0 59 12.5 95.5t43.5 55.5t69 25t102 6h11l7 96h50l-7 -98q84 -3 147 -19l-6 -73
q-88 4 -148 4zM269 404l17 209q-78 0 -104 -15.5t-26 -80.5q0 -51 18.5 -72t65.5 -33zM304 293l-17 -212q75 0 101 19t26 79q0 53 -18 73.5t-64 32.5z" />
    <glyph glyph-name="percent" unicode="%" horiz-adv-x="896" 
d="M207 703q90 0 126.5 -46.5t36.5 -158.5q0 -111 -36.5 -158t-126.5 -47t-126.5 47t-36.5 158q0 112 36.5 158.5t126.5 46.5zM260 0h-68l441 690h68zM206 643q-50 0 -69 -32t-19 -113q0 -82 19 -113.5t69 -31.5q51 0 70 31.5t19 113.5t-19 113.5t-70 31.5zM689 400
q89 0 125.5 -47t36.5 -158q0 -112 -36.5 -158.5t-125.5 -46.5q-90 0 -126.5 46.5t-36.5 158.5q0 111 36.5 158t126.5 47zM688 339q-51 0 -70 -31t-18 -113q-1 -82 18 -113.5t70 -31.5t70 31.5t19 113.5q0 83 -19 113.5t-70 30.5z" />
    <glyph glyph-name="ampersand" unicode="&#x26;" horiz-adv-x="770" 
d="M713 75l11 -71q-45 -13 -109 -13q-102 0 -121 82q-44 -46 -96.5 -65t-130.5 -19q-110 0 -156.5 41.5t-46.5 144.5q0 83 31.5 129t104.5 52v4q-62 6 -89 45t-27 116q0 48 10.5 80.5t28.5 52t52 30t72.5 14t98.5 3.5q93 0 160 -11l-12 -75q-42 3 -151 3q-93 0 -125 -20.5
t-32 -90.5q0 -66 27 -89t99 -23h180l8 123h81v-123h122v-76h-122v-181q0 -35 13.5 -49t47.5 -14h71zM490 319h-184q-77 0 -106.5 -26.5t-29.5 -100.5q0 -67 26 -91.5t96 -24.5q125 1 198 72v171z" />
    <glyph glyph-name="quotesingle" unicode="'" horiz-adv-x="211" 
d="M139 474h-66l-6 216h78z" />
    <glyph glyph-name="parenleft" unicode="(" horiz-adv-x="360" 
d="M319 790l12 -45q-97 -46 -141.5 -153t-44.5 -279q0 -338 186 -433l-12 -45q-138 52 -203 167.5t-65 309.5q0 195 65 311t203 167z" />
    <glyph glyph-name="parenright" unicode=")" horiz-adv-x="360" 
d="M29 745l12 45q139 -51 204 -167t65 -311q0 -194 -65 -309.5t-204 -167.5l-12 45q186 95 186 433q0 172 -44.5 279t-141.5 153z" />
    <glyph glyph-name="asterisk" unicode="*" horiz-adv-x="450" 
d="M244 529l102 -129l-46 -34l-76 124l-75 -123l-47 34l102 128l-8 162h58zM186 557v-25l-12 -16l-124 33l19 54zM399 548l-124 -32l-13 16v25l119 46z" />
    <glyph glyph-name="plus" unicode="+" horiz-adv-x="550" 
d="M495 263h-184v-174h-73v174h-184v72h183v175h74v-175h184v-72z" />
    <glyph glyph-name="comma" unicode="," horiz-adv-x="232" 
d="M103 124h28q19 0 26.5 -7.5t7.5 -27.5v-64q-1 -89 -38 -159l-46 12q11 56 11 122q-27 0 -27 31v58q1 19 9.5 27t28.5 8z" />
    <glyph glyph-name="hyphen" unicode="-" horiz-adv-x="442" 
d="M373 216h-304v74h304v-74z" />
    <glyph glyph-name="period" unicode="." horiz-adv-x="233" 
d="M101 124h31q20 0 28 -7.5t8 -27.5v-53q0 -20 -8 -28t-28 -8h-31q-20 0 -28 8t-8 28v53q0 20 8 27.5t28 7.5z" />
    <glyph glyph-name="slash" unicode="/" horiz-adv-x="522" 
d="M104 -67h-79l393 757h79z" />
    <glyph glyph-name="zero" unicode="0" horiz-adv-x="607" 
d="M303 703q133 0 187.5 -82.5t54.5 -275.5t-54.5 -275.5t-187.5 -82.5t-187.5 82.5t-54.5 275.5t54.5 275.5t187.5 82.5zM302 616q-80 0 -111.5 -60.5t-31.5 -210.5t31.5 -210.5t111.5 -60.5q83 0 114.5 60t31.5 211t-31.5 211t-114.5 60z" />
    <glyph glyph-name="one" unicode="1" horiz-adv-x="402" 
d="M293 0h-100v534q0 36 5 62l-166 -51l-12 75l173 70h100v-690z" />
    <glyph glyph-name="two" unicode="2" horiz-adv-x="563" 
d="M65 599l-6 78q112 25 214 25q109 0 161.5 -31t52.5 -120q0 -64 -26 -118t-94 -129l-192 -211q47 4 110 4h226v-97h-457v63q0 27 15 42l192 217q128 138 125 223q-1 43 -29.5 56t-92.5 13q-90 0 -199 -15z" />
    <glyph glyph-name="three" unicode="3" horiz-adv-x="557" 
d="M69 607l-7 78q103 18 198 18q115 0 165 -35t50 -125q0 -155 -101 -174v-4q64 -11 90.5 -53.5t28.5 -119.5q2 -107 -49 -156t-172 -49q-95 0 -221 18l6 81q117 -10 190 -10q81 0 114 28t33 99q0 61 -27 90.5t-103 29.5h-127v78h127q71 1 93 31t22 87q-1 61 -28 78.5
t-106 17.5q-82 0 -176 -8z" />
    <glyph glyph-name="four" unicode="4" horiz-adv-x="619" 
d="M577 174l-90 -10v-164h-95v164h-277q-45 0 -66.5 35.5t-3.5 77.5l191 413h98l-186 -406q-8 -20 -1 -29.5t25 -9.5h220v200l18 112h77v-312h90v-71z" />
    <glyph glyph-name="five" unicode="5" horiz-adv-x="538" 
d="M460 604h-286l-10 -172l78 -7q133 -11 188 -60.5t54 -157.5q0 -46 -9 -81.5t-32 -68.5t-69.5 -51t-114.5 -18q-98 0 -210 25l12 81q94 -17 174 -17q89 0 119 30t32 100q1 20 -1.5 36t-5.5 28.5t-12.5 22.5t-16.5 16.5t-24 12t-28.5 8.5t-37.5 6t-42.5 4.5l-51.5 4.5
l-52 5q-17 1 -27.5 13t-9.5 30l16 296h371z" />
    <glyph glyph-name="six" unicode="6" horiz-adv-x="574" 
d="M477 687l-8 -73q-45 3 -135 3q-48 0 -76.5 -8t-50.5 -33t-32 -70.5t-12 -120.5q34 37 72.5 52t95.5 15q108 0 149 -50t41 -176q0 -59 -8.5 -98.5t-31.5 -73t-67.5 -50t-113.5 -16.5q-75 0 -120 15.5t-71.5 57.5t-35.5 104t-9 167q0 119 15.5 193t52 112.5t82.5 51.5
t120 13q86 0 143 -15zM301 74q78 0 101.5 35t23.5 117q0 81 -25.5 113t-95.5 32q-41 0 -72.5 -12.5t-70.5 -44.5q0 -78 3.5 -118t18.5 -71t42 -41t75 -10z" />
    <glyph glyph-name="seven" unicode="7" horiz-adv-x="514" 
d="M37 690h393q32 0 45 -17.5t4 -47.5l-213 -625h-100l189 552q11 32 23 53h-337z" />
    <glyph glyph-name="eight" unicode="8" horiz-adv-x="607" 
d="M180 356v4q-98 11 -98 158q0 99 46.5 141t174.5 42q129 -1 175.5 -42.5t46.5 -140.5q0 -147 -98 -158v-4q62 -6 88 -52.5t26 -131.5q0 -98 -49.5 -140t-188.5 -43q-136 -1 -186.5 42t-50.5 141q0 85 25.5 131.5t88.5 52.5zM304 620q-79 0 -105 -23.5t-26 -88.5
q0 -66 26 -88t106 -22t104.5 21.5t24.5 88.5q0 65 -25.5 88.5t-104.5 23.5zM305 318q-87 -1 -116 -25.5t-29 -98.5q0 -69 29 -94t115 -25q85 0 113 25t28 94q0 75 -27.5 99.5t-112.5 24.5z" />
    <glyph glyph-name="nine" unicode="9" horiz-adv-x="574" 
d="M85 3l8 74q48 -3 144 -3t133 47.5t41 186.5q-36 -39 -75 -54.5t-96 -15.5q-187 0 -187 225q-1 124 50.5 181.5t173.5 57.5q44 0 76.5 -5.5t57.5 -16.5t41.5 -31.5t28 -45.5t17 -64.5t8 -82t2.5 -103.5q0 -93 -10 -156t-29 -104.5t-53 -64.5t-75 -31.5t-103 -8.5
q-90 0 -153 15zM267 318q41 0 72.5 13t71.5 47q0 52 -1 82.5t-6 61.5t-13.5 46t-23.5 28t-37 17t-54 4q-77 0 -103 -36.5t-25 -117.5q-1 -74 25 -109.5t94 -35.5z" />
    <glyph glyph-name="colon" unicode=":" horiz-adv-x="242" 
d="M101 442h32q20 0 28 -7.5t8 -27.5v-54q0 -20 -8 -27.5t-28 -7.5h-32q-19 0 -27 8t-8 27v54q0 19 8 27t27 8zM101 124h32q20 0 28 -7.5t8 -27.5v-53q0 -20 -8 -28t-28 -8h-32q-20 0 -27.5 8t-7.5 28v53q0 19 8 27t27 8z" />
    <glyph glyph-name="semicolon" unicode=";" horiz-adv-x="243" 
d="M107 442h31q20 0 28 -7.5t8 -27.5v-54q0 -20 -8 -27.5t-28 -7.5h-31q-20 0 -28 7.5t-8 27.5v54q0 20 8 27.5t28 7.5zM109 124h28q19 0 26.5 -7.5t7.5 -27.5v-64q-1 -89 -38 -159l-45 12q10 59 10 122q-28 0 -26 31v58q1 19 9 27t28 8z" />
    <glyph glyph-name="less" unicode="&#x3c;" horiz-adv-x="528" 
d="M460 432l-326 -134l326 -131v-77l-409 170v76l409 173v-77z" />
    <glyph glyph-name="equal" unicode="=" horiz-adv-x="585" 
d="M513 363h-442v72h442v-72zM513 152h-442v72h442v-72z" />
    <glyph glyph-name="greater" unicode="&#x3e;" horiz-adv-x="528" 
d="M477 336v-76l-409 -170v77l326 131l-326 134v77z" />
    <glyph glyph-name="question" unicode="?" horiz-adv-x="504" 
d="M43 621l-5 70q12 2 37 6.5t38 6l36 4t50 3.5t62 1q204 0 204 -155q0 -41 -18 -76t-44 -61.5l-52 -54t-45.5 -66.5t-21.5 -86h-82q-1 51 14.5 93.5t39 71t47.5 53.5t41 53t18 56q2 46 -27.5 68t-94.5 22q-96 0 -197 -9zM231 124h24q20 0 28 -7.5t8 -27.5v-53q0 -20 -8 -28
t-28 -8h-24q-20 0 -28 8t-8 28v53q0 20 8 27.5t28 7.5z" />
    <glyph glyph-name="at" unicode="@" horiz-adv-x="723" 
d="M354 588h145q76 0 115 -34.5t39 -112.5v-309h-72l-10 75q-31 -32 -83.5 -57.5t-108.5 -25.5q-60 0 -96 31.5t-36 90.5v50q0 50 29 77t86 27h200v38q0 40 -17.5 55t-64.5 15h-125q-49 0 -74 -1.5t-50.5 -10t-35.5 -22t-19 -43t-11 -66.5t-2 -98q0 -48 1 -79.5t6.5 -60
t10.5 -44t20 -29t27.5 -19t41 -9.5t52 -4.5t68.5 -0.5h261v-72q-155 -9 -260 -9q-77 -1 -124 2.5t-86 17.5t-58 33.5t-32 60t-16.5 88t-3.5 125.5q0 76 3 122t14.5 85.5t28.5 59t51.5 33t76 17.5t109.5 4zM562 341l-166 -4q-34 -1 -46.5 -12.5t-12.5 -40.5v-21q0 -62 61 -62
q42 0 87.5 16.5t76.5 45.5v78z" />
    <glyph glyph-name="A" unicode="A" horiz-adv-x="626" 
d="M450 208h-275l-64 -208h-102l216 663q8 27 37 27h102q30 0 36 -27l217 -663h-103zM424 295l-81 262q-3 9 -8.5 28t-8.5 28h-27l-16 -56l-81 -262h222z" />
    <glyph glyph-name="B" unicode="B" horiz-adv-x="622" 
d="M428 360v-4q75 -7 106.5 -52.5t31.5 -131.5q0 -104 -49.5 -142t-172.5 -38q-169 0 -260 8v690q81 8 230 8q130 0 180.5 -37.5t50.5 -142.5q0 -75 -28 -113.5t-89 -44.5zM182 396h140q72 0 99.5 22.5t27.5 87.5q0 64 -30 85.5t-110 21.5h-127v-217zM182 78l147 -1
q79 0 107.5 22.5t28.5 89.5q0 75 -30.5 102t-111.5 28h-141v-241z" />
    <glyph glyph-name="C" unicode="C" 
d="M527 88l10 -76q-83 -24 -205 -24q-151 0 -212 80t-61 277t61 277t212 80q108 0 191 -20l-10 -77q-80 8 -181 8q-95 0 -131.5 -58t-36.5 -210t36.5 -210t131.5 -58q127 0 195 11z" />
    <glyph glyph-name="D" unicode="D" horiz-adv-x="665" 
d="M84 0v690q131 9 249 9q152 0 212.5 -77t60.5 -277t-60.5 -277t-212.5 -77q-118 0 -249 9zM184 611v-530q64 -3 149 -3q94 0 130.5 58t36.5 209t-36.5 209t-130.5 58q-30 0 -79.5 -0.5t-69.5 -0.5z" />
    <glyph glyph-name="E" unicode="E" horiz-adv-x="562" 
d="M508 83l5 -77q-91 -8 -296 -8q-64 0 -101 33.5t-38 90.5v446q1 57 38 90.5t101 33.5q205 0 296 -8l-5 -78h-274q-30 0 -42.5 -14.5t-12.5 -49.5v-138h291v-81h-291v-176q0 -35 12.5 -49.5t42.5 -14.5h274z" />
    <glyph glyph-name="F" unicode="F" horiz-adv-x="540" 
d="M502 606h-256q-35 0 -49.5 -14.5t-14.5 -49.5v-149h282v-81h-282v-312h-100v563q0 61 37.5 95t101.5 34q198 0 286 -9z" />
    <glyph glyph-name="G" unicode="G" horiz-adv-x="629" 
d="M564 398v-398h-74l-10 70q-87 -83 -205 -83q-114 0 -165 87t-51 274q0 139 29 215.5t91 108t174 31.5q108 0 192 -21l-10 -76q-84 8 -176 8q-47 0 -76 -5.5t-54 -21.5t-37.5 -47t-19.5 -79t-7 -120q0 -149 30.5 -208t107.5 -59q73 0 163 61v263h98z" />
    <glyph glyph-name="H" unicode="H" horiz-adv-x="670" 
d="M586 690v-690h-100v325h-302v-325h-100v690h100v-279h302v279h100z" />
    <glyph glyph-name="I" unicode="I" horiz-adv-x="268" 
d="M184 0h-100v690h100v-690z" />
    <glyph glyph-name="J" unicode="J" horiz-adv-x="343" 
d="M262 690v-539q0 -79 -35 -120t-101 -40q-59 0 -98 13l11 72h49q74 0 74 70v544h100z" />
    <glyph glyph-name="K" unicode="K" horiz-adv-x="597" 
d="M255 319h-78q7 -42 7 -71v-248h-100v690h100v-212q0 -43 -7 -78h78l203 290h109l-195 -282q-16 -23 -42 -48v-3q28 -24 48 -52l202 -305h-111z" />
    <glyph glyph-name="L" unicode="L" horiz-adv-x="515" 
d="M182 690v-542q0 -35 14 -49.5t49 -14.5h245l5 -77q-97 -9 -266 -9q-147 0 -147 136v556h100z" />
    <glyph glyph-name="M" unicode="M" horiz-adv-x="881" 
d="M633 690h109q39 0 41 -41l28 -649h-100l-24 607h-20l-140 -491q-9 -34 -43 -34h-87q-35 0 -44 34l-141 491h-19l-23 -607h-99l26 649q2 41 41 41h111q31 0 42 -34l117 -404q10 -36 23 -93h18q12 53 24 94l116 403q11 34 44 34z" />
    <glyph glyph-name="N" unicode="N" horiz-adv-x="708" 
d="M624 690v-651q0 -39 -37 -39h-95q-30 0 -43 31l-215 470q-36 78 -41 96h-14q5 -40 5 -96v-501h-100v651q0 39 38 39h92q29 0 44 -31l209 -458q4 -9 14 -29.5l18.5 -39l15.5 -34.5h15q-5 60 -5 107v485h99z" />
    <glyph glyph-name="O" unicode="O" horiz-adv-x="669" 
d="M334 703q154 0 215 -78t61 -280t-61 -280t-215 -78q-153 0 -214 78t-61 280t61 280t214 78zM334 614q-97 0 -133.5 -58t-36.5 -211t36.5 -211t133.5 -58t134 58t37 211t-37 211t-134 58z" />
    <glyph glyph-name="P" unicode="P" horiz-adv-x="592" 
d="M84 0v690q85 9 240 9q129 0 177.5 -46t48.5 -172q0 -127 -46.5 -173t-167.5 -46q-75 0 -152 9v-271h-100zM184 348h138q73 1 100 28t27 105t-27 105t-100 27q-100 0 -138 -1v-264z" />
    <glyph glyph-name="Q" unicode="Q" horiz-adv-x="671" 
d="M335 703q154 0 215 -78t61 -280t-61 -280t-215 -78q-153 0 -214.5 78t-61.5 280t61.5 280t214.5 78zM335 614q-97 0 -133.5 -58t-36.5 -211t36.5 -211t133.5 -58t134 58t37 211t-37 211t-134 58zM266 -102l27 61q119 -46 273 -68l-32 -100q-128 27 -268 107z" />
    <glyph glyph-name="R" unicode="R" horiz-adv-x="620" 
d="M578 0h-107l-59 215q-22 69 -87 69l-142 1v-285h-99v690q85 9 241 9q125 0 176.5 -43t51.5 -157q0 -83 -29.5 -125t-97.5 -51v-5q67 -20 87 -100zM183 370h140q74 1 101.5 26.5t27.5 96.5q0 70 -27.5 95t-101.5 25q-102 0 -140 -1v-242z" />
    <glyph glyph-name="S" unicode="S" horiz-adv-x="563" 
d="M330 285l-140 39q-74 20 -105.5 67.5t-31.5 128.5q0 59 12.5 95.5t43.5 55.5t69 25t102 6q122 0 208 -21l-6 -73q-145 5 -198 5q-78 0 -104 -15.5t-26 -80.5q0 -51 18.5 -72t64.5 -33l137 -38q77 -21 108.5 -68t31.5 -128q0 -114 -52 -152t-183 -38q-110 0 -217 20l7 74
q156 -5 212 -5q78 1 104.5 20t26.5 82q0 53 -18 73.5t-64 32.5z" />
    <glyph glyph-name="T" unicode="T" horiz-adv-x="584" 
d="M561 601h-219v-601h-101v601h-217v89h537v-89z" />
    <glyph glyph-name="U" unicode="U" horiz-adv-x="666" 
d="M587 690v-424q0 -152 -56.5 -215.5t-193.5 -63.5q-141 0 -199.5 63.5t-58.5 215.5v424h100v-424q0 -106 34 -148t120 -42q85 0 119.5 42t34.5 148v424h100z" />
    <glyph glyph-name="V" unicode="V" horiz-adv-x="612" 
d="M597 690l-204 -662q-9 -28 -38 -28h-98q-29 0 -38 28l-204 662h103l156 -537q5 -19 19 -76h27q6 29 19 76l155 537h103z" />
    <glyph glyph-name="W" unicode="W" horiz-adv-x="951" 
d="M921 690l-132 -661q-9 -29 -39 -29h-111q-32 0 -39 30l-100 507q-10 52 -14 78h-21l-15 -78l-99 -507q-2 -13 -13.5 -21.5t-25.5 -8.5h-112q-31 0 -38 29l-132 661h106l99 -526q3 -17 12 -88h23q5 43 15 88l99 493q7 33 38 33h107q14 0 24.5 -9.5t13.5 -23.5l98 -494
q8 -40 15 -87h23l6 43t7 43l99 528h106z" />
    <glyph glyph-name="X" unicode="X" horiz-adv-x="615" 
d="M319 320h-24l-164 -320h-109l190 357l-177 333h108l151 -294h26l151 294h108l-177 -333l190 -357h-109z" />
    <glyph glyph-name="Y" unicode="Y" horiz-adv-x="574" 
d="M337 239v-239h-100v240l-228 450h106l139 -283q8 -17 30 -80h7q21 62 30 79l139 284h104z" />
    <glyph glyph-name="Z" unicode="Z" horiz-adv-x="568" 
d="M521 85v-85h-473v85l357 520h-352v85h461v-85l-356 -520h363z" />
    <glyph glyph-name="bracketleft" unicode="[" horiz-adv-x="332" 
d="M292 705h-97q-15 0 -15 -16v-775q0 -16 15 -16h97v-63h-145q-58 0 -58 58v817q0 26 16.5 42t41.5 16h145v-63z" />
    <glyph glyph-name="backslash" unicode="\" horiz-adv-x="523" 
d="M498 -67h-80l-393 757h80z" />
    <glyph glyph-name="bracketright" unicode="]" horiz-adv-x="332" 
d="M40 768h145q25 0 41.5 -16t16.5 -42v-817q0 -25 -16.5 -41.5t-41.5 -16.5h-145v63h96q16 0 16 16v775q0 16 -16 16h-96v63z" />
    <glyph glyph-name="asciicircum" unicode="^" horiz-adv-x="433" 
d="M403 392l-39 -24l-143 173h-8l-144 -173l-39 24l152 213h70z" />
    <glyph glyph-name="underscore" unicode="_" horiz-adv-x="576" 
d="M507 -73h-438v73h438v-73z" />
    <glyph glyph-name="grave" unicode="`" horiz-adv-x="322" 
d="M256 580l-32 -45l-199 117l54 74z" />
    <glyph glyph-name="a" unicode="a" horiz-adv-x="551" 
d="M79 407l-9 71q132 23 237 23q89 0 131 -36t42 -125v-340h-76l-11 77q-84 -86 -195 -86q-68 0 -108.5 36t-40.5 102v51q0 58 36 90t102 32h196v38q-1 45 -21 62t-76 17q-55 0 -207 -12zM147 167v-26q0 -36 17 -52t54 -16q87 0 165 68v88h-178q-32 -1 -45 -16.5t-13 -45.5z
" />
    <glyph glyph-name="b" unicode="b" horiz-adv-x="573" 
d="M170 700v-175q0 -67 -10 -111q82 87 184 87q91 0 134 -60t43 -195q0 -131 -48.5 -194.5t-171.5 -63.5q-131 0 -228 35v677h97zM170 349v-265q60 -15 129 -15q67 1 94 40t28 137q-1 98 -23 134.5t-88 36.5q-34 0 -64.5 -16t-75.5 -52z" />
    <glyph glyph-name="c" unicode="c" horiz-adv-x="491" 
d="M446 80l9 -65q-74 -27 -170 -27q-128 0 -180.5 57.5t-52.5 198.5t52.5 199t180.5 58q98 0 162 -25l-13 -62q-75 5 -132 5q-84 0 -116.5 -37t-32.5 -138t32.5 -138t116.5 -37q82 0 144 11z" />
    <glyph glyph-name="d" unicode="d" horiz-adv-x="575" 
d="M424 0l-8 67q-94 -79 -192 -79q-90 0 -130.5 64.5t-40.5 193.5q0 140 45 197.5t141 57.5q92 0 168 -44q-4 43 -4 96v147h97v-700h-76zM403 133v260q-91 24 -140 24q-62 0 -86 -34.5t-24 -135.5t23.5 -138t80.5 -37q37 0 65.5 13t80.5 48z" />
    <glyph glyph-name="e" unicode="e" horiz-adv-x="539" 
d="M373 197h-219q7 -76 39.5 -102t106.5 -26q65 0 171 12l9 -64q-66 -29 -193 -29q-128 0 -181.5 58t-53.5 199q0 142 52.5 199t173.5 57q112 0 163 -41t51 -123q0 -140 -119 -140zM153 272h194q48 0 48 65q-1 45 -25.5 63.5t-86.5 18.5q-72 0 -100 -30.5t-30 -116.5z" />
    <glyph glyph-name="f" unicode="f" horiz-adv-x="385" 
d="M393 638h-99q-45 0 -63.5 -17t-18.5 -59v-74h151v-75h-151v-413h-97v413h-88v70l88 5v85q0 71 34 107.5t111 36.5q94 0 141 -7z" />
    <glyph glyph-name="g" unicode="g" horiz-adv-x="561" 
d="M535 436l-69 -7q17 -34 17 -85q0 -83 -47.5 -119.5t-164.5 -36.5q-54 0 -97 8q-16 -21 -8.5 -46t39.5 -30l180 -28q69 -10 98.5 -43t29.5 -96q0 -87 -51 -120t-185 -33q-135 0 -187 32.5t-52 117.5q0 41 18 65t60 48q-35 29 -31.5 77.5t38.5 73.5q-64 33 -64 129
q0 86 47 122t166 36q73 0 116 -13h152zM271 261q68 0 95 18.5t27 64.5q0 47 -26.5 65t-95.5 18q-70 0 -97 -18t-27 -65q0 -45 27.5 -64t96.5 -19zM335 21l-157 21q-46 -38 -46 -84q0 -48 27.5 -62t116.5 -14q86 0 114 14.5t28 61.5q0 34 -15 44.5t-68 18.5z" />
    <glyph glyph-name="h" unicode="h" horiz-adv-x="583" 
d="M173 700v-189q0 -50 -7 -95q116 85 213 85q64 0 98 -34.5t34 -100.5v-366h-97v338q0 46 -13.5 63.5t-48.5 17.5q-38 0 -77.5 -17t-102.5 -55v-347h-97v700h98z" />
    <glyph glyph-name="i" unicode="i" horiz-adv-x="254" 
d="M104 696h46q28 0 28 -28v-56q0 -29 -28 -29h-46q-28 0 -28 29v56q0 28 28 28zM175 0h-96v488h96v-488z" />
    <glyph glyph-name="j" unicode="j" horiz-adv-x="256" 
d="M106 696h46q28 0 28 -28v-56q0 -29 -28 -29h-46q-29 0 -29 29v56q0 28 29 28zM177 488v-493q0 -60 -26.5 -112t-72.5 -85l-54 42q56 71 56 155v493h97z" />
    <glyph glyph-name="k" unicode="k" horiz-adv-x="517" 
d="M228 240h-61q5 -43 5 -76v-164h-97v700h98v-307q0 -43 -6 -83h60l147 178h112l-147 -177q-13 -18 -36 -36v-2q19 -15 36 -42l163 -231h-112z" />
    <glyph glyph-name="l" unicode="l" horiz-adv-x="302" 
d="M173 700v-559q-1 -31 15 -46.5t48 -15.5h45l11 -75q-29 -13 -93 -13q-57 0 -90 33.5t-33 94.5v581h97z" />
    <glyph glyph-name="m" unicode="m" horiz-adv-x="875" 
d="M155 488l5 -75q102 88 196 88q101 0 124 -85q97 85 192 85q64 0 97.5 -34.5t33.5 -100.5v-366h-95v338q-1 43 -17 62t-54 19q-33 0 -63 -15t-88 -57v-347h-93v338q0 44 -17 62.5t-54 18.5q-32 0 -62.5 -15t-88.5 -56v-348h-96v488h80z" />
    <glyph glyph-name="n" unicode="n" horiz-adv-x="583" 
d="M157 488l6 -75q115 88 216 88q65 0 98.5 -34.5t33.5 -100.5v-366h-97v338q0 46 -13.5 63.5t-48.5 17.5q-38 0 -76 -17t-104 -56v-346h-97v488h82z" />
    <glyph glyph-name="o" unicode="o" horiz-adv-x="570" 
d="M285 501q127 0 180 -59t53 -199t-53 -198t-180 -58t-180 58t-53 198t53 199t180 59zM285 419q-76 0 -104 -37t-28 -139q0 -101 28 -138t104 -37t104 37t28 138q0 102 -28 139t-104 37z" />
    <glyph glyph-name="p" unicode="p" horiz-adv-x="584" 
d="M155 488l7 -75q38 40 94 64t109 24q166 0 166 -260q0 -138 -45 -195.5t-141 -57.5q-98 0 -176 49q4 -42 2 -99v-137h-96v687h80zM171 346v-248q101 -26 148 -26q63 0 87.5 34.5t24.5 135.5q0 97 -22.5 136t-76.5 39q-63 0 -161 -71z" />
    <glyph glyph-name="q" unicode="q" 
d="M499 -199h-97v160q0 64 8 101q-91 -75 -190 -75q-85 0 -126.5 61.5t-41.5 194.5q0 131 49 194.5t174 63.5q128 0 224 -36v-664zM403 133v271q-62 17 -129 15q-69 -2 -95.5 -39.5t-26.5 -143.5q0 -88 21 -126t80 -38q38 0 70 14.5t80 46.5z" />
    <glyph glyph-name="r" unicode="r" horiz-adv-x="404" 
d="M388 501l-11 -91h-30q-57 0 -175 -56v-354h-97v488h75l10 -74q109 87 205 87h23z" />
    <glyph glyph-name="s" unicode="s" horiz-adv-x="509" 
d="M295 192l-136 34q-61 16 -86 47.5t-25 91.5q0 81 43.5 109t149.5 27q117 -2 208 -17l-8 -70q-153 5 -185 5q-71 0 -92.5 -8.5t-21.5 -45.5q0 -17 3 -27.5t15.5 -17.5t19.5 -9.5t31 -9.5l138 -34q62 -16 88 -45.5t26 -91.5q0 -86 -47.5 -113.5t-164.5 -27.5
q-102 0 -194 14l7 72q56 -5 167 -5q82 0 110 11.5t28 48.5q0 16 -4 26.5t-17 17.5t-20.5 9.5t-32.5 8.5z" />
    <glyph glyph-name="t" unicode="t" horiz-adv-x="388" 
d="M345 79l11 -75q-46 -13 -115 -13q-62 0 -94.5 35.5t-32.5 101.5v285h-89v70l89 4v144h96v-143h151v-75h-151v-272q0 -34 14.5 -48t49.5 -14h71z" />
    <glyph glyph-name="u" unicode="u" 
d="M497 488v-488h-77l-7 67q-107 -80 -208 -80q-133 0 -133 135v366h97v-338q-1 -45 15 -62.5t55 -17.5q57 0 162 65v353h96z" />
    <glyph glyph-name="v" unicode="v" horiz-adv-x="534" 
d="M518 488l-174 -464q-10 -24 -34 -24h-87q-25 0 -33 24l-174 464h103l114 -336l27 -84h13l29 84l113 336h103z" />
    <glyph glyph-name="w" unicode="w" horiz-adv-x="826" 
d="M803 488l-137 -461q-8 -27 -37 -27h-87q-30 0 -37 31l-71 321q-2 9 -4.5 24.5t-5 28.5t-5.5 25h-12l-16 -78l-70 -321q-7 -31 -38 -31h-86q-30 0 -36 27l-138 461h100l94 -352q12 -50 15 -75h13l17 75l72 322q7 30 36 30h87q29 0 36 -31l71 -321q2 -10 17 -75h13
q7 45 15 75l94 352h100z" />
    <glyph glyph-name="x" unicode="x" horiz-adv-x="533" 
d="M276 216h-19l-132 -216h-105l160 252l-148 236h104l120 -197h21l119 197h104l-147 -236l160 -252h-105z" />
    <glyph glyph-name="y" unicode="y" horiz-adv-x="533" 
d="M516 488l-189 -511q-68 -180 -224 -182l-10 64q57 17 90 47t53 76l7 18h-20q-28 0 -34 25l-173 463h104l121 -355q12 -31 17 -60h14q10 27 20 60l120 355h104z" />
    <glyph glyph-name="z" unicode="z" horiz-adv-x="512" 
d="M464 79v-79h-416v79l305 330h-301v79h408v-79l-304 -330h308z" />
    <glyph glyph-name="braceleft" unicode="{" horiz-adv-x="323" 
d="M281 768v-61q-50 0 -68.5 -18t-18.5 -63v-173q1 -62 -18 -88.5t-74 -36.5q56 -17 75.5 -42.5t20.5 -78.5v-231q0 -45 18.5 -62.5t68.5 -17.5v-61q-180 -15 -180 134v253q0 19 -2.5 30t-12.5 19t-16.5 11t-29.5 12v68q39 12 48 22.5t9 53.5v196q0 149 180 134z" />
    <glyph glyph-name="bar" unicode="|" horiz-adv-x="249" 
d="M159 -169h-70v950h70v-950z" />
    <glyph glyph-name="braceright" unicode="}" horiz-adv-x="324" 
d="M43 707v61q180 15 180 -134v-196q0 -43 9 -53.5t48 -22.5v-68q-41 -16 -50 -27q-11 -13 -11 -45v-253q0 -149 -180 -134v61q50 0 68.5 17.5t18.5 62.5v231q1 53 20.5 78.5t75.5 42.5q-55 10 -74 36.5t-18 88.5v173q0 45 -18.5 63t-68.5 18z" />
    <glyph glyph-name="asciitilde" unicode="~" horiz-adv-x="523" 
d="M124 225h-49q-8 63 14.5 95.5t62.5 30.5q36 -2 108 -28t97 -29t34 9t9 43h50q7 -61 -15 -93.5t-63 -29.5q-41 2 -112 28t-94 28q-25 3 -33.5 -9.5t-8.5 -44.5z" />
    <glyph glyph-name="exclamdown" unicode="&#xa1;" horiz-adv-x="261" 
d="M119 496h24q19 0 27 -8t8 -28v-54q0 -20 -8 -27.5t-27 -7.5h-24q-20 0 -28 8t-8 27v54q0 20 8.5 28t27.5 8zM179 100v-294h-97v294l10 183h77z" />
    <glyph glyph-name="cent" unicode="&#xa2;" horiz-adv-x="508" 
d="M445 184l9 -65q-70 -24 -158 -26l-9 -93h-49l9 94q-107 7 -151.5 65.5t-44.5 189.5q0 141 53 198.5t181 57.5h8l8 85h50l-8 -87q60 -7 103 -22l-12 -65q-42 5 -99 7l-30 -349q70 0 140 10zM255 177l29 346q-77 -3 -107 -40.5t-30 -133.5q0 -87 24.5 -125.5t83.5 -46.5z
" />
    <glyph glyph-name="sterling" unicode="&#xa3;" horiz-adv-x="571" 
d="M521 86v-86h-461v86q86 40 77 181l-4 68h-78v56h75l-7 129q-3 57 8 94t38 56t60.5 25.5t85.5 6.5q80 0 184 -10l-6 -80q-77 3 -176 3q-58 0 -79 -20t-17 -77l7 -127h205l-3 -56h-198l4 -68q4 -69 -12.5 -110.5t-58.5 -75.5q23 5 68 5h288z" />
    <glyph glyph-name="currency" unicode="&#xa4;" horiz-adv-x="592" 
d="M485 120l-73 73q-50 -39 -116 -39t-117 38l-71 -71l-45 45l71 71q-36 50 -36 114q0 67 39 118l-71 71l42 42l70 -71q52 38 118 38q67 0 118 -39l72 72l41 -42l-72 -72q38 -52 38 -117q0 -64 -39 -116l74 -73zM296 212q56 -1 96.5 40.5t40.5 99.5t-40.5 99t-96.5 41
q-58 0 -99 -41t-41 -99t41 -99.5t99 -40.5z" />
    <glyph glyph-name="yen" unicode="&#xa5;" horiz-adv-x="621" 
d="M397 326h138v-57h-169l-5 -11v-45h174v-57h-174v-156h-100v156h-170v57h170v45l-6 11h-163l-2 57h135l-192 364h104l138 -270q7 -14 18 -41.5l15 -37.5h7q3 6 14 35l17 44l138 270h104z" />
    <glyph glyph-name="brokenbar" unicode="&#xa6;" horiz-adv-x="251" 
d="M160 381h-70v400h70v-400zM160 -169h-70v400h70v-400z" />
    <glyph glyph-name="section" unicode="&#xa7;" horiz-adv-x="545" 
d="M329 319l-168 97q-52 30 -76.5 63t-24.5 92q0 78 48 105t153 27q126 -2 218 -12l-6 -76q-87 6 -185 6q-34 0 -52.5 -1t-37 -5.5t-26.5 -15.5t-9 -30q-1 -32 15 -51t49 -36l156 -88q71 -38 89.5 -97.5t-3.5 -140.5h-70q5 65 -9.5 101t-60.5 62zM76 383h70q-5 -66 9.5 -101
t61.5 -61l168 -96q51 -29 76 -63t25 -94q0 -43 -13.5 -70.5t-42.5 -40.5t-61.5 -17.5t-83.5 -4.5q-128 2 -219 12l8 76q93 -6 186 -7q33 0 51 1t36.5 6.5t26.5 17t8 30.5q2 31 -14 50.5t-47 37.5l-157 87q-71 37 -90 96t2 141z" />
    <glyph glyph-name="dieresis" unicode="&#xa8;" horiz-adv-x="413" 
d="M103 697h32q26 0 26 -27v-54q0 -27 -26 -27h-32q-26 0 -26 27v54q0 27 26 27zM280 697h32q27 0 27 -27v-54q0 -27 -27 -27h-32q-26 0 -26 27v54q0 27 26 27z" />
    <glyph glyph-name="copyright" unicode="&#xa9;" horiz-adv-x="832" 
d="M416 703q152 0 256 -101.5t104 -256.5t-104 -256.5t-256 -101.5t-256 102t-104 256t104 256t256 102zM416 652q-128 0 -217.5 -88t-89.5 -219t89.5 -219t217.5 -88t217.5 88t89.5 219t-89.5 219t-217.5 88zM559 200l7 -55q-60 -16 -145 -16q-107 0 -151 49t-44 169
t44 169t151 49q79 0 135 -14l-8 -55q-57 4 -128 4q-68 0 -93.5 -33t-25.5 -120t25.5 -120t93.5 -33q90 0 139 6z" />
    <glyph glyph-name="ordfeminine" unicode="&#xaa;" horiz-adv-x="441" 
d="M84 540l-8 54q103 15 177 15q59 0 88.5 -25.5t29.5 -85.5v-225h-58l-9 60q-63 -67 -143 -67q-45 0 -72.5 23t-27.5 65v38q0 38 25 59.5t70 21.5h142v25q0 50 -60 50q-50 0 -154 -8zM132 385v-15q0 -23 12.5 -32.5t39.5 -9.5q55 0 114 46v58l-119 -9q-26 -1 -36.5 -10.5
t-10.5 -27.5z" />
    <glyph glyph-name="guillemotleft" unicode="&#xab;" horiz-adv-x="491" 
d="M254 427l-122 -176l123 -179l-51 -34l-161 202v22l160 198zM440 427l-122 -176l123 -179l-51 -34l-161 202v22l160 198z" />
    <glyph glyph-name="logicalnot" unicode="&#xac;" horiz-adv-x="590" 
d="M513 334v-202h-73v129h-369v73h442z" />
    <glyph glyph-name="softhyphen" unicode="&#xad;" horiz-adv-x="441" 
d="M373 216h-304v74h304v-74z" />
    <glyph glyph-name="registered" unicode="&#xae;" horiz-adv-x="548" 
d="M274 702q92 0 157 -65t65 -157q0 -93 -65 -158t-157 -65q-93 0 -158 65t-65 158q0 92 65 157t158 65zM274 289q78 0 133.5 56t55.5 135t-55.5 134.5t-133.5 55.5t-133.5 -55.5t-55.5 -134.5t55.5 -135t133.5 -56zM328 474v-2q29 -4 39 -38l29 -80h-47l-26 78
q-11 26 -40 26h-65v-104h-44v254q35 3 109 3q56 0 79.5 -16t23.5 -57q0 -57 -58 -64zM218 490h64q34 1 47 10t12 33q1 26 -12 34.5t-47 8.5h-64v-86z" />
    <glyph glyph-name="macron" unicode="&#xaf;" horiz-adv-x="400" 
d="M341 606h-282v71h282v-71z" />
    <glyph glyph-name="degree" unicode="&#xb0;" horiz-adv-x="359" 
d="M180 703q53 0 92 -37.5t39 -89.5q0 -53 -39 -91.5t-92 -38.5q-54 0 -92.5 38.5t-38.5 91.5q0 52 38.5 89.5t92.5 37.5zM180 645q-30 0 -50 -19.5t-20 -49.5q0 -31 20 -51t50 -20q29 0 49.5 20t20.5 51q0 30 -20 49.5t-50 19.5z" />
    <glyph glyph-name="plusminus" unicode="&#xb1;" horiz-adv-x="586" 
d="M514 397v-72h-185v-131h-73v131h-184v72h184v131h74v-131h184zM72 137h442v-72h-442v72z" />
    <glyph glyph-name="twosuperior" unicode="&#xb2;" horiz-adv-x="434" 
d="M67 710l-4 57q75 14 142 14q82 0 117.5 -19.5t35.5 -77.5q0 -63 -80 -140l-122 -119q28 4 67 2h151v-67h-315v42q0 20 12 32l123 119q79 76 82 123q1 25 -17.5 33t-58.5 8q-65 0 -133 -7z" />
    <glyph glyph-name="threesuperior" unicode="&#xb3;" horiz-adv-x="415" 
d="M69 716l-4 55q74 11 136 11q83 0 115.5 -21t32.5 -75q0 -94 -76 -105v-2q47 -6 66.5 -31.5t20.5 -72.5q2 -65 -33 -94t-119 -29q-63 0 -151 11l4 56q65 -4 128 -4q53 0 73.5 15t20.5 55q0 29 -17.5 45.5t-65.5 16.5h-85v57h85q25 0 41 5t23 15.5t9 19.5t2 23
q0 31 -18 41.5t-68 10.5q-72 0 -120 -3z" />
    <glyph glyph-name="acute" unicode="&#xb4;" horiz-adv-x="321" 
d="M285 652l-199 -117l-32 45l177 146z" />
    <glyph glyph-name="paragraph" unicode="&#xb6;" horiz-adv-x="593" 
d="M266 -210v411q-122 11 -175.5 69t-53.5 180q0 138 70.5 195t236.5 57q93 0 154 -17v-685h-72v636q-20 1 -88 4v-850h-72z" />
    <glyph glyph-name="periodcentered" unicode="&#xb7;" horiz-adv-x="242" 
d="M105 320h32q19 0 27 -8t8 -27v-54q0 -19 -8 -27t-27 -8h-32q-20 0 -28 8t-8 27v54q0 19 8 27t28 8z" />
    <glyph glyph-name="cedilla" unicode="&#xb8;" horiz-adv-x="236" 
d="M77 -87l10 45q66 6 92.5 -7t25.5 -58q-1 -65 -50 -99.5t-123 -24.5l16 51q38 -1 62.5 17t25.5 48q1 16 -11 21.5t-48 6.5z" />
    <glyph glyph-name="onesuperior" unicode="&#xb9;" horiz-adv-x="296" 
d="M222 360h-75v306q0 27 3 41l-109 -28l-10 53l116 42h75v-414z" />
    <glyph glyph-name="ordmasculine" unicode="&#xba;" horiz-adv-x="443" 
d="M221 609q92 0 129 -39t37 -134t-37 -133t-129 -38q-91 0 -128 38t-37 133t37 134t128 39zM221 549q-51 0 -70 -24t-20 -89q1 -65 20 -88t70 -23q52 0 71 23t19 88t-19.5 89t-70.5 24z" />
    <glyph glyph-name="guillemotright" unicode="&#xbb;" horiz-adv-x="491" 
d="M262 262v-22l-160 -202l-52 34l123 179l-122 176l52 33zM448 262v-22l-161 -202l-51 34l123 179l-122 176l51 33z" />
    <glyph glyph-name="onequarter" unicode="&#xbc;" horiz-adv-x="867" 
d="M150 276v306q0 22 4 41l-110 -28l-9 53l115 42h75v-414h-75zM648 690l-441 -690h-68l441 690h68zM827 101l-48 -6v-95h-71v94h-189q-28 0 -41 18t1 50l122 252h73l-117 -240q-4 -8 1 -14.5t16 -6.5h134v115l13 66h58v-181h48v-52z" />
    <glyph glyph-name="onehalf" unicode="&#xbd;" horiz-adv-x="890" 
d="M225 276h-75v306q0 22 4 41l-110 -28l-9 53l115 42h75v-414zM200 0h-69l441 690h68zM535 350l-4 57q75 14 142 14q81 0 117 -19.5t36 -77.5q0 -61 -80 -140l-123 -119q30 4 67 2h152v-67h-315v42q0 20 12 32l123 119q79 76 82 123q1 25 -17.5 33t-58.5 8q-65 0 -133 -7z
" />
    <glyph glyph-name="threequarters" unicode="&#xbe;" horiz-adv-x="959" 
d="M270 495v-2q47 -6 66.5 -31.5t20.5 -72.5q1 -65 -34 -94t-119 -29q-62 0 -150 11l4 56q65 -4 128 -4q53 0 73.5 15t20.5 54q0 30 -17.5 46.5t-65.5 16.5l-85 2v52l85 3q32 0 49.5 10.5t21.5 22t4 29.5q0 31 -18 42t-68 11q-72 0 -120 -3l-4 55q67 10 135 10
q84 0 116 -20.5t32 -74.5q0 -46 -16.5 -72.5t-58.5 -32.5zM749 690l-441 -690h-68l440 690h69zM919 101l-50 -6v-95h-71v94h-187q-28 0 -41 18t0 50l123 252h73l-117 -240q-4 -8 0.5 -14.5t15.5 -6.5h133v115l13 66h58v-181h50v-52z" />
    <glyph glyph-name="questiondown" unicode="&#xbf;" horiz-adv-x="500" 
d="M249 501h24q19 0 27 -7.5t8 -27.5v-54q0 -20 -7.5 -28t-27.5 -8h-24q-20 0 -28 8t-8 28v54q0 20 8 27.5t28 7.5zM219 289h81q1 -51 -14.5 -94t-39 -71.5t-47 -53.5t-41 -53t-18.5 -56q-2 -46 27.5 -68t94.5 -22q77 0 198 9l5 -69q-7 -1 -27.5 -5t-27.5 -5t-24.5 -4
t-28.5 -3.5t-30 -2t-39.5 -2t-45.5 -0.5q-204 0 -204 155q0 41 18 76t43.5 61.5l52 54t46 67t21.5 86.5z" />
    <glyph glyph-name="Agrave" unicode="&#xc0;" horiz-adv-x="626" 
d="M333 726l-199 117l54 74l177 -146zM450 208h-275l-64 -208h-102l216 663q8 27 37 27h102q30 0 36 -27l217 -663h-103zM424 295l-81 262q-3 9 -8.5 28t-8.5 28h-27l-16 -56l-81 -262h222z" />
    <glyph glyph-name="Aacute" unicode="&#xc1;" horiz-adv-x="626" 
d="M277 726l-33 45l177 146l55 -74zM450 208h-275l-64 -208h-102l216 663q8 27 37 27h102q30 0 36 -27l217 -663h-103zM424 295l-81 262q-3 9 -8.5 28t-8.5 28h-27l-16 -56l-81 -262h222z" />
    <glyph glyph-name="Acircumflex" unicode="&#xc2;" horiz-adv-x="626" 
d="M179 729l-32 41l131 129h70l132 -129l-34 -41l-129 96h-8zM450 208h-275l-64 -208h-102l216 663q8 27 37 27h102q30 0 36 -27l217 -663h-103zM424 295l-81 262q-3 9 -8.5 28t-8.5 28h-27l-16 -56l-81 -262h222z" />
    <glyph glyph-name="Atilde" unicode="&#xc3;" horiz-adv-x="626" 
d="M197 763h-44q-7 60 16 91.5t62 28.5q33 -3 79 -27t72 -27q27 -3 37 8.5t10 40.5h44q7 -58 -15 -89.5t-63 -28.5q-37 3 -84.5 27.5t-68.5 27.5q-26 3 -35.5 -9t-9.5 -43zM450 208h-275l-64 -208h-102l216 663q8 27 37 27h102q30 0 36 -27l217 -663h-103zM424 295l-81 262
q-3 9 -8.5 28t-8.5 28h-27l-16 -56l-81 -262h222z" />
    <glyph glyph-name="Adieresis" unicode="&#xc4;" horiz-adv-x="626" 
d="M241 765h-33q-26 0 -26 27v54q0 26 26 26h33q25 0 25 -26v-54q0 -27 -25 -27zM418 765h-32q-27 0 -27 27v54q0 26 27 26h32q26 0 26 -26v-54q0 -27 -26 -27zM450 208h-275l-64 -208h-102l216 663q8 27 37 27h102q30 0 36 -27l217 -663h-103zM424 295l-81 262
q-3 9 -8.5 28t-8.5 28h-27l-16 -56l-81 -262h222z" />
    <glyph glyph-name="Aring" unicode="&#xc5;" horiz-adv-x="626" 
d="M313 714q-45 0 -77 30.5t-32 75.5t32 76t77 31t77.5 -31t32.5 -76t-32 -75.5t-78 -30.5zM313 879q-24 0 -40 -16t-16 -43q0 -26 16 -42t40 -16q25 0 41 16t16 42t-16 42.5t-41 16.5zM450 208h-275l-64 -208h-102l216 663q8 27 37 27h102q30 0 36 -27l217 -663h-103z
M424 295l-81 262q-3 9 -8.5 28t-8.5 28h-27l-16 -56l-81 -262h222z" />
    <glyph glyph-name="AE" unicode="&#xc6;" horiz-adv-x="915" 
d="M861 84l4 -78q-95 -8 -297 -8q-53 0 -85.5 35t-32.5 89v94h-227l-122 -216h-105l333 577q36 66 86 90t150 24q194 0 300 -7l-4 -79h-253q-29 0 -46.5 -18t-17.5 -49v-134h278v-82h-278v-174q0 -34 15 -49t49 -15h253zM450 299v253q0 20 9 40.5t21 30.5h-9
q-28 -16 -54 -61l-148 -263h181z" />
    <glyph glyph-name="Ccedilla" unicode="&#xc7;" 
d="M527 88l10 -76q-83 -24 -205 -24q-151 0 -212 80t-61 277t61 277t212 80q108 0 191 -20l-10 -77q-80 8 -181 8q-95 0 -131.5 -58t-36.5 -210t36.5 -210t131.5 -58q127 0 195 11zM268 -99l10 45q65 6 92 -7t26 -58q-2 -65 -51 -99.5t-122 -24.5l15 51q38 -1 62.5 17
t26.5 48q1 16 -11 21.5t-48 6.5z" />
    <glyph glyph-name="Egrave" unicode="&#xc8;" horiz-adv-x="562" 
d="M329 746l-199 117l55 74l177 -147zM508 83l5 -77q-91 -8 -296 -8q-64 0 -101 33.5t-38 90.5v446q1 57 38 90.5t101 33.5q205 0 296 -8l-5 -78h-274q-30 0 -42.5 -14.5t-12.5 -49.5v-138h291v-81h-291v-176q0 -35 12.5 -49.5t42.5 -14.5h274z" />
    <glyph glyph-name="Eacute" unicode="&#xc9;" horiz-adv-x="562" 
d="M273 746l-32 44l177 147l55 -74zM508 83l5 -77q-91 -8 -296 -8q-64 0 -101 33.5t-38 90.5v446q1 57 38 90.5t101 33.5q205 0 296 -8l-5 -78h-274q-30 0 -42.5 -14.5t-12.5 -49.5v-138h291v-81h-291v-176q0 -35 12.5 -49.5t42.5 -14.5h274z" />
    <glyph glyph-name="Ecircumflex" unicode="&#xca;" horiz-adv-x="562" 
d="M176 748l-32 42l131 129h70l131 -129l-33 -42l-129 97h-8zM508 83l5 -77q-91 -8 -296 -8q-64 0 -101 33.5t-38 90.5v446q1 57 38 90.5t101 33.5q205 0 296 -8l-5 -78h-274q-30 0 -42.5 -14.5t-12.5 -49.5v-138h291v-81h-291v-176q0 -35 12.5 -49.5t42.5 -14.5h274z" />
    <glyph glyph-name="Edieresis" unicode="&#xcb;" horiz-adv-x="562" 
d="M237 785h-32q-26 0 -26 26v55q0 26 26 26h32q26 0 26 -26v-55q0 -26 -26 -26zM414 785h-31q-27 0 -27 26v55q0 26 27 26h31q27 0 27 -26v-55q0 -26 -27 -26zM508 83l5 -77q-91 -8 -296 -8q-64 0 -101 33.5t-38 90.5v446q1 57 38 90.5t101 33.5q205 0 296 -8l-5 -78h-274
q-30 0 -42.5 -14.5t-12.5 -49.5v-138h291v-81h-291v-176q0 -35 12.5 -49.5t42.5 -14.5h274z" />
    <glyph glyph-name="Igrave" unicode="&#xcc;" horiz-adv-x="268" 
d="M186 771l-32 -45l-200 117l55 74zM184 0h-100v690h100v-690z" />
    <glyph glyph-name="Iacute" unicode="&#xcd;" horiz-adv-x="268" 
d="M297 843l-199 -117l-33 45l177 146zM184 0h-100v690h100v-690z" />
    <glyph glyph-name="Icircumflex" unicode="&#xce;" horiz-adv-x="268" 
d="M301 770l-34 -41l-129 96h-8l-130 -96l-32 41l131 129h70zM184 0h-100v690h100v-690z" />
    <glyph glyph-name="Idieresis" unicode="&#xcf;" horiz-adv-x="268" 
d="M29 872h33q25 0 25 -26v-54q0 -27 -25 -27h-33q-26 0 -26 27v54q0 26 26 26zM207 872h32q26 0 26 -26v-54q0 -27 -26 -27h-32q-27 0 -27 27v54q0 26 27 26zM184 0h-100v690h100v-690z" />
    <glyph glyph-name="Eth" unicode="&#xd0;" horiz-adv-x="670" 
d="M89 393v297q131 9 249 9q151 0 211.5 -77.5t60.5 -276.5t-60.5 -276.5t-211.5 -77.5q-118 0 -249 9v338h-67v55h67zM188 338v-257q66 -3 150 -3q94 0 130.5 58t36.5 209t-36.5 209t-130.5 58q-31 0 -80 -0.5t-70 -0.5v-218h146v-55h-146z" />
    <glyph glyph-name="Ntilde" unicode="&#xd1;" horiz-adv-x="708" 
d="M245 763h-44q-7 60 16 91.5t62 28.5q33 -3 79 -27t73 -27q26 -3 36 8.5t10 40.5h44q7 -58 -15 -89.5t-63 -28.5q-37 3 -84.5 27.5t-67.5 27.5q-27 3 -36.5 -9t-9.5 -43zM624 690v-651q0 -39 -37 -39h-95q-30 0 -43 31l-215 470q-36 78 -41 96h-14q5 -40 5 -96v-501h-100
v651q0 39 38 39h92q29 0 44 -31l209 -458q4 -9 14 -29.5l18.5 -39l15.5 -34.5h15q-5 60 -5 107v485h99z" />
    <glyph glyph-name="Ograve" unicode="&#xd2;" horiz-adv-x="669" 
d="M385 771l-32 -45l-199 117l55 74zM334 703q154 0 215 -78t61 -280t-61 -280t-215 -78q-153 0 -214 78t-61 280t61 280t214 78zM334 614q-97 0 -133.5 -58t-36.5 -211t36.5 -211t133.5 -58t134 58t37 211t-37 211t-134 58z" />
    <glyph glyph-name="Oacute" unicode="&#xd3;" horiz-adv-x="669" 
d="M496 843l-199 -117l-32 45l177 146zM334 703q154 0 215 -78t61 -280t-61 -280t-215 -78q-153 0 -214 78t-61 280t61 280t214 78zM334 614q-97 0 -133.5 -58t-36.5 -211t36.5 -211t133.5 -58t134 58t37 211t-37 211t-134 58z" />
    <glyph glyph-name="Ocircumflex" unicode="&#xd4;" horiz-adv-x="669" 
d="M500 770l-33 -41l-130 96h-8l-129 -96l-32 41l130 129h71zM334 703q154 0 215 -78t61 -280t-61 -280t-215 -78q-153 0 -214 78t-61 280t61 280t214 78zM334 614q-97 0 -133.5 -58t-36.5 -211t36.5 -211t133.5 -58t134 58t37 211t-37 211t-134 58z" />
    <glyph glyph-name="Otilde" unicode="&#xd5;" horiz-adv-x="669" 
d="M217 763h-44q-7 60 16 91.5t63 28.5q32 -3 78 -27t73 -27t37 8.5t10 40.5h44q7 -58 -15.5 -89.5t-63.5 -28.5q-37 3 -84.5 27.5t-67.5 27.5q-27 3 -36.5 -9t-9.5 -43zM334 703q154 0 215 -78t61 -280t-61 -280t-215 -78q-153 0 -214 78t-61 280t61 280t214 78zM334 614
q-97 0 -133.5 -58t-36.5 -211t36.5 -211t133.5 -58t134 58t37 211t-37 211t-134 58z" />
    <glyph glyph-name="Odieresis" unicode="&#xd6;" horiz-adv-x="669" 
d="M228 872h33q26 0 26 -26v-54q0 -27 -26 -27h-33q-25 0 -25 27v54q0 26 25 26zM406 872h32q27 0 27 -26v-54q0 -27 -27 -27h-32q-26 0 -26 27v54q0 26 26 26zM334 703q154 0 215 -78t61 -280t-61 -280t-215 -78q-153 0 -214 78t-61 280t61 280t214 78zM334 614
q-97 0 -133.5 -58t-36.5 -211t36.5 -211t133.5 -58t134 58t37 211t-37 211t-134 58z" />
    <glyph glyph-name="multiply" unicode="&#xd7;" horiz-adv-x="484" 
d="M42 422l357 -321l47 57l-356 321z" />
    <glyph glyph-name="Oslash" unicode="&#xd8;" horiz-adv-x="669" 
d="M543 731l-32 -69q53 -37 76 -112.5t23 -204.5q0 -202 -61 -280t-215 -78q-79 0 -130 19l-31 -65l-50 21l32 69q-51 37 -73.5 112t-22.5 202q0 202 61 280t214 78q78 0 128 -17l30 65zM202 132l219 466q-33 16 -87 16q-97 0 -133.5 -58t-36.5 -211q0 -154 38 -213z
M464 562l-219 -468q35 -18 89 -18q97 0 134 58t37 211q0 161 -41 217z" />
    <glyph glyph-name="Ugrave" unicode="&#xd9;" horiz-adv-x="666" 
d="M386 771l-32 -45l-200 117l55 74zM587 690v-424q0 -152 -56.5 -215.5t-193.5 -63.5q-141 0 -199.5 63.5t-58.5 215.5v424h100v-424q0 -106 34 -148t120 -42q85 0 119.5 42t34.5 148v424h100z" />
    <glyph glyph-name="Uacute" unicode="&#xda;" horiz-adv-x="666" 
d="M497 843l-199 -117l-33 45l177 146zM587 690v-424q0 -152 -56.5 -215.5t-193.5 -63.5q-141 0 -199.5 63.5t-58.5 215.5v424h100v-424q0 -106 34 -148t120 -42q85 0 119.5 42t34.5 148v424h100z" />
    <glyph glyph-name="Ucircumflex" unicode="&#xdb;" horiz-adv-x="666" 
d="M501 770l-34 -41l-129 96h-8l-130 -96l-32 41l131 129h70zM587 690v-424q0 -152 -56.5 -215.5t-193.5 -63.5q-141 0 -199.5 63.5t-58.5 215.5v424h100v-424q0 -106 34 -148t120 -42q85 0 119.5 42t34.5 148v424h100z" />
    <glyph glyph-name="Udieresis" unicode="&#xdc;" horiz-adv-x="666" 
d="M229 872h32q26 0 26 -26v-54q0 -27 -26 -27h-32q-26 0 -26 27v54q0 26 26 26zM407 872h31q27 0 27 -26v-54q0 -27 -27 -27h-31q-27 0 -27 27v54q0 26 27 26zM587 690v-424q0 -152 -56.5 -215.5t-193.5 -63.5q-141 0 -199.5 63.5t-58.5 215.5v424h100v-424q0 -106 34 -148
t120 -42q85 0 119.5 42t34.5 148v424h100z" />
    <glyph glyph-name="Yacute" unicode="&#xdd;" horiz-adv-x="574" 
d="M250 726l-32 45l177 146l54 -74zM337 239v-239h-100v240l-228 450h106l139 -283q8 -17 30 -80h7q21 62 30 79l139 284h104z" />
    <glyph glyph-name="Thorn" unicode="&#xde;" horiz-adv-x="594" 
d="M184 690v-122q38 2 141 2q128 0 176.5 -46.5t48.5 -175.5q0 -128 -46.5 -174t-167.5 -46q-66 0 -152 8v-136h-100v561v129h100zM184 214h138q74 1 100.5 28t26.5 106q0 81 -27 108.5t-100 27.5q-100 0 -138 -1v-269z" />
    <glyph glyph-name="germandbls" unicode="&#xdf;" horiz-adv-x="680" 
d="M461 305l99 -47q47 -23 66 -51t19 -80q0 -81 -42 -109.5t-138 -28.5q-72 0 -159 11l6 73q61 -5 133 -5q62 1 84 12t22 52q0 15 -3 24.5t-14 18.5t-18.5 13l-29.5 15l-101 48q-81 39 -81 114q0 15 2.5 28t10.5 24.5l13.5 19t19.5 18t20.5 14.5l25.5 15t25 15q35 23 48 40
t13 45q0 31 -27.5 45.5t-106.5 14.5q-81 0 -109 -22t-28 -88v-534h-97v412h-88v76h88v57q0 108 54.5 143t175.5 35q126 0 177.5 -29.5t51.5 -107.5q0 -40 -17 -69.5t-67 -61.5q-13 -9 -37.5 -23t-32.5 -20t-15.5 -17.5t-7.5 -26.5q0 -22 14 -33.5t51 -29.5z" />
    <glyph glyph-name="agrave" unicode="&#xe0;" horiz-adv-x="551" 
d="M289 547l-199 117l54 74l177 -147zM79 407l-9 71q132 23 237 23q89 0 131 -36t42 -125v-340h-76l-11 77q-84 -86 -195 -86q-68 0 -108.5 36t-40.5 102v51q0 58 36 90t102 32h196v38q-1 45 -21 62t-76 17q-55 0 -207 -12zM147 167v-26q0 -36 17 -52t54 -16q87 0 165 68v88
h-178q-32 -1 -45 -16.5t-13 -45.5z" />
    <glyph glyph-name="aacute" unicode="&#xe1;" horiz-adv-x="551" 
d="M233 547l-32 44l177 147l54 -74zM79 407l-9 71q132 23 237 23q89 0 131 -36t42 -125v-340h-76l-11 77q-84 -86 -195 -86q-68 0 -108.5 36t-40.5 102v51q0 58 36 90t102 32h196v38q-1 45 -21 62t-76 17q-55 0 -207 -12zM147 167v-26q0 -36 17 -52t54 -16q87 0 165 68v88
h-178q-32 -1 -45 -16.5t-13 -45.5z" />
    <glyph glyph-name="acircumflex" unicode="&#xe2;" horiz-adv-x="551" 
d="M135 549l-32 42l131 129h70l132 -129l-34 -42l-129 97h-8zM79 407l-9 71q132 23 237 23q89 0 131 -36t42 -125v-340h-76l-11 77q-84 -86 -195 -86q-68 0 -108.5 36t-40.5 102v51q0 58 36 90t102 32h196v38q-1 45 -21 62t-76 17q-55 0 -207 -12zM147 167v-26q0 -36 17 -52
t54 -16q87 0 165 68v88h-178q-32 -1 -45 -16.5t-13 -45.5z" />
    <glyph glyph-name="atilde" unicode="&#xe3;" horiz-adv-x="551" 
d="M153 584h-44q-7 59 16 90.5t62 28.5q33 -3 79 -26.5t73 -26.5q26 -4 36 8t10 40h44q7 -58 -15 -89t-63 -28q-37 3 -84.5 27.5t-67.5 27.5q-27 3 -36.5 -9.5t-9.5 -42.5zM79 407l-9 71q132 23 237 23q89 0 131 -36t42 -125v-340h-76l-11 77q-84 -86 -195 -86
q-68 0 -108.5 36t-40.5 102v51q0 58 36 90t102 32h196v38q-1 45 -21 62t-76 17q-55 0 -207 -12zM147 167v-26q0 -36 17 -52t54 -16q87 0 165 68v88h-178q-32 -1 -45 -16.5t-13 -45.5z" />
    <glyph glyph-name="adieresis" unicode="&#xe4;" horiz-adv-x="551" 
d="M197 585h-33q-25 0 -25 27v54q0 27 25 27h33q26 0 26 -27v-54q0 -27 -26 -27zM374 585h-32q-26 0 -26 27v54q0 27 26 27h32q27 0 27 -27v-54q0 -27 -27 -27zM79 407l-9 71q132 23 237 23q89 0 131 -36t42 -125v-340h-76l-11 77q-84 -86 -195 -86q-68 0 -108.5 36
t-40.5 102v51q0 58 36 90t102 32h196v38q-1 45 -21 62t-76 17q-55 0 -207 -12zM147 167v-26q0 -36 17 -52t54 -16q87 0 165 68v88h-178q-32 -1 -45 -16.5t-13 -45.5z" />
    <glyph glyph-name="aring" unicode="&#xe5;" horiz-adv-x="551" 
d="M270 534q-46 0 -77.5 30.5t-31.5 76.5q0 45 32 76t77 31t77 -31t32 -76t-32 -76t-77 -31zM270 699q-25 0 -41 -15.5t-16 -42.5q0 -26 16 -42t41 -16q24 0 40 16t16 42t-16 42t-40 16zM79 407l-9 71q132 23 237 23q89 0 131 -36t42 -125v-340h-76l-11 77q-84 -86 -195 -86
q-68 0 -108.5 36t-40.5 102v51q0 58 36 90t102 32h196v38q-1 45 -21 62t-76 17q-55 0 -207 -12zM147 167v-26q0 -36 17 -52t54 -16q87 0 165 68v88h-178q-32 -1 -45 -16.5t-13 -45.5z" />
    <glyph glyph-name="ae" unicode="&#xe6;" horiz-adv-x="870" 
d="M699 197h-214q6 -76 38.5 -102t106.5 -26q67 0 171 12l9 -64q-65 -29 -192 -29q-85 0 -135.5 24.5t-75.5 78.5q-32 -38 -87 -69t-122 -31q-68 0 -108.5 36t-40.5 102v51q0 58 36 90t102 32h196v38q0 45 -20.5 62t-76.5 17q-55 0 -207 -12l-9 71q132 23 237 23
q100 0 140 -45q52 45 162 45q111 0 162 -41t51 -123q2 -140 -123 -140zM483 272h189q53 0 53 65q0 44 -25 63t-87 19q-72 0 -100 -30.5t-30 -116.5zM147 167v-26q0 -36 17 -52t54 -16q38 0 85 18.5t87 55.5q-7 40 -8 82h-177q-32 -1 -45 -16.5t-13 -45.5z" />
    <glyph glyph-name="ccedilla" unicode="&#xe7;" horiz-adv-x="491" 
d="M446 80l9 -65q-74 -27 -170 -27q-128 0 -180.5 57.5t-52.5 198.5t52.5 199t180.5 58q98 0 162 -25l-13 -62q-75 5 -132 5q-84 0 -116.5 -37t-32.5 -138t32.5 -138t116.5 -37q82 0 144 11zM221 -99l10 45q65 6 92 -7t26 -58q-2 -65 -51 -99.5t-122 -24.5l15 51
q38 -1 62.5 17t26.5 48q1 16 -11 21.5t-48 6.5z" />
    <glyph glyph-name="egrave" unicode="&#xe8;" horiz-adv-x="539" 
d="M300 547l-199 117l54 74l177 -147zM373 197h-219q7 -76 39.5 -102t106.5 -26q65 0 171 12l9 -64q-66 -29 -193 -29q-128 0 -181.5 58t-53.5 199q0 142 52.5 199t173.5 57q112 0 163 -41t51 -123q0 -140 -119 -140zM153 272h194q48 0 48 65q-1 45 -25.5 63.5t-86.5 18.5
q-72 0 -100 -30.5t-30 -116.5z" />
    <glyph glyph-name="eacute" unicode="&#xe9;" horiz-adv-x="539" 
d="M244 547l-32 44l176 147l55 -74zM373 197h-219q7 -76 39.5 -102t106.5 -26q65 0 171 12l9 -64q-66 -29 -193 -29q-128 0 -181.5 58t-53.5 199q0 142 52.5 199t173.5 57q112 0 163 -41t51 -123q0 -140 -119 -140zM153 272h194q48 0 48 65q-1 45 -25.5 63.5t-86.5 18.5
q-72 0 -100 -30.5t-30 -116.5z" />
    <glyph glyph-name="ecircumflex" unicode="&#xea;" horiz-adv-x="539" 
d="M146 549l-32 42l131 129h70l132 -129l-34 -42l-129 97h-8zM373 197h-219q7 -76 39.5 -102t106.5 -26q65 0 171 12l9 -64q-66 -29 -193 -29q-128 0 -181.5 58t-53.5 199q0 142 52.5 199t173.5 57q112 0 163 -41t51 -123q0 -140 -119 -140zM153 272h194q48 0 48 65
q-1 45 -25.5 63.5t-86.5 18.5q-72 0 -100 -30.5t-30 -116.5z" />
    <glyph glyph-name="edieresis" unicode="&#xeb;" horiz-adv-x="539" 
d="M208 585h-33q-25 0 -25 27v54q0 27 25 27h33q26 0 26 -27v-54q0 -27 -26 -27zM385 585h-32q-26 0 -26 27v54q0 27 26 27h32q26 0 26 -27v-54q0 -27 -26 -27zM373 197h-219q7 -76 39.5 -102t106.5 -26q65 0 171 12l9 -64q-66 -29 -193 -29q-128 0 -181.5 58t-53.5 199
q0 142 52.5 199t173.5 57q112 0 163 -41t51 -123q0 -140 -119 -140zM153 272h194q48 0 48 65q-1 45 -25.5 63.5t-86.5 18.5q-72 0 -100 -30.5t-30 -116.5z" />
    <glyph glyph-name="igrave" unicode="&#xec;" horiz-adv-x="255" 
d="M180 591l-32 -44l-200 117l55 74zM176 0h-97v488h97v-488z" />
    <glyph glyph-name="iacute" unicode="&#xed;" horiz-adv-x="255" 
d="M291 664l-199 -117l-33 44l177 147zM176 0h-97v488h97v-488z" />
    <glyph glyph-name="icircumflex" unicode="&#xee;" horiz-adv-x="255" 
d="M295 591l-34 -42l-129 97h-8l-130 -97l-32 42l131 129h70zM176 0h-97v488h97v-488z" />
    <glyph glyph-name="idieresis" unicode="&#xef;" horiz-adv-x="255" 
d="M23 693h33q25 0 25 -27v-54q0 -27 -25 -27h-33q-26 0 -26 27v54q0 27 26 27zM201 693h32q26 0 26 -27v-54q0 -27 -26 -27h-32q-27 0 -27 27v54q0 27 27 27zM176 0h-97v488h97v-488z" />
    <glyph glyph-name="eth" unicode="&#xf0;" horiz-adv-x="561" 
d="M447 671l-65 -50q119 -106 119 -338q0 -147 -48.5 -221.5t-176.5 -74.5q-115 0 -169 55.5t-54 175.5q0 116 47.5 173.5t157.5 57.5q75 0 131 -33q-18 99 -74 153l-75 -59l-34 42l63 50q-60 29 -150 26l11 70q118 6 206 -44l76 61zM277 68q76 0 99.5 50.5t23.5 169.5
q0 41 -2 60q-54 19 -124 19q-66 0 -93 -36.5t-27 -111.5q0 -83 28.5 -117t94.5 -34z" />
    <glyph glyph-name="ntilde" unicode="&#xf1;" horiz-adv-x="583" 
d="M182 584h-44q-7 60 15.5 91t62.5 28q33 -3 79 -26.5t72 -26.5q27 -4 37 8t10 40h44q7 -58 -15 -89t-63 -28q-37 3 -84.5 27.5t-68.5 27.5q-26 3 -35.5 -9.5t-9.5 -42.5zM157 488l6 -75q115 88 216 88q65 0 98.5 -34.5t33.5 -100.5v-366h-97v338q0 46 -13.5 63.5
t-48.5 17.5q-38 0 -76 -17t-104 -56v-346h-97v488h82z" />
    <glyph glyph-name="ograve" unicode="&#xf2;" horiz-adv-x="570" 
d="M336 591l-32 -44l-200 117l55 74zM285 501q127 0 180 -59t53 -199t-53 -198t-180 -58t-180 58t-53 198t53 199t180 59zM285 419q-76 0 -104 -37t-28 -139q0 -101 28 -138t104 -37t104 37t28 138q0 102 -28 139t-104 37z" />
    <glyph glyph-name="oacute" unicode="&#xf3;" horiz-adv-x="570" 
d="M447 664l-199 -117l-33 44l177 147zM285 501q127 0 180 -59t53 -199t-53 -198t-180 -58t-180 58t-53 198t53 199t180 59zM285 419q-76 0 -104 -37t-28 -139q0 -101 28 -138t104 -37t104 37t28 138q0 102 -28 139t-104 37z" />
    <glyph glyph-name="ocircumflex" unicode="&#xf4;" horiz-adv-x="570" 
d="M451 591l-34 -42l-129 97h-8l-130 -97l-32 42l131 129h70zM285 501q127 0 180 -59t53 -199t-53 -198t-180 -58t-180 58t-53 198t53 199t180 59zM285 419q-76 0 -104 -37t-28 -139q0 -101 28 -138t104 -37t104 37t28 138q0 102 -28 139t-104 37z" />
    <glyph glyph-name="otilde" unicode="&#xf5;" horiz-adv-x="570" 
d="M168 584h-44q-7 60 15.5 91t62.5 28q33 -3 79 -26.5t72 -26.5q27 -4 37 8t10 40h44q7 -58 -15 -89t-63 -28q-37 3 -84.5 27.5t-68.5 27.5q-26 3 -35.5 -9.5t-9.5 -42.5zM285 501q127 0 180 -59t53 -199t-53 -198t-180 -58t-180 58t-53 198t53 199t180 59zM285 419
q-76 0 -104 -37t-28 -139q0 -101 28 -138t104 -37t104 37t28 138q0 102 -28 139t-104 37z" />
    <glyph glyph-name="odieresis" unicode="&#xf6;" horiz-adv-x="570" 
d="M179 693h33q25 0 25 -27v-54q0 -27 -25 -27h-33q-26 0 -26 27v54q0 27 26 27zM357 693h32q26 0 26 -27v-54q0 -27 -26 -27h-32q-27 0 -27 27v54q0 27 27 27zM285 501q127 0 180 -59t53 -199t-53 -198t-180 -58t-180 58t-53 198t53 199t180 59zM285 419q-76 0 -104 -37
t-28 -139q0 -101 28 -138t104 -37t104 37t28 138q0 102 -28 139t-104 37z" />
    <glyph glyph-name="divide" unicode="&#xf7;" horiz-adv-x="567" 
d="M270 529h25q20 0 27.5 -8t7.5 -28v-46q0 -19 -7.5 -26.5t-27.5 -7.5h-25q-20 0 -27.5 7t-7.5 27v46q0 20 7.5 28t27.5 8zM505 259h-443v72h443v-72zM270 176h25q20 0 27.5 -8t7.5 -28v-45q0 -20 -7.5 -27.5t-27.5 -7.5h-25q-20 0 -27.5 7.5t-7.5 27.5v45q0 20 7.5 28
t27.5 8z" />
    <glyph glyph-name="oslash" unicode="&#xf8;" horiz-adv-x="570" 
d="M448 543l-30 -66q53 -25 76.5 -81.5t23.5 -152.5q0 -140 -53 -198t-180 -58q-52 0 -91 9l-35 -74l-43 21l32 70q-50 25 -73 81t-23 149q0 140 53 199t180 59q47 0 87 -8l33 71zM188 98l147 317q-19 4 -50 4q-76 0 -104 -37t-28 -139q0 -110 35 -145zM379 394l-149 -320
q23 -6 55 -6q76 0 104 37t28 138q0 116 -38 151z" />
    <glyph glyph-name="ugrave" unicode="&#xf9;" 
d="M308 551l-199 117l55 74l176 -146zM497 488v-488h-77l-7 67q-107 -80 -208 -80q-133 0 -133 135v366h97v-338q-1 -45 15 -62.5t55 -17.5q57 0 162 65v353h96z" />
    <glyph glyph-name="uacute" unicode="&#xfa;" 
d="M252 551l-32 45l177 146l54 -74zM497 488v-488h-77l-7 67q-107 -80 -208 -80q-133 0 -133 135v366h97v-338q-1 -45 15 -62.5t55 -17.5q57 0 162 65v353h96z" />
    <glyph glyph-name="ucircumflex" unicode="&#xfb;" 
d="M155 554l-33 41l131 129h70l132 -129l-33 -41l-130 96h-8zM497 488v-488h-77l-7 67q-107 -80 -208 -80q-133 0 -133 135v366h97v-338q-1 -45 15 -62.5t55 -17.5q57 0 162 65v353h96z" />
    <glyph glyph-name="udieresis" unicode="&#xfc;" 
d="M216 590h-33q-25 0 -25 27v54q0 26 25 26h33q26 0 26 -26v-54q0 -27 -26 -27zM393 590h-32q-26 0 -26 27v54q0 26 26 26h32q27 0 27 -26v-54q0 -27 -27 -27zM497 488v-488h-77l-7 67q-107 -80 -208 -80q-133 0 -133 135v366h97v-338q-1 -45 15 -62.5t55 -17.5
q57 0 162 65v353h96z" />
    <glyph glyph-name="yacute" unicode="&#xfd;" horiz-adv-x="533" 
d="M232 547l-32 44l177 147l55 -74zM516 488l-189 -511q-68 -180 -224 -182l-10 64q57 17 90 47t53 76l7 18h-20q-28 0 -34 25l-173 463h104l121 -355q12 -31 17 -60h14q10 27 20 60l120 355h104z" />
    <glyph glyph-name="thorn" unicode="&#xfe;" horiz-adv-x="576" 
d="M172 700v-163q0 -68 -4 -102q83 65 178 65t135.5 -61.5t40.5 -198.5q0 -140 -42 -196.5t-137 -56.5q-93 0 -174 42q3 -30 3 -91v-137h-97v899h97zM172 355v-254q86 -34 139 -34q62 0 86.5 37.5t24.5 136.5q0 101 -24.5 139t-82.5 38q-57 0 -143 -63z" />
    <glyph glyph-name="ydieresis" unicode="&#xff;" horiz-adv-x="533" 
d="M196 585h-32q-26 0 -26 27v54q0 27 26 27h32q26 0 26 -27v-54q0 -27 -26 -27zM373 585h-31q-27 0 -27 27v54q0 27 27 27h31q27 0 27 -27v-54q0 -27 -27 -27zM516 488l-189 -511q-68 -180 -224 -182l-10 64q57 17 90 47t53 76l7 18h-20q-28 0 -34 25l-173 463h104
l121 -355q12 -31 17 -60h14q10 27 20 60l120 355h104z" />
    <glyph glyph-name="Amacron" unicode="&#x100;" horiz-adv-x="626" 
d="M455 782h-283v71h283v-71zM450 208h-275l-64 -208h-102l216 663q8 27 37 27h102q30 0 36 -27l217 -663h-103zM424 295l-81 262q-3 9 -8.5 28t-8.5 28h-27l-16 -56l-81 -262h222z" />
    <glyph glyph-name="amacron" unicode="&#x101;" horiz-adv-x="551" 
d="M411 603h-283v71h283v-71zM79 407l-9 71q132 23 237 23q89 0 131 -36t42 -125v-340h-76l-11 77q-84 -86 -195 -86q-68 0 -108.5 36t-40.5 102v51q0 58 36 90t102 32h196v38q-1 45 -21 62t-76 17q-55 0 -207 -12zM147 167v-26q0 -36 17 -52t54 -16q87 0 165 68v88h-178
q-32 -1 -45 -16.5t-13 -45.5z" />
    <glyph glyph-name="Abreve" unicode="&#x102;" horiz-adv-x="626" 
d="M416 886l49 -8q5 -59 -37 -96.5t-115 -37.5q-74 0 -116 37.5t-37 96.5l49 8q0 -71 105 -71q49 0 76 18.5t26 52.5zM450 208h-275l-64 -208h-102l216 663q8 27 37 27h102q30 0 36 -27l217 -663h-103zM424 295l-81 262q-3 9 -8.5 28t-8.5 28h-27l-16 -56l-81 -262h222z" />
    <glyph glyph-name="abreve" unicode="&#x103;" horiz-adv-x="551" 
d="M373 706l48 -7q5 -60 -36.5 -97.5t-114.5 -37.5q-74 0 -116.5 37.5t-37.5 97.5l49 7q0 -71 105 -71q49 0 76 18.5t27 52.5zM79 407l-9 71q132 23 237 23q89 0 131 -36t42 -125v-340h-76l-11 77q-84 -86 -195 -86q-68 0 -108.5 36t-40.5 102v51q0 58 36 90t102 32h196v38
q-1 45 -21 62t-76 17q-55 0 -207 -12zM147 167v-26q0 -36 17 -52t54 -16q87 0 165 68v88h-178q-32 -1 -45 -16.5t-13 -45.5z" />
    <glyph glyph-name="Aogonek" unicode="&#x104;" horiz-adv-x="626" 
d="M621 -153l12 -40q-65 -26 -103.5 -19t-51.5 33.5t0 62.5q22 59 94 116h-58l-64 208h-275l-64 -208h-102l216 663q8 27 37 27h102q30 0 36 -27l217 -663q-52 -61 -71 -111q-15 -35 7 -46t68 4zM424 295l-81 262q-3 9 -8.5 28t-8.5 28h-27l-16 -56l-81 -262h222z" />
    <glyph glyph-name="aogonek" unicode="&#x105;" horiz-adv-x="551" 
d="M484 -153l12 -40q-65 -26 -103.5 -19t-51.5 33.5t0 62.5q22 59 94 116h-31l-11 77q-84 -86 -195 -86q-68 0 -108.5 36t-40.5 102v51q0 58 36 90t102 32h196v38q-1 45 -21 62t-76 17q-55 0 -207 -12l-9 71q132 23 237 23q89 0 131 -36t42 -125v-340q-52 -61 -71 -111
q-15 -35 7 -46t68 4zM147 167v-26q0 -36 17 -52t54 -16q87 0 165 68v88h-178q-32 -1 -45 -16.5t-13 -45.5z" />
    <glyph glyph-name="Cacute" unicode="&#x106;" 
d="M483 843l-199 -117l-33 45l177 146zM527 88l10 -76q-83 -24 -205 -24q-151 0 -212 80t-61 277t61 277t212 80q108 0 191 -20l-10 -77q-80 8 -181 8q-95 0 -131.5 -58t-36.5 -210t36.5 -210t131.5 -58q127 0 195 11z" />
    <glyph glyph-name="cacute" unicode="&#x107;" horiz-adv-x="491" 
d="M429 664l-199 -117l-32 44l177 147zM446 80l9 -65q-74 -27 -170 -27q-128 0 -180.5 57.5t-52.5 198.5t52.5 199t180.5 58q98 0 162 -25l-13 -62q-75 5 -132 5q-84 0 -116.5 -37t-32.5 -138t32.5 -138t116.5 -37q82 0 144 11z" />
    <glyph glyph-name="Cdotaccent" unicode="&#x10a;" 
d="M305 869h31q28 0 28 -29v-56q0 -28 -28 -28h-31q-29 0 -29 28v56q0 29 29 29zM527 88l10 -76q-83 -24 -205 -24q-151 0 -212 80t-61 277t61 277t212 80q108 0 191 -20l-10 -77q-80 8 -181 8q-95 0 -131.5 -58t-36.5 -210t36.5 -210t131.5 -58q127 0 195 11z" />
    <glyph glyph-name="cdotaccent" unicode="&#x10b;" horiz-adv-x="491" 
d="M251 689h31q29 0 29 -28v-56q0 -29 -29 -29h-31q-28 0 -28 29v56q0 28 28 28zM446 80l9 -65q-74 -27 -170 -27q-128 0 -180.5 57.5t-52.5 198.5t52.5 199t180.5 58q98 0 162 -25l-13 -62q-75 5 -132 5q-84 0 -116.5 -37t-32.5 -138t32.5 -138t116.5 -37q82 0 144 11z" />
    <glyph glyph-name="Ccaron" unicode="&#x10c;" 
d="M488 872l-145 -129h-44l-144 129l32 41l130 -84h8l129 84zM527 88l10 -76q-83 -24 -205 -24q-151 0 -212 80t-61 277t61 277t212 80q108 0 191 -20l-10 -77q-80 8 -181 8q-95 0 -131.5 -58t-36.5 -210t36.5 -210t131.5 -58q127 0 195 11z" />
    <glyph glyph-name="ccaron" unicode="&#x10d;" horiz-adv-x="491" 
d="M435 692l-145 -129h-44l-144 129l32 42l130 -85h8l129 85zM446 80l9 -65q-74 -27 -170 -27q-128 0 -180.5 57.5t-52.5 198.5t52.5 199t180.5 58q98 0 162 -25l-13 -62q-75 5 -132 5q-84 0 -116.5 -37t-32.5 -138t32.5 -138t116.5 -37q82 0 144 11z" />
    <glyph glyph-name="Dcaron" unicode="&#x10e;" horiz-adv-x="665" 
d="M296 743l-144 129l32 41l130 -84h8l129 84l34 -41l-145 -129h-44zM84 0v690q131 9 249 9q152 0 212.5 -77t60.5 -277t-60.5 -277t-212.5 -77q-118 0 -249 9zM184 611v-530q64 -3 149 -3q94 0 130.5 58t36.5 209t-36.5 209t-130.5 58q-30 0 -79.5 -0.5t-69.5 -0.5z" />
    <glyph glyph-name="dcaron" unicode="&#x10f;" horiz-adv-x="575" 
d="M642 675v-49q-1 -68 -34 -124l-42 10q10 46 10 94q-11 0 -18 7t-6 17v45q1 28 33 28h26q18 0 24.5 -6t6.5 -22zM500 700v-700h-76l-8 67q-94 -79 -192 -79q-90 0 -130.5 64.5t-40.5 193.5q0 140 45 197.5t141 57.5q92 0 168 -44q-4 43 -4 96v147h97zM403 133v260
q-91 24 -140 24q-62 0 -86 -34.5t-24 -135.5t23.5 -138t80.5 -37q37 0 65.5 13t80.5 48z" />
    <glyph glyph-name="Dcroat" unicode="&#x110;" horiz-adv-x="670" 
d="M89 393v297q131 9 249 9q151 0 211.5 -77.5t60.5 -276.5t-60.5 -276.5t-211.5 -77.5q-118 0 -249 9v338h-67v55h67zM188 338v-257q66 -3 150 -3q94 0 130.5 58t36.5 209t-36.5 209t-130.5 58q-31 0 -80 -0.5t-70 -0.5v-218h146v-55h-146z" />
    <glyph glyph-name="dcroat" unicode="&#x111;" horiz-adv-x="570" 
d="M566 570h-66v-570h-76l-8 67q-94 -79 -192 -79q-90 0 -130.5 64.5t-40.5 193.5q0 140 45 197.5t141 57.5q92 0 168 -44q-4 43 -4 96v17h-149v55h149v75h97v-75h66v-55zM403 133v260q-91 24 -140 24q-62 0 -86 -34.5t-24 -135.5t23.5 -138t80.5 -37q37 0 65.5 13t80.5 48z
" />
    <glyph glyph-name="Emacron" unicode="&#x112;" horiz-adv-x="562" 
d="M451 802h-282v71h282v-71zM508 83l5 -77q-91 -8 -296 -8q-64 0 -101 33.5t-38 90.5v446q1 57 38 90.5t101 33.5q205 0 296 -8l-5 -78h-274q-30 0 -42.5 -14.5t-12.5 -49.5v-138h291v-81h-291v-176q0 -35 12.5 -49.5t42.5 -14.5h274z" />
    <glyph glyph-name="emacron" unicode="&#x113;" horiz-adv-x="539" 
d="M422 603h-283v71h283v-71zM373 197h-219q7 -76 39.5 -102t106.5 -26q65 0 171 12l9 -64q-66 -29 -193 -29q-128 0 -181.5 58t-53.5 199q0 142 52.5 199t173.5 57q112 0 163 -41t51 -123q0 -140 -119 -140zM153 272h194q48 0 48 65q-1 45 -25.5 63.5t-86.5 18.5
q-72 0 -100 -30.5t-30 -116.5z" />
    <glyph glyph-name="Edotaccent" unicode="&#x116;" horiz-adv-x="562" 
d="M325 775h-30q-29 0 -29 29v56q0 28 29 28h30q29 0 29 -28v-56q0 -29 -29 -29zM508 83l5 -77q-91 -8 -296 -8q-64 0 -101 33.5t-38 90.5v446q1 57 38 90.5t101 33.5q205 0 296 -8l-5 -78h-274q-30 0 -42.5 -14.5t-12.5 -49.5v-138h291v-81h-291v-176q0 -35 12.5 -49.5
t42.5 -14.5h274z" />
    <glyph glyph-name="edotaccent" unicode="&#x117;" horiz-adv-x="539" 
d="M296 576h-31q-29 0 -29 29v56q0 28 29 28h31q28 0 28 -28v-56q0 -29 -28 -29zM373 197h-219q7 -76 39.5 -102t106.5 -26q65 0 171 12l9 -64q-66 -29 -193 -29q-128 0 -181.5 58t-53.5 199q0 142 52.5 199t173.5 57q112 0 163 -41t51 -123q0 -140 -119 -140zM153 272h194
q48 0 48 65q-1 45 -25.5 63.5t-86.5 18.5q-72 0 -100 -30.5t-30 -116.5z" />
    <glyph glyph-name="Eogonek" unicode="&#x118;" horiz-adv-x="562" 
d="M517 -148l11 -39q-96 -35 -135.5 -8t-18.5 85q20 57 90 112q-79 -4 -247 -4q-64 0 -101 33.5t-38 90.5v446q1 57 38 90.5t101 33.5q205 0 296 -8l-5 -78h-274q-30 0 -42.5 -14.5t-12.5 -49.5v-138h291v-81h-291v-176q0 -35 12.5 -49.5t42.5 -14.5h274l5 -77
q-52 -63 -71 -111q-15 -35 7 -46.5t68 3.5z" />
    <glyph glyph-name="eogonek" unicode="&#x119;" horiz-adv-x="539" 
d="M484 -136l11 -40q-95 -34 -135 -7t-19 84q18 51 72 98q-59 -11 -126 -11q-128 0 -181.5 58t-53.5 199q0 142 52.5 199t173.5 57q112 0 163 -41t51 -123q0 -140 -119 -140h-219q7 -76 39.5 -102t106.5 -26q65 0 171 12l9 -64q-52 -61 -71 -111q-15 -35 7 -46t68 4z
M153 272h194q48 0 48 65q-1 45 -25.5 63.5t-86.5 18.5q-72 0 -100 -30.5t-30 -116.5z" />
    <glyph glyph-name="Ecaron" unicode="&#x11a;" horiz-adv-x="562" 
d="M289 762l-144 130l32 41l130 -84h8l129 84l34 -41l-145 -130h-44zM508 83l5 -77q-91 -8 -296 -8q-64 0 -101 33.5t-38 90.5v446q1 57 38 90.5t101 33.5q205 0 296 -8l-5 -78h-274q-30 0 -42.5 -14.5t-12.5 -49.5v-138h291v-81h-291v-176q0 -35 12.5 -49.5t42.5 -14.5h274
z" />
    <glyph glyph-name="ecaron" unicode="&#x11b;" horiz-adv-x="539" 
d="M259 563l-144 129l32 42l130 -85h8l129 85l34 -42l-145 -129h-44zM373 197h-219q7 -76 39.5 -102t106.5 -26q65 0 171 12l9 -64q-66 -29 -193 -29q-128 0 -181.5 58t-53.5 199q0 142 52.5 199t173.5 57q112 0 163 -41t51 -123q0 -140 -119 -140zM153 272h194q48 0 48 65
q-1 45 -25.5 63.5t-86.5 18.5q-72 0 -100 -30.5t-30 -116.5z" />
    <glyph glyph-name="Gbreve" unicode="&#x11e;" horiz-adv-x="629" 
d="M431 886l49 -8q5 -59 -37 -96.5t-115 -37.5q-74 0 -116 37.5t-37 96.5l49 8q0 -71 105 -71q49 0 76 18.5t26 52.5zM564 398v-398h-74l-10 70q-87 -83 -205 -83q-114 0 -165 87t-51 274q0 139 29 215.5t91 108t174 31.5q108 0 192 -21l-10 -76q-84 8 -176 8
q-47 0 -76 -5.5t-54 -21.5t-37.5 -47t-19.5 -79t-7 -120q0 -149 30.5 -208t107.5 -59q73 0 163 61v263h98z" />
    <glyph glyph-name="gbreve" unicode="&#x11f;" horiz-adv-x="561" 
d="M376 706l48 -7q5 -60 -36.5 -97.5t-114.5 -37.5q-74 0 -116.5 37.5t-37.5 97.5l49 7q0 -71 105 -71q49 0 76 18.5t27 52.5zM535 436l-69 -7q17 -34 17 -85q0 -83 -47.5 -119.5t-164.5 -36.5q-54 0 -97 8q-16 -21 -8.5 -46t39.5 -30l180 -28q69 -10 98.5 -43t29.5 -96
q0 -87 -51 -120t-185 -33q-135 0 -187 32.5t-52 117.5q0 41 18 65t60 48q-35 29 -31.5 77.5t38.5 73.5q-64 33 -64 129q0 86 47 122t166 36q73 0 116 -13h152zM271 261q68 0 95 18.5t27 64.5q0 47 -26.5 65t-95.5 18q-70 0 -97 -18t-27 -65q0 -45 27.5 -64t96.5 -19zM335 21
l-157 21q-46 -38 -46 -84q0 -48 27.5 -62t116.5 -14q86 0 114 14.5t28 61.5q0 34 -15 44.5t-68 18.5z" />
    <glyph glyph-name="Gdotaccent" unicode="&#x120;" horiz-adv-x="629" 
d="M344 756h-31q-29 0 -29 28v56q0 29 29 29h31q28 0 28 -29v-56q0 -28 -28 -28zM564 398v-398h-74l-10 70q-87 -83 -205 -83q-114 0 -165 87t-51 274q0 139 29 215.5t91 108t174 31.5q108 0 192 -21l-10 -76q-84 8 -176 8q-47 0 -76 -5.5t-54 -21.5t-37.5 -47t-19.5 -79
t-7 -120q0 -149 30.5 -208t107.5 -59q73 0 163 61v263h98z" />
    <glyph glyph-name="gdotaccent" unicode="&#x121;" horiz-adv-x="561" 
d="M288 576h-31q-28 0 -28 29v56q0 28 28 28h31q29 0 29 -28v-56q0 -29 -29 -29zM535 436l-69 -7q17 -34 17 -85q0 -83 -47.5 -119.5t-164.5 -36.5q-54 0 -97 8q-16 -21 -8.5 -46t39.5 -30l180 -28q69 -10 98.5 -43t29.5 -96q0 -87 -51 -120t-185 -33q-135 0 -187 32.5
t-52 117.5q0 41 18 65t60 48q-35 29 -31.5 77.5t38.5 73.5q-64 33 -64 129q0 86 47 122t166 36q73 0 116 -13h152zM271 261q68 0 95 18.5t27 64.5q0 47 -26.5 65t-95.5 18q-70 0 -97 -18t-27 -65q0 -45 27.5 -64t96.5 -19zM335 21l-157 21q-46 -38 -46 -84q0 -48 27.5 -62
t116.5 -14q86 0 114 14.5t28 61.5q0 34 -15 44.5t-68 18.5z" />
    <glyph glyph-name="Gcommaaccent" unicode="&#x122;" horiz-adv-x="629" 
d="M564 398v-398h-74l-10 70q-87 -83 -205 -83q-114 0 -165 87t-51 274q0 139 29 215.5t91 108t174 31.5q108 0 192 -21l-10 -76q-84 8 -176 8q-47 0 -76 -5.5t-54 -21.5t-37.5 -47t-19.5 -79t-7 -120q0 -149 30.5 -208t107.5 -59q73 0 163 61v263h98zM313 -58h26
q18 0 24.5 -6.5t6.5 -23.5v-54q-1 -75 -34 -135l-42 11q10 50 10 103q-11 0 -18 7t-6 19v49q1 17 8 23.5t25 6.5z" />
    <glyph glyph-name="gcommaaccent" unicode="&#x123;" horiz-adv-x="561" 
d="M298 556h-25q-18 0 -25 6.5t-7 23.5v54q1 73 35 135l42 -11q-10 -49 -10 -103q24 0 24 -26v-49q-1 -30 -34 -30zM535 436l-69 -7q17 -34 17 -85q0 -83 -47.5 -119.5t-164.5 -36.5q-54 0 -97 8q-16 -21 -8.5 -46t39.5 -30l180 -28q69 -10 98.5 -43t29.5 -96
q0 -87 -51 -120t-185 -33q-135 0 -187 32.5t-52 117.5q0 41 18 65t60 48q-35 29 -31.5 77.5t38.5 73.5q-64 33 -64 129q0 86 47 122t166 36q73 0 116 -13h152zM271 261q68 0 95 18.5t27 64.5q0 47 -26.5 65t-95.5 18q-70 0 -97 -18t-27 -65q0 -45 27.5 -64t96.5 -19zM335 21
l-157 21q-46 -38 -46 -84q0 -48 27.5 -62t116.5 -14q86 0 114 14.5t28 61.5q0 34 -15 44.5t-68 18.5z" />
    <glyph glyph-name="Hbar" unicode="&#x126;" horiz-adv-x="678" 
d="M658 518h-68v-518h-100v325h-302v-325h-100v518h-69v52h69v120h100v-120h302v120h100v-120h68v-52zM490 518h-302v-107h302v107z" />
    <glyph glyph-name="hbar" unicode="&#x127;" horiz-adv-x="587" 
d="M177 570v-59q0 -50 -7 -95q116 85 213 85q64 0 98 -34.5t34 -100.5v-366h-97v338q0 46 -13.5 63.5t-48.5 17.5q-38 0 -77.5 -17t-102.5 -55v-347h-97v570h-74v55h74v75h97v-75h142v-55h-141z" />
    <glyph glyph-name="Imacron" unicode="&#x12a;" horiz-adv-x="268" 
d="M275 782h-282v71h282v-71zM184 0h-100v690h100v-690z" />
    <glyph glyph-name="imacron" unicode="&#x12b;" horiz-adv-x="255" 
d="M269 603h-282v71h282v-71zM176 0h-97v488h97v-488z" />
    <glyph glyph-name="Iogonek" unicode="&#x12e;" horiz-adv-x="268" 
d="M176 -153l12 -40q-38 -15 -68.5 -19t-49 3t-31 20.5t-12 32.5t6.5 40q20 59 94 116h-44v690h100v-690h-12q-52 -61 -71 -111q-15 -34 7.5 -45.5t67.5 3.5z" />
    <glyph glyph-name="iogonek" unicode="&#x12f;" horiz-adv-x="255" 
d="M144 576h-31q-29 0 -29 29v56q0 28 29 28h31q28 0 28 -28v-56q0 -29 -28 -29zM172 -153l12 -40q-38 -15 -68.5 -19t-49 3t-31 20.5t-12 32.5t6.5 40q20 59 93 116h-44v488h97v-488h-8q-52 -61 -71 -111q-15 -34 7.5 -45.5t67.5 3.5z" />
    <glyph glyph-name="Idotaccent" unicode="&#x130;" horiz-adv-x="268" 
d="M119 869h31q28 0 28 -29v-56q0 -28 -28 -28h-31q-29 0 -29 28v56q0 29 29 29zM184 0h-100v690h100v-690z" />
    <glyph glyph-name="dotlessi" unicode="&#x131;" horiz-adv-x="255" 
d="M176 0h-97v488h97v-488z" />
    <glyph glyph-name="IJ" unicode="&#x132;" horiz-adv-x="611" 
d="M184 0h-100v690h100v-690zM530 690v-539q0 -78 -35 -119.5t-101 -40.5q-61 0 -98 13l11 72h48q75 0 75 70v544h100z" />
    <glyph glyph-name="ij" unicode="&#x133;" horiz-adv-x="510" 
d="M104 696h46q28 0 28 -28v-56q0 -29 -28 -29h-46q-28 0 -28 29v56q0 28 28 28zM360 696h46q28 0 28 -28v-56q0 -29 -28 -29h-46q-29 0 -29 29v56q0 28 29 28zM175 0h-96v488h96v-488zM431 488v-493q0 -60 -26.5 -112t-72.5 -85l-54 42q56 71 56 155v493h97z" />
    <glyph glyph-name="Kcommaaccent" unicode="&#x136;" horiz-adv-x="597" 
d="M580 0h-111l-214 319h-78q7 -42 7 -71v-248h-100v690h100v-212q0 -43 -7 -78h78l203 290h109l-195 -282q-16 -23 -42 -48v-3q28 -24 48 -52zM304 -58h26q18 0 24.5 -6.5t6.5 -23.5v-54q-1 -75 -34 -135l-42 11q10 50 10 103q-25 0 -25 26v49q1 17 9 23.5t25 6.5z" />
    <glyph glyph-name="kcommaaccent" unicode="&#x137;" horiz-adv-x="517" 
d="M502 0h-112l-162 240h-61q5 -43 5 -76v-164h-97v700h98v-307q0 -43 -6 -83h60l147 178h112l-147 -177q-13 -18 -36 -36v-2q19 -15 36 -42zM267 -58h26q17 0 24 -6.5t7 -23.5v-54q-1 -75 -34 -135l-42 11q10 58 10 103q-25 0 -25 26v49q1 17 9 23.5t25 6.5z" />
    <glyph glyph-name="Lacute" unicode="&#x139;" horiz-adv-x="515" 
d="M296 843l-199 -117l-32 45l177 146zM182 690v-542q0 -35 14 -49.5t49 -14.5h245l5 -77q-97 -9 -266 -9q-147 0 -147 136v556h100z" />
    <glyph glyph-name="lacute" unicode="&#x13a;" horiz-adv-x="302" 
d="M290 864l-199 -116l-33 44l177 147zM173 700v-559q-1 -31 15 -46.5t48 -15.5h45l11 -75q-29 -13 -93 -13q-57 0 -90 33.5t-33 94.5v581h97z" />
    <glyph glyph-name="Lcommaaccent" unicode="&#x13b;" horiz-adv-x="515" 
d="M182 690v-542q0 -35 14 -49.5t49 -14.5h245l5 -77q-97 -9 -266 -9q-147 0 -147 136v556h100zM283 -59h25q18 0 25 -6.5t7 -23.5v-54q-1 -73 -35 -135l-42 11q10 49 10 103q-24 0 -24 26v49q1 30 34 30z" />
    <glyph glyph-name="lcommaaccent" unicode="&#x13c;" horiz-adv-x="302" 
d="M173 700v-559q-1 -31 15 -46.5t48 -15.5h45l11 -75q-29 -13 -93 -13q-57 0 -90 33.5t-33 94.5v581h97zM162 -59h25q18 0 25 -6.5t7 -23.5v-54q-1 -73 -35 -135l-42 11q10 49 10 103q-24 0 -24 26v49q1 30 34 30z" />
    <glyph glyph-name="Lcaron" unicode="&#x13d;" horiz-adv-x="515" 
d="M326 691h26q18 0 25 -6.5t7 -23.5v-54q-1 -73 -35 -135l-42 11q10 49 10 103q-11 0 -18 7t-6 19v49q1 30 33 30zM182 690v-542q0 -35 14 -49.5t49 -14.5h245l5 -77q-97 -9 -266 -9q-147 0 -147 136v556h100z" />
    <glyph glyph-name="lcaron" unicode="&#x13e;" horiz-adv-x="302" 
d="M259 703h25q18 0 25 -6t7 -22v-49q-1 -66 -35 -124l-42 10q10 46 10 94q-24 0 -24 24v45q1 28 34 28zM173 700v-559q-1 -31 15 -46.5t48 -15.5h45l11 -75q-29 -13 -93 -13q-57 0 -90 33.5t-33 94.5v581h97z" />
    <glyph glyph-name="Ldot" unicode="&#x13f;" horiz-adv-x="515" 
d="M182 690v-542q0 -35 14 -49.5t49 -14.5h245l5 -77q-97 -9 -266 -9q-147 0 -147 136v556h100zM409 340h-31q-29 0 -29 28v56q0 29 29 29h31q28 0 28 -29v-56q0 -28 -28 -28z" />
    <glyph glyph-name="ldot" unicode="&#x140;" horiz-adv-x="327" 
d="M173 700v-559q-1 -31 15 -46.5t48 -15.5h45l11 -75q-29 -13 -93 -13q-57 0 -90 33.5t-33 94.5v581h97zM301 333h-31q-29 0 -29 29v56q0 28 29 28h31q28 0 28 -28v-56q0 -29 -28 -29z" />
    <glyph glyph-name="Lslash" unicode="&#x141;" horiz-adv-x="521" 
d="M497 84l4 -77q-97 -9 -265 -9q-148 0 -148 136v197l-69 -29v61l69 29v298h100v-257l114 47v-61l-114 -47v-224q0 -35 14.5 -49.5t49.5 -14.5h245z" />
    <glyph glyph-name="lslash" unicode="&#x142;" horiz-adv-x="332" 
d="M302 79l12 -75q-29 -13 -94 -13q-57 0 -90 33.5t-33 94.5v210l-78 -33v62l78 33v309h97v-269l106 44v-62l-107 -44v-228q0 -62 64 -62h45z" />
    <glyph glyph-name="Nacute" unicode="&#x143;" horiz-adv-x="708" 
d="M524 843l-199 -117l-32 45l176 146zM624 690v-651q0 -39 -37 -39h-95q-30 0 -43 31l-215 470q-36 78 -41 96h-14q5 -40 5 -96v-501h-100v651q0 39 38 39h92q29 0 44 -31l209 -458q4 -9 14 -29.5l18.5 -39l15.5 -34.5h15q-5 60 -5 107v485h99z" />
    <glyph glyph-name="nacute" unicode="&#x144;" horiz-adv-x="583" 
d="M262 547l-33 44l177 147l55 -74zM157 488l6 -75q115 88 216 88q65 0 98.5 -34.5t33.5 -100.5v-366h-97v338q0 46 -13.5 63.5t-48.5 17.5q-38 0 -76 -17t-104 -56v-346h-97v488h82z" />
    <glyph glyph-name="Ncommaaccent" unicode="&#x145;" horiz-adv-x="708" 
d="M624 690v-651q0 -39 -37 -39h-95q-30 0 -43 31l-215 470q-36 78 -41 96h-14q5 -40 5 -96v-501h-100v651q0 39 38 39h92q29 0 44 -31l209 -458q4 -9 14 -29.5l18.5 -39l15.5 -34.5h15q-5 60 -5 107v485h99zM329 -58h26q18 0 24.5 -6.5t6.5 -23.5v-54q-1 -75 -34 -135
l-42 11q10 50 10 103q-25 0 -25 26v49q1 17 9 23.5t25 6.5z" />
    <glyph glyph-name="ncommaaccent" unicode="&#x146;" horiz-adv-x="583" 
d="M157 488l6 -75q115 88 216 88q65 0 98.5 -34.5t33.5 -100.5v-366h-97v338q0 46 -13.5 63.5t-48.5 17.5q-38 0 -76 -17t-104 -56v-346h-97v488h82zM279 -58h25q18 0 25 -6.5t7 -23.5v-54q-1 -73 -35 -135l-42 11q10 50 10 103q-24 0 -24 26v49q1 30 34 30z" />
    <glyph glyph-name="Ncaron" unicode="&#x147;" horiz-adv-x="708" 
d="M529 872l-145 -129h-44l-144 129l32 41l130 -84h8l129 84zM624 690v-651q0 -39 -37 -39h-95q-30 0 -43 31l-215 470q-36 78 -41 96h-14q5 -40 5 -96v-501h-100v651q0 39 38 39h92q29 0 44 -31l209 -458q4 -9 14 -29.5l18.5 -39l15.5 -34.5h15q-5 60 -5 107v485h99z" />
    <glyph glyph-name="ncaron" unicode="&#x148;" horiz-adv-x="583" 
d="M277 563l-144 129l32 42l130 -85h8l129 85l34 -42l-145 -129h-44zM157 488l6 -75q115 88 216 88q65 0 98.5 -34.5t33.5 -100.5v-366h-97v338q0 46 -13.5 63.5t-48.5 17.5q-38 0 -76 -17t-104 -56v-346h-97v488h82z" />
    <glyph glyph-name="Eng" unicode="&#x14a;" horiz-adv-x="708" 
d="M624 690v-765q0 -67 -37 -104t-100 -36q-53 0 -93 14l11 63h47q78 0 78 71v67h-35q-14 0 -29 28l-233 455q-19 36 -42 96h-12q5 -32 5 -97v-482h-100v651q0 39 38 39h73q28 0 44 -31l227 -440q20 -38 48 -104h15q-5 58 -5 105v470h100z" />
    <glyph glyph-name="eng" unicode="&#x14b;" horiz-adv-x="583" 
d="M150 488l9 -79q115 92 219 92q133 0 133 -135v-430q0 -68 -32.5 -104.5t-93.5 -35.5q-50 0 -92 14l11 62h42q68 0 68 72v394q0 41 -14 57.5t-51 16.5q-62 0 -177 -66v-346h-97v488h75z" />
    <glyph glyph-name="Omacron" unicode="&#x14c;" horiz-adv-x="669" 
d="M475 782h-283v71h283v-71zM334 703q154 0 215 -78t61 -280t-61 -280t-215 -78q-153 0 -214 78t-61 280t61 280t214 78zM334 614q-97 0 -133.5 -58t-36.5 -211t36.5 -211t133.5 -58t134 58t37 211t-37 211t-134 58z" />
    <glyph glyph-name="omacron" unicode="&#x14d;" horiz-adv-x="570" 
d="M426 603h-283v71h283v-71zM285 501q127 0 180 -59t53 -199t-53 -198t-180 -58t-180 58t-53 198t53 199t180 59zM285 419q-76 0 -104 -37t-28 -139q0 -101 28 -138t104 -37t104 37t28 138q0 102 -28 139t-104 37z" />
    <glyph glyph-name="Ohungarumlaut" unicode="&#x150;" horiz-adv-x="669" 
d="M375 881l-138 -161l-42 32l110 177zM544 881l-138 -161l-41 32l109 177zM334 703q154 0 215 -78t61 -280t-61 -280t-215 -78q-153 0 -214 78t-61 280t61 280t214 78zM334 614q-97 0 -133.5 -58t-36.5 -211t36.5 -211t133.5 -58t134 58t37 211t-37 211t-134 58z" />
    <glyph glyph-name="ohungarumlaut" unicode="&#x151;" horiz-adv-x="570" 
d="M326 701l-138 -160l-42 31l110 177zM494 701l-137 -160l-42 31l110 177zM285 501q127 0 180 -59t53 -199t-53 -198t-180 -58t-180 58t-53 198t53 199t180 59zM285 419q-76 0 -104 -37t-28 -139q0 -101 28 -138t104 -37t104 37t28 138q0 102 -28 139t-104 37z" />
    <glyph glyph-name="OE" unicode="&#x152;" horiz-adv-x="918" 
d="M864 83l4 -77q-92 -8 -301 -8q-39 0 -69 22q-72 -33 -164 -33q-153 0 -214 78t-61 280t61 280t214 78q91 0 170 -31q31 20 72 20q202 0 292 -8l-4 -78h-254q-35 0 -49.5 -14.5t-14.5 -49.5v-138h279v-82h-279v-175q0 -35 14.5 -49.5t49.5 -14.5h254zM445 134v422
q0 20 7 44q-59 14 -118 14q-97 0 -133.5 -57.5t-36.5 -211.5q0 -153 36.5 -211t133.5 -58q66 0 117 14q-6 21 -6 44z" />
    <glyph glyph-name="oe" unicode="&#x153;" horiz-adv-x="905" 
d="M704 202h-185q6 -80 38 -106.5t109 -26.5q65 0 169 12l10 -64q-66 -29 -193 -29q-131 0 -184 60q-52 -61 -183 -61q-127 0 -180 58t-53 198t53 199t180 59q128 0 181 -59q50 59 171 59q220 0 220 -153q1 -83 -34 -114.5t-119 -31.5zM285 68q71 0 100 32.5t32 119.5l-1 28
q0 16 1 24q-4 84 -33 115.5t-99 31.5q-76 0 -104 -37t-28 -139q0 -101 28 -138t104 -37zM517 273h181q36 0 50 17t12 59q-3 36 -31.5 53t-88.5 17q-66 0 -93 -31.5t-30 -114.5z" />
    <glyph glyph-name="Racute" unicode="&#x154;" horiz-adv-x="620" 
d="M266 726l-32 45l177 146l55 -74zM578 0h-107l-59 215q-22 69 -87 69l-142 1v-285h-99v690q85 9 241 9q125 0 176.5 -43t51.5 -157q0 -83 -29.5 -125t-97.5 -51v-5q67 -20 87 -100zM183 370h140q74 1 101.5 26.5t27.5 96.5q0 70 -27.5 95t-101.5 25q-102 0 -140 -1v-242z
" />
    <glyph glyph-name="racute" unicode="&#x155;" horiz-adv-x="404" 
d="M192 547l-32 44l177 147l54 -74zM150 488l10 -74q109 87 205 87h23l-11 -91h-30q-57 0 -175 -56v-354h-97v488h75z" />
    <glyph glyph-name="Rcommaaccent" unicode="&#x156;" horiz-adv-x="620" 
d="M578 0h-107l-59 215q-22 69 -87 69l-142 1v-285h-99v690q85 9 241 9q125 0 176.5 -43t51.5 -157q0 -83 -29.5 -125t-97.5 -51v-5q67 -20 87 -100zM183 370h140q74 1 101.5 26.5t27.5 96.5q0 70 -27.5 95t-101.5 25q-102 0 -140 -1v-242zM316 -58h25q18 0 25 -6.5t7 -23.5
v-54q-1 -73 -35 -135l-41 11q10 58 10 103q-25 0 -25 26v49q1 17 9 23.5t25 6.5z" />
    <glyph glyph-name="rcommaaccent" unicode="&#x157;" horiz-adv-x="404" 
d="M388 501l-11 -91h-30q-57 0 -175 -56v-354h-97v488h75l10 -74q109 87 205 87h23zM103 -58h25q18 0 25 -6.5t7 -23.5v-54q-1 -73 -35 -135l-41 11q9 52 9 103q-24 0 -24 26v49q1 30 34 30z" />
    <glyph glyph-name="Rcaron" unicode="&#x158;" horiz-adv-x="620" 
d="M282 743l-144 129l32 41l130 -84h8l129 84l34 -41l-145 -129h-44zM578 0h-107l-59 215q-22 69 -87 69l-142 1v-285h-99v690q85 9 241 9q125 0 176.5 -43t51.5 -157q0 -83 -29.5 -125t-97.5 -51v-5q67 -20 87 -100zM183 370h140q74 1 101.5 26.5t27.5 96.5q0 70 -27.5 95
t-101.5 25q-102 0 -140 -1v-242z" />
    <glyph glyph-name="rcaron" unicode="&#x159;" horiz-adv-x="404" 
d="M208 563l-144 129l32 42l130 -85h8l129 85l34 -42l-145 -129h-44zM150 488l10 -74q109 87 205 87h23l-11 -91h-30q-57 0 -175 -56v-354h-97v488h75z" />
    <glyph glyph-name="Sacute" unicode="&#x15a;" horiz-adv-x="563" 
d="M441 843l-199 -117l-33 45l177 146zM330 285l-140 39q-74 20 -105.5 67.5t-31.5 128.5q0 59 12.5 95.5t43.5 55.5t69 25t102 6q122 0 208 -21l-6 -73q-145 5 -198 5q-78 0 -104 -15.5t-26 -80.5q0 -51 18.5 -72t64.5 -33l137 -38q77 -21 108.5 -68t31.5 -128
q0 -114 -52 -152t-183 -38q-110 0 -217 20l7 74q156 -5 212 -5q78 1 104.5 20t26.5 82q0 53 -18 73.5t-64 32.5z" />
    <glyph glyph-name="sacute" unicode="&#x15b;" horiz-adv-x="509" 
d="M422 664l-200 -117l-32 44l177 147zM295 192l-136 34q-61 16 -86 47.5t-25 91.5q0 81 43.5 109t149.5 27q117 -2 208 -17l-8 -70q-153 5 -185 5q-71 0 -92.5 -8.5t-21.5 -45.5q0 -17 3 -27.5t15.5 -17.5t19.5 -9.5t31 -9.5l138 -34q62 -16 88 -45.5t26 -91.5
q0 -86 -47.5 -113.5t-164.5 -27.5q-102 0 -194 14l7 72q56 -5 167 -5q82 0 110 11.5t28 48.5q0 16 -4 26.5t-17 17.5t-20.5 9.5t-32.5 8.5z" />
    <glyph glyph-name="Scedilla" unicode="&#x15e;" horiz-adv-x="563" 
d="M330 285l-140 39q-74 20 -105.5 67.5t-31.5 128.5q0 59 12.5 95.5t43.5 55.5t69 25t102 6q122 0 208 -21l-6 -73q-145 5 -198 5q-78 0 -104 -15.5t-26 -80.5q0 -51 18.5 -72t64.5 -33l137 -38q77 -21 108.5 -68t31.5 -128q0 -114 -52 -152t-183 -38q-110 0 -217 20l7 74
q156 -5 212 -5q78 1 104.5 20t26.5 82q0 53 -18 73.5t-64 32.5zM228 -99l10 45q66 6 92.5 -7t25.5 -58q-1 -65 -50 -99.5t-123 -24.5l16 51q38 -1 62 17t26 48q1 17 -11 22.5t-48 5.5z" />
    <glyph glyph-name="scedilla" unicode="&#x15f;" horiz-adv-x="509" 
d="M295 192l-136 34q-61 16 -86 47.5t-25 91.5q0 81 43.5 109t149.5 27q117 -2 208 -17l-8 -70q-153 5 -185 5q-71 0 -92.5 -8.5t-21.5 -45.5q0 -17 3 -27.5t15.5 -17.5t19.5 -9.5t31 -9.5l138 -34q62 -16 88 -45.5t26 -91.5q0 -86 -47.5 -113.5t-164.5 -27.5
q-102 0 -194 14l7 72q56 -5 167 -5q82 0 110 11.5t28 48.5q0 16 -4 26.5t-17 17.5t-20.5 9.5t-32.5 8.5zM193 -98l10 45q66 6 92.5 -7t25.5 -58q-1 -65 -50 -99.5t-123 -24.5l16 51q38 -1 62.5 17t25.5 48q1 16 -11 21.5t-48 6.5z" />
    <glyph glyph-name="Scaron" unicode="&#x160;" horiz-adv-x="563" 
d="M446 872l-145 -129h-44l-144 129l32 41l130 -84h8l129 84zM330 285l-140 39q-74 20 -105.5 67.5t-31.5 128.5q0 59 12.5 95.5t43.5 55.5t69 25t102 6q122 0 208 -21l-6 -73q-145 5 -198 5q-78 0 -104 -15.5t-26 -80.5q0 -51 18.5 -72t64.5 -33l137 -38q77 -21 108.5 -68
t31.5 -128q0 -114 -52 -152t-183 -38q-110 0 -217 20l7 74q156 -5 212 -5q78 1 104.5 20t26.5 82q0 53 -18 73.5t-64 32.5z" />
    <glyph glyph-name="scaron" unicode="&#x161;" horiz-adv-x="509" 
d="M427 692l-145 -129h-44l-144 129l32 42l130 -85h8l129 85zM295 192l-136 34q-61 16 -86 47.5t-25 91.5q0 81 43.5 109t149.5 27q117 -2 208 -17l-8 -70q-153 5 -185 5q-71 0 -92.5 -8.5t-21.5 -45.5q0 -17 3 -27.5t15.5 -17.5t19.5 -9.5t31 -9.5l138 -34q62 -16 88 -45.5
t26 -91.5q0 -86 -47.5 -113.5t-164.5 -27.5q-102 0 -194 14l7 72q56 -5 167 -5q82 0 110 11.5t28 48.5q0 16 -4 26.5t-17 17.5t-20.5 9.5t-32.5 8.5z" />
    <glyph glyph-name="Tcedilla" unicode="&#x162;" horiz-adv-x="584" 
d="M561 690v-89h-219v-601h-101v601h-217v89h537zM233 -87l10 45q65 6 92 -7t26 -58q-2 -65 -51 -99.5t-122 -24.5l15 51q38 -1 62.5 17t26.5 48q0 16 -11.5 21.5t-47.5 6.5z" />
    <glyph glyph-name="tcedilla" unicode="&#x163;" horiz-adv-x="388" 
d="M345 79l11 -75q-46 -13 -115 -13q-62 0 -94.5 35.5t-32.5 101.5v285h-89v70l89 4v144h96v-143h151v-75h-151v-272q0 -34 14.5 -48t49.5 -14h71zM162 -97l10 45q65 7 92 -6.5t26 -58.5q-2 -65 -51 -99t-122 -25l15 51q38 -1 62.5 17.5t26.5 48.5q1 16 -11 21.5t-48 5.5z
" />
    <glyph glyph-name="Tcaron" unicode="&#x164;" horiz-adv-x="584" 
d="M271 743l-144 129l32 41l130 -84h8l129 84l33 -41l-144 -129h-44zM561 601h-219v-601h-101v601h-217v89h537v-89z" />
    <glyph glyph-name="tcaron" unicode="&#x165;" horiz-adv-x="388" 
d="M327 556l-42 11q10 49 10 103q-24 0 -24 26v49q1 30 34 30h25q18 0 25 -6.5t7 -23.5v-54q-1 -73 -35 -135zM210 413v-272q0 -34 14.5 -48t49.5 -14h71l11 -75q-46 -13 -115 -13q-62 0 -94.5 35.5t-32.5 101.5v285h-89v70l89 4v144h96v-143h151v-75h-151z" />
    <glyph glyph-name="Tbar" unicode="&#x166;" horiz-adv-x="584" 
d="M342 601v-181h138v-55h-138v-365h-101v365h-138v55h138v181h-217v89h537v-89h-219z" />
    <glyph glyph-name="tbar" unicode="&#x167;" horiz-adv-x="388" 
d="M345 79l11 -75q-46 -13 -115 -13q-62 0 -94.5 35.5t-32.5 101.5v141h-64v53h64v91h-89v70l89 4v144h96v-143h151v-75h-151v-91h126v-53h-126v-128q0 -34 14.5 -48t49.5 -14h71z" />
    <glyph glyph-name="Umacron" unicode="&#x16a;" horiz-adv-x="666" 
d="M475 782h-282v71h282v-71zM587 690v-424q0 -152 -56.5 -215.5t-193.5 -63.5q-141 0 -199.5 63.5t-58.5 215.5v424h100v-424q0 -106 34 -148t120 -42q85 0 119.5 42t34.5 148v424h100z" />
    <glyph glyph-name="umacron" unicode="&#x16b;" 
d="M430 607h-283v71h283v-71zM497 488v-488h-77l-7 67q-107 -80 -208 -80q-133 0 -133 135v366h97v-338q-1 -45 15 -62.5t55 -17.5q57 0 162 65v353h96z" />
    <glyph glyph-name="Uring" unicode="&#x16e;" horiz-adv-x="666" 
d="M334 927q45 0 77 -31t32 -76t-32 -75.5t-77 -30.5q-46 0 -77.5 30.5t-31.5 75.5t32 76t77 31zM334 879q-24 0 -40 -16t-16 -43q0 -26 16 -42t40 -16q25 0 41 16t16 42t-16.5 42.5t-40.5 16.5zM587 690v-424q0 -152 -56.5 -215.5t-193.5 -63.5q-141 0 -199.5 63.5
t-58.5 215.5v424h100v-424q0 -106 34 -148t120 -42q85 0 119.5 42t34.5 148v424h100z" />
    <glyph glyph-name="uring" unicode="&#x16f;" 
d="M289 539q-46 0 -77.5 30.5t-31.5 75.5t32 76t77 31t77 -31t32 -76t-32 -75.5t-77 -30.5zM289 704q-25 0 -41 -16t-16 -43q0 -26 16 -42t41 -16q24 0 40.5 16t16.5 42t-16.5 42.5t-40.5 16.5zM497 488v-488h-77l-7 67q-107 -80 -208 -80q-133 0 -133 135v366h97v-338
q-1 -45 15 -62.5t55 -17.5q57 0 162 65v353h96z" />
    <glyph glyph-name="Uhungarumlaut" unicode="&#x170;" horiz-adv-x="666" 
d="M376 881l-138 -161l-42 32l110 177zM544 881l-138 -161l-41 32l109 177zM587 690v-424q0 -152 -56.5 -215.5t-193.5 -63.5q-141 0 -199.5 63.5t-58.5 215.5v424h100v-424q0 -106 34 -148t120 -42q85 0 119.5 42t34.5 148v424h100z" />
    <glyph glyph-name="uhungarumlaut" unicode="&#x171;" 
d="M192 545l-42 32l110 177l70 -48zM320 577l109 177l70 -48l-138 -161zM401 488h96v-488h-77l-7 67q-107 -80 -208 -80q-133 0 -133 135v366h97v-338q-1 -45 15 -62.5t55 -17.5q57 0 162 65v353z" />
    <glyph glyph-name="Uogonek" unicode="&#x172;" horiz-adv-x="666" 
d="M587 690v-424q0 -142 -49 -206.5t-166 -71.5q-49 -56 -69 -108q-15 -35 7 -46t68 4l11 -40q-47 -19 -82.5 -20t-52.5 12.5t-24 35.5t5 49q20 58 90 112q-134 3 -190 67t-56 212v424h100v-424q0 -106 34 -148t120 -42q85 0 119.5 42t34.5 148v424h100z" />
    <glyph glyph-name="uogonek" unicode="&#x173;" 
d="M504 -153l11 -40q-47 -19 -82.5 -20t-52.5 12.5t-24 35.5t5 49q19 57 94 116h-35l-7 67q-107 -80 -208 -80q-133 0 -133 135v366h97v-338q-1 -45 15 -62.5t55 -17.5q57 0 162 65v353h96v-488h3q-51 -61 -72 -111q-14 -35 8 -46t68 4z" />
    <glyph glyph-name="Wcircumflex" unicode="&#x174;" horiz-adv-x="951" 
d="M643 769l-34 -41l-129 97h-8l-130 -97l-32 41l131 130h70zM921 690l-132 -661q-9 -29 -39 -29h-111q-32 0 -39 30l-100 507q-10 52 -14 78h-21l-15 -78l-99 -507q-2 -13 -13.5 -21.5t-25.5 -8.5h-112q-31 0 -38 29l-132 661h106l99 -526q3 -17 12 -88h23q5 43 15 88
l99 493q7 33 38 33h107q14 0 24.5 -9.5t13.5 -23.5l98 -494q8 -40 15 -87h23l6 43t7 43l99 528h106z" />
    <glyph glyph-name="wcircumflex" unicode="&#x175;" horiz-adv-x="826" 
d="M580 591l-33 -42l-129 97h-8l-130 -97l-32 42l130 129h71zM803 488l-137 -461q-8 -27 -37 -27h-87q-30 0 -37 31l-71 321q-2 9 -4.5 24.5t-5 28.5t-5.5 25h-12l-16 -78l-70 -321q-7 -31 -38 -31h-86q-30 0 -36 27l-138 461h100l94 -352q12 -50 15 -75h13l17 75l72 322
q7 30 36 30h87q29 0 36 -31l71 -321q2 -10 17 -75h13q7 45 15 75l94 352h100z" />
    <glyph glyph-name="Ycircumflex" unicode="&#x176;" horiz-adv-x="574" 
d="M152 729l-32 41l131 129h70l132 -129l-34 -41l-129 96h-8zM337 239v-239h-100v240l-228 450h106l139 -283q8 -17 30 -80h7q21 62 30 79l139 284h104z" />
    <glyph glyph-name="ycircumflex" unicode="&#x177;" horiz-adv-x="533" 
d="M135 549l-32 42l131 129h70l131 -129l-33 -42l-129 97h-8zM516 488l-189 -511q-68 -180 -224 -182l-10 64q57 17 90 47t53 76l7 18h-20q-28 0 -34 25l-173 463h104l121 -355q12 -31 17 -60h14q10 27 20 60l120 355h104z" />
    <glyph glyph-name="Ydieresis" unicode="&#x178;" horiz-adv-x="574" 
d="M214 765h-33q-25 0 -25 27v54q0 26 25 26h33q26 0 26 -26v-54q0 -27 -26 -27zM391 765h-32q-26 0 -26 27v54q0 26 26 26h32q27 0 27 -26v-54q0 -27 -27 -27zM337 239v-239h-100v240l-228 450h106l139 -283q8 -17 30 -80h7q21 62 30 79l139 284h104z" />
    <glyph glyph-name="Zacute" unicode="&#x179;" horiz-adv-x="568" 
d="M250 726l-32 45l177 146l54 -74zM521 85v-85h-473v85l357 520h-352v85h461v-85l-356 -520h363z" />
    <glyph glyph-name="zacute" unicode="&#x17a;" horiz-adv-x="512" 
d="M220 547l-32 44l177 147l54 -74zM464 79v-79h-416v79l305 330h-301v79h408v-79l-304 -330h308z" />
    <glyph glyph-name="Zdotaccent" unicode="&#x17b;" horiz-adv-x="568" 
d="M302 756h-31q-28 0 -28 28v56q0 29 28 29h31q29 0 29 -29v-56q0 -28 -29 -28zM521 85v-85h-473v85l357 520h-352v85h461v-85l-356 -520h363z" />
    <glyph glyph-name="zdotaccent" unicode="&#x17c;" horiz-adv-x="512" 
d="M272 576h-31q-28 0 -28 29v56q0 28 28 28h31q29 0 29 -28v-56q0 -29 -29 -29zM464 79v-79h-416v79l305 330h-301v79h408v-79l-304 -330h308z" />
    <glyph glyph-name="Zcaron" unicode="&#x17d;" horiz-adv-x="568" 
d="M266 743l-144 129l32 41l130 -84h8l129 84l34 -41l-145 -129h-44zM521 85v-85h-473v85l357 520h-352v85h461v-85l-356 -520h363z" />
    <glyph glyph-name="zcaron" unicode="&#x17e;" horiz-adv-x="512" 
d="M235 563l-144 129l33 42l129 -85h8l130 85l33 -42l-144 -129h-45zM464 79v-79h-416v79l305 330h-301v79h408v-79l-304 -330h308z" />
    <glyph glyph-name="florin" unicode="&#x192;" horiz-adv-x="449" 
d="M423 620h-71q-44 0 -62.5 -15t-22.5 -60l-13 -144h138l-7 -76h-138l-31 -330q-6 -71 -42 -107.5t-110 -36.5q-66 0 -107 7l12 73h67q42 0 60.5 17t23.5 58l30 319h-99l5 72l101 3l14 156q13 145 158 145q70 0 107 -8z" />
    <glyph glyph-name="Scommaaccent" unicode="&#x218;" horiz-adv-x="563" 
d="M330 285l-140 39q-74 20 -105.5 67.5t-31.5 128.5q0 59 12.5 95.5t43.5 55.5t69 25t102 6q122 0 208 -21l-6 -73q-145 5 -198 5q-78 0 -104 -15.5t-26 -80.5q0 -51 18.5 -72t64.5 -33l137 -38q77 -21 108.5 -68t31.5 -128q0 -114 -52 -152t-183 -38q-110 0 -217 20l7 74
q156 -5 212 -5q78 1 104.5 20t26.5 82q0 53 -18 73.5t-64 32.5zM272 -58h26q17 0 24 -6.5t7 -23.5v-54q-1 -75 -34 -135l-42 11q10 58 10 103q-25 0 -25 26v49q1 17 9 23.5t25 6.5z" />
    <glyph glyph-name="scommaaccent" unicode="&#x219;" horiz-adv-x="509" 
d="M295 192l-136 34q-61 16 -86 47.5t-25 91.5q0 81 43.5 109t149.5 27q117 -2 208 -17l-8 -70q-153 5 -185 5q-71 0 -92.5 -8.5t-21.5 -45.5q0 -17 3 -27.5t15.5 -17.5t19.5 -9.5t31 -9.5l138 -34q62 -16 88 -45.5t26 -91.5q0 -86 -47.5 -113.5t-164.5 -27.5
q-102 0 -194 14l7 72q56 -5 167 -5q82 0 110 11.5t28 48.5q0 16 -4 26.5t-17 17.5t-20.5 9.5t-32.5 8.5zM248 -58h26q17 0 24 -6.5t7 -23.5v-54q-1 -76 -35 -135l-41 11q10 58 10 103q-25 0 -25 26v49q1 17 9 23.5t25 6.5z" />
    <glyph glyph-name="uni021A" unicode="&#x21a;" horiz-adv-x="584" 
d="M561 601h-219v-601h-101v601h-217v89h537v-89zM268 -58h25q18 0 25 -6.5t7 -23.5v-54q-1 -73 -35 -135l-41 11q10 58 10 103q-25 0 -25 26v49q1 17 9 23.5t25 6.5z" />
    <glyph glyph-name="uni021B" unicode="&#x21b;" horiz-adv-x="388" 
d="M345 79l11 -75q-46 -13 -115 -13q-62 0 -94.5 35.5t-32.5 101.5v285h-89v70l89 4v144h96v-143h151v-75h-151v-272q0 -34 14.5 -48t49.5 -14h71zM217 -58h26q17 0 24 -6.5t7 -23.5v-54q-1 -76 -35 -135l-41 11q10 58 10 103q-25 0 -25 26v49q1 17 9 23.5t25 6.5z" />
    <glyph glyph-name="circumflex" unicode="&#x2c6;" horiz-adv-x="425" 
d="M380 585l-33 -41l-130 96h-8l-129 -96l-32 41l130 129h71z" />
    <glyph glyph-name="caron" unicode="&#x2c7;" horiz-adv-x="425" 
d="M380 687l-145 -129h-44l-144 129l33 41l129 -84h8l130 84z" />
    <glyph glyph-name="breve" unicode="&#x2d8;" horiz-adv-x="378" 
d="M293 698l49 -7q5 -60 -36.5 -97.5t-115.5 -37.5t-116 37.5t-37 97.5l49 7q-1 -34 26 -52.5t78 -18.5q50 0 77 18.5t26 52.5z" />
    <glyph glyph-name="dotaccent" unicode="&#x2d9;" horiz-adv-x="224" 
d="M96 687h31q29 0 29 -28v-56q0 -29 -29 -29h-31q-28 0 -28 29v56q0 28 28 28z" />
    <glyph glyph-name="ring" unicode="&#x2da;" horiz-adv-x="302" 
d="M151 743q45 0 77 -31t32 -76t-32 -75.5t-77 -30.5q-46 0 -77.5 30.5t-31.5 75.5t32 76t77 31zM151 695q-24 0 -40 -16t-16 -43q0 -26 16 -41.5t40 -15.5q25 0 41 15.5t16 41.5t-16 42.5t-41 16.5z" />
    <glyph glyph-name="ogonek" unicode="&#x2db;" horiz-adv-x="252" 
d="M143 2l42 -2q-52 -61 -71 -111q-15 -34 7.5 -45.5t67.5 3.5l12 -40q-38 -15 -68.5 -19t-49 3t-31 20.5t-12 32.5t6.5 40q20 59 96 118z" />
    <glyph glyph-name="tilde" unicode="&#x2dc;" horiz-adv-x="424" 
d="M96 582h-44q-7 60 15.5 91.5t62.5 28.5q32 -3 78 -26.5t73 -26.5q27 -4 37 7.5t10 40.5h44q7 -58 -15 -89t-63 -28q-37 3 -84.5 27.5t-68.5 27.5q-26 3 -35.5 -9.5t-9.5 -43.5z" />
    <glyph glyph-name="hungarumlaut" unicode="&#x2dd;" horiz-adv-x="463" 
d="M234 690l-137 -161l-43 32l111 177zM403 690l-138 -161l-41 32l109 177z" />
    <glyph glyph-name="Delta" unicode="&#x394;" horiz-adv-x="629" 
d="M606 40v-40h-583v40l241 650h101zM488 81l-151 432q-2 4 -22 80l-23 -81l-153 -431h349z" />
    <glyph glyph-name="Omega" unicode="&#x3a9;" horiz-adv-x="719" 
d="M52 88h98q35 0 66 -8q-77 57 -109.5 124t-31.5 171q0 167 67 247.5t218 80.5q150 0 217 -81t67 -248q0 -106 -32.5 -171.5t-109.5 -122.5q32 8 66 8h99v-88h-256v84q72 51 100 113.5t29 164.5q-1 136 -42.5 194.5t-138.5 58.5q-99 0 -139.5 -58.5t-40.5 -196.5
q0 -105 28.5 -163.5t99.5 -112.5v-84h-255v88z" />
    <glyph glyph-name="mu" unicode="&#x3bc;" horiz-adv-x="598" 
d="M436 0l-9 73q-101 -86 -190 -86q-41 0 -75 16q6 -32 6 -64v-138h-85v338v349h97v-338q0 -71 79 -71q62 0 155 54v355h97v-488h-75z" />
    <glyph glyph-name="pi" unicode="&#x3c0;" horiz-adv-x="643" 
d="M617 410h-91v-410h-97v410h-215v-410h-96v410h-91v78h590v-78z" />
    <glyph glyph-name="uni0401" unicode="&#x401;" horiz-adv-x="561" 
d="M236 785h-32q-26 0 -26 26v55q0 26 26 26h32q26 0 26 -26v-55q0 -26 -26 -26zM413 785h-31q-27 0 -27 26v55q0 26 27 26h31q27 0 27 -26v-55q0 -26 -27 -26zM508 83l4 -77q-91 -8 -296 -8q-64 0 -101 33.5t-37 90.5v446q0 57 37 90.5t101 33.5q205 0 296 -8l-4 -78h-275
q-30 0 -42.5 -14.5t-12.5 -49.5v-138h291v-81h-291v-176q0 -35 12.5 -49.5t42.5 -14.5h275z" />
    <glyph glyph-name="uni0402" unicode="&#x402;" horiz-adv-x="753" 
d="M342 601v-211q91 54 197 54q81 0 127 -44.5t46 -165.5q0 -132 -66.5 -188t-190.5 -51l-9 73q89 6 127.5 38.5t38.5 117.5q0 84 -23.5 109t-82.5 25q-76 0 -164 -47v-311h-101v601h-217v89h537v-89h-219z" />
    <glyph glyph-name="uni0403" unicode="&#x403;" horiz-adv-x="518" 
d="M457 843l-199 -117l-33 45l177 146zM82 0v556q0 60 36.5 98t93.5 38q198 0 287 -9l-4 -77h-249q-35 0 -49.5 -15t-14.5 -54v-537h-100z" />
    <glyph glyph-name="uni0404" unicode="&#x404;" horiz-adv-x="578" 
d="M528 88l10 -76q-80 -24 -200 -24q-154 0 -216.5 80t-62.5 277t62.5 277t216.5 80q111 0 194 -20l-11 -78q-80 8 -183 8q-90 0 -129.5 -46t-45.5 -162h291v-78h-292q1 -140 40 -194t136 -54q120 0 190 10z" />
    <glyph glyph-name="uni0405" unicode="&#x405;" horiz-adv-x="563" 
d="M330 285l-140 39q-74 20 -105.5 67.5t-31.5 128.5q0 59 12.5 95.5t43.5 55.5t69 25t102 6q122 0 208 -21l-6 -73q-145 5 -198 5q-78 0 -104 -15.5t-26 -80.5q0 -51 18.5 -72t64.5 -33l137 -38q77 -21 108.5 -68t31.5 -128q0 -114 -52 -152t-183 -38q-110 0 -217 20l7 74
q156 -5 212 -5q78 1 104.5 20t26.5 82q0 53 -18 73.5t-64 32.5z" />
    <glyph glyph-name="uni0406" unicode="&#x406;" horiz-adv-x="268" 
d="M184 0h-100v690h100v-690z" />
    <glyph glyph-name="uni0407" unicode="&#x407;" horiz-adv-x="268" 
d="M29 872h32q26 0 26 -27v-54q0 -27 -26 -27h-32q-26 0 -26 27v54q0 27 26 27zM207 872h31q27 0 27 -27v-54q0 -27 -27 -27h-31q-27 0 -27 27v54q0 27 27 27zM184 0h-100v690h100v-690z" />
    <glyph glyph-name="uni0408" unicode="&#x408;" horiz-adv-x="343" 
d="M262 690v-539q0 -79 -35 -120t-101 -40q-59 0 -98 13l11 72h49q74 0 74 70v544h100z" />
    <glyph glyph-name="uni0409" unicode="&#x409;" horiz-adv-x="971" 
d="M562 417h135q129 0 179.5 -47t50.5 -166q0 -122 -48 -167t-167 -45q-160 0 -249 8l1 5v604h-123q-56 0 -62 -68q-18 -195 -29.5 -269.5t-38.5 -138.5q-30 -69 -71.5 -100t-110.5 -35l-8 69q58 21 96 94q7 14 12.5 29l10 28t9 33l7 32t5.5 37l4.5 38t4.5 44.5t4 45l4 52.5
t4 56q9 134 150 134h230v-273zM562 80l135 -1q78 0 103.5 25t25.5 101q0 74 -25.5 101.5t-103.5 27.5h-135v-254z" />
    <glyph glyph-name="uni040A" unicode="&#x40a;" horiz-adv-x="978" 
d="M569 416h134q130 0 180.5 -46.5t50.5 -167.5t-48 -165.5t-167 -44.5q-161 0 -249 8v334h-286v-334h-100v690h100v-274h286v274h99v-274zM569 80l134 -1q79 0 104.5 25t25.5 100q0 74 -25.5 102t-104.5 28h-134v-254z" />
    <glyph glyph-name="uni040B" unicode="&#x40b;" horiz-adv-x="773" 
d="M342 601v-212q110 55 217 55q83 0 122 -38.5t39 -119.5v-286h-100v266q0 50 -21 70t-74 20q-88 0 -183 -47v-309h-101v601h-217v89h537v-89h-219z" />
    <glyph glyph-name="uni040C" unicode="&#x40c;" horiz-adv-x="605" 
d="M270 726l-33 45l177 146l55 -74zM335 362v-4q20 -2 37 -8t30.5 -12t27.5 -21l23 -25t21.5 -34l19.5 -37.5t19.5 -47l18.5 -50.5l21 -59l23 -64h-105q-61 173 -79 211q-41 83 -97 101q-22 7 -49 7h-69q7 -42 7 -71v-248h-100v690h100v-212q0 -34 -7 -78h69q33 0 59.5 13.5
t46 37t37 59.5t32.5 77l33 93q2 7 3 10h101q-57 -167 -80 -212q-47 -94 -119 -112q-11 -3 -24 -4z" />
    <glyph glyph-name="uni040D" unicode="&#x40d;" horiz-adv-x="694" 
d="M401 771l-32 -45l-199 117l55 74zM610 0h-97v487q0 50 6 82h-6q-14 -37 -36 -78l-290 -491h-103v690h96v-482q0 -42 -6 -85h5q17 41 39 78l288 489h104v-690z" />
    <glyph glyph-name="uni040E" unicode="&#x40e;" horiz-adv-x="567" 
d="M387 886l49 -8q5 -59 -37 -96.5t-115 -37.5q-74 0 -116 37.5t-37 96.5l48 8q0 -34 27 -52.5t78 -18.5q49 0 76 18.5t27 52.5zM558 690l-183 -519q-31 -84 -66 -128.5t-94 -49.5q-62 -5 -130 15l11 73q32 -2 50 -2.5t36 -0.5t28 5l19 9.5t16 17.5l13 25t15 36l12 29h-37
q-30 0 -46.5 11.5t-26.5 38.5l-156 440h102l134 -391q7 -15 21 -15h38l142 406h102z" />
    <glyph glyph-name="uni040F" unicode="&#x40f;" horiz-adv-x="676" 
d="M592 690v-690h-212l-5 -151h-68l-6 151h-217v690h100v-609h307v609h101z" />
    <glyph glyph-name="uni0410" unicode="&#x410;" horiz-adv-x="626" 
d="M450 208h-275l-64 -208h-102l216 663q8 27 37 27h102q30 0 36 -27l217 -663h-103zM424 295l-81 262q-3 9 -8.5 28t-8.5 28h-27l-16 -56l-81 -262h222z" />
    <glyph glyph-name="uni0411" unicode="&#x411;" horiz-adv-x="600" 
d="M184 397h137q130 0 180.5 -45t50.5 -160q0 -55 -11 -92t-28.5 -58.5t-51.5 -33t-68 -14.5t-90 -3q-117 0 -217 9h-2v690q128 7 217 7t212 -7l-8 -84h-321v-209zM184 78l137 -1q80 0 105 23.5t25 96.5q0 71 -25.5 96.5t-104.5 25.5h-137v-241z" />
    <glyph glyph-name="uni0412" unicode="&#x412;" horiz-adv-x="622" 
d="M428 360v-4q75 -7 106.5 -52.5t31.5 -131.5q0 -104 -49.5 -142t-172.5 -38q-169 0 -260 8v690q81 8 230 8q130 0 180.5 -37.5t50.5 -142.5q0 -75 -28 -113.5t-89 -44.5zM182 396h140q72 0 99.5 22.5t27.5 87.5q0 64 -30 85.5t-110 21.5h-127v-217zM182 78l147 -1
q79 0 107.5 22.5t28.5 89.5q0 75 -30.5 102t-111.5 28h-141v-241z" />
    <glyph glyph-name="uni0413" unicode="&#x413;" horiz-adv-x="518" 
d="M82 0v556q0 60 36.5 98t93.5 38q198 0 287 -9l-4 -77h-249q-35 0 -49.5 -15t-14.5 -54v-537h-100z" />
    <glyph glyph-name="uni0414" unicode="&#x414;" horiz-adv-x="700" 
d="M669 81v-232h-68l-9 151h-492l-9 -151h-69v232h68q80 175 98 475q2 62 41.5 98t106.5 36h248v-609h85zM484 81v528h-130q-36 0 -51.5 -15t-18.5 -53q-11 -155 -32 -261.5t-66 -198.5h298z" />
    <glyph glyph-name="uni0415" unicode="&#x415;" horiz-adv-x="561" 
d="M508 83l4 -77q-91 -8 -296 -8q-64 0 -101 33.5t-37 90.5v446q0 57 37 90.5t101 33.5q205 0 296 -8l-4 -78h-275q-30 0 -42.5 -14.5t-12.5 -49.5v-138h291v-81h-291v-176q0 -35 12.5 -49.5t42.5 -14.5h275z" />
    <glyph glyph-name="uni0416" unicode="&#x416;" horiz-adv-x="914" 
d="M644 362v-4q30 -3 54 -12.5t45.5 -33t35 -42t32.5 -64.5t28.5 -73.5l32.5 -94.5q9 -25 13 -38h-106q-64 177 -82 215q-41 82 -95 99q-18 5 -40 5h-62q6 -36 6 -71v-248h-95v248q0 29 7 71h-67q-71 1 -115 -69q-28 -45 -85 -202q-11 -30 -17 -48h-105q5 13 13 38l28 81.5
t25 66.5t27 59.5t27.5 43.5t33 36t38.5 20.5t48 12.5v4q-34 4 -60.5 18.5t-47 41t-36.5 59t-33 79.5l-33 93q-8 24 -12 37h102q57 -159 82 -204q48 -86 118 -86h68q-6 38 -6 78v212h95v-212q0 -47 -5 -78h62q71 0 119 86q25 44 82 202q0 1 1 2h102q-57 -167 -81 -214
q-49 -94 -122 -111q-9 -2 -20 -3z" />
    <glyph glyph-name="uni0417" unicode="&#x417;" horiz-adv-x="551" 
d="M60 605l-8 77q89 16 194 16q129 0 178.5 -37.5t49.5 -142.5q0 -75 -27.5 -113.5t-88.5 -44.5v-4q74 -7 105 -52.5t31 -131.5q0 -104 -49 -142t-169 -38q-142 0 -241 24l9 72q112 -14 215 -14q76 0 104.5 23t28.5 92q0 75 -30.5 102t-109.5 27h-118v79h118q69 0 95.5 22.5
t26.5 86.5q0 66 -28.5 88.5t-105.5 22.5q-67 0 -180 -12z" />
    <glyph glyph-name="uni0418" unicode="&#x418;" horiz-adv-x="694" 
d="M610 0h-97v487q0 50 6 82h-6q-14 -37 -36 -78l-290 -491h-103v690h96v-482q0 -42 -6 -85h5q17 41 39 78l288 489h104v-690z" />
    <glyph glyph-name="uni0419" unicode="&#x419;" horiz-adv-x="694" 
d="M429 884h72q5 -60 -36.5 -100t-114.5 -40q-74 0 -116.5 40t-37.5 100h73q0 -43 21 -65.5t60 -22.5q79 0 79 88zM610 0h-97v487q0 50 6 82h-6q-14 -37 -36 -78l-290 -491h-103v690h96v-482q0 -42 -6 -85h5q17 41 39 78l288 489h104v-690z" />
    <glyph glyph-name="uni041A" unicode="&#x41a;" horiz-adv-x="605" 
d="M335 362v-4q20 -2 37 -8t30.5 -12t27.5 -21l23 -25t21.5 -34l19.5 -37.5t19.5 -47l18.5 -50.5l21 -59l23 -64h-105q-61 173 -79 211q-41 83 -97 101q-22 7 -49 7h-69q7 -42 7 -71v-248h-100v690h100v-212q0 -34 -7 -78h69q33 0 59.5 13.5t46 37t37 59.5t32.5 77l33 93
q2 7 3 10h101q-57 -167 -80 -212q-47 -94 -119 -112q-11 -3 -24 -4z" />
    <glyph glyph-name="uni041B" unicode="&#x41b;" horiz-adv-x="655" 
d="M571 690v-690h-101v609h-127q-65 0 -71 -68q-17 -193 -29 -269.5t-40 -138.5q-60 -138 -185 -135l-8 78q70 19 99 84q26 62 38 139t27 260q12 131 143 131h254z" />
    <glyph glyph-name="uni041C" unicode="&#x41c;" horiz-adv-x="881" 
d="M633 690h109q39 0 41 -41l28 -649h-100l-24 607h-20l-140 -491q-9 -34 -43 -34h-87q-35 0 -44 34l-141 491h-19l-23 -607h-99l26 649q2 41 41 41h111q31 0 42 -34l117 -404q10 -36 23 -93h18q12 53 24 94l116 403q11 34 44 34z" />
    <glyph glyph-name="uni041D" unicode="&#x41d;" horiz-adv-x="670" 
d="M586 690v-690h-101v325h-301v-325h-100v690h100v-279h301v279h101z" />
    <glyph glyph-name="uni041E" unicode="&#x41e;" horiz-adv-x="669" 
d="M334 703q154 0 215 -78t61 -280t-61 -280t-215 -78q-153 0 -214 78t-61 280t61 280t214 78zM334 614q-97 0 -133.5 -58t-36.5 -211t36.5 -211t133.5 -58t134 58t37 211t-37 211t-134 58z" />
    <glyph glyph-name="uni041F" unicode="&#x41f;" horiz-adv-x="671" 
d="M587 690v-690h-100v609h-303v-609h-100v690h503z" />
    <glyph glyph-name="uni0420" unicode="&#x420;" horiz-adv-x="592" 
d="M84 0v690q85 9 241 9q128 0 176.5 -46t48.5 -172q0 -127 -46.5 -173t-167.5 -46q-75 0 -151 9v-271h-101zM185 348h137q73 1 100 28t27 105t-27 105t-100 27q-100 0 -137 -1v-264z" />
    <glyph glyph-name="uni0421" unicode="&#x421;" 
d="M527 88l10 -76q-83 -24 -205 -24q-151 0 -212 80t-61 277t61 277t212 80q108 0 191 -20l-10 -77q-80 8 -181 8q-95 0 -131.5 -58t-36.5 -210t36.5 -210t131.5 -58q127 0 195 11z" />
    <glyph glyph-name="uni0422" unicode="&#x422;" horiz-adv-x="584" 
d="M561 601h-219v-601h-101v601h-217v89h537v-89z" />
    <glyph glyph-name="uni0423" unicode="&#x423;" horiz-adv-x="567" 
d="M558 690l-183 -519q-31 -84 -66 -128.5t-94 -49.5q-62 -5 -130 15l11 73q32 -2 50 -2.5t36 -0.5t28 5l19 9.5t16 17.5l13 25t15 36l12 29h-37q-30 0 -46.5 11.5t-26.5 38.5l-156 440h102l134 -391q7 -15 21 -15h38l142 406h102z" />
    <glyph glyph-name="uni0424" unicode="&#x424;" horiz-adv-x="822" 
d="M461 744v-96q174 -7 244 -72.5t71 -223.5q-1 -155 -71 -219.5t-244 -71.5v-96h-100v96q-174 6 -244.5 71t-70.5 220q0 158 70.5 224t244.5 72v96h100zM365 144v421q-124 -5 -170 -50.5t-46 -162.5q0 -114 46 -158.5t170 -49.5zM457 565v-421q123 6 169 50.5t47 157.5
q-1 117 -47 162.5t-169 50.5z" />
    <glyph glyph-name="uni0425" unicode="&#x425;" horiz-adv-x="616" 
d="M319 320h-24l-164 -320h-108l189 357l-176 333h107l151 -294h27l150 294h109l-177 -333l190 -357h-109z" />
    <glyph glyph-name="uni0426" unicode="&#x426;" horiz-adv-x="695" 
d="M663 81v-232h-68l-9 151h-502v690h100v-609h294v609h101v-609h84z" />
    <glyph glyph-name="uni0427" unicode="&#x427;" horiz-adv-x="629" 
d="M546 690v-690h-100v308q-113 -60 -231 -60q-80 0 -118.5 39t-38.5 119v284h100v-264q-1 -47 20.5 -68t72.5 -21q91 0 195 48v305h100z" />
    <glyph glyph-name="uni0428" unicode="&#x428;" horiz-adv-x="935" 
d="M851 690v-690h-767v690h98v-609h237v609h97v-609h237v609h98z" />
    <glyph glyph-name="uni0429" unicode="&#x429;" horiz-adv-x="960" 
d="M929 -151h-68l-9 151h-768v690h98v-609h234v609h97v-609h234v609h98v-609h84v-232z" />
    <glyph glyph-name="uni042A" unicode="&#x42a;" horiz-adv-x="748" 
d="M340 417h134q130 0 180 -47t50 -168t-48 -165.5t-167 -44.5q-161 0 -250 8v601h-216v89h317v-273zM340 80l134 -1q78 0 103.5 25t25.5 100q0 74 -25.5 102t-103.5 28h-134v-254z" />
    <glyph glyph-name="uni042B" unicode="&#x42b;" horiz-adv-x="853" 
d="M184 417h136q130 0 180.5 -47t50.5 -168t-48 -165.5t-167 -44.5q-161 0 -250 8h-2v690h100v-273zM770 690v-690h-100v690h100zM184 80l136 -1q79 0 104.5 25t25.5 100q0 74 -25.5 102t-104.5 28h-136v-254z" />
    <glyph glyph-name="uni042C" unicode="&#x42c;" horiz-adv-x="595" 
d="M184 417h136q130 0 180.5 -47t50.5 -168t-48 -165.5t-167 -44.5q-161 0 -250 8h-2v690h100v-273zM184 80l136 -1q79 0 104.5 25t25.5 100q0 74 -25.5 102t-104.5 28h-136v-254z" />
    <glyph glyph-name="uni042D" unicode="&#x42d;" horiz-adv-x="578" 
d="M56 604l-10 78q83 20 193 20q155 0 217.5 -80t62.5 -277t-62.5 -277t-217.5 -80q-119 0 -199 24l10 76q70 -10 190 -10q97 0 136 54t40 194h-292v78h290q-6 116 -45 162t-129 46q-103 0 -184 -8z" />
    <glyph glyph-name="uni042E" unicode="&#x42e;" horiz-adv-x="933" 
d="M185 399h151q7 170 65.5 237t195.5 67q154 0 215.5 -78t61.5 -280t-61.5 -280t-215.5 -78q-141 0 -199.5 72.5t-61.5 258.5h-151v-318h-100v690h100v-291zM597 76q97 0 133.5 58t37.5 211q-1 153 -37.5 211t-133.5 58q-93 0 -128 -58t-35 -211t35 -211t128 -58z" />
    <glyph glyph-name="uni042F" unicode="&#x42f;" horiz-adv-x="615" 
d="M199 309l-1 5q-69 10 -99.5 54.5t-29.5 128.5q0 109 51.5 155.5t170.5 46.5q156 0 240 -9v-690h-100v277l-139 -1q-68 0 -87 -69l-58 -207h-106l61 211q23 80 97 98zM431 362v250q-37 1 -138 1q-70 0 -96.5 -25.5t-27.5 -96.5q0 -68 27.5 -98.5t94.5 -30.5h140z" />
    <glyph glyph-name="uni0430" unicode="&#x430;" horiz-adv-x="555" 
d="M81 407l-9 71q130 23 237 23q89 0 131 -36t42 -125v-340h-77l-10 77q-84 -86 -195 -86q-68 0 -109 36.5t-41 101.5v51q0 58 36.5 90t102.5 32h196v38q-1 45 -21 62t-76 17q-57 0 -207 -12zM148 167v-26q0 -36 17 -52t55 -16q87 0 165 68v88h-178q-32 -1 -45.5 -17
t-13.5 -45z" />
    <glyph glyph-name="uni0431" unicode="&#x431;" horiz-adv-x="577" 
d="M476 738l23 -76q-37 -23 -71 -33.5t-77 -17t-69 -13.5q-112 -32 -132 -152q-7 -38 -10 -72h2q14 29 31 48t56.5 35t97.5 16q107 0 151 -54t44 -180t-49 -188.5t-178 -62.5q-62 0 -105 16t-67 40.5t-36.5 68t-15.5 82t-3 99.5q0 86 6.5 141.5t25 106t55.5 81.5t95 49
q29 9 73 16t80.5 17.5t72.5 32.5zM302 391q-80 0 -107 -35.5t-27 -117.5q0 -96 28 -132.5t99 -36.5t98.5 36.5t27.5 131.5q0 90 -25 122t-94 32z" />
    <glyph glyph-name="uni0432" unicode="&#x432;" horiz-adv-x="555" 
d="M381 252v-3q66 -5 94 -36.5t28 -91.5q0 -74 -44 -101t-152 -27q-146 0 -231 6v488q76 6 204 6q116 0 161 -27t45 -103q0 -52 -25 -79.5t-80 -31.5zM167 286h120q60 0 83.5 14t23.5 54q0 38 -26 51t-93 13h-108v-132zM167 70l125 -1q65 0 89.5 14.5t24.5 57.5t-26.5 59.5
t-92.5 16.5h-120v-147z" />
    <glyph glyph-name="uni0433" unicode="&#x433;" horiz-adv-x="467" 
d="M74 0v383q0 108 111 108q181 0 261 -9l-3 -68h-217q-29 0 -42.5 -13.5t-13.5 -43.5v-357h-96z" />
    <glyph glyph-name="uni0434" unicode="&#x434;" horiz-adv-x="594" 
d="M560 78v-222h-64l-8 144h-388l-8 -144h-64v222h59q57 122 69 294q8 116 130 116h204v-410h70zM398 413h-96q-54 0 -59 -57q-12 -171 -70 -278h225v335z" />
    <glyph glyph-name="uni0435" unicode="&#x435;" horiz-adv-x="543" 
d="M375 197h-219q7 -76 39.5 -102t106.5 -26q65 0 171 12l9 -64q-66 -29 -193 -29q-128 0 -182 58.5t-54 198.5q0 142 53 199t174 57q111 0 162 -41t52 -123q0 -140 -119 -140zM154 272h195q49 0 47 65q0 45 -24.5 63.5t-86.5 18.5q-73 0 -100.5 -30.5t-30.5 -116.5z" />
    <glyph glyph-name="uni0436" unicode="&#x436;" horiz-adv-x="795" 
d="M572 256v-3q27 -3 46.5 -9.5t37 -23.5t28.5 -31t26 -49t24 -60l29 -80h-99q-52 136 -73 168q-32 48 -87 49h-67q5 -27 5 -46v-171h-86v171q0 19 5 46h-71q-52 -1 -78.5 -39.5t-74.5 -159.5q-5 -12 -7 -18h-98q14 42 21.5 61.5l19 50t18.5 43.5t19 32.5t22 27.5t24.5 17.5
t30.5 14t36 6.5v3q-21 2 -38.5 9.5t-30 14t-26.5 26.5l-21 30t-20.5 43.5t-18.5 48t-22 60.5h97q17 -47 27 -71.5t24.5 -53.5t27.5 -42t31.5 -22t40.5 -9h67q-5 30 -5 56v142h86v-142q0 -34 -5 -56h63q53 0 81 42t70 156h98q-17 -46 -22 -60.5t-18.5 -48t-20.5 -43.5
l-21 -30t-26.5 -26.5t-30 -14t-38.5 -9.5z" />
    <glyph glyph-name="uni0437" unicode="&#x437;" horiz-adv-x="501" 
d="M61 407l-8 73q63 17 154 17q126 0 174.5 -26.5t48.5 -104.5q0 -55 -23 -82t-79 -32v-3q64 -5 92 -35.5t28 -92.5q0 -77 -47.5 -103.5t-164.5 -26.5q-121 0 -199 16l7 73q96 -8 185 -8q70 0 94.5 14t24.5 55q0 42 -25.5 57t-92.5 15h-121v71h120q62 0 83.5 14.5t21.5 55.5
q0 37 -26 49t-99 12q-87 0 -148 -8z" />
    <glyph glyph-name="uni0438" unicode="&#x438;" horiz-adv-x="588" 
d="M511 0h-87v309q0 13 1.5 36.5t1.5 31.5h-2q-10 -27 -35 -60l-235 -317h-78v488h86v-310q0 -30 -3 -66h3q19 38 34 58l236 318h78v-488z" />
    <glyph glyph-name="uni0439" unicode="&#x439;" horiz-adv-x="588" 
d="M370 704h73q5 -60 -37 -100t-114 -40q-74 0 -116.5 40t-37.5 100h73q0 -87 81 -87q78 0 78 87zM511 0h-87v309q0 13 1.5 36.5t1.5 31.5h-2q-10 -27 -35 -60l-235 -317h-78v488h86v-310q0 -30 -3 -66h3q19 38 34 58l236 318h78v-488z" />
    <glyph glyph-name="uni043A" unicode="&#x43a;" horiz-adv-x="540" 
d="M311 255v-2q24 -3 42.5 -9.5t33 -14t28.5 -26t23.5 -33t22.5 -46t21.5 -54.5l25.5 -70h-101l-27.5 71.5t-22.5 53t-24 43.5t-25.5 26t-32.5 18t-40 4h-67q5 -25 5 -45v-171h-96v488h96v-141q0 -26 -5 -56h61q64 0 95 42.5t70 154.5h100l-23 -61.5t-19.5 -48.5t-21.5 -43
l-21.5 -30t-26.5 -26t-31 -14t-40 -10z" />
    <glyph glyph-name="uni043B" unicode="&#x43b;" horiz-adv-x="567" 
d="M490 488v-488h-97v413h-98q-30 0 -42.5 -13t-17.5 -47q-24 -186 -45 -247q-36 -114 -161 -111l-10 74q39 9 56.5 22.5t28.5 41.5q23 61 40 237q7 60 38.5 89t94.5 29h213z" />
    <glyph glyph-name="uni043C" unicode="&#x43c;" horiz-adv-x="753" 
d="M532 488h99q36 0 36 -36l20 -452h-90l-18 415h-16l-114 -329q-9 -31 -37 -31h-73q-27 0 -38 31l-113 329h-16l-17 -415h-89l19 452q0 36 37 36h98q28 0 37 -31l92 -269q11 -32 19 -70h15l8.5 32.5t10.5 37.5l92 269q11 31 38 31z" />
    <glyph glyph-name="uni043D" unicode="&#x43d;" horiz-adv-x="585" 
d="M509 488v-488h-96v222h-241v-222h-95v488h95v-192h241v192h96z" />
    <glyph glyph-name="uni043E" unicode="&#x43e;" horiz-adv-x="573" 
d="M287 501q127 0 180 -59t53 -199t-53 -198t-180 -58q-128 0 -181 58.5t-53 197.5q0 140 53.5 199t180.5 59zM287 419q-76 0 -104 -37t-28 -139q0 -101 28 -138t104 -37q75 0 103.5 37t28.5 138q0 102 -28 139t-104 37z" />
    <glyph glyph-name="uni043F" unicode="&#x43f;" horiz-adv-x="577" 
d="M500 488v-488h-94v410h-235v-410h-94v488h423z" />
    <glyph glyph-name="uni0440" unicode="&#x440;" horiz-adv-x="587" 
d="M157 488l7 -75q38 40 93.5 64t108.5 24q87 0 127 -65.5t40 -194.5q0 -138 -45 -195.5t-142 -57.5q-98 0 -176 49q4 -50 3 -99v-137h-96v687h80zM173 346v-248q99 -26 148 -26q63 0 87.5 34.5t24.5 135.5q0 97 -22.5 136t-77.5 39q-36 0 -72 -16.5t-88 -54.5z" />
    <glyph glyph-name="uni0441" unicode="&#x441;" horiz-adv-x="495" 
d="M447 80l10 -65q-75 -27 -171 -27q-128 0 -180.5 57.5t-52.5 198.5t53 199t181 58q97 0 161 -25l-12 -62q-75 5 -133 5q-84 0 -116 -37t-32 -138t32 -138t116 -37q82 0 144 11z" />
    <glyph glyph-name="uni0442" unicode="&#x442;" horiz-adv-x="494" 
d="M469 409h-173v-409h-97v409h-173v79h443v-79z" />
    <glyph glyph-name="uni0443" unicode="&#x443;" horiz-adv-x="536" 
d="M518 488l-190 -511q-36 -102 -92 -145q-67 -50 -191 -32l9 68q78 -6 117 20q38 27 67 94l7 18h-21q-26 0 -34 25l-172 463h103l121 -355q14 -37 18 -60h14q2 7 6.5 20t7.5 22.5t6 17.5l120 355h104z" />
    <glyph glyph-name="uni0444" unicode="&#x444;" horiz-adv-x="723" 
d="M406 700v-200q144 -7 204.5 -66.5t60.5 -190.5q0 -130 -61 -188.5t-204 -65.5v-188h-89v188q-143 7 -204 65.5t-61 188.5q0 131 60.5 190.5t204.5 66.5v200h89zM320 70v348q-98 -5 -136 -43.5t-38 -131.5q0 -92 38.5 -130t135.5 -43zM403 418v-348q97 5 135.5 43
t38.5 130q0 93 -38 131.5t-136 43.5z" />
    <glyph glyph-name="uni0445" unicode="&#x445;" horiz-adv-x="536" 
d="M277 216h-18l-132 -216h-105l159 252l-147 236h104l119 -197h22l119 197h104l-147 -236l159 -252h-105z" />
    <glyph glyph-name="uni0446" unicode="&#x446;" horiz-adv-x="599" 
d="M564 -144h-64l-9 144h-414v488h95v-410h227v410h96v-410h69v-222z" />
    <glyph glyph-name="uni0447" unicode="&#x447;" horiz-adv-x="537" 
d="M459 488v-488h-96v199q-96 -33 -184 -33q-126 0 -126 108v214h95v-181q0 -34 14.5 -48t48.5 -14q76 0 152 30v213h96z" />
    <glyph glyph-name="uni0448" unicode="&#x448;" horiz-adv-x="811" 
d="M734 488v-488h-657v488h93v-410h191v410h87v-410h192v410h94z" />
    <glyph glyph-name="uni0449" unicode="&#x449;" horiz-adv-x="839" 
d="M804 -144h-64l-9 144h-654v488h93v-410h192v410h86v-410h193v410h93v-410h70v-222z" />
    <glyph glyph-name="uni044A" unicode="&#x44a;" horiz-adv-x="634" 
d="M288 304h105q114 0 157 -33.5t43 -122.5q0 -88 -42.5 -121t-143.5 -33q-135 0 -213 6v412h-169v76h263v-184zM288 71l105 -1q58 0 79.5 16.5t21.5 65.5q0 46 -21 63.5t-80 17.5h-105v-162z" />
    <glyph glyph-name="uni044B" unicode="&#x44b;" horiz-adv-x="731" 
d="M170 304h107q113 0 155 -33.5t42 -122.5q0 -88 -41 -121t-140 -33q-136 0 -214 6h-2v488h93v-184zM654 488v-488h-97v488h97zM170 71l107 -1q57 0 78 16.5t21 65.5q0 46 -20.5 63.5t-78.5 17.5h-107v-162z" />
    <glyph glyph-name="uni044C" unicode="&#x44c;" horiz-adv-x="518" 
d="M170 304h107q114 0 157 -33.5t43 -122.5q0 -88 -41.5 -121t-142.5 -33q-136 0 -214 6h-2v488h93v-184zM170 71l107 -1q59 0 80.5 16.5t21.5 65.5q0 46 -21.5 63.5t-80.5 17.5h-107v-162z" />
    <glyph glyph-name="uni044D" unicode="&#x44d;" horiz-adv-x="511" 
d="M55 409l-10 67q65 19 169 19q135 0 189 -56t54 -198q0 -139 -54 -195.5t-189 -56.5q-104 0 -174 21l9 68q73 -6 165 -6q78 0 109.5 29.5t35.5 110.5h-247v73h246q-6 74 -38 102t-106 27q-94 0 -159 -5z" />
    <glyph glyph-name="uni044E" unicode="&#x44e;" horiz-adv-x="801" 
d="M173 289h119q6 120 55.5 166t165.5 46q131 0 182.5 -54.5t51.5 -201.5q0 -145 -51.5 -199.5t-182.5 -54.5q-119 0 -168.5 48t-53.5 175h-118v-214h-96v488h96v-199zM511 72q77 0 106 37t30 136q-1 100 -30 137t-106 37q-74 0 -101 -36.5t-27 -137.5q0 -99 27 -136
t101 -37z" />
    <glyph glyph-name="uni044F" unicode="&#x44f;" horiz-adv-x="547" 
d="M175 209v4q-58 9 -83.5 42t-25.5 93q0 75 41 110.5t145 35.5q147 0 219 -7v-487h-95v178h-126q-64 0 -77 -47l-36 -131h-100l44 147q15 53 94 62zM376 250v166h-122q-58 0 -76 -16.5t-18 -65.5q0 -48 19 -66t77 -18h120z" />
    <glyph glyph-name="uni0451" unicode="&#x451;" horiz-adv-x="543" 
d="M210 586h-33q-26 0 -26 26v54q0 27 26 27h33q25 0 25 -27v-54q0 -26 -25 -26zM387 586h-32q-27 0 -27 26v54q0 27 27 27h32q26 0 26 -27v-54q0 -26 -26 -26zM375 197h-219q7 -76 39.5 -102t106.5 -26q65 0 171 12l9 -64q-66 -29 -193 -29q-128 0 -182 58.5t-54 198.5
q0 142 53 199t174 57q111 0 162 -41t52 -123q0 -140 -119 -140zM154 272h195q49 0 47 65q0 45 -24.5 63.5t-86.5 18.5q-73 0 -100.5 -30.5t-30.5 -116.5z" />
    <glyph glyph-name="uni0452" unicode="&#x452;" horiz-adv-x="589" 
d="M197 491v-76q0 -43 -5 -85q107 74 210 74q134 0 134 -134v-270h-97v242q0 42 -17.5 59t-61.5 17q-62 0 -164 -59v-259h-96v491h-74v55h74v154h97v-154h180v-55h-180z" />
    <glyph glyph-name="uni0453" unicode="&#x453;" horiz-adv-x="467" 
d="M432 664l-199 -117l-33 44l177 147zM74 0v383q0 108 111 108q181 0 261 -9l-3 -68h-217q-29 0 -42.5 -13.5t-13.5 -43.5v-357h-96z" />
    <glyph glyph-name="uni0454" unicode="&#x454;" horiz-adv-x="511" 
d="M462 78l9 -68q-70 -21 -174 -21q-135 0 -189 56.5t-54 195.5q0 142 54 198t189 56q104 0 169 -19l-10 -67q-65 5 -159 5q-74 1 -106 -27t-38 -102h247v-73h-248q4 -81 35.5 -110.5t109.5 -29.5q92 0 165 6z" />
    <glyph glyph-name="uni0455" unicode="&#x455;" horiz-adv-x="513" 
d="M297 192l-136 34q-61 16 -86 47.5t-25 91.5q0 81 43 109t149 27q117 -2 208 -17l-7 -70q-155 5 -186 5q-71 0 -92.5 -8.5t-21.5 -45.5q0 -17 3 -27.5t15.5 -17.5t19.5 -9.5t32 -9.5l138 -34q61 -16 87.5 -46t26.5 -91q0 -86 -47.5 -113.5t-164.5 -27.5q-102 0 -194 14
l7 72q55 -5 166 -5q82 0 110.5 11.5t28.5 48.5q0 16 -4 26.5t-17 17.5t-20.5 9.5t-32.5 8.5z" />
    <glyph glyph-name="uni0456" unicode="&#x456;" horiz-adv-x="257" 
d="M106 696h46q28 0 28 -28v-56q0 -29 -28 -29h-46q-29 0 -29 29v56q0 28 29 28zM177 0h-96v488h96v-488z" />
    <glyph glyph-name="uni0457" unicode="&#x457;" horiz-adv-x="257" 
d="M24 693h32q26 0 26 -27v-54q0 -26 -26 -26h-32q-26 0 -26 26v54q0 27 26 27zM202 693h31q27 0 27 -27v-54q0 -26 -27 -26h-31q-27 0 -27 26v54q0 27 27 27zM177 0h-96v488h96v-488z" />
    <glyph glyph-name="uni0458" unicode="&#x458;" horiz-adv-x="258" 
d="M107 696h45q29 0 29 -28v-56q0 -29 -29 -29h-45q-29 0 -29 29v56q0 28 29 28zM178 488v-493q0 -60 -26.5 -112t-72.5 -85l-53 42q55 69 55 155v493h97z" />
    <glyph glyph-name="uni0459" unicode="&#x459;" horiz-adv-x="809" 
d="M466 305h104q113 0 155.5 -33.5t42.5 -122.5q0 -90 -42.5 -122.5t-144.5 -32.5q-129 0 -207 6v415h-73q-28 0 -40.5 -10t-15.5 -36q-21 -196 -50 -269q-21 -55 -64 -80.5t-96 -22.5l-8 66q58 19 80 62q19 38 27.5 86.5t22.5 175.5q11 101 117 101h192v-183zM466 70h100
q60 0 82 16t22 67q0 47 -21 64.5t-79 17.5h-104v-165z" />
    <glyph glyph-name="uni045A" unicode="&#x45a;" horiz-adv-x="815" 
d="M471 304h105q114 0 156 -33t42 -122t-41.5 -122t-141.5 -33q-133 0 -211 6v234h-214v-234h-89v488h89v-184h214v184h91v-184zM471 70h105q57 0 78.5 16.5t21.5 66.5q0 46 -20.5 63.5t-79.5 17.5h-105v-164z" />
    <glyph glyph-name="uni045B" unicode="&#x45b;" horiz-adv-x="589" 
d="M197 491v-76q0 -43 -5 -85q107 74 210 74q132 0 134 -134v-275q0 -60 -26.5 -112t-72.5 -85l-54 42q56 67 56 154v248q0 42 -17.5 59t-61.5 17q-62 0 -164 -59v-259h-96v491h-74v55h74v154h97v-154h180v-55h-180z" />
    <glyph glyph-name="uni045C" unicode="&#x45c;" horiz-adv-x="540" 
d="M243 547l-32 44l177 147l55 -74zM311 255v-2q24 -3 42.5 -9.5t33 -14t28.5 -26t23.5 -33t22.5 -46t21.5 -54.5l25.5 -70h-101l-27.5 71.5t-22.5 53t-24 43.5t-25.5 26t-32.5 18t-40 4h-67q5 -25 5 -45v-171h-96v488h96v-141q0 -26 -5 -56h61q64 0 95 42.5t70 154.5h100
l-23 -61.5t-19.5 -48.5t-21.5 -43l-21.5 -30t-26.5 -26t-31 -14t-40 -10z" />
    <glyph glyph-name="uni045D" unicode="&#x45d;" horiz-adv-x="588" 
d="M343 591l-32 -44l-199 117l54 74zM511 0h-87v309q0 13 1.5 36.5t1.5 31.5h-2q-10 -27 -35 -60l-235 -317h-78v488h86v-310q0 -30 -3 -66h3q19 38 34 58l236 318h78v-488z" />
    <glyph glyph-name="uni045E" unicode="&#x45e;" horiz-adv-x="536" 
d="M346 705h73q5 -60 -37 -100.5t-114 -40.5q-74 0 -116.5 40.5t-37.5 100.5h73q0 -88 81 -88q78 0 78 88zM518 488l-190 -511q-36 -102 -92 -145q-67 -50 -191 -32l9 68q78 -6 117 20q38 27 67 94l7 18h-21q-26 0 -34 25l-172 463h103l121 -355q14 -37 18 -60h14
q2 7 6.5 20t7.5 22.5t6 17.5l120 355h104z" />
    <glyph glyph-name="uni045F" unicode="&#x45f;" horiz-adv-x="582" 
d="M506 488v-488h-175l-8 -165h-65l-8 165h-173v488h97v-410h235v410h97z" />
    <glyph glyph-name="uni0490" unicode="&#x490;" horiz-adv-x="525" 
d="M505 675l-4 -69h-255q-35 0 -49.5 -15t-14.5 -54v-537h-100v556q0 60 36.5 98t93.5 38q147 0 217 -7l11 157h65v-167z" />
    <glyph glyph-name="uni0491" unicode="&#x491;" horiz-adv-x="469" 
d="M448 634v-152l-4 -68h-218q-55 0 -55 -57v-357h-96v383q0 108 111 108q127 0 188 -3l10 146h64z" />
    <glyph glyph-name="uni04B0" unicode="&#x4b0;" horiz-adv-x="585" 
d="M490 219h-147v-219h-100v219h-147v59h128l-209 412h107l138 -283q8 -17 30 -80h8q15 49 30 79l138 284h104l-207 -412h127v-59z" />
    <glyph glyph-name="uni04B1" unicode="&#x4b1;" horiz-adv-x="588" 
d="M363 78h129v-61h-148v-216h-99v216h-149v61h129l-209 410h106l138 -280q14 -30 30 -79h8q16 49 30 79l138 280h106z" />
    <glyph glyph-name="uni04B6" unicode="&#x4b6;" horiz-adv-x="659" 
d="M629 69v-220h-68l-10 151h-104v303q-114 -55 -228 -55q-82 0 -121.5 39t-39.5 119v284h101v-264q-2 -48 20.5 -69.5t74.5 -21.5q90 0 193 48v307h100v-621h82z" />
    <glyph glyph-name="uni04B7" unicode="&#x4b7;" horiz-adv-x="564" 
d="M529 78v-222h-64l-9 144h-93v199q-96 -33 -184 -33q-126 0 -126 108v214h95v-181q0 -34 14.5 -48t48.5 -14q76 0 152 30v213h96v-410h70z" />
    <glyph glyph-name="uni04BA" unicode="&#x4ba;" horiz-adv-x="630" 
d="M184 690v-303q110 55 227 55q82 0 121.5 -39t39.5 -119v-284h-100v264q1 48 -21.5 69.5t-74.5 21.5q-95 0 -192 -48v-307h-100v690h100z" />
    <glyph glyph-name="uni04C0" unicode="&#x4c0;" horiz-adv-x="269" 
d="M185 0h-100v690h100v-690z" />
    <glyph glyph-name="Wgrave" unicode="&#x1e80;" horiz-adv-x="951" 
d="M528 770l-32 -45l-199 117l54 75zM921 690l-132 -661q-9 -29 -39 -29h-111q-32 0 -39 30l-100 507q-10 52 -14 78h-21l-15 -78l-99 -507q-2 -13 -13.5 -21.5t-25.5 -8.5h-112q-31 0 -38 29l-132 661h106l99 -526q3 -17 12 -88h23q5 43 15 88l99 493q7 33 38 33h107
q14 0 24.5 -9.5t13.5 -23.5l98 -494q8 -40 15 -87h23l6 43t7 43l99 528h106z" />
    <glyph glyph-name="wgrave" unicode="&#x1e81;" horiz-adv-x="826" 
d="M466 591l-33 -44l-199 117l55 74zM803 488l-137 -461q-8 -27 -37 -27h-87q-30 0 -37 31l-71 321q-2 9 -4.5 24.5t-5 28.5t-5.5 25h-12l-16 -78l-70 -321q-7 -31 -38 -31h-86q-30 0 -36 27l-138 461h100l94 -352q12 -50 15 -75h13l17 75l72 322q7 30 36 30h87q29 0 36 -31
l71 -321q2 -10 17 -75h13q7 45 15 75l94 352h100z" />
    <glyph glyph-name="Wacute" unicode="&#x1e82;" horiz-adv-x="951" 
d="M639 842l-199 -117l-32 45l176 147zM921 690l-132 -661q-9 -29 -39 -29h-111q-32 0 -39 30l-100 507q-10 52 -14 78h-21l-15 -78l-99 -507q-2 -13 -13.5 -21.5t-25.5 -8.5h-112q-31 0 -38 29l-132 661h106l99 -526q3 -17 12 -88h23q5 43 15 88l99 493q7 33 38 33h107
q14 0 24.5 -9.5t13.5 -23.5l98 -494q8 -40 15 -87h23l6 43t7 43l99 528h106z" />
    <glyph glyph-name="wacute" unicode="&#x1e83;" horiz-adv-x="826" 
d="M576 664l-199 -117l-32 44l177 147zM803 488l-137 -461q-8 -27 -37 -27h-87q-30 0 -37 31l-71 321q-2 9 -4.5 24.5t-5 28.5t-5.5 25h-12l-16 -78l-70 -321q-7 -31 -38 -31h-86q-30 0 -36 27l-138 461h100l94 -352q12 -50 15 -75h13l17 75l72 322q7 30 36 30h87
q29 0 36 -31l71 -321q2 -10 17 -75h13q7 45 15 75l94 352h100z" />
    <glyph glyph-name="Wdieresis" unicode="&#x1e84;" horiz-adv-x="951" 
d="M371 872h33q25 0 25 -27v-54q0 -27 -25 -27h-33q-25 0 -25 27v54q0 27 25 27zM549 872h32q26 0 26 -27v-54q0 -27 -26 -27h-32q-26 0 -26 27v54q0 27 26 27zM921 690l-132 -661q-9 -29 -39 -29h-111q-32 0 -39 30l-100 507q-10 52 -14 78h-21l-15 -78l-99 -507
q-2 -13 -13.5 -21.5t-25.5 -8.5h-112q-31 0 -38 29l-132 661h106l99 -526q3 -17 12 -88h23q5 43 15 88l99 493q7 33 38 33h107q14 0 24.5 -9.5t13.5 -23.5l98 -494q8 -40 15 -87h23l6 43t7 43l99 528h106z" />
    <glyph glyph-name="wdieresis" unicode="&#x1e85;" horiz-adv-x="826" 
d="M309 693h32q26 0 26 -27v-54q0 -27 -26 -27h-32q-26 0 -26 27v54q0 27 26 27zM486 693h32q27 0 27 -27v-54q0 -27 -27 -27h-32q-26 0 -26 27v54q0 27 26 27zM803 488l-137 -461q-8 -27 -37 -27h-87q-30 0 -37 31l-71 321q-2 9 -4.5 24.5t-5 28.5t-5.5 25h-12l-16 -78
l-70 -321q-7 -31 -38 -31h-86q-30 0 -36 27l-138 461h100l94 -352q12 -50 15 -75h13l17 75l72 322q7 30 36 30h87q29 0 36 -31l71 -321q2 -10 17 -75h13q7 45 15 75l94 352h100z" />
    <glyph glyph-name="Ygrave" unicode="&#x1ef2;" horiz-adv-x="574" 
d="M306 726l-199 117l55 74l176 -146zM337 239v-239h-100v240l-228 450h106l139 -283q8 -17 30 -80h7q21 62 30 79l139 284h104z" />
    <glyph glyph-name="ygrave" unicode="&#x1ef3;" horiz-adv-x="533" 
d="M288 547l-199 117l55 74l177 -147zM516 488l-189 -511q-68 -180 -224 -182l-10 64q57 17 90 47t53 76l7 18h-20q-28 0 -34 25l-173 463h104l121 -355q12 -31 17 -60h14q10 27 20 60l120 355h104z" />
    <glyph glyph-name="endash" unicode="&#x2013;" horiz-adv-x="586" 
d="M517 216h-448v74h448v-74z" />
    <glyph glyph-name="emdash" unicode="&#x2014;" horiz-adv-x="889" 
d="M819 216h-750v74h750v-74z" />
    <glyph glyph-name="quoteleft" unicode="&#x2018;" horiz-adv-x="221" 
d="M124 491h-28q-19 0 -26.5 7t-7.5 26v58q1 83 38 147l45 -12q-10 -53 -10 -112q28 0 26 -28v-53q-1 -19 -9 -26t-28 -7z" />
    <glyph glyph-name="quoteright" unicode="&#x2019;" horiz-adv-x="218" 
d="M95 722h28q20 0 27.5 -7t7.5 -25v-59q-1 -79 -38 -147l-46 12q11 52 11 112q-27 0 -27 28v54q1 18 9.5 25t27.5 7z" />
    <glyph glyph-name="quotesinglbase" unicode="&#x201a;" horiz-adv-x="232" 
d="M103 115h28q20 0 27.5 -7t7.5 -25v-59q-1 -80 -38 -147l-46 12q11 60 11 112q-27 0 -27 28v54q1 32 37 32z" />
    <glyph glyph-name="quotedblleft" unicode="&#x201c;" horiz-adv-x="381" 
d="M124 491h-28q-19 0 -26.5 7t-7.5 26v58q1 83 38 147l45 -12q-10 -53 -10 -112q28 0 26 -28v-53q-1 -19 -9 -26t-28 -7zM284 491h-28q-19 0 -26.5 7t-7.5 26v58q1 80 38 147l46 -12q-11 -51 -11 -112q28 0 26 -28v-53q-1 -19 -9 -26t-28 -7z" />
    <glyph glyph-name="quotedblright" unicode="&#x201d;" horiz-adv-x="378" 
d="M95 722h28q20 0 27.5 -7t7.5 -25v-59q-1 -79 -38 -147l-46 12q11 52 11 112q-27 0 -27 28v54q1 18 9.5 25t27.5 7zM255 722h29q19 0 26.5 -7t7.5 -25v-59q-1 -79 -38 -147l-46 12q11 52 11 112q-27 0 -27 28v54q1 18 9.5 25t27.5 7z" />
    <glyph glyph-name="quotedblbase" unicode="&#x201e;" horiz-adv-x="392" 
d="M103 115h28q20 0 27.5 -7t7.5 -25v-59q-1 -80 -38 -147l-46 12q11 60 11 112q-27 0 -27 28v54q1 18 9.5 25t27.5 7zM263 115h28q20 0 27.5 -7t7.5 -25v-59q-1 -80 -38 -147l-46 12q11 60 11 112q-27 0 -27 28v54q1 18 9.5 25t27.5 7z" />
    <glyph glyph-name="dagger" unicode="&#x2020;" horiz-adv-x="457" 
d="M268 -110h-79v594l-4 207h88l-5 -207v-594zM40 404v84h130v-73zM417 488v-84l-130 11v73h130z" />
    <glyph glyph-name="daggerdbl" unicode="&#x2021;" horiz-adv-x="495" 
d="M291 -110h-87l4 203v393l-4 205h87l-4 -205v-393zM59 404v84h130v-73zM436 488v-84l-130 11v73h130zM189 93h-130v84l130 -11v-73zM306 166l130 11v-84h-130v73z" />
    <glyph glyph-name="bullet" unicode="&#x2022;" horiz-adv-x="365" 
d="M178 362h13q48 0 67 -19t19 -67v-13q0 -51 -19 -70.5t-67 -19.5h-13q-51 0 -70.5 19.5t-19.5 70.5v13q0 48 19.5 67t70.5 19z" />
    <glyph glyph-name="ellipsis" unicode="&#x2026;" horiz-adv-x="860" 
d="M97 124h32q19 0 27 -8t8 -27v-53q0 -20 -7.5 -28t-27.5 -8h-32q-20 0 -27.5 8t-7.5 28v53q0 19 8 27t27 8zM410 124h32q20 0 28 -7.5t8 -27.5v-53q0 -20 -8 -28t-28 -8h-32q-20 0 -27.5 8t-7.5 28v53q0 19 7.5 27t27.5 8zM724 124h32q20 0 27.5 -8t7.5 -27v-53
q0 -20 -7.5 -28t-27.5 -8h-32q-20 0 -28 8t-8 28v53q0 19 8 27t28 8z" />
    <glyph glyph-name="perthousand" unicode="&#x2030;" horiz-adv-x="1272" 
d="M207 703q90 0 126.5 -46.5t36.5 -158.5q0 -111 -36.5 -158t-126.5 -47t-126.5 47t-36.5 158q0 112 36.5 158.5t126.5 46.5zM260 0h-68l441 690h68zM206 643q-50 0 -69 -31t-19 -114t19 -114t69 -31q52 0 70.5 30.5t18.5 114.5q0 83 -19 114t-70 31zM689 400
q89 0 125.5 -47t36.5 -158q0 -112 -36.5 -158.5t-125.5 -46.5q-90 0 -126.5 46.5t-36.5 158.5q0 111 36.5 158t126.5 47zM1063 400q90 0 126 -47t36 -158q0 -112 -36 -158.5t-126 -46.5t-126 46.5t-36 158.5q0 111 36 158t126 47zM688 339q-51 0 -70 -31t-18 -113
q-1 -82 18 -113.5t70 -31.5t70 31.5t19 113.5q0 83 -19 113.5t-70 30.5zM1062 339q-50 0 -69 -31t-19 -113t19 -113.5t69 -31.5q51 0 70.5 31.5t19.5 113.5q0 83 -19 113.5t-71 30.5z" />
    <glyph glyph-name="guilsinglleft" unicode="&#x2039;" horiz-adv-x="296" 
d="M250 427l-122 -176l123 -179l-51 -34l-161 202v22l160 198z" />
    <glyph glyph-name="guilsinglright" unicode="&#x203a;" horiz-adv-x="298" 
d="M258 262v-22l-161 -202l-52 34l123 179l-122 176l52 33z" />
    <glyph glyph-name="fraction" unicode="&#x2044;" horiz-adv-x="160" 
d="M-106 0h-69l441 690h68z" />
    <glyph glyph-name="Euro" unicode="&#x20ac;" horiz-adv-x="637" 
d="M577 89l11 -77q-75 -24 -180 -24q-132 0 -197 66t-78 204h-83v59h79v28q0 29 1 42h-79v59h83q15 130 80 193t194 63q90 0 167 -20l-10 -79q-80 14 -163 9q-72 -3 -111 -43.5t-51 -122.5h248l-7 -59h-247q0 -7 -0.5 -21.5t-0.5 -22.5l1 -26h217l-7 -59h-206
q10 -90 49 -134t115 -46q94 -5 175 11z" />
    <glyph glyph-name="trademark" unicode="&#x2122;" horiz-adv-x="967" 
d="M896 316h-64l-15 327h-12l-84 -258q-8 -22 -29 -22h-50q-21 0 -29 22l-84 258h-12l-14 -327h-64l15 353q2 27 26 27h71q19 0 27 -22l70 -211q2 -7 6.5 -25.5t7.5 -28.5h10q3 9 7.5 27.5t7.5 27.5l68 210q7 22 28 22h72q25 0 26 -27zM392 696v-57h-129v-323h-69v323h-129
v57h327z" />
    <glyph glyph-name="partialdiff" unicode="&#x2202;" horiz-adv-x="573" 
d="M128 629v74q91 1 152 -7t111 -30.5t77 -64t39.5 -106t7.5 -158.5q-9 -175 -65.5 -262t-183.5 -87q-62 0 -106.5 20.5t-67.5 56t-32.5 76t-7.5 87.5q5 99 57.5 161.5t151.5 61.5q97 -2 157 -72q4 149 -54 199.5t-236 50.5zM268 74q77 0 107.5 62t39.5 183q-60 50 -133 50
q-127 0 -134 -141q-3 -70 26.5 -112t93.5 -42z" />
    <glyph glyph-name="emptyset" unicode="&#x2205;" horiz-adv-x="685" 
d="M343 633q121 0 206.5 -85.5t85.5 -206.5t-85.5 -207t-206.5 -86t-207 86t-86 207t86 206.5t207 85.5zM312 241h54q0 35 14.5 64.5t32.5 46.5t32.5 43.5t14.5 56.5q0 93 -117 93q-51 0 -122 -11l3 -45q60 9 119 9q66 0 66 -46q0 -21 -15 -44.5t-33.5 -42.5t-33.5 -52
t-15 -72zM359 171h-39q-7 0 -7 -8v-37q0 -7 7 -7h39q8 0 8 7v37q0 8 -8 8z" />
    <glyph glyph-name="product" unicode="&#x220f;" horiz-adv-x="720" 
d="M683 608h-101v-710h-96v710h-251v-710h-97v710h-101v82h646v-82z" />
    <glyph glyph-name="summation" unicode="&#x2211;" horiz-adv-x="592" 
d="M532 609h-363l162 -264l-176 -378h387v-81h-494v81l175 378l-163 264v81h472v-81z" />
    <glyph glyph-name="minus" unicode="&#x2212;" horiz-adv-x="585" 
d="M513 259h-442v72h442v-72z" />
    <glyph glyph-name="radical" unicode="&#x221a;" horiz-adv-x="568" 
d="M547 876l-250 -868q-3 -8 -13 -8h-114q-11 0 -13 8l-126 480h81l108 -423h13l232 811h82z" />
    <glyph glyph-name="infinity" unicode="&#x221e;" horiz-adv-x="778" 
d="M581 448q60 0 99.5 -35t39.5 -103q0 -70 -42.5 -109t-108.5 -39q-93 0 -179 90q-88 -90 -183 -90q-64 0 -106.5 39.5t-42.5 108.5q0 68 41 103t105 35q100 0 186 -95q91 95 191 95zM223 233q37 0 65 18t59 53q-33 38 -59.5 55.5t-69.5 17.5q-77 0 -77 -69q0 -75 82 -75z
M556 233q38 0 59.5 19t21.5 56q0 69 -75 69q-29 0 -54.5 -12.5t-39 -26t-34.5 -37.5q53 -68 122 -68z" />
    <glyph glyph-name="integral" unicode="&#x222b;" horiz-adv-x="368" 
d="M163 -70l-45 651q-4 65 26 99t89 34q66 0 103 -4l-6 -69h-65q-35 0 -49 -17t-12 -60l46 -653q4 -68 -23.5 -100.5t-95.5 -32.5q-71 0 -99 4l6 69h63q36 0 50 18t12 61z" />
    <glyph glyph-name="approxequal" unicode="&#x2248;" horiz-adv-x="586" 
d="M139 324h-64q-10 66 17.5 97t81.5 29q33 -1 115 -28t117 -29q24 -1 32.5 9.5t8.5 42.5h65q9 -63 -16.5 -94.5t-85.5 -30.5q-37 1 -118 29t-112 29q-23 1 -32 -10.5t-9 -43.5zM139 132h-64q-10 67 17.5 98t81.5 29q33 -1 115 -28.5t117 -29.5q24 -1 32.5 10t8.5 42h65
q9 -63 -16.5 -94t-85.5 -30q-37 1 -118 28.5t-112 28.5q-24 1 -32.5 -10t-8.5 -44z" />
    <glyph glyph-name="notequal" unicode="&#x2260;" horiz-adv-x="616" 
d="M358 363l-85 -139h259v-72h-303l-74 -123l-28 14l66 109h-103v72h146l85 139h-231v72h274l66 109l29 -15l-58 -94h131v-72h-174z" />
    <glyph glyph-name="lessequal" unicode="&#x2264;" horiz-adv-x="563" 
d="M488 463l-328 -99l328 -91v-77l-412 129v77l412 138v-77zM496 74h-431v71h431v-71z" />
    <glyph glyph-name="greaterequal" unicode="&#x2265;" horiz-adv-x="563" 
d="M487 402v-77l-412 -129v77l328 91l-328 99v77zM498 74h-431v71h431v-71z" />
    <glyph glyph-name="lozenge" unicode="&#x25ca;" horiz-adv-x="573" 
d="M295 691l245 -336q4 -9 0 -18l-245 -338q-8 -11 -16 0l-246 338q-4 9 0 18l246 336q8 11 16 0zM112 346l175 -251l174 251l-174 249z" />
    <glyph glyph-name="c_t" horiz-adv-x="838" 
d="M660 413v-272q0 -34 14.5 -48t49.5 -14h71l11 -75q-46 -13 -115 -13q-62 0 -94.5 35.5t-32.5 101.5v285h-262q-84 0 -116.5 -35.5t-32.5 -133.5q0 -101 32 -138t115 -37q76 0 133 11l9 -65q-69 -27 -159 -27q-127 0 -179 57.5t-52 198.5q0 132 56 188t177 56h279v143h96
v-143h151v-75h-151z" />
    <glyph glyph-name="f_f_y" horiz-adv-x="1219" 
d="M1202 488l-189 -511q-66 -180 -224 -182l-9 64q57 17 90 47t52 76l8 18h-21q-26 0 -34 25l-130 347q-15 41 -58 41h-139v-413h-97v413h-239v-413h-97v413h-88v70l88 5v74q0 69 36.5 106.5t108.5 37.5q75 0 123 -7l-8 -72h-81q-47 0 -64.5 -15.5t-17.5 -60.5v-63h239v85
q0 71 34 107.5t111 36.5q96 0 141 -7l-8 -72h-99q-45 0 -63.5 -17.5t-18.5 -58.5v-74h157q100 0 133 -95l89 -260q11 -29 18 -60h14l9.5 29.5t10.5 30.5l119 355h104z" />
    <glyph glyph-name="f_t" horiz-adv-x="724" 
d="M681 79l11 -75q-46 -13 -114 -13q-63 0 -95.5 35.5t-32.5 101.5v285h-238v-413h-97v413h-88v70l88 5v85q0 71 34 107.5t111 36.5q89 0 132 -7l-8 -72h-90q-45 0 -63.5 -17t-18.5 -59v-74h238v143h97v-143h151v-75h-151v-272q0 -35 14 -48.5t49 -13.5h71z" />
    <glyph glyph-name="f_y" horiz-adv-x="883" 
d="M866 488l-189 -511q-68 -180 -224 -182l-10 64q106 32 143 123l7 18h-20q-26 0 -34 25l-130 347q-15 41 -58 41h-139v-413h-97v413h-88v70l88 5v85q0 71 34 107.5t111 36.5q94 0 141 -7l-8 -72h-99q-45 0 -63.5 -17t-18.5 -59v-74h157q101 0 132 -95l90 -260
q12 -31 17 -60h14l19 57l121 358h104z" />
    <glyph glyph-name="s_t" horiz-adv-x="864" 
d="M686 413v-272q0 -34 14.5 -48t49.5 -14h71l11 -75q-46 -13 -115 -13q-62 0 -94.5 35.5t-32.5 101.5v285h-334q-71 0 -92.5 -7.5t-21.5 -40.5q0 -17 3 -27.5t15.5 -17.5t19.5 -9.5t31 -9.5l138 -34q62 -16 88 -45.5t26 -91.5q0 -86 -47.5 -113.5t-164.5 -27.5
q-102 0 -194 14l7 72q56 -5 167 -5q82 0 110 11.5t28 48.5q0 16 -4 26.5t-17 17.5t-20.5 9.5t-32.5 8.5l-136 34q-61 16 -86 47.5t-25 91.5q0 73 43.5 98.5t149.5 24.5h349v143h96v-143h151v-75h-151z" />
    <glyph glyph-name="t_t" horiz-adv-x="740" 
d="M562 413v-272q0 -34 14.5 -48t49.5 -14h71l11 -75q-46 -13 -115 -13q-62 0 -94.5 35.5t-32.5 101.5v285h-256v-272q0 -34 14.5 -48t49.5 -14h71l11 -75q-46 -13 -115 -13q-62 0 -94.5 35.5t-32.5 101.5v285h-89v70l89 4v144h96v-143h256v143h96v-143h151v-75h-151z" />
    <glyph glyph-name="t_y" horiz-adv-x="904" 
d="M887 488l-189 -511q-68 -180 -224 -182l-10 64q58 17 90.5 46.5t52.5 76.5l7 18h-20q-26 0 -34 25l-130 347q-15 41 -58 41h-162v-272q0 -34 14.5 -48t49.5 -14h71l11 -75q-46 -13 -115 -13q-62 0 -94.5 35.5t-32.5 101.5v285h-89v70l89 4v144h96v-143h180q101 0 132 -94
l90 -261q12 -31 17 -60h14l20 59l120 356h104z" />
    <glyph glyph-name="brevecy" horiz-adv-x="378" 
d="M269 696h73q5 -60 -37 -100t-115 -40t-115.5 40t-37.5 100h73q0 -87 80 -87q79 0 79 87z" />
    </font>
</defs>
</svg>
