<?xml version="1.0" standalone="no"?>
<!DOCTYPE svg PUBLIC "-//W3C//DTD SVG 1.1//EN" "http://www.w3.org/Graphics/SVG/1.1/DTD/svg11.dtd" >
<svg>
<metadata>
Created by FontForge 20090622 at Tue May 26 14:00:16 2015
 By deploy user
Copyright &#194;&#169; 2013, Natanael Gama (www.ndiscovered.com . info(at)ndiscovered.com), with Reserved Font Name Exo. This Font Software is licensed under the SIL Open Font License, Version 1.1.
</metadata>
<defs>
<font id="Exo2.0-MediumItalic" horiz-adv-x="574" >
  <font-face 
    font-family="Exo 2.0 Medium"
    font-weight="500"
    font-style="italic"
    font-stretch="normal"
    units-per-em="1000"
    panose-1="0 0 6 0 0 0 0 0 0 0"
    ascent="800"
    descent="-200"
    x-height="488"
    cap-height="690"
    bbox="-217 -280 1218.39 939"
    underline-thickness="50"
    underline-position="-50"
    slope="-8"
    unicode-range="U+0020-U+FB02"
  />
<missing-glyph horiz-adv-x="600" 
 />
    <glyph glyph-name="fi" unicode="fi" horiz-adv-x="614" 
d="M566 488l-69 -488h-97l58 413h-230l-66 -469q-20 -143 -159 -143q-54 0 -121 8l15 72h75q47 0 67 15.5t27 62.5l64 454h-87l9 70l89 5l10 75q12 78 49.5 116t112.5 38q80 0 121 -7l-7 -72h-83q-46 0 -68 -20.5t-29 -69.5l-9 -60h328zM520 696h46q14 0 21 -8t5 -22l-7 -56
q-4 -27 -30 -27h-46q-14 0 -21.5 8.5t-5.5 22.5l8 56q3 26 30 26z" />
    <glyph glyph-name="fl" unicode="fl" horiz-adv-x="674" 
d="M626 66l4 -63q-27 -12 -92 -12q-59 0 -88.5 31.5t-22.5 86.5l74 530h-157q-46 1 -68 -20t-29 -71l-9 -60h141l-10 -75h-141l-66 -469q-20 -143 -159 -143q-54 0 -121 8l15 72h75q47 0 67 15.5t27 62.5l64 454h-87l9 70l89 5l10 75q12 78 49.5 116.5t112.5 37.5
q213 0 292 -12l-79 -578q-7 -61 52 -61h48z" />
    <glyph glyph-name="f_f" unicode="ff" horiz-adv-x="721" 
d="M779 638h-96q-47 0 -68 -15.5t-28 -62.5l-10 -72h151l-10 -75h-151l-64 -456q-20 -143 -159 -143q-54 0 -121 8l15 72h75q47 0 67 15.5t27 62.5l62 441h-240l-67 -469q-20 -143 -159 -143q-54 0 -121 8l15 72h75q47 0 67 15.5t27 62.5l65 454h-89l9 70l91 5l11 76
q21 142 160 142q87 0 142 -7l-15 -72h-96q-47 0 -68 -15.5t-28 -62.5l-9 -61h241l12 87q20 142 160 142q96 0 143 -7z" />
    <glyph glyph-name="f_f_i" unicode="ffi" horiz-adv-x="952" 
d="M903 488l-69 -488h-97l59 413h-229l-64 -456q-20 -143 -159 -143q-54 0 -121 8l15 72h75q47 0 67 15.5t27 62.5l62 441h-240l-67 -469q-20 -143 -159 -143q-54 0 -121 8l15 72h75q47 0 67 15.5t27 62.5l65 454h-89l9 70l91 5l11 76q21 142 160 142q87 0 142 -7l-15 -72
h-96q-47 0 -68 -15.5t-28 -62.5l-9 -61h241l12 87q20 142 160 142q96 0 143 -7l-16 -72h-96q-47 0 -68 -15.5t-28 -62.5l-10 -72h326zM858 696h45q32 0 27 -30l-7 -56q-4 -27 -31 -27h-45q-32 0 -27 31l8 56q3 26 30 26z" />
    <glyph glyph-name="f_f_l" unicode="ffl" horiz-adv-x="1013" 
d="M963 66l4 -63q-27 -12 -92 -12q-59 0 -88.5 31.5t-22.5 86.5l74 530h-157q-46 1 -68 -20t-29 -71l-9 -60h143l-10 -75h-143l-65 -456q-20 -143 -159 -143q-54 0 -121 8l16 72h74q47 0 67.5 15.5t27.5 62.5l62 441h-238l-67 -469q-20 -143 -159 -143q-54 0 -121 8l15 72
h75q47 0 67 15.5t27 62.5l65 454h-89l9 70l91 5l11 76q21 142 160 142q87 0 142 -7l-15 -72h-96q-47 0 -68 -15.5t-28 -62.5l-9 -61h239l10 75q11 78 49 116.5t113 37.5q213 0 292 -12l-79 -578q-7 -61 52 -61h48z" />
    <glyph glyph-name=".notdef" horiz-adv-x="600" 
 />
    <glyph glyph-name=".null" horiz-adv-x="0" 
 />
    <glyph glyph-name="nonmarkingreturn" horiz-adv-x="333" 
 />
    <glyph glyph-name="space" unicode=" " horiz-adv-x="222" 
 />
    <glyph glyph-name="exclam" unicode="!" horiz-adv-x="275" 
d="M199 396l-34 -183h-77l16 183l42 299h96zM99 124h25q38 0 32 -37l-7 -53q-3 -34 -37 -34h-25q-38 0 -34 37l9 54q3 33 37 33z" />
    <glyph glyph-name="quotedbl" unicode="&#x22;" horiz-adv-x="356" 
d="M162 474h-66l25 216h78zM310 474h-67l25 216h78z" />
    <glyph glyph-name="numbersign" unicode="#" horiz-adv-x="686" 
d="M545 444l-54 -173h110l-21 -61h-109l-66 -210h-76l66 210h-175l-66 -210h-76l66 210h-116l20 61h116l54 173h-116l21 61h114l58 185h76l-58 -185h175l58 185h76l-58 -185h112l-21 -61h-110zM469 444h-175l-54 -173h175z" />
    <glyph glyph-name="dollar" unicode="$" horiz-adv-x="565" 
d="M542 680l-11 -72q-96 4 -149 4l-50 -226l53 -19q76 -27 100.5 -71.5t13.5 -124.5q-15 -111 -71 -147t-188 -36h-2l-26 -113h-46l26 114q-93 4 -166 19l13 74q56 -2 110 -3.5t62 -1.5l51 232l-63 22q-71 26 -96.5 72.5t-15.5 122.5q8 57 27 93t53 53.5t71 23.5t96 6h21
l21 96h46l-21 -98q78 -5 141 -20zM336 613h-2q-34 0 -49.5 -0.5t-36.5 -5t-30 -14.5t-18 -29t-13 -48q-6 -49 6.5 -67t59.5 -35l37 -13zM305 294l-48 -217q76 2 105 21.5t37 82.5q6 49 -7 67.5t-58 34.5z" />
    <glyph glyph-name="percent" unicode="%" horiz-adv-x="897" 
d="M255 703q93 0 124.5 -48t15.5 -161q-16 -111 -57 -156t-129 -45q-91 0 -122 48t-16 161q16 111 56.5 156t127.5 45zM223 0h-75l538 690h75zM258 643q-57 0 -79.5 -31.5t-34.5 -117.5q-11 -81 1.5 -111t60.5 -30q59 0 81.5 31.5t34.5 117.5q12 80 -1 110.5t-63 30.5z
M700 399q93 0 124.5 -48t15.5 -160q-16 -111 -57 -156t-129 -45q-91 0 -122 48t-15 160q15 111 55.5 156t127.5 45zM703 339q-57 0 -79.5 -31.5t-34.5 -116.5q-11 -81 2 -111.5t61 -30.5q58 0 80.5 31.5t34.5 117.5q12 80 -1 110.5t-63 30.5z" />
    <glyph glyph-name="ampersand" unicode="&#x26;" horiz-adv-x="747" 
d="M712 319h-101q-15 -108 -60 -180q-93 -149 -313 -150q-116 -1 -162 43.5t-34 146.5q20 168 166 177l1 5q-120 9 -95 164q18 106 79 141t185 35q85 0 172 -22l-17 -74q-59 13 -151 13q-89 0 -124 -21.5t-46 -92.5q-10 -64 13.5 -86.5t96.5 -22.5h209q2 39 2 125h88
q1 -60 -2 -125h104zM523 319h-211q-80 0 -116 -27.5t-48 -102.5q-10 -65 11.5 -89t89.5 -24q150 0 221 100q39 54 53 143z" />
    <glyph glyph-name="quotesingle" unicode="'" horiz-adv-x="209" 
d="M162 474h-66l25 216h78z" />
    <glyph glyph-name="parenleft" unicode="(" horiz-adv-x="357" 
d="M384 791l11 -47q-104 -47 -164 -152.5t-84 -282.5q-24 -168 4.5 -274.5t117.5 -155.5l-13 -43q-257 101 -203 480q27 194 107 309t224 166z" />
    <glyph glyph-name="parenright" unicode=")" horiz-adv-x="357" 
d="M94 746l13 43q131 -51 181.5 -169t22.5 -312q-28 -193 -107.5 -308t-224.5 -166l-11 47q200 96 249 436q24 171 -5 277t-118 152z" />
    <glyph glyph-name="asterisk" unicode="*" horiz-adv-x="448" 
d="M276 529l85 -129l-48 -34l-59 124l-93 -123l-44 34l120 128l14 162h58zM224 557l-4 -25l-14 -16l-122 34l23 53zM434 545l-127 -29l-9 16v25l125 46z" />
    <glyph glyph-name="plus" unicode="+" horiz-adv-x="547" 
d="M490 263h-184l-24 -174h-74l25 174h-185l11 72h183l25 175h74l-25 -175h184z" />
    <glyph glyph-name="comma" unicode="," horiz-adv-x="231" 
d="M80 124h28q37 0 31 -37l-9 -64q-8 -70 -59 -159l-47 16q25 78 33 122q-15 -1 -23 7.5t-6 23.5l8 58q4 20 13 26.5t31 6.5z" />
    <glyph glyph-name="hyphen" unicode="-" horiz-adv-x="440" 
d="M361 216h-303l10 74h303z" />
    <glyph glyph-name="period" unicode="." horiz-adv-x="229" 
d="M73 124h32q37 0 33 -37l-7 -53q-4 -34 -38 -34h-32q-39 0 -33 37l8 54q4 33 37 33z" />
    <glyph glyph-name="slash" unicode="/" horiz-adv-x="529" 
d="M59 -67h-82l499 757h82z" />
    <glyph glyph-name="zero" unicode="0" horiz-adv-x="605" 
d="M354 703q134 0 179 -86t18 -276q-26 -190 -91.5 -272t-194.5 -82q-133 0 -178.5 85t-18.5 277q27 191 91.5 272.5t194.5 81.5zM352 616q-84 0 -125.5 -61.5t-61.5 -213.5q-22 -148 -0.5 -207.5t100.5 -59.5q84 0 126 61.5t64 213.5q21 149 -1 208t-102 59z" />
    <glyph glyph-name="one" unicode="1" horiz-adv-x="399" 
d="M250 0h-100l74 535q6 41 13 63l-172 -53l-2 75l183 70h101z" />
    <glyph glyph-name="two" unicode="2" horiz-adv-x="558" 
d="M109 599v78q115 25 214 25q105 0 156.5 -33t41.5 -122q-8 -63 -41 -116.5t-111 -128.5l-217 -209q44 4 105 4h225l-13 -97h-457l9 65q5 30 17 42l224 216q77 73 115.5 126t42.5 100q5 41 -20 53t-87 12q-93 0 -204 -15z" />
    <glyph glyph-name="three" unicode="3" horiz-adv-x="551" 
d="M116 607l-1 78q111 18 195 18q114 0 159.5 -40.5t37.5 -123.5q-4 -40 -16.5 -76t-40 -65.5t-65.5 -33.5l-2 -4q120 -20 97 -172q-30 -192 -265 -201q-87 -3 -203 18l13 78l65.5 -4.5t60 -3.5t58.5 1q151 11 172 131q9 54 -15.5 84.5t-95.5 31.5l-129 3l10 75h125
q71 1 100 33.5t35 88.5t-17 74t-107 18q-71 0 -171 -8z" />
    <glyph glyph-name="four" unicode="4" horiz-adv-x="614" 
d="M557 174l-91 -10l-23 -164h-95l23 164h-257q-54 0 -76 39.5t5 82.5l245 404h100l-243 -407q-23 -38 15 -38h222l28 200l34 112h77l-44 -312h90z" />
    <glyph glyph-name="five" unicode="5" horiz-adv-x="535" 
d="M502 604h-286l-34 -172l74 -7q118 -10 172 -59t42 -154q-5 -40 -18.5 -74.5t-40.5 -68.5t-76 -55.5t-116 -25.5q-99 -5 -205 25l17 81q89 -22 166 -17q159 9 176 143q9 67 -27.5 92.5t-141.5 31.5l-75 7q-19 1 -30.5 15t-7.5 34l56 290h372z" />
    <glyph glyph-name="six" unicode="6" horiz-adv-x="571" 
d="M528 686l-12 -72q-46 3 -133 3q-101 0 -142 -45.5t-68 -193.5q77 74 177 74q93 1 135.5 -51t24.5 -177q-18 -121 -74 -178.5t-183 -57.5q-95 0 -140.5 36t-54 114.5t10.5 202.5q13 94 33 158.5t44 104.5t60.5 61.5t75 29t95.5 7.5q65 0 151 -16zM415 230q12 80 -5 111
t-86 30q-78 0 -165 -83q-18 -126 1 -170t99 -44q79 0 111.5 37t44.5 119z" />
    <glyph glyph-name="seven" unicode="7" horiz-adv-x="512" 
d="M89 690h394q32 0 43 -18.5t-3 -47.5l-301 -624h-100l268 554q14 30 30 51h-339z" />
    <glyph glyph-name="eight" unicode="8" horiz-adv-x="605" 
d="M186 359l1 4q-94 11 -75 159q14 97 64.5 138t176.5 41q130 -1 172.5 -44t28.5 -143q-20 -144 -120 -155l-1 -4q113 -12 88 -187q-13 -97 -66.5 -137.5t-190.5 -41.5q-127 -1 -178.5 44.5t-38.5 142.5q12 84 43.5 130.5t95.5 52.5zM345 620q-81 0 -108.5 -23.5
t-36.5 -91.5q-9 -66 14 -86.5t107 -20.5q78 0 105.5 23t35.5 91q10 64 -12 86t-105 22zM304 318q-87 -1 -118 -24.5t-42 -103.5q-9 -68 16 -91.5t115 -23.5q83 0 115 26.5t40 96.5q11 74 -12.5 97t-113.5 23z" />
    <glyph glyph-name="nine" unicode="9" horiz-adv-x="570" 
d="M45 4l14 73q66 -5 141 -3q103 3 144.5 51.5t68.5 190.5q-40 -43 -79 -60.5t-90 -17.5q-55 0 -91.5 17t-53.5 48t-23 73t1 90q15 128 77 182t180 54q134 0 173.5 -76t8.5 -277q-17 -113 -41 -183t-62.5 -109.5t-86 -54t-121.5 -14.5q-82 0 -160 16zM264 318
q44 0 79.5 18.5t84.5 66.5q20 124 0 169t-101 45q-79 0 -112.5 -35.5t-44.5 -121.5q-9 -77 11 -110t83 -32z" />
    <glyph glyph-name="colon" unicode=":" horiz-adv-x="241" 
d="M117 442h32q38 0 32 -37l-7 -53q-4 -34 -37 -34h-32q-38 0 -34 37l8 54q4 33 38 33zM72 124h32q37 0 33 -37l-8 -53q-3 -34 -37 -34h-32q-39 0 -33 37l8 54q4 33 37 33z" />
    <glyph glyph-name="semicolon" unicode=";" horiz-adv-x="245" 
d="M124 442h32q37 0 33 -37l-8 -53q-3 -34 -37 -34h-32q-39 0 -33 37l8 54q3 33 37 33zM87 124h29q37 0 31 -37l-9 -64q-8 -70 -59 -159l-48 16q27 86 34 122q-15 -1 -23 7.5t-6 23.5l8 58q4 20 12.5 26.5t30.5 6.5z" />
    <glyph glyph-name="less" unicode="&#x3c;" horiz-adv-x="524" 
d="M477 427l-345 -131l307 -133l-11 -74l-384 171l11 76l432 171z" />
    <glyph glyph-name="equal" unicode="=" horiz-adv-x="585" 
d="M523 363h-442l10 72h442zM494 152h-442l10 72h442z" />
    <glyph glyph-name="greater" unicode="&#x3e;" horiz-adv-x="525" 
d="M482 336l-11 -76l-433 -170l11 81l344 132l-306 132l10 74z" />
    <glyph glyph-name="question" unicode="?" horiz-adv-x="500" 
d="M86 621v70q7 1 32 5.5t32 5.5l29 4t37 3.5t39.5 1.5t53.5 1q100 0 149 -40t38 -119q-5 -41 -28 -75.5t-52.5 -60.5l-60 -53.5t-55 -66.5t-33.5 -86h-82q6 50 28 93t50 72.5t55.5 55.5t48.5 54t25 57q7 51 -16.5 69t-88.5 18q-99 0 -201 -9zM199 124h25q38 0 32 -37
l-7 -53q-4 -34 -37 -34h-25q-38 0 -34 37l9 54q3 33 37 33z" />
    <glyph glyph-name="at" unicode="@" horiz-adv-x="778" 
d="M108 567l8 72q152 7 317 9q71 1 116 -3t82 -17t55.5 -35t28.5 -60.5t8.5 -89.5t-12.5 -126q-16 -132 -41.5 -201t-66.5 -96.5t-112 -27.5q-108 0 -118 98q-82 -102 -191 -102q-85 0 -117 56.5t-11 185.5q12 72 31.5 117t51 68t65.5 30.5t88 7.5q83 0 225 -26l-47 -307
q-6 -46 31 -46q55 0 78.5 52.5t42.5 198.5l8.5 64.5t4 51.5t0 41t-7 30.5t-11.5 22.5t-20.5 15t-26.5 10t-36.5 5t-45 2h-55.5h-322zM380 177l32 196q-88 2 -89 2q-52 0 -79.5 -4.5t-48 -22.5t-29.5 -45t-18 -80q-15 -94 -3.5 -123.5t58.5 -29.5q45 0 85 25t92 82z" />
    <glyph glyph-name="A" unicode="A" horiz-adv-x="623" 
d="M442 208h-276l-92 -208h-106l310 665q10 25 39 25h102q13 0 22.5 -8.5t10.5 -20.5l125 -661h-100zM428 296l-43 259q-4 20 -8 60h-30l-26 -60l-116 -259h223z" />
    <glyph glyph-name="B" unicode="B" horiz-adv-x="620" 
d="M42 0l97 690q81 8 226 8q127 0 176 -40t34 -144q-11 -75 -43 -112t-95 -43l-1 -5q138 -11 112 -186q-16 -104 -68 -140t-172 -36q-175 0 -266 8zM196 396h138q72 0 103.5 24t41.5 90q9 63 -16 83t-103 20h-134zM151 78l142 -1q82 0 115 23.5t43 92.5q10 74 -15.5 99.5
t-106.5 26.5h-144z" />
    <glyph glyph-name="C" unicode="C" horiz-adv-x="568" 
d="M494 88l5 -77q-83 -23 -206 -23q-149 0 -202 85.5t-25 275.5q27 196 97 274.5t220 78.5q107 0 191 -21l-16 -76q-79 8 -177 8q-67 0 -105.5 -22t-64.5 -81t-41 -169q-22 -150 5 -206.5t120 -57.5q112 -1 199 11z" />
    <glyph glyph-name="D" unicode="D" horiz-adv-x="663" 
d="M42 0l97 690q122 9 225 9q164 0 220 -79t28 -279q-11 -77 -25.5 -132t-36 -94t-46.5 -63t-62 -38t-76 -18.5t-95 -4.5q-96 0 -229 9zM228 611l-75 -531q86 -2 117 -2q81 0 124 20t70 77t44 174q10 68 11 112.5t-6.5 75.5t-27.5 46.5t-48.5 22t-74.5 6.5q-12 0 -60 -0.5
t-74 -0.5z" />
    <glyph glyph-name="E" unicode="E" horiz-adv-x="560" 
d="M551 606h-272q-32 0 -47.5 -14.5t-19.5 -50.5l-19 -140h291l-10 -77h-292l-24 -178q-4 -34 7.5 -48t44.5 -14h267l-2 -78q-86 -8 -277 -8q-80 0 -115.5 38.5t-26.5 106.5l59 427q8 58 47 90t105 32q207 0 297 -8z" />
    <glyph glyph-name="F" unicode="F" horiz-adv-x="539" 
d="M544 606h-253q-38 0 -54 -13.5t-21 -51.5l-22 -152h283l-11 -77h-282l-44 -312h-100l78 565q20 127 153 127q201 0 288 -9z" />
    <glyph glyph-name="G" unicode="G" horiz-adv-x="624" 
d="M595 681l-15 -75q-84 8 -171 8q-62 0 -99.5 -10t-67 -40.5t-45.5 -83t-27 -139.5q-17 -148 4.5 -207t93.5 -59q48 0 87 23t93 76l32 226h96l-56 -400h-72v93q-90 -106 -215 -106q-105 0 -146.5 87t-21.5 275q14 108 40.5 178.5t70 108.5t95.5 52.5t126 14.5
q113 0 198 -22z" />
    <glyph glyph-name="H" unicode="H" horiz-adv-x="668" 
d="M641 690l-97 -690h-100l46 324h-302l-45 -324h-101l97 690h101l-40 -279h302l39 279h100z" />
    <glyph glyph-name="I" unicode="I" horiz-adv-x="267" 
d="M143 0h-101l97 690h101z" />
    <glyph glyph-name="J" unicode="J" horiz-adv-x="342" 
d="M318 690l-76 -541q-11 -78 -50.5 -118.5t-102.5 -39.5q-61 0 -99 14l19 71h46q76 0 87 72l75 542h101z" />
    <glyph glyph-name="K" unicode="K" horiz-adv-x="599" 
d="M344 360l-1 -4q19 -24 35 -55l165 -301h-113l-172 319h-78q0 -41 -4 -73l-34 -246h-100l97 690h100l-31 -213q-4 -38 -15 -77h74l239 290h121l-234 -284q-23 -28 -49 -46z" />
    <glyph glyph-name="L" unicode="L" horiz-adv-x="511" 
d="M237 690l-76 -544q-8 -62 52 -62h246l-2 -78q-86 -8 -265 -8q-70 0 -105 38.5t-25 112.5l74 541h101z" />
    <glyph glyph-name="M" unicode="M" horiz-adv-x="880" 
d="M685 690h109q20 0 30 -11.5t8 -31.5l-63 -647h-99l63 607h-19l-209 -493q-13 -32 -46 -32h-87q-35 0 -40 36l-77 489h-20l-106 -607h-100l118 651q6 39 44 39h107q32 0 37 -36l65 -404q4 -23 11 -94h18l21.5 53t15.5 39l173 409q13 32 46 33z" />
    <glyph glyph-name="N" unicode="N" horiz-adv-x="706" 
d="M679 690l-92 -653q-6 -37 -40 -37h-87q-28 0 -39 33l-161 470q-19 54 -27 94h-15q-1 -42 -8 -94l-68 -503h-100l91 653q6 37 42 37h85q27 0 40 -33l155 -457q31 -99 32 -104h17q3 57 10 104l66 490h99z" />
    <glyph glyph-name="O" unicode="O" horiz-adv-x="667" 
d="M387 703q147 0 202 -82.5t27 -279.5q-27 -199 -97.5 -276.5t-219.5 -77.5q-147 0 -203.5 81.5t-29.5 280.5q26 196 97 275t224 79zM382 614q-100 0 -144.5 -57.5t-67.5 -215.5q-21 -152 6.5 -208.5t124.5 -56.5q98 0 143.5 58.5t67.5 214.5q22 155 -5.5 210t-124.5 55z
" />
    <glyph glyph-name="P" unicode="P" horiz-adv-x="590" 
d="M42 0l97 690q86 9 237 9q123 0 169.5 -51t29.5 -171q-10 -68 -27 -109.5t-47.5 -65t-70.5 -32t-103 -8.5q-61 0 -147 10l-38 -272h-100zM191 348h132q79 0 110 28t43 109q11 76 -12 102t-92 26q-105 0 -144 -1z" />
    <glyph glyph-name="Q" unicode="Q" horiz-adv-x="667" 
d="M387 703q147 0 202 -82.5t27 -279.5q-27 -199 -97.5 -276.5t-219.5 -77.5q-147 0 -203.5 81.5t-29.5 280.5q26 196 97 275t224 79zM382 614q-100 0 -144.5 -57.5t-67.5 -215.5q-21 -152 6.5 -208.5t124.5 -56.5q98 0 143.5 58.5t67.5 214.5q22 155 -5.5 210t-124.5 55z
M203 -102l38 60q114 -53 266 -77l-40 -99q-144 35 -264 116z" />
    <glyph glyph-name="R" unicode="R" horiz-adv-x="621" 
d="M42 0l97 690q86 9 237 9q114 0 166.5 -45.5t37.5 -158.5q-11 -79 -47 -121t-107 -51l-1 -6q60 -17 75 -101l44 -216h-102l-41 217q-7 37 -24 52t-50 15l-147 1l-40 -285h-98zM192 370h138q73 1 106 28t43 99q10 67 -12.5 91.5t-93.5 24.5q-108 0 -147 -1z" />
    <glyph glyph-name="S" unicode="S" horiz-adv-x="562" 
d="M332 283l-135 48q-71 26 -97 73t-15 122q8 57 27 93t52.5 53.5t71 23.5t96.5 6q120 0 207 -22l-11 -72q-103 5 -196 5q-34 0 -49.5 -0.5t-36.5 -5t-30.5 -14.5t-18 -29t-12.5 -48q-6 -49 6.5 -67t59.5 -35l132 -47q76 -27 100.5 -71.5t13.5 -124.5q-15 -110 -71.5 -146.5
t-188.5 -36.5q-109 0 -213 20l13 74q156 -5 199 -5q88 1 120 19.5t41 84.5q6 49 -7 67.5t-58 34.5z" />
    <glyph glyph-name="T" unicode="T" horiz-adv-x="576" 
d="M600 601h-219l-85 -601h-100l85 601h-218l13 89h536z" />
    <glyph glyph-name="U" unicode="U" horiz-adv-x="664" 
d="M642 690l-61 -426q-21 -151 -86 -214t-196 -63q-135 0 -190 66t-34 216l58 421h101l-60 -426q-15 -106 11.5 -147t110.5 -41q87 0 129 43t57 150l59 421h101z" />
    <glyph glyph-name="V" unicode="V" horiz-adv-x="609" 
d="M650 690l-300 -664q-11 -26 -38 -26h-97q-13 0 -22 9t-11 21l-115 660h101l81 -539q9 -73 9 -76h26q14 43 30 80l230 535h106z" />
    <glyph glyph-name="W" unicode="W" horiz-adv-x="946" 
d="M973 690l-226 -663q-11 -27 -41 -27h-109q-14 0 -24 9t-11 23l-31 507l-3 38.5t-2 38.5h-21l-25 -81l-170 -507q-9 -28 -40 -28h-108q-15 0 -25.5 9t-11.5 22l-42 659h102l24 -528q1 -14 1.5 -43.5t0.5 -44.5h23q4 14 29 92l166 493q10 31 41 31h105q14 0 23.5 -10
t10.5 -25l36 -494q4 -58 3 -87h24l27 90l169 526h105z" />
    <glyph glyph-name="X" unicode="X" horiz-adv-x="613" 
d="M411 357l140 -357h-102l-121 320h-25l-208 -320h-116l242 357l-129 333h102l109 -294h26l197 294h110z" />
    <glyph glyph-name="Y" unicode="Y" horiz-adv-x="571" 
d="M325 238l-33 -238h-101l35 243l-163 447h101l99 -285q14 -44 18 -80h9q13 41 40 83l178 282h109z" />
    <glyph glyph-name="Z" unicode="Z" horiz-adv-x="564" 
d="M569 690l-13 -85l-429 -520h364l-12 -85h-474l12 85l429 520h-351l13 85h461z" />
    <glyph glyph-name="bracketleft" unicode="[" horiz-adv-x="328" 
d="M348 705h-94q-7 0 -13 -5.5t-8 -12.5l-109 -775q-2 -14 11 -14h100l-9 -63h-144q-26 0 -41 15t-11 45l115 817q4 26 21 41t43 15h148z" />
    <glyph glyph-name="backslash" unicode="\" horiz-adv-x="513" 
d="M441 -67h-74l-289 757h74z" />
    <glyph glyph-name="bracketright" unicode="]" horiz-adv-x="328" 
d="M104 768h143q26 0 41.5 -17.5t11.5 -42.5l-115 -817q-4 -26 -21.5 -41t-42.5 -15h-148l9 63h93q7 0 13.5 5.5t8.5 12.5l109 775q2 14 -11 14h-100z" />
    <glyph glyph-name="asciicircum" unicode="^" horiz-adv-x="432" 
d="M424 392l-41 -23l-116 172h-8l-171 -172l-37 23l180 213h71z" />
    <glyph glyph-name="underscore" unicode="_" horiz-adv-x="577" 
d="M457 -73h-439l11 73h439z" />
    <glyph glyph-name="grave" unicode="`" horiz-adv-x="321" 
d="M301 579l-34 -44l-195 122l52 69z" />
    <glyph glyph-name="a" unicode="a" 
d="M460 0h-76l4 90q-88 -102 -210 -102q-89 0 -120 58t-11 204q11 81 31 132.5t53 76.5t68 33.5t90 8.5q119 0 239 -26zM387 176l35 242q-92 2 -103 2q-52 0 -79 -5t-47.5 -25.5t-30 -52.5t-18.5 -94q-14 -109 -3.5 -140t57.5 -31q46 0 90 25.5t99 78.5z" />
    <glyph glyph-name="b" unicode="b" horiz-adv-x="575" 
d="M225 700l-27 -202q-9 -66 -26 -112q48 48 105.5 81t106.5 33q58 0 89 -21.5t44 -80t-4 -160.5q-11 -82 -31 -133.5t-52 -76.5t-65 -33t-85 -8q-122 0 -246 36l95 677h96zM170 310l-33 -240q72 -3 107 -3q95 0 125 30.5t46 147.5q14 109 3 140t-57 31q-71 0 -191 -106z
" />
    <glyph glyph-name="c" unicode="c" horiz-adv-x="486" 
d="M410 80l7 -66q-75 -26 -172 -26q-129 0 -175 60t-26 200q19 140 78 196.5t185 56.5q98 0 160 -26l-15 -60q-60 4 -130 4q-88 0 -126.5 -35.5t-51.5 -142.5t11.5 -139.5t107.5 -32.5q85 0 147 11z" />
    <glyph glyph-name="d" unicode="d" 
d="M558 700l-98 -700h-76l5 102q-104 -114 -221 -114q-77 0 -109 59.5t-12 202.5q12 81 31.5 132.5t51 76.5t64.5 33.5t84 8.5q75 0 159 -13q0 34 7 93l17 119h97zM388 178l33 241q-45 2 -105 2q-50 0 -76.5 -5t-47 -25t-29.5 -53t-18 -95q-14 -104 -4 -137.5t55 -33.5
t88 24.5t104 81.5z" />
    <glyph glyph-name="e" unicode="e" horiz-adv-x="539" 
d="M443 81l6 -65q-71 -28 -201 -28q-125 0 -173 65.5t-30 203.5q19 141 77.5 192.5t192.5 51.5q114 0 155 -40t30 -118q-12 -71 -56 -102.5t-135 -38.5l-169 -15q-1 -69 29 -93.5t94 -24.5q68 0 180 12zM146 259l163 15q46 3 67 19.5t27 57.5q6 47 -15.5 58t-87.5 11
q-76 0 -107.5 -31.5t-46.5 -129.5z" />
    <glyph glyph-name="f" unicode="f" horiz-adv-x="382" 
d="M440 638h-96q-47 0 -67.5 -15.5t-27.5 -62.5l-11 -72h151l-10 -75h-151l-66 -469q-20 -143 -159 -143q-54 0 -121 8l15 72h75q47 0 67 15.5t27 62.5l64 454h-87l9 70l89 5l12 87q20 142 160 142q97 0 143 -7z" />
    <glyph glyph-name="g" unicode="g" horiz-adv-x="576" 
d="M530 475l-66 -463q-26 -218 -289 -221q-102 0 -162 19l10 64q79 -2 155 -1q165 2 188 119q17 85 42 122q-41 -56 -101.5 -91t-131.5 -35q-82 0 -115 58t-12 204q12 82 32 133.5t52 76.5t64.5 33t83.5 8q128 0 248 -26h2zM389 176l35 242q-92 2 -106 2q-95 0 -125.5 -30.5
t-46.5 -146.5q-14 -107 -3.5 -139t56.5 -32q47 0 91 25t99 79z" />
    <glyph glyph-name="h" unicode="h" horiz-adv-x="580" 
d="M227 700l-25 -192q-10 -67 -24 -120q128 113 226 113q62 0 94 -35.5t22 -101.5l-52 -364h-96l47 340q6 46 -3.5 62.5t-41.5 16.5q-41 0 -85.5 -25t-116.5 -82l-43 -312h-97l99 700h96z" />
    <glyph glyph-name="i" unicode="i" horiz-adv-x="251" 
d="M157 696h46q14 0 21 -8t5 -22l-7 -56q-4 -27 -30 -27h-46q-30 0 -27 31l9 56q2 26 29 26zM133 0h-96l68 488h96z" />
    <glyph glyph-name="j" unicode="j" horiz-adv-x="251" 
d="M157 696h46q14 0 21 -8t5 -22l-7 -56q-4 -27 -30 -27h-46q-30 0 -27 31l9 56q2 26 29 26zM201 488l-70 -496q-7 -60 -39.5 -111.5t-82.5 -83.5l-53 45q67 68 79 155l70 491h96z" />
    <glyph glyph-name="k" unicode="k" horiz-adv-x="527" 
d="M406 488h99q-42 -131 -162 -217q15 -23 30 -58l95 -213h-104l-94 225q-45 -24 -116 -56l-25 -169h-96l98 700h97l-44 -328q-9 -60 -32 -120q95 45 164.5 105.5t89.5 130.5z" />
    <glyph glyph-name="l" unicode="l" horiz-adv-x="298" 
d="M228 700l-79 -561q-5 -33 7 -46.5t46 -13.5h46l4 -76q-27 -12 -93 -12q-58 0 -87.5 34t-21.5 96l82 579h96z" />
    <glyph glyph-name="m" unicode="m" horiz-adv-x="872" 
d="M175 488l-5 -104q116 117 211 117q56 0 86 -29t29 -81q57 58 105 84t97 26q64 0 93.5 -36.5t20.5 -100.5l-51 -364h-97l48 340q6 44 -7 61.5t-45 17.5q-35 0 -70.5 -22.5t-102.5 -86.5l-44 -310h-93l47 340q6 42 -5 60.5t-47 18.5t-71 -22t-102 -84l-44 -313h-96l69 488
h74z" />
    <glyph glyph-name="n" unicode="n" horiz-adv-x="580" 
d="M178 488l-5 -105q132 118 231 118q62 0 94 -35.5t22 -101.5l-52 -364h-96l47 340q6 46 -3.5 62.5t-41.5 16.5q-41 0 -85.5 -25t-116.5 -82l-43 -312h-97l69 488h77z" />
    <glyph glyph-name="o" unicode="o" horiz-adv-x="566" 
d="M307 501q126 0 174 -60.5t28 -200.5q-19 -138 -79 -195.5t-183 -57.5q-125 0 -173.5 60.5t-29.5 199.5q19 138 78.5 196t184.5 58zM307 419q-77 0 -112.5 -37t-50.5 -142q-14 -101 7.5 -136.5t95.5 -35.5q78 0 113 38.5t49 140.5q15 101 -6.5 136.5t-95.5 35.5z" />
    <glyph glyph-name="p" unicode="p" horiz-adv-x="577" 
d="M178 488l-5 -104q47 48 106 82t108 34q88 0 118 -56t10 -206q-11 -82 -31 -133t-52 -76.5t-66 -33.5t-87 -8q-69 0 -154 13q0 -45 -7 -93l-17 -107h-97l98 688h76zM174 310l-34 -242q47 -1 103 -1q52 0 79 5t47.5 25t29.5 53t18 95q14 109 3.5 140t-55.5 31
q-33 0 -85 -28t-106 -78z" />
    <glyph glyph-name="q" unicode="q" horiz-adv-x="571" 
d="M525 465l-96 -665h-96l28 187q9 63 30 116q-105 -115 -222 -115q-77 0 -109.5 58.5t-12.5 203.5q11 81 31 132.5t51 76.5t64 33.5t82 8.5q130 0 250 -36zM388 178l33 240q-69 3 -108 3t-62.5 -4t-43 -13.5t-30 -30.5t-18 -51t-14.5 -79q-14 -105 -4 -138t57 -33
q45 0 86 24t104 82z" />
    <glyph glyph-name="r" unicode="r" horiz-adv-x="401" 
d="M416 501l-24 -91h-27q-38 0 -78 -22.5t-115 -76.5l-43 -311h-97l69 488h74l-5 -112q122 125 220 125h26z" />
    <glyph glyph-name="s" unicode="s" horiz-adv-x="508" 
d="M283 182l-131 60q-55 26 -78 58.5t-16 83.5q8 67 57 93t149 24q113 -2 209 -17l-12 -69q-127 4 -194 5q-66 0 -88.5 -7t-26.5 -36q-3 -25 9.5 -37t48.5 -28l132 -60q60 -28 82 -57.5t15 -83.5q-4 -33 -17 -55.5t-30.5 -35.5t-48 -20t-60 -9t-75.5 -2q-48 0 -75.5 1.5
t-61 6t-52.5 6.5l11 72q56 -5 153 -5q92 0 124 10t37 40q1 5 1 10t-0.5 8.5t-3 7t-4 6t-5.5 5.5t-7 5t-9 5t-9.5 4.5t-11 5t-12.5 5.5z" />
    <glyph glyph-name="t" unicode="t" horiz-adv-x="385" 
d="M225 413l-39 -274q-5 -35 6.5 -47.5t46.5 -12.5h73l4 -75q-44 -13 -114 -13q-65 0 -93.5 36t-19.5 103l40 283h-89l9 70l91 5l21 143h95l-20 -143h150l-10 -75h-151z" />
    <glyph glyph-name="u" unicode="u" horiz-adv-x="569" 
d="M523 488l-68 -488h-75l6 102q-119 -115 -222 -115q-66 0 -96 36.5t-21 99.5l51 365h97l-49 -340q-6 -43 6 -60.5t46 -17.5q41 0 80 24t107 84l42 310h96z" />
    <glyph glyph-name="v" unicode="v" horiz-adv-x="536" 
d="M423 488h100q-27 -141 -87 -280q-42 -98 -81 -151q-21 -30 -43 -43.5t-61 -13.5h-83q-27 0 -32 26l-94 462h101l71 -412h15q20 0 32 6t25 24q29 38 70 141q44 106 67 241z" />
    <glyph glyph-name="w" unicode="w" horiz-adv-x="857" 
d="M208 76h14q29 0 49 38q23 43 49 133q23 84 43 217q3 24 27 24h106q21 0 24 -22l45 -390h12q21 0 41 32q40 62 67 139q38 104 58 241h101q-32 -152 -85 -280q-46 -108 -83 -155q-40 -53 -92 -53h-64q-12 0 -20 7.5t-10 18.5l-42 399h-13q-8 -90 -37 -202q-27 -90 -61 -152
q-39 -71 -119 -71h-55q-26 0 -31 26l-90 462h101z" />
    <glyph glyph-name="x" unicode="x" horiz-adv-x="531" 
d="M347 252l123 -252h-97l-102 216h-22l-163 -216h-108l196 253l-114 235h97l90 -197h27l149 197h105z" />
    <glyph glyph-name="y" unicode="y" horiz-adv-x="545" 
d="M430 488h101q-54 -238 -141 -403q-78 -148 -154.5 -210t-182.5 -80l-18 69q64 15 112 45t92 91h-45q-23 0 -39 12.5t-20 34.5l-94 441h102l74 -395q3 -17 20 -17h49q4 7 11 20.5l9 17.5q88 183 124 374z" />
    <glyph glyph-name="z" unicode="z" horiz-adv-x="508" 
d="M475 409l-348 -330h305l-11 -79h-415l10 79l348 330h-297l11 79h407z" />
    <glyph glyph-name="braceleft" unicode="{" horiz-adv-x="322" 
d="M345 768l-3 -61q-50 0 -73 -19t-30 -64l-24 -173q-8 -64 -29.5 -89t-78.5 -35q52 -17 68.5 -43t8.5 -79l-32 -231q-7 -45 8.5 -61.5t65.5 -16.5l-4 -61q-92 -7 -132.5 28.5t-29.5 107.5l35 253q5 35 -5 46t-48 25l9 68q30 8 40 13t18.5 19.5t12.5 45.5l27 195
q10 74 55.5 107t140.5 25z" />
    <glyph glyph-name="bar" unicode="|" horiz-adv-x="247" 
d="M93 -169h-69l133 950h70z" />
    <glyph glyph-name="braceright" unicode="}" horiz-adv-x="323" 
d="M102 707l3 61q94 9 133.5 -28.5t29.5 -107.5l-27 -196q-6 -43 1.5 -53t47.5 -22l-9 -68q-23 -8 -31 -11.5t-19.5 -11.5t-16 -20t-7.5 -31l-36 -252q-10 -74 -54.5 -107t-141.5 -25l4 61q50 0 72.5 18.5t28.5 63.5l33 231q8 54 30 78t82 42q-51 10 -67.5 37t-6.5 89
l25 173q6 45 -9 62t-65 17z" />
    <glyph glyph-name="asciitilde" unicode="~" horiz-adv-x="520" 
d="M113 223l-50 4q1 63 26.5 94.5t63.5 29.5t106.5 -28t90.5 -29q27 -3 39 10t17 44l48 -4q0 -61 -25 -92.5t-63 -28.5q-44 2 -111.5 28t-86.5 28q-27 3 -39 -10t-16 -46z" />
    <glyph glyph-name="uni00A0" unicode="&#xa0;" horiz-adv-x="222" 
 />
    <glyph glyph-name="exclamdown" unicode="&#xa1;" horiz-adv-x="260" 
d="M145 496h25q38 0 31 -38l-7 -53q-4 -34 -37 -34h-25q-37 0 -33 37l7 54q6 34 39 34zM151 100l-41 -294h-96l41 294l36 183h76z" />
    <glyph glyph-name="cent" unicode="&#xa2;" horiz-adv-x="505" 
d="M481 578l-14 -60q-48 4 -106 4l-79 -350q92 3 142 11l7 -66q-75 -26 -170 -26l-21 -91h-46l22 93q-103 9 -139.5 69.5t-18.5 188.5q20 140 79 196.5t184 56.5h14l21 86h46l-22 -89q64 -7 101 -23zM236 174l78 348q-74 -3 -108.5 -40t-46.5 -138q-12 -93 5 -128.5
t72 -41.5z" />
    <glyph glyph-name="sterling" unicode="&#xa3;" horiz-adv-x="570" 
d="M553 692l-12 -80q-75 3 -172 3q-60 0 -86.5 -21t-30.5 -78l-9 -123h205l-11 -58h-199l-5 -70q-6 -69 -28 -110t-70 -75q21 6 67 6h291l-12 -86h-464l12 86q94 42 106 182l5 67h-78l8 58h75l11 129q5 57 20.5 93.5t44.5 55t62 25t84 6.5q83 0 186 -10z" />
    <glyph glyph-name="currency" unicode="&#xa4;" horiz-adv-x="595" 
d="M561 537l-78 -69q28 -51 19 -120q-9 -71 -49 -120l69 -76l-45 -41l-68 78q-54 -34 -125 -34q-70 0 -118 37l-77 -69l-40 46l78 70q-26 48 -19 117q11 74 51 122l-67 76l45 42l68 -78q50 32 120 32q72 0 119 -36l77 69zM285 210q66 -1 109 39t50 108q7 63 -25.5 100.5
t-94.5 37.5q-66 0 -108 -39.5t-50 -107.5q-7 -63 25 -100.5t94 -37.5z" />
    <glyph glyph-name="yen" unicode="&#xa5;" horiz-adv-x="618" 
d="M403 326h131l-8 -57h-160l-18 -27l-4 -29h174l-8 -57h-174l-21 -156h-101l22 156h-170l7 57h171l5 34l-8 22h-159l7 57h131l-135 364h102l98 -281q15 -41 19 -80h9q13 41 40 83l177 278h110z" />
    <glyph glyph-name="brokenbar" unicode="&#xa6;" horiz-adv-x="248" 
d="M171 381h-70l56 400h70zM94 -169h-70l56 400h70z" />
    <glyph glyph-name="section" unicode="&#xa7;" horiz-adv-x="545" 
d="M335 320l-155 97q-48 30 -69 64.5t-12 93.5q11 76 60.5 102t152.5 26q128 -2 220 -12l-12 -76q-67 5 -182 6q-72 1 -101.5 -9t-35.5 -47q-5 -30 7.5 -48.5t39.5 -35.5l148 -90q65 -40 76 -97.5t-22 -139.5h-70q15 63 6 101.5t-51 64.5zM88 380h70q-15 -62 -6.5 -98
t50.5 -62l156 -97q47 -28 68.5 -63t13.5 -96q-12 -80 -62.5 -104.5t-152.5 -24.5q-128 2 -219 12l12 76q91 -6 183 -7q34 0 53.5 1.5t39.5 7t30 18t13 32.5q5 30 -7 49t-40 36l-145 87q-66 38 -78 94t21 139z" />
    <glyph glyph-name="dieresis" unicode="&#xa8;" horiz-adv-x="413" 
d="M341 697h29q16 0 21 -6t3 -21l-9 -54q-1 -26 -28 -26h-32q-27 0 -24 25l8 55q4 27 32 27zM173 697h29q16 0 21.5 -6t3.5 -21l-9 -54q-3 -26 -29 -26h-32q-27 0 -24 25l9 55q4 27 31 27z" />
    <glyph glyph-name="copyright" unicode="&#xa9;" horiz-adv-x="830" 
d="M460 703q161 0 251.5 -101t70.5 -261q-20 -155 -129.5 -254.5t-270.5 -99.5q-162 0 -250.5 102.5t-68.5 259.5q20 153 128 253.5t269 100.5zM464 654q-140 0 -236 -88t-113 -225t58 -221t208 -84q139 0 235.5 88t113.5 225q17 133 -56.5 219t-209.5 86zM542 200l4 -55
q-61 -16 -135 -16q-118 0 -156.5 48.5t-21.5 173.5q16 122 66.5 168t163.5 46q64 0 125 -14l-10 -54q-63 3 -108 3q-85 0 -117 -29t-46 -128q-12 -86 7.5 -117.5t84.5 -31.5q94 0 143 6z" />
    <glyph glyph-name="ordfeminine" unicode="&#xaa;" horiz-adv-x="447" 
d="M371 272h-59v53q-56 -60 -139 -60q-59 0 -84 40t-12 136q7 56 22 91.5t38.5 51t46 20.5t57.5 5q91 0 174 -19zM337 547l-70 1q-66 0 -86.5 -18.5t-29.5 -93.5q-8 -70 -1 -88t38 -18q53 0 127 63z" />
    <glyph glyph-name="guillemotleft" unicode="&#xab;" horiz-adv-x="482" 
d="M262 425l-148 -174l106 -181l-48 -32l-137 207l2 22l186 193zM448 425l-148 -174l106 -181l-48 -32l-137 207l2 22l186 193z" />
    <glyph glyph-name="logicalnot" unicode="&#xac;" horiz-adv-x="586" 
d="M517 334l-28 -201h-74l18 128h-368l10 73h442z" />
    <glyph glyph-name="softhyphen" unicode="&#xad;" horiz-adv-x="440" 
d="M360 216h-303l10 74h303z" />
    <glyph glyph-name="registered" unicode="&#xae;" horiz-adv-x="550" 
d="M320 702q97 0 155.5 -59.5t46.5 -166.5q-10 -102 -74.5 -160.5t-163.5 -58.5q-104 0 -160.5 63t-45.5 164q11 100 76.5 159t165.5 59zM491 484q7 89 -39.5 138.5t-132.5 49.5q-90 0 -144.5 -53t-63.5 -139q-9 -92 39 -142.5t134 -50.5q89 0 144 53t63 144zM183 354
l35 254q36 3 110 3q48 0 72.5 -15t18.5 -63q-3 -26 -16 -40.5t-42 -21.5l-1 -2q15 -6 25 -37l19 -78h-46l-18 79q-7 25 -33 25h-66l-14 -104h-44zM246 490h61q35 1 49.5 9.5t18.5 36.5q3 26 -7.5 33.5t-42.5 7.5l-67 -1z" />
    <glyph glyph-name="macron" unicode="&#xaf;" horiz-adv-x="400" 
d="M392 606h-283l10 71h283z" />
    <glyph glyph-name="degree" unicode="&#xb0;" horiz-adv-x="360" 
d="M227 703q61 0 94.5 -38t28.5 -94q-6 -56 -44.5 -90.5t-95.5 -34.5q-61 0 -93.5 39t-27.5 94t43 89.5t95 34.5zM225 646q-32 0 -52.5 -19t-23.5 -50q-3 -33 15 -53t50 -20t52 19t23 51q2 32 -14.5 52t-49.5 20z" />
    <glyph glyph-name="plusminus" unicode="&#xb1;" horiz-adv-x="583" 
d="M527 397l-10 -72h-184l-19 -131h-73l18 131h-184l10 72h184l18 131h75l-19 -131h184zM48 137h443l-10 -72h-443z" />
    <glyph glyph-name="twosuperior" unicode="&#xb2;" horiz-adv-x="406" 
d="M126 708v59q71 14 136 14t99 -20.5t28 -75.5q-5 -37 -24 -68t-67 -73l-129 -117q24 5 64 5h134l-11 -72h-288l6 48q4 24 12 31l131 118q93 82 97 127q2 20 -12 26t-49 6q-64 0 -127 -8z" />
    <glyph glyph-name="threesuperior" unicode="&#xb3;" horiz-adv-x="390" 
d="M128 713v58q75 11 125 11q135 0 125 -99q-3 -38 -21.5 -71t-52.5 -35v-2q73 -13 59 -103q-19 -116 -169 -120q-50 -1 -127 11l8 58q16 0 41.5 -1.5t37 -2t36.5 0.5q88 6 100 69q6 30 -9 45.5t-55 15.5h-81l7 58h78q42 0 58 16t20 48q3 29 -10 38t-62 9q-44 0 -108 -4z
" />
    <glyph glyph-name="acute" unicode="&#xb4;" horiz-adv-x="321" 
d="M342 652l-213 -117l-28 45l196 147z" />
    <glyph glyph-name="paragraph" unicode="&#xb6;" horiz-adv-x="589" 
d="M455 0h-73l89 637q-47 3 -87 3l-119 -850h-73l58 411q-118 12 -164 72.5t-29 182.5q19 137 95 191.5t240 54.5q92 0 159 -17z" />
    <glyph glyph-name="periodcentered" unicode="&#xb7;" horiz-adv-x="239" 
d="M105 320h32q38 0 32 -37l-7 -54q-4 -33 -37 -33h-32q-38 0 -34 37l9 54q3 33 37 33z" />
    <glyph glyph-name="cedilla" unicode="&#xb8;" horiz-adv-x="236" 
d="M33 -87l11 45q67 6 93.5 -8t17.5 -61q-10 -64 -62 -97t-125 -23l18 51q37 -1 65.5 18t34.5 51q3 14 -6.5 18.5t-46.5 5.5z" />
    <glyph glyph-name="onesuperior" unicode="&#xb9;" horiz-adv-x="286" 
d="M224 360h-75l44 305q3 24 8 42l-108 -30l-1 56l115 41h75z" />
    <glyph glyph-name="ordmasculine" unicode="&#xba;" horiz-adv-x="440" 
d="M257 609q92 0 126 -40.5t20 -136.5q-13 -92 -54 -129.5t-129 -37.5q-90 0 -124.5 40t-21.5 135q13 94 53.5 131.5t129.5 37.5zM257 549q-56 0 -77 -24t-32 -93q-8 -64 7 -85.5t67 -21.5q51 0 74 24.5t33 90.5q8 65 -6.5 87t-65.5 22z" />
    <glyph glyph-name="guillemotright" unicode="&#xbb;" horiz-adv-x="484" 
d="M22 70l149 174l-107 181l48 32l137 -207l-2 -22l-186 -193zM208 70l148 174l-106 181l48 32l137 -207l-2 -22l-186 -193z" />
    <glyph glyph-name="onequarter" unicode="&#xbc;" horiz-adv-x="863" 
d="M144 276l43 307q4 26 9 42l-113 -30l-1 53l121 42h75l-58 -414h-76zM702 690l-538 -690h-70l538 690h70zM801 101l-53 -6l-14 -95h-70l12 94h-186q-28 0 -40 19t5 51l159 250h74l-151 -242q-10 -19 11 -19h136l16 115l23 66h58l-25 -181h53z" />
    <glyph glyph-name="onehalf" unicode="&#xbd;" horiz-adv-x="882" 
d="M220 276h-76l43 307q4 26 9 42l-113 -30l-1 53l121 42h75zM156 0h-70l538 690h70zM542 350l-1 57q71 14 141 14q83 0 118 -20.5t26 -80.5q-9 -61 -97 -138l-144 -117q30 4 67 2h155l-9 -67h-316l7 44q2 21 13 32l140 118q93 77 102 126q4 23 -11.5 30t-53.5 7
q-68 0 -137 -7z" />
    <glyph glyph-name="threequarters" unicode="&#xbe;" horiz-adv-x="958" 
d="M300 495l-6 -3q46 -7 62.5 -33t11.5 -75q-8 -63 -45 -90.5t-119 -27.5q-65 0 -151 11l6 56q65 -4 125 -4q55 0 79.5 16.5t29.5 56.5q4 29 -9.5 44t-61.5 15h-88l8 57h83q46 0 64 18.5t22 47.5q4 30 -10.5 39.5t-62.5 9.5q-74 0 -124 -3l-1 55q69 10 134 10
q86 0 116.5 -22t22.5 -78q-6 -44 -24.5 -69t-61.5 -31zM804 690l-538 -690h-70l538 690h70zM894 101l-54 -6l-13 -95h-71l13 94h-185q-28 0 -40 19t5 51l159 250h74l-151 -242q-10 -19 11 -19h135l15 115l23 66h59l-26 -181h54z" />
    <glyph glyph-name="questiondown" unicode="&#xbf;" horiz-adv-x="493" 
d="M272 501h24q38 0 34 -37l-8 -54q-4 -34 -38 -34h-24q-38 0 -32 38l7 54q5 33 37 33zM216 287h81q-6 -51 -28 -93.5t-49.5 -71.5t-55 -54.5t-48.5 -53.5t-26 -57q-8 -45 17 -65.5t88 -20.5q111 0 201 9v-69q-7 -1 -24.5 -4.5t-24 -4.5l-22 -3.5t-24 -3.5t-24.5 -2.5
t-30 -2t-33 -1t-41 -0.5q-101 0 -148.5 43.5t-37.5 115.5q5 40 28 75t53 61.5l60 54t55 65.5t33 83z" />
    <glyph glyph-name="Agrave" unicode="&#xc0;" horiz-adv-x="623" 
d="M398 726l-195 122l52 69l177 -147zM442 208h-276l-92 -208h-106l310 665q10 25 39 25h102q13 0 22.5 -8.5t10.5 -20.5l125 -661h-100zM428 296l-43 259q-4 20 -8 60h-30l-26 -60l-116 -259h223z" />
    <glyph glyph-name="Aacute" unicode="&#xc1;" horiz-adv-x="623" 
d="M341 726l-28 45l196 147l45 -75zM442 208h-276l-92 -208h-106l310 665q10 25 39 25h102q13 0 22.5 -8.5t10.5 -20.5l125 -661h-100zM428 296l-43 259q-4 20 -8 60h-30l-26 -60l-116 -259h223z" />
    <glyph glyph-name="Acircumflex" unicode="&#xc2;" horiz-adv-x="623" 
d="M243 728l-27 42l148 129h68l125 -135l-36 -38l-120 101h-8zM442 208h-276l-92 -208h-106l310 665q10 25 39 25h102q13 0 22.5 -8.5t10.5 -20.5l125 -661h-100zM428 296l-43 259q-4 20 -8 60h-30l-26 -60l-116 -259h223z" />
    <glyph glyph-name="Atilde" unicode="&#xc3;" horiz-adv-x="623" 
d="M513 879l44 -3q-1 -58 -25.5 -88.5t-63.5 -27.5t-83 28t-62 27q-28 3 -41 -10.5t-17 -43.5l-44 4q1 60 27 90.5t63 27.5q34 -3 76.5 -27t66.5 -27q28 -3 41.5 9.5t17.5 40.5zM442 208h-276l-92 -208h-106l310 665q10 25 39 25h102q13 0 22.5 -8.5t10.5 -20.5l125 -661
h-100zM428 296l-43 259q-4 20 -8 60h-30l-26 -60l-116 -259h223z" />
    <glyph glyph-name="Adieresis" unicode="&#xc4;" horiz-adv-x="623" 
d="M315 765h-33q-25 0 -24 25l9 56q5 27 31 27h29q29 0 25 -27l-9 -55q-3 -26 -28 -26zM482 765h-32q-27 0 -24 25l9 56q3 27 31 27h29q28 0 25 -27l-9 -55q-3 -26 -29 -26zM442 208h-276l-92 -208h-106l310 665q10 25 39 25h102q13 0 22.5 -8.5t10.5 -20.5l125 -661h-100z
M428 296l-43 259q-4 20 -8 60h-30l-26 -60l-116 -259h223z" />
    <glyph glyph-name="Aring" unicode="&#xc5;" horiz-adv-x="623" 
d="M384 714q-50 0 -78.5 31t-23.5 79q5 44 35 73.5t77 29.5q50 0 80 -31t24 -80q-6 -43 -36 -72.5t-78 -29.5zM334 821q-3 -28 12 -43.5t39 -15.5q25 0 41.5 17t19.5 43q2 25 -12 41t-39 16t-42 -16.5t-19 -41.5zM442 208h-276l-92 -208h-106l310 665q10 25 39 25h102
q13 0 22.5 -8.5t10.5 -20.5l125 -661h-100zM428 296l-43 259q-4 20 -8 60h-30l-26 -60l-116 -259h223z" />
    <glyph glyph-name="AE" unicode="&#xc6;" horiz-adv-x="914" 
d="M905 606h-253q-63 0 -73 -66l-19 -138h278l-10 -79h-279l-24 -176q-5 -35 7 -49t45 -14h256l-5 -78q-102 -8 -269 -8q-68 0 -103.5 38.5t-25.5 106.5l10 72h-227l-151 -215h-107l413 579q46 66 98.5 89t150.5 23q196 0 302 -7zM452 301l36 253q5 47 38 70h-5
q-32 -19 -64 -63l-183 -260h178z" />
    <glyph glyph-name="Ccedilla" unicode="&#xc7;" horiz-adv-x="568" 
d="M494 88l5 -77q-83 -23 -206 -23q-149 0 -202 85.5t-25 275.5q27 196 97 274.5t220 78.5q107 0 191 -21l-16 -76q-79 8 -177 8q-67 0 -105.5 -22t-64.5 -81t-41 -169q-22 -150 5 -206.5t120 -57.5q112 -1 199 11zM212 -99l12 45q66 6 92.5 -8t18.5 -61q-10 -64 -62.5 -97
t-125.5 -23l18 51q38 -1 66.5 18t34.5 51q2 14 -7.5 18.5t-46.5 5.5z" />
    <glyph glyph-name="Egrave" unicode="&#xc8;" horiz-adv-x="560" 
d="M394 746l-195 122l52 69l177 -147zM551 606h-272q-32 0 -47.5 -14.5t-19.5 -50.5l-19 -140h291l-10 -77h-292l-24 -178q-4 -34 7.5 -48t44.5 -14h267l-2 -78q-86 -8 -277 -8q-80 0 -115.5 38.5t-26.5 106.5l59 427q8 58 47 90t105 32q207 0 297 -8z" />
    <glyph glyph-name="Eacute" unicode="&#xc9;" horiz-adv-x="560" 
d="M337 746l-28 45l196 147l45 -75zM551 606h-272q-32 0 -47.5 -14.5t-19.5 -50.5l-19 -140h291l-10 -77h-292l-24 -178q-4 -34 7.5 -48t44.5 -14h267l-2 -78q-86 -8 -277 -8q-80 0 -115.5 38.5t-26.5 106.5l59 427q8 58 47 90t105 32q207 0 297 -8z" />
    <glyph glyph-name="Ecircumflex" unicode="&#xca;" horiz-adv-x="560" 
d="M239 748l-27 42l147 129h69l124 -135l-35 -38l-120 101h-8zM551 606h-272q-32 0 -47.5 -14.5t-19.5 -50.5l-19 -140h291l-10 -77h-292l-24 -178q-4 -34 7.5 -48t44.5 -14h267l-2 -78q-86 -8 -277 -8q-80 0 -115.5 38.5t-26.5 106.5l59 427q8 58 47 90t105 32
q207 0 297 -8z" />
    <glyph glyph-name="Edieresis" unicode="&#xcb;" horiz-adv-x="560" 
d="M311 785h-33q-27 0 -24 25l9 56q4 26 31 26h29q16 0 21.5 -6t3.5 -20l-9 -55q-3 -26 -28 -26zM478 785h-32q-27 0 -24 25l9 56q3 26 31 26h29q16 0 21 -6t3 -20l-8 -55q-3 -26 -29 -26zM551 606h-272q-32 0 -47.5 -14.5t-19.5 -50.5l-19 -140h291l-10 -77h-292l-24 -178
q-4 -34 7.5 -48t44.5 -14h267l-2 -78q-86 -8 -277 -8q-80 0 -115.5 38.5t-26.5 106.5l59 427q8 58 47 90t105 32q207 0 297 -8z" />
    <glyph glyph-name="Igrave" unicode="&#xcc;" horiz-adv-x="267" 
d="M250 770l-34 -44l-195 122l52 69zM143 0h-101l97 690h101z" />
    <glyph glyph-name="Iacute" unicode="&#xcd;" horiz-adv-x="267" 
d="M373 843l-213 -117l-29 45l196 147zM143 0h-101l97 690h101z" />
    <glyph glyph-name="Icircumflex" unicode="&#xce;" horiz-adv-x="267" 
d="M375 764l-36 -38l-120 101h-8l-149 -99l-28 42l148 129h68zM143 0h-101l97 690h101z" />
    <glyph glyph-name="Idieresis" unicode="&#xcf;" horiz-adv-x="267" 
d="M117 873h29q16 0 21 -6.5t3 -20.5l-9 -55q-1 -26 -28 -26h-32q-27 0 -24 25l9 56q3 27 31 27zM284 873h29q29 0 25 -27l-9 -55q-3 -26 -29 -26h-32q-27 0 -24 25l9 56q5 27 31 27zM143 0h-101l97 690h101z" />
    <glyph glyph-name="Eth" unicode="&#xd0;" horiz-adv-x="663" 
d="M97 393l42 297q122 9 225 9q164 0 220 -79t28 -279q-11 -77 -25.5 -132t-36 -94t-46.5 -63t-62 -38t-76 -18.5t-95 -4.5q-96 0 -229 9l48 338h-63l7 55h63zM189 338l-36 -258q86 -2 117 -2q81 0 124 20t70 77t44 174q10 68 11 112.5t-6.5 75.5t-27.5 46.5t-48.5 22
t-74.5 6.5q-12 0 -60 -0.5t-74 -0.5l-31 -218h149l-7 -55h-150z" />
    <glyph glyph-name="Ntilde" unicode="&#xd1;" horiz-adv-x="706" 
d="M310 761l-44 4q1 60 27 90.5t63 27.5q34 -3 76.5 -27t66.5 -27q28 -3 41.5 9.5t17.5 40.5l44 -3q-1 -58 -25.5 -88.5t-63.5 -27.5t-83 28t-62 27q-28 3 -41 -10.5t-17 -43.5zM679 690l-92 -653q-6 -37 -40 -37h-87q-28 0 -39 33l-161 470q-19 54 -27 94h-15
q-1 -42 -8 -94l-68 -503h-100l91 653q6 37 42 37h85q27 0 40 -33l155 -457q31 -99 32 -104h17q3 57 10 104l66 490h99z" />
    <glyph glyph-name="Ograve" unicode="&#xd2;" horiz-adv-x="667" 
d="M450 770l-34 -44l-195 122l52 69zM387 703q147 0 202 -82.5t27 -279.5q-27 -199 -97.5 -276.5t-219.5 -77.5q-147 0 -203.5 81.5t-29.5 280.5q26 196 97 275t224 79zM382 614q-100 0 -144.5 -57.5t-67.5 -215.5q-21 -152 6.5 -208.5t124.5 -56.5q98 0 143.5 58.5
t67.5 214.5q22 155 -5.5 210t-124.5 55z" />
    <glyph glyph-name="Oacute" unicode="&#xd3;" horiz-adv-x="667" 
d="M573 843l-213 -117l-29 45l196 147zM387 703q147 0 202 -82.5t27 -279.5q-27 -199 -97.5 -276.5t-219.5 -77.5q-147 0 -203.5 81.5t-29.5 280.5q26 196 97 275t224 79zM382 614q-100 0 -144.5 -57.5t-67.5 -215.5q-21 -152 6.5 -208.5t124.5 -56.5q98 0 143.5 58.5
t67.5 214.5q22 155 -5.5 210t-124.5 55z" />
    <glyph glyph-name="Ocircumflex" unicode="&#xd4;" horiz-adv-x="667" 
d="M575 764l-36 -38l-120 101h-8l-149 -99l-28 42l148 129h68zM387 703q147 0 202 -82.5t27 -279.5q-27 -199 -97.5 -276.5t-219.5 -77.5q-147 0 -203.5 81.5t-29.5 280.5q26 196 97 275t224 79zM382 614q-100 0 -144.5 -57.5t-67.5 -215.5q-21 -152 6.5 -208.5t124.5 -56.5
q98 0 143.5 58.5t67.5 214.5q22 155 -5.5 210t-124.5 55z" />
    <glyph glyph-name="Otilde" unicode="&#xd5;" horiz-adv-x="667" 
d="M283 761l-44 4q2 60 27.5 90.5t62.5 27.5q35 -3 77.5 -27t65.5 -27q29 -3 42.5 9.5t17.5 40.5l44 -3q-1 -58 -26 -88.5t-64 -27.5t-83 28t-61 27q-28 3 -41.5 -10.5t-17.5 -43.5zM387 703q147 0 202 -82.5t27 -279.5q-27 -199 -97.5 -276.5t-219.5 -77.5
q-147 0 -203.5 81.5t-29.5 280.5q26 196 97 275t224 79zM382 614q-100 0 -144.5 -57.5t-67.5 -215.5q-21 -152 6.5 -208.5t124.5 -56.5q98 0 143.5 58.5t67.5 214.5q22 155 -5.5 210t-124.5 55z" />
    <glyph glyph-name="Odieresis" unicode="&#xd6;" horiz-adv-x="667" 
d="M484 873h29q29 0 25 -27l-9 -55q-3 -26 -29 -26h-32q-27 0 -24 25l9 56q5 27 31 27zM317 873h29q16 0 21 -6.5t3 -20.5l-8 -55q-3 -26 -29 -26h-32q-27 0 -24 25l9 56q3 27 31 27zM387 703q147 0 202 -82.5t27 -279.5q-27 -199 -97.5 -276.5t-219.5 -77.5
q-147 0 -203.5 81.5t-29.5 280.5q26 196 97 275t224 79zM382 614q-100 0 -144.5 -57.5t-67.5 -215.5q-21 -152 6.5 -208.5t124.5 -56.5q98 0 143.5 58.5t67.5 214.5q22 155 -5.5 210t-124.5 55z" />
    <glyph glyph-name="multiply" unicode="&#xd7;" horiz-adv-x="524" 
d="M317 283l124 -129l-52 -53l-131 136l-175 -139l-43 62l165 131l-126 131l54 53l131 -137l180 143l43 -62z" />
    <glyph glyph-name="Oslash" unicode="&#xd8;" horiz-adv-x="667" 
d="M605 728l-45 -74q89 -79 56 -313q-27 -199 -97.5 -276.5t-219.5 -77.5q-80 0 -131 22l-43 -70l-45 27l43 71q-90 78 -57 312q26 196 97 275t224 79q76 0 127 -21l45 73zM179 129l286 471q-29 14 -83 14q-100 0 -144.5 -57.5t-67.5 -215.5q-23 -157 9 -212zM505 563
l-287 -472q32 -15 83 -15q98 0 143.5 58.5t67.5 214.5q22 160 -7 214z" />
    <glyph glyph-name="Ugrave" unicode="&#xd9;" horiz-adv-x="664" 
d="M449 770l-34 -44l-195 122l52 69zM642 690l-61 -426q-21 -151 -86 -214t-196 -63q-135 0 -190 66t-34 216l58 421h101l-60 -426q-15 -106 11.5 -147t110.5 -41q87 0 129 43t57 150l59 421h101z" />
    <glyph glyph-name="Uacute" unicode="&#xda;" horiz-adv-x="664" 
d="M572 843l-213 -117l-29 45l196 147zM642 690l-61 -426q-21 -151 -86 -214t-196 -63q-135 0 -190 66t-34 216l58 421h101l-60 -426q-15 -106 11.5 -147t110.5 -41q87 0 129 43t57 150l59 421h101z" />
    <glyph glyph-name="Ucircumflex" unicode="&#xdb;" horiz-adv-x="664" 
d="M574 764l-36 -38l-120 101h-8l-149 -99l-28 42l148 129h68zM642 690l-61 -426q-21 -151 -86 -214t-196 -63q-135 0 -190 66t-34 216l58 421h101l-60 -426q-15 -106 11.5 -147t110.5 -41q87 0 129 43t57 150l59 421h101z" />
    <glyph glyph-name="Udieresis" unicode="&#xdc;" horiz-adv-x="664" 
d="M316 873h29q29 0 24 -27l-8 -55q-3 -26 -29 -26h-32q-27 0 -24 25l9 56q3 27 31 27zM483 873h29q30 0 25 -27l-9 -55q-3 -26 -29 -26h-32q-27 0 -24 25l9 56q4 27 31 27zM642 690l-61 -426q-21 -151 -86 -214t-196 -63q-135 0 -190 66t-34 216l58 421h101l-60 -426
q-15 -106 11.5 -147t110.5 -41q87 0 129 43t57 150l59 421h101z" />
    <glyph glyph-name="Yacute" unicode="&#xdd;" horiz-adv-x="571" 
d="M308 726l-29 45l196 147l46 -75zM325 238l-33 -238h-101l35 243l-163 447h101l99 -285q14 -44 18 -80h9q13 41 40 83l178 282h109z" />
    <glyph glyph-name="Thorn" unicode="&#xde;" horiz-adv-x="591" 
d="M239 690l-17 -122q37 2 135 2q120 0 168.5 -49.5t30.5 -175.5t-71 -171.5t-168 -45.5q-79 0 -156 9l-19 -137h-100l97 690h100zM172 214h133q76 1 108 29t44 109q10 80 -10.5 106t-92.5 26q-105 0 -144 -1z" />
    <glyph glyph-name="germandbls" unicode="&#xdf;" horiz-adv-x="677" 
d="M460 306l92 -59q44 -29 60 -56.5t10 -78.5q-10 -73 -56 -98t-140 -25q-73 0 -160 11l12 74q64 -4 129 -4q61 0 87 10.5t30 44.5q3 25 -7.5 38t-39.5 32l-96 61q-74 48 -64 114q3 22 12.5 39.5t30 34t36.5 26.5t49 29q41 25 58 44t20 43q4 30 -19 44t-100 14
q-84 0 -117 -22.5t-42 -88.5l-83 -589q-11 -73 -51 -108t-114 -35q-50 0 -115 8l15 72h75q47 0 67 15.5t27 62.5l65 454h-89l10 69l89 6l9 59q6 45 20.5 77t34 51t50.5 30t63.5 14.5t78.5 3.5q132 0 181.5 -31t38.5 -107q-6 -39 -27.5 -69t-74.5 -62q-8 -5 -28 -16
t-28.5 -16.5t-21 -15t-19 -19t-8.5 -20.5q-2 -12 4.5 -23t15 -17.5t30.5 -20.5z" />
    <glyph glyph-name="agrave" unicode="&#xe0;" 
d="M343 547l-195 122l52 68l177 -147zM460 0h-76l4 90q-88 -102 -210 -102q-89 0 -120 58t-11 204q11 81 31 132.5t53 76.5t68 33.5t90 8.5q119 0 239 -26zM387 176l35 242q-92 2 -103 2q-52 0 -79 -5t-47.5 -25.5t-30 -52.5t-18.5 -94q-14 -109 -3.5 -140t57.5 -31
q46 0 90 25.5t99 78.5z" />
    <glyph glyph-name="aacute" unicode="&#xe1;" 
d="M287 547l-29 45l196 146l46 -74zM460 0h-76l4 90q-88 -102 -210 -102q-89 0 -120 58t-11 204q11 81 31 132.5t53 76.5t68 33.5t90 8.5q119 0 239 -26zM387 176l35 242q-92 2 -103 2q-52 0 -79 -5t-47.5 -25.5t-30 -52.5t-18.5 -94q-14 -109 -3.5 -140t57.5 -31
q46 0 90 25.5t99 78.5z" />
    <glyph glyph-name="acircumflex" unicode="&#xe2;" 
d="M189 549l-28 42l148 129h69l124 -136l-36 -38l-120 101h-8zM460 0h-76l4 90q-88 -102 -210 -102q-89 0 -120 58t-11 204q11 81 31 132.5t53 76.5t68 33.5t90 8.5q119 0 239 -26zM387 176l35 242q-92 2 -103 2q-52 0 -79 -5t-47.5 -25.5t-30 -52.5t-18.5 -94
q-14 -109 -3.5 -140t57.5 -31q46 0 90 25.5t99 78.5z" />
    <glyph glyph-name="atilde" unicode="&#xe3;" 
d="M459 700l44 -4q-1 -58 -26 -88t-63 -27q-40 3 -84 27.5t-61 27.5q-28 3 -41.5 -10.5t-17.5 -43.5l-44 4q2 60 27.5 90t62.5 27q35 -3 77.5 -26.5t66.5 -26.5q28 -4 41.5 8.5t17.5 41.5zM460 0h-76l4 90q-88 -102 -210 -102q-89 0 -120 58t-11 204q11 81 31 132.5t53 76.5
t68 33.5t90 8.5q119 0 239 -26zM387 176l35 242q-92 2 -103 2q-52 0 -79 -5t-47.5 -25.5t-30 -52.5t-18.5 -94q-14 -109 -3.5 -140t57.5 -31q46 0 90 25.5t99 78.5z" />
    <glyph glyph-name="adieresis" unicode="&#xe4;" 
d="M260 586h-32q-27 0 -24 25l9 55q3 27 31 27h29q16 0 21.5 -6t3.5 -21l-9 -54q-3 -26 -29 -26zM427 586h-32q-27 0 -24 25l9 55q4 27 31 27h29q16 0 21.5 -6t3.5 -21l-9 -54q-3 -26 -29 -26zM460 0h-76l4 90q-88 -102 -210 -102q-89 0 -120 58t-11 204q11 81 31 132.5
t53 76.5t68 33.5t90 8.5q119 0 239 -26zM387 176l35 242q-92 2 -103 2q-52 0 -79 -5t-47.5 -25.5t-30 -52.5t-18.5 -94q-14 -109 -3.5 -140t57.5 -31q46 0 90 25.5t99 78.5z" />
    <glyph glyph-name="aring" unicode="&#xe5;" 
d="M330 534q-50 0 -79 31.5t-24 78.5q5 44 35 74t78 30q49 0 79 -31.5t24 -79.5q-5 -44 -35 -73.5t-78 -29.5zM279 641q-3 -27 12 -42.5t40 -15.5t41.5 16.5t18.5 43.5q2 25 -11.5 40.5t-38.5 15.5q-26 0 -42.5 -16t-19.5 -42zM460 0h-76l4 90q-88 -102 -210 -102
q-89 0 -120 58t-11 204q11 81 31 132.5t53 76.5t68 33.5t90 8.5q119 0 239 -26zM387 176l35 242q-92 2 -103 2q-52 0 -79 -5t-47.5 -25.5t-30 -52.5t-18.5 -94q-14 -109 -3.5 -140t57.5 -31q46 0 90 25.5t99 78.5z" />
    <glyph glyph-name="ae" unicode="&#xe6;" horiz-adv-x="874" 
d="M774 81l6 -65q-68 -28 -197 -28q-157 0 -194 105q-89 -105 -213 -105q-88 0 -119 59t-10 203q11 82 31 133t53 76.5t67.5 33.5t89.5 8q104 0 217 -22q56 22 146 22q114 0 154.5 -40t29.5 -118q-11 -71 -55 -102.5t-135 -38.5l-170 -15q0 -69 29.5 -93.5t93.5 -24.5
q68 0 176 12zM196 72q45 0 87 23t93 72q-2 46 5 90q13 103 49 160q-24 0 -62.5 1.5t-49.5 1.5q-95 0 -125 -30.5t-46 -146.5q-15 -108 -5 -139.5t54 -31.5zM482 259l162 15q46 3 67 19.5t28 57.5q6 47 -15.5 58t-87.5 11q-77 0 -108 -31.5t-46 -129.5z" />
    <glyph glyph-name="ccedilla" unicode="&#xe7;" horiz-adv-x="486" 
d="M410 80l7 -66q-75 -26 -172 -26q-129 0 -175 60t-26 200q19 140 78 196.5t185 56.5q98 0 160 -26l-15 -60q-60 4 -130 4q-88 0 -126.5 -35.5t-51.5 -142.5t11.5 -139.5t107.5 -32.5q85 0 147 11zM166 -99l11 45q67 6 93.5 -8t17.5 -61q-10 -64 -62.5 -97t-125.5 -23
l18 51q38 -1 66.5 18t34.5 51q3 14 -6.5 18.5t-46.5 5.5z" />
    <glyph glyph-name="egrave" unicode="&#xe8;" horiz-adv-x="539" 
d="M338 547l-195 122l52 68l177 -147zM443 81l6 -65q-71 -28 -201 -28q-125 0 -173 65.5t-30 203.5q19 141 77.5 192.5t192.5 51.5q114 0 155 -40t30 -118q-12 -71 -56 -102.5t-135 -38.5l-169 -15q-1 -69 29 -93.5t94 -24.5q68 0 180 12zM146 259l163 15q46 3 67 19.5
t27 57.5q6 47 -15.5 58t-87.5 11q-76 0 -107.5 -31.5t-46.5 -129.5z" />
    <glyph glyph-name="eacute" unicode="&#xe9;" horiz-adv-x="539" 
d="M281 547l-29 45l196 146l46 -74zM443 81l6 -65q-71 -28 -201 -28q-125 0 -173 65.5t-30 203.5q19 141 77.5 192.5t192.5 51.5q114 0 155 -40t30 -118q-12 -71 -56 -102.5t-135 -38.5l-169 -15q-1 -69 29 -93.5t94 -24.5q68 0 180 12zM146 259l163 15q46 3 67 19.5
t27 57.5q6 47 -15.5 58t-87.5 11q-76 0 -107.5 -31.5t-46.5 -129.5z" />
    <glyph glyph-name="ecircumflex" unicode="&#xea;" horiz-adv-x="539" 
d="M183 549l-27 42l147 129h69l124 -136l-35 -38l-121 101h-8zM443 81l6 -65q-71 -28 -201 -28q-125 0 -173 65.5t-30 203.5q19 141 77.5 192.5t192.5 51.5q114 0 155 -40t30 -118q-12 -71 -56 -102.5t-135 -38.5l-169 -15q-1 -69 29 -93.5t94 -24.5q68 0 180 12zM146 259
l163 15q46 3 67 19.5t27 57.5q6 47 -15.5 58t-87.5 11q-76 0 -107.5 -31.5t-46.5 -129.5z" />
    <glyph glyph-name="edieresis" unicode="&#xeb;" horiz-adv-x="539" 
d="M254 586h-32q-27 0 -24 25l9 55q4 27 31 27h29q16 0 21.5 -6t3.5 -21l-9 -54q-3 -26 -29 -26zM422 586h-33q-26 0 -23 25l8 55q4 27 32 27h29q16 0 21 -6t3 -21l-9 -54q-1 -26 -28 -26zM443 81l6 -65q-71 -28 -201 -28q-125 0 -173 65.5t-30 203.5q19 141 77.5 192.5
t192.5 51.5q114 0 155 -40t30 -118q-12 -71 -56 -102.5t-135 -38.5l-169 -15q-1 -69 29 -93.5t94 -24.5q68 0 180 12zM146 259l163 15q46 3 67 19.5t27 57.5q6 47 -15.5 58t-87.5 11q-76 0 -107.5 -31.5t-46.5 -129.5z" />
    <glyph glyph-name="igrave" unicode="&#xec;" horiz-adv-x="252" 
d="M218 590l-34 -43l-195 122l52 68zM133 0h-97l69 488h97z" />
    <glyph glyph-name="iacute" unicode="&#xed;" horiz-adv-x="252" 
d="M341 664l-213 -117l-29 45l196 146zM133 0h-97l69 488h97z" />
    <glyph glyph-name="icircumflex" unicode="&#xee;" horiz-adv-x="252" 
d="M343 584l-36 -38l-120 101h-8l-149 -98l-28 42l148 129h68zM133 0h-97l69 488h97z" />
    <glyph glyph-name="idieresis" unicode="&#xef;" horiz-adv-x="252" 
d="M252 693h29q16 0 21.5 -6t3.5 -21l-9 -54q-3 -26 -29 -26h-32q-27 0 -24 25l9 55q4 27 31 27zM85 693h29q16 0 21 -6t3 -21l-9 -54q-1 -26 -28 -26h-32q-27 0 -24 25l9 55q3 27 31 27zM133 0h-97l69 488h97z" />
    <glyph glyph-name="eth" unicode="&#xf0;" horiz-adv-x="557" 
d="M495 673l-72 -51q105 -103 74 -342q-19 -148 -78.5 -220.5t-187.5 -72.5q-115 0 -160.5 57.5t-29.5 177.5q29 227 225 227q87 0 139 -50q-1 119 -52 173l-86 -60l-26 37l73 53q-50 28 -147 26l15 70q125 5 203 -45l83 59zM236 68q76 0 111.5 51t50.5 172q4 31 5 43
q-48 33 -114 33q-69 0 -102.5 -37t-45.5 -115q-11 -80 11 -113.5t84 -33.5z" />
    <glyph glyph-name="ntilde" unicode="&#xf1;" horiz-adv-x="580" 
d="M467 700l44 -4q-1 -58 -25.5 -88t-63.5 -27t-83 27.5t-62 27.5q-27 3 -40.5 -10.5t-17.5 -43.5l-44 4q1 60 27 90t63 27q34 -3 76.5 -26.5t66.5 -26.5q28 -4 41.5 8.5t17.5 41.5zM178 488l-5 -105q132 118 231 118q62 0 94 -35.5t22 -101.5l-52 -364h-96l47 340
q6 46 -3.5 62.5t-41.5 16.5q-41 0 -85.5 -25t-116.5 -82l-43 -312h-97l69 488h77z" />
    <glyph glyph-name="ograve" unicode="&#xf2;" horiz-adv-x="566" 
d="M373 590l-34 -43l-195 122l52 68zM307 501q126 0 174 -60.5t28 -200.5q-19 -138 -79 -195.5t-183 -57.5q-125 0 -173.5 60.5t-29.5 199.5q19 138 78.5 196t184.5 58zM307 419q-77 0 -112.5 -37t-50.5 -142q-14 -101 7.5 -136.5t95.5 -35.5q78 0 113 38.5t49 140.5
q15 101 -6.5 136.5t-95.5 35.5z" />
    <glyph glyph-name="oacute" unicode="&#xf3;" horiz-adv-x="566" 
d="M496 664l-213 -117l-29 45l196 146zM307 501q126 0 174 -60.5t28 -200.5q-19 -138 -79 -195.5t-183 -57.5q-125 0 -173.5 60.5t-29.5 199.5q19 138 78.5 196t184.5 58zM307 419q-77 0 -112.5 -37t-50.5 -142q-14 -101 7.5 -136.5t95.5 -35.5q78 0 113 38.5t49 140.5
q15 101 -6.5 136.5t-95.5 35.5z" />
    <glyph glyph-name="ocircumflex" unicode="&#xf4;" horiz-adv-x="566" 
d="M498 584l-36 -38l-120 101h-8l-149 -98l-28 42l148 129h68zM307 501q126 0 174 -60.5t28 -200.5q-19 -138 -79 -195.5t-183 -57.5q-125 0 -173.5 60.5t-29.5 199.5q19 138 78.5 196t184.5 58zM307 419q-77 0 -112.5 -37t-50.5 -142q-14 -101 7.5 -136.5t95.5 -35.5
q78 0 113 38.5t49 140.5q15 101 -6.5 136.5t-95.5 35.5z" />
    <glyph glyph-name="otilde" unicode="&#xf5;" horiz-adv-x="566" 
d="M206 582l-44 4q2 60 27.5 90t62.5 27q35 -3 77.5 -26.5t65.5 -26.5q29 -4 42.5 8.5t17.5 41.5l44 -4q-1 -58 -26 -88t-64 -27t-83 27.5t-61 27.5q-28 3 -41.5 -10.5t-17.5 -43.5zM307 501q126 0 174 -60.5t28 -200.5q-19 -138 -79 -195.5t-183 -57.5q-125 0 -173.5 60.5
t-29.5 199.5q19 138 78.5 196t184.5 58zM307 419q-77 0 -112.5 -37t-50.5 -142q-14 -101 7.5 -136.5t95.5 -35.5q78 0 113 38.5t49 140.5q15 101 -6.5 136.5t-95.5 35.5z" />
    <glyph glyph-name="odieresis" unicode="&#xf6;" horiz-adv-x="566" 
d="M407 693h29q16 0 21.5 -6t3.5 -21l-9 -54q-3 -26 -29 -26h-32q-27 0 -24 25l9 55q4 27 31 27zM240 693h29q16 0 21 -6t3 -21l-8 -54q-3 -26 -29 -26h-32q-27 0 -24 25l9 55q3 27 31 27zM307 501q126 0 174 -60.5t28 -200.5q-19 -138 -79 -195.5t-183 -57.5
q-125 0 -173.5 60.5t-29.5 199.5q19 138 78.5 196t184.5 58zM307 419q-77 0 -112.5 -37t-50.5 -142q-14 -101 7.5 -136.5t95.5 -35.5q78 0 113 38.5t49 140.5q15 101 -6.5 136.5t-95.5 35.5z" />
    <glyph glyph-name="divide" unicode="&#xf7;" horiz-adv-x="563" 
d="M299 529h25q38 0 32 -37l-6 -47q-4 -32 -37 -32h-25q-39 0 -33 36l6 46q4 34 38 34zM498 259h-443l11 72h442zM248 176h25q40 0 34 -38l-7 -46q-4 -33 -38 -33h-25q-37 0 -31 38l6 45q4 34 36 34z" />
    <glyph glyph-name="oslash" unicode="&#xf8;" horiz-adv-x="566" 
d="M492 543l-44 -73q86 -54 61 -230q-19 -138 -79 -195.5t-183 -57.5q-49 0 -87 9l-45 -74l-41 24l40 67q-96 53 -70 234q19 138 78.5 196t184.5 58q55 0 96 -12l47 79zM162 91l195 323q-16 5 -50 5q-77 0 -112.5 -37t-50.5 -142q-16 -116 18 -149zM399 389l-193 -318
q18 -3 41 -3q78 0 113 38.5t49 140.5q16 108 -10 142z" />
    <glyph glyph-name="ugrave" unicode="&#xf9;" horiz-adv-x="569" 
d="M345 551l-195 122l52 69l177 -147zM523 488l-68 -488h-75l6 102q-119 -115 -222 -115q-66 0 -96 36.5t-21 99.5l51 365h97l-49 -340q-6 -43 6 -60.5t46 -17.5q41 0 80 24t107 84l42 310h96z" />
    <glyph glyph-name="uacute" unicode="&#xfa;" horiz-adv-x="569" 
d="M288 551l-28 45l196 147l45 -75zM523 488l-68 -488h-75l6 102q-119 -115 -222 -115q-66 0 -96 36.5t-21 99.5l51 365h97l-49 -340q-6 -43 6 -60.5t46 -17.5q41 0 80 24t107 84l42 310h96z" />
    <glyph glyph-name="ucircumflex" unicode="&#xfb;" horiz-adv-x="569" 
d="M190 553l-27 42l147 129h69l124 -135l-35 -38l-120 101h-8zM523 488l-68 -488h-75l6 102q-119 -115 -222 -115q-66 0 -96 36.5t-21 99.5l51 365h97l-49 -340q-6 -43 6 -60.5t46 -17.5q41 0 80 24t107 84l42 310h96z" />
    <glyph glyph-name="udieresis" unicode="&#xfc;" horiz-adv-x="569" 
d="M261 590h-32q-27 0 -24 25l9 56q4 27 31 27h29q30 0 25 -27l-9 -55q-3 -26 -29 -26zM429 590h-32q-27 0 -24 25l9 56q3 27 31 27h29q16 0 21 -6.5t3 -20.5l-8 -55q-3 -26 -29 -26zM523 488l-68 -488h-75l6 102q-119 -115 -222 -115q-66 0 -96 36.5t-21 99.5l51 365h97
l-49 -340q-6 -43 6 -60.5t46 -17.5q41 0 80 24t107 84l42 310h96z" />
    <glyph glyph-name="yacute" unicode="&#xfd;" horiz-adv-x="545" 
d="M256 547l-28 45l196 146l45 -74zM430 488h101q-54 -238 -141 -403q-78 -148 -154.5 -210t-182.5 -80l-18 69q64 15 112 45t92 91h-45q-23 0 -39 12.5t-20 34.5l-94 441h102l74 -395q3 -17 20 -17h49q4 7 11 20.5l9 17.5q88 183 124 374z" />
    <glyph glyph-name="thorn" unicode="&#xfe;" 
d="M182 415l2 -6q89 91 202 91q83 0 116 -57.5t12 -204.5q-11 -82 -31 -133t-52 -76.5t-66 -33.5t-87 -8q-63 0 -150 12q-3 -31 -9 -68l-18 -130h-96l126 899h96l-24 -173q-9 -69 -21 -112zM172 310l-33 -240q94 -2 103 -2q96 0 126 30t46 147q15 109 5 140t-55 31
q-47 0 -91.5 -26t-100.5 -80z" />
    <glyph glyph-name="ydieresis" unicode="&#xff;" horiz-adv-x="545" 
d="M230 586h-33q-25 0 -24 25l9 55q4 27 31 27h29q16 0 21.5 -6t3.5 -21l-9 -54q-3 -26 -28 -26zM397 586h-32q-27 0 -24 25l9 55q3 27 31 27h29q16 0 21.5 -6t3.5 -21l-9 -54q-3 -26 -29 -26zM430 488h101q-54 -238 -141 -403q-78 -148 -154.5 -210t-182.5 -80l-18 69
q64 15 112 45t92 91h-45q-23 0 -39 12.5t-20 34.5l-94 441h102l74 -395q3 -17 20 -17h49q4 7 11 20.5l9 17.5q88 183 124 374z" />
    <glyph glyph-name="Amacron" unicode="&#x100;" horiz-adv-x="623" 
d="M525 782h-283l10 71h283zM442 208h-276l-92 -208h-106l310 665q10 25 39 25h102q13 0 22.5 -8.5t10.5 -20.5l125 -661h-100zM428 296l-43 259q-4 20 -8 60h-30l-26 -60l-116 -259h223z" />
    <glyph glyph-name="amacron" unicode="&#x101;" 
d="M470 603h-282l10 71h282zM460 0h-76l4 90q-88 -102 -210 -102q-89 0 -120 58t-11 204q11 81 31 132.5t53 76.5t68 33.5t90 8.5q119 0 239 -26zM387 176l35 242q-92 2 -103 2q-52 0 -79 -5t-47.5 -25.5t-30 -52.5t-18.5 -94q-14 -109 -3.5 -140t57.5 -31q46 0 90 25.5
t99 78.5z" />
    <glyph glyph-name="Abreve" unicode="&#x102;" horiz-adv-x="623" 
d="M501 888l48 -11q-4 -60 -49 -96.5t-116 -36.5q-76 0 -114.5 38.5t-25.5 97.5l50 4q-5 -33 18.5 -51t70.5 -18q51 0 82.5 19.5t35.5 53.5zM442 208h-276l-92 -208h-106l310 665q10 25 39 25h102q13 0 22.5 -8.5t10.5 -20.5l125 -661h-100zM428 296l-43 259q-4 20 -8 60
h-30l-26 -60l-116 -259h223z" />
    <glyph glyph-name="abreve" unicode="&#x103;" 
d="M446 709l49 -12q-5 -60 -50 -96.5t-116 -36.5q-76 0 -114 38.5t-25 98.5l49 4q-4 -33 19.5 -51.5t69.5 -18.5q52 0 83 19.5t35 54.5zM460 0h-76l4 90q-88 -102 -210 -102q-89 0 -120 58t-11 204q11 81 31 132.5t53 76.5t68 33.5t90 8.5q119 0 239 -26zM387 176l35 242
q-92 2 -103 2q-52 0 -79 -5t-47.5 -25.5t-30 -52.5t-18.5 -94q-14 -109 -3.5 -140t57.5 -31q46 0 90 25.5t99 78.5z" />
    <glyph glyph-name="Aogonek" unicode="&#x104;" horiz-adv-x="623" 
d="M452 661l125 -661q-48 -51 -85 -115q-28 -46 16 -46q18 0 48 9l12 -42q-40 -15 -71.5 -18.5t-50 4t-28.5 21.5t-9 33.5t12 41.5q30 56 107 112h-51l-35 208h-276l-92 -208h-106l310 665q10 25 39 25h102q13 0 22.5 -8.5t10.5 -20.5zM428 296l-43 259q-4 20 -8 60h-30
l-26 -60l-116 -259h223z" />
    <glyph glyph-name="aogonek" unicode="&#x105;" 
d="M528 475l-68 -475q-48 -51 -85 -115q-19 -33 -1 -43t66 6l11 -42q-40 -15 -71.5 -18.5t-50 4t-28.5 21.5t-8.5 33.5t12.5 41.5q30 57 107 112h-28l4 90q-88 -102 -210 -102q-89 0 -120 58t-11 204q11 81 31 132.5t53 76.5t68 33.5t90 8.5q119 0 239 -26zM387 176l35 242
q-92 2 -103 2q-52 0 -79 -5t-47.5 -25.5t-30 -52.5t-18.5 -94q-14 -109 -3.5 -140t57.5 -31q46 0 90 25.5t99 78.5z" />
    <glyph glyph-name="Cacute" unicode="&#x106;" horiz-adv-x="568" 
d="M559 843l-213 -117l-29 45l196 147zM494 88l5 -77q-83 -23 -206 -23q-149 0 -202 85.5t-25 275.5q27 196 97 274.5t220 78.5q107 0 191 -21l-16 -76q-79 8 -177 8q-67 0 -105.5 -22t-64.5 -81t-41 -169q-22 -150 5 -206.5t120 -57.5q112 -1 199 11z" />
    <glyph glyph-name="cacute" unicode="&#x107;" horiz-adv-x="486" 
d="M477 664l-213 -117l-28 45l196 146zM410 80l7 -66q-75 -26 -172 -26q-129 0 -175 60t-26 200q19 140 78 196.5t185 56.5q98 0 160 -26l-15 -60q-60 4 -130 4q-88 0 -126.5 -35.5t-51.5 -142.5t11.5 -139.5t107.5 -32.5q85 0 147 11z" />
    <glyph glyph-name="Cdotaccent" unicode="&#x10a;" horiz-adv-x="568" 
d="M382 869h31q14 0 21.5 -8.5t5.5 -22.5l-8 -55q-3 -27 -29 -27h-31q-30 0 -27 30l7 56q4 27 30 27zM494 88l5 -77q-83 -23 -206 -23q-149 0 -202 85.5t-25 275.5q27 196 97 274.5t220 78.5q107 0 191 -21l-16 -76q-79 8 -177 8q-67 0 -105.5 -22t-64.5 -81t-41 -169
q-22 -150 5 -206.5t120 -57.5q112 -1 199 11z" />
    <glyph glyph-name="cdotaccent" unicode="&#x10b;" horiz-adv-x="486" 
d="M301 689h31q14 0 21.5 -8.5t5.5 -21.5l-8 -56q-5 -27 -30 -27h-30q-14 0 -21.5 8.5t-5.5 22.5l7 55q4 27 30 27zM410 80l7 -66q-75 -26 -172 -26q-129 0 -175 60t-26 200q19 140 78 196.5t185 56.5q98 0 160 -26l-15 -60q-60 4 -130 4q-88 0 -126.5 -35.5t-51.5 -142.5
t11.5 -139.5t107.5 -32.5q85 0 147 11z" />
    <glyph glyph-name="Ccaron" unicode="&#x10c;" horiz-adv-x="568" 
d="M569 871l-149 -129h-70l-117 136l39 35l113 -99h8l147 99zM494 88l5 -77q-83 -23 -206 -23q-149 0 -202 85.5t-25 275.5q27 196 97 274.5t220 78.5q107 0 191 -21l-16 -76q-79 8 -177 8q-67 0 -105.5 -22t-64.5 -81t-41 -169q-22 -150 5 -206.5t120 -57.5q112 -1 199 11z
" />
    <glyph glyph-name="ccaron" unicode="&#x10d;" horiz-adv-x="486" 
d="M488 692l-149 -129h-70l-117 135l39 36l113 -100h8l146 100zM410 80l7 -66q-75 -26 -172 -26q-129 0 -175 60t-26 200q19 140 78 196.5t185 56.5q98 0 160 -26l-15 -60q-60 4 -130 4q-88 0 -126.5 -35.5t-51.5 -142.5t11.5 -139.5t107.5 -32.5q85 0 147 11z" />
    <glyph glyph-name="Dcaron" unicode="&#x10e;" horiz-adv-x="663" 
d="M346 742l-117 136l39 35l113 -99h8l146 99l30 -42l-149 -129h-70zM42 0l97 690q122 9 225 9q164 0 220 -79t28 -279q-11 -77 -25.5 -132t-36 -94t-46.5 -63t-62 -38t-76 -18.5t-95 -4.5q-96 0 -229 9zM228 611l-75 -531q86 -2 117 -2q81 0 124 20t70 77t44 174
q10 68 11 112.5t-6.5 75.5t-27.5 46.5t-48.5 22t-74.5 6.5q-12 0 -60 -0.5t-74 -0.5z" />
    <glyph glyph-name="dcaron" unicode="&#x10f;" 
d="M461 700h97l-98 -700h-76l5 102q-104 -114 -221 -114q-77 0 -109 59.5t-12 202.5q12 81 31.5 132.5t51 76.5t64.5 33.5t84 8.5q75 0 159 -13q0 34 7 93zM649 699h26q34 0 28 -31l-8 -54q-8 -57 -54 -133l-43 13q25 74 31 103q-14 -1 -21.5 6t-5.5 20l7 48q4 17 11.5 22.5
t28.5 5.5zM388 178l33 241q-45 2 -105 2q-50 0 -76.5 -5t-47 -25t-29.5 -53t-18 -95q-14 -104 -4 -137.5t55 -33.5t88 24.5t104 81.5z" />
    <glyph glyph-name="Dcroat" unicode="&#x110;" horiz-adv-x="663" 
d="M97 393l42 297q122 9 225 9q164 0 220 -79t28 -279q-11 -77 -25.5 -132t-36 -94t-46.5 -63t-62 -38t-76 -18.5t-95 -4.5q-96 0 -229 9l48 338h-63l7 55h63zM189 338l-36 -258q86 -2 117 -2q81 0 124 20t70 77t44 174q10 68 11 112.5t-6.5 75.5t-27.5 46.5t-48.5 22
t-74.5 6.5q-12 0 -60 -0.5t-74 -0.5l-31 -218h149l-7 -55h-150z" />
    <glyph glyph-name="dcroat" unicode="&#x111;" 
d="M613 573h-72l-81 -573h-76l5 102q-104 -114 -221 -114q-77 0 -109 59.5t-12 202.5q12 81 31.5 132.5t51 76.5t64.5 33.5t84 8.5q75 0 159 -13q0 40 6 85h-143l7 54h144l10 73h97l-10 -73h72zM388 178l33 241q-45 2 -105 2q-50 0 -76.5 -5t-47 -25t-29.5 -53t-18 -95
q-14 -104 -4 -137.5t55 -33.5t88 24.5t104 81.5z" />
    <glyph glyph-name="Emacron" unicode="&#x112;" horiz-adv-x="560" 
d="M521 802h-283l10 71h283zM551 606h-272q-32 0 -47.5 -14.5t-19.5 -50.5l-19 -140h291l-10 -77h-292l-24 -178q-4 -34 7.5 -48t44.5 -14h267l-2 -78q-86 -8 -277 -8q-80 0 -115.5 38.5t-26.5 106.5l59 427q8 58 47 90t105 32q207 0 297 -8z" />
    <glyph glyph-name="emacron" unicode="&#x113;" horiz-adv-x="539" 
d="M465 603h-283l10 71h283zM443 81l6 -65q-71 -28 -201 -28q-125 0 -173 65.5t-30 203.5q19 141 77.5 192.5t192.5 51.5q114 0 155 -40t30 -118q-12 -71 -56 -102.5t-135 -38.5l-169 -15q-1 -69 29 -93.5t94 -24.5q68 0 180 12zM146 259l163 15q46 3 67 19.5t27 57.5
q6 47 -15.5 58t-87.5 11q-76 0 -107.5 -31.5t-46.5 -129.5z" />
    <glyph glyph-name="Edotaccent" unicode="&#x116;" horiz-adv-x="560" 
d="M394 775h-30q-14 0 -21.5 8.5t-5.5 22.5l7 56q4 26 30 26h31q14 0 21.5 -8t5.5 -22l-8 -56q-4 -27 -30 -27zM551 606h-272q-32 0 -47.5 -14.5t-19.5 -50.5l-19 -140h291l-10 -77h-292l-24 -178q-4 -34 7.5 -48t44.5 -14h267l-2 -78q-86 -8 -277 -8q-80 0 -115.5 38.5
t-26.5 106.5l59 427q8 58 47 90t105 32q207 0 297 -8z" />
    <glyph glyph-name="edotaccent" unicode="&#x117;" horiz-adv-x="539" 
d="M338 576h-31q-14 0 -21 8.5t-5 22.5l7 55q4 27 29 27h31q14 0 22 -8.5t6 -21.5l-8 -56q-4 -27 -30 -27zM443 81l6 -65q-71 -28 -201 -28q-125 0 -173 65.5t-30 203.5q19 141 77.5 192.5t192.5 51.5q114 0 155 -40t30 -118q-12 -71 -56 -102.5t-135 -38.5l-169 -15
q-1 -69 29 -93.5t94 -24.5q68 0 180 12zM146 259l163 15q46 3 67 19.5t27 57.5q6 47 -15.5 58t-87.5 11q-76 0 -107.5 -31.5t-46.5 -129.5z" />
    <glyph glyph-name="Eogonek" unicode="&#x118;" horiz-adv-x="560" 
d="M551 606h-272q-32 0 -47.5 -14.5t-19.5 -50.5l-19 -140h291l-10 -77h-292l-24 -178q-4 -34 7.5 -48t44.5 -14h267l-2 -78q-48 -51 -85 -115q-20 -34 -2 -43.5t66 5.5l12 -41q-40 -15 -71.5 -18.5t-50 3.5t-28.5 21.5t-9 34t12 40.5q27 54 102 109q-73 -4 -223 -4
q-80 0 -115.5 38.5t-26.5 106.5l59 427q8 58 47 90t105 32q207 0 297 -8z" />
    <glyph glyph-name="eogonek" unicode="&#x119;" horiz-adv-x="539" 
d="M428 -136l12 -42q-40 -15 -71.5 -18.5t-50 4t-28.5 22t-8.5 34t12.5 40.5q23 46 82 94q-63 -10 -128 -10q-125 0 -173 65.5t-30 203.5q19 141 77.5 192.5t192.5 51.5q114 0 155 -40t30 -118q-12 -71 -56 -102.5t-135 -38.5l-169 -15q-1 -69 29 -93.5t94 -24.5
q68 0 180 12l6 -65q-47 -50 -85 -114q-19 -34 -1 -43.5t65 5.5zM146 259l163 15q46 3 67 19.5t27 57.5q6 47 -15.5 58t-87.5 11q-76 0 -107.5 -31.5t-46.5 -129.5z" />
    <glyph glyph-name="Ecaron" unicode="&#x11a;" horiz-adv-x="560" 
d="M342 762l-117 135l39 36l113 -100h8l146 100l30 -42l-149 -129h-70zM551 606h-272q-32 0 -47.5 -14.5t-19.5 -50.5l-19 -140h291l-10 -77h-292l-24 -178q-4 -34 7.5 -48t44.5 -14h267l-2 -78q-86 -8 -277 -8q-80 0 -115.5 38.5t-26.5 106.5l59 427q8 58 47 90t105 32
q207 0 297 -8z" />
    <glyph glyph-name="ecaron" unicode="&#x11b;" horiz-adv-x="539" 
d="M285 563l-116 135l39 36l112 -100h8l147 100l30 -42l-149 -129h-71zM443 81l6 -65q-71 -28 -201 -28q-125 0 -173 65.5t-30 203.5q19 141 77.5 192.5t192.5 51.5q114 0 155 -40t30 -118q-12 -71 -56 -102.5t-135 -38.5l-169 -15q-1 -69 29 -93.5t94 -24.5q68 0 180 12z
M146 259l163 15q46 3 67 19.5t27 57.5q6 47 -15.5 58t-87.5 11q-76 0 -107.5 -31.5t-46.5 -129.5z" />
    <glyph glyph-name="Gbreve" unicode="&#x11e;" horiz-adv-x="624" 
d="M513 888l48 -11q-4 -60 -49 -96.5t-116 -36.5q-76 0 -114.5 38.5t-25.5 97.5l50 4q-5 -33 18.5 -51t70.5 -18q51 0 82.5 19.5t35.5 53.5zM595 681l-15 -75q-84 8 -171 8q-62 0 -99.5 -10t-67 -40.5t-45.5 -83t-27 -139.5q-17 -148 4.5 -207t93.5 -59q48 0 87 23t93 76
l32 226h96l-56 -400h-72v93q-90 -106 -215 -106q-105 0 -146.5 87t-21.5 275q14 108 40.5 178.5t70 108.5t95.5 52.5t126 14.5q113 0 198 -22z" />
    <glyph glyph-name="gbreve" unicode="&#x11f;" horiz-adv-x="576" 
d="M447 709l48 -12q-5 -60 -49.5 -96.5t-115.5 -36.5q-76 0 -114.5 38.5t-25.5 98.5l49 4q-4 -33 20 -51.5t70 -18.5q51 0 82 19.5t36 54.5zM530 475l-66 -463q-26 -218 -289 -221q-102 0 -162 19l10 64q79 -2 155 -1q165 2 188 119q17 85 42 122q-41 -56 -101.5 -91
t-131.5 -35q-82 0 -115 58t-12 204q12 82 32 133.5t52 76.5t64.5 33t83.5 8q128 0 248 -26h2zM389 176l35 242q-92 2 -106 2q-95 0 -125.5 -30.5t-46.5 -146.5q-14 -107 -3.5 -139t56.5 -32q47 0 91 25t99 79z" />
    <glyph glyph-name="Gdotaccent" unicode="&#x120;" horiz-adv-x="624" 
d="M410 756h-30q-14 0 -21.5 8.5t-5.5 21.5l7 56q4 27 30 27h31q14 0 21.5 -8.5t5.5 -22.5l-8 -55q-4 -27 -30 -27zM595 681l-15 -75q-84 8 -171 8q-62 0 -99.5 -10t-67 -40.5t-45.5 -83t-27 -139.5q-17 -148 4.5 -207t93.5 -59q48 0 87 23t93 76l32 226h96l-56 -400h-72v93
q-90 -106 -215 -106q-105 0 -146.5 87t-21.5 275q14 108 40.5 178.5t70 108.5t95.5 52.5t126 14.5q113 0 198 -22z" />
    <glyph glyph-name="gdotaccent" unicode="&#x121;" horiz-adv-x="576" 
d="M344 576h-31q-14 0 -21 8.5t-5 22.5l7 55q4 27 29 27h31q14 0 22 -8.5t6 -21.5l-8 -56q-4 -27 -30 -27zM530 475l-66 -463q-26 -218 -289 -221q-102 0 -162 19l10 64q79 -2 155 -1q165 2 188 119q17 85 42 122q-41 -56 -101.5 -91t-131.5 -35q-82 0 -115 58t-12 204
q12 82 32 133.5t52 76.5t64.5 33t83.5 8q128 0 248 -26h2zM389 176l35 242q-92 2 -106 2q-95 0 -125.5 -30.5t-46.5 -146.5q-14 -107 -3.5 -139t56.5 -32q47 0 91 25t99 79z" />
    <glyph glyph-name="Gcommaaccent" unicode="&#x122;" horiz-adv-x="624" 
d="M595 681l-15 -75q-84 8 -171 8q-62 0 -99.5 -10t-67 -40.5t-45.5 -83t-27 -139.5q-17 -148 4.5 -207t93.5 -59q48 0 87 23t93 76l32 226h96l-56 -400h-72v93q-90 -106 -215 -106q-105 0 -146.5 87t-21.5 275q14 108 40.5 178.5t70 108.5t95.5 52.5t126 14.5
q113 0 198 -22zM278 -58h26q34 0 28 -31l-8 -55q-8 -62 -54 -134l-43 14q24 69 31 103q-14 -1 -21.5 6t-5.5 20l7 49q4 17 12 22.5t28 5.5z" />
    <glyph glyph-name="gcommaaccent" unicode="&#x123;" horiz-adv-x="576" 
d="M336 556h-26q-34 0 -28 32l8 54q8 59 54 135l43 -14q-23 -68 -31 -103q30 2 27 -26l-7 -49q-4 -17 -11.5 -23t-28.5 -6zM530 475l-66 -463q-26 -218 -289 -221q-102 0 -162 19l10 64q79 -2 155 -1q165 2 188 119q17 85 42 122q-41 -56 -101.5 -91t-131.5 -35
q-82 0 -115 58t-12 204q12 82 32 133.5t52 76.5t64.5 33t83.5 8q128 0 248 -26h2zM389 176l35 242q-92 2 -106 2q-95 0 -125.5 -30.5t-46.5 -146.5q-14 -107 -3.5 -139t56.5 -32q47 0 91 25t99 79z" />
    <glyph glyph-name="Hbar" unicode="&#x126;" horiz-adv-x="668" 
d="M690 518h-73l-73 -518h-100l46 324h-302l-45 -324h-101l73 518h-65l7 52h65l17 120h101l-17 -120h302l16 120h100l-16 -120h71zM517 518h-301l-16 -107h302z" />
    <glyph glyph-name="hbar" unicode="&#x127;" horiz-adv-x="580" 
d="M210 573l-8 -65q-10 -67 -24 -120q128 113 226 113q62 0 94 -35.5t22 -101.5l-52 -364h-96l47 340q6 46 -3.5 62.5t-41.5 16.5q-41 0 -85.5 -25t-116.5 -82l-43 -312h-97l81 573h-69l7 54h70l10 73h96l-10 -73h145l-7 -54h-145z" />
    <glyph glyph-name="Imacron" unicode="&#x12a;" horiz-adv-x="267" 
d="M343 782h-283l10 71h283zM143 0h-101l97 690h101z" />
    <glyph glyph-name="imacron" unicode="&#x12b;" horiz-adv-x="252" 
d="M311 603h-283l10 71h283zM133 0h-97l69 488h97z" />
    <glyph glyph-name="Iogonek" unicode="&#x12e;" horiz-adv-x="267" 
d="M143 0h-12q-49 -51 -85 -115q-28 -46 16 -46q18 0 48 9l11 -42q-40 -15 -71.5 -18.5t-50 4t-28.5 21.5t-8.5 33.5t12.5 41.5q30 57 107 112h-40l97 690h101z" />
    <glyph glyph-name="iogonek" unicode="&#x12f;" horiz-adv-x="252" 
d="M164 689h31q14 0 21.5 -8.5t5.5 -21.5l-8 -56q-3 -27 -29 -27h-31q-14 0 -21 8.5t-6 22.5l7 55q4 27 30 27zM105 488h97l-69 -488h-8q-48 -51 -85 -115q-19 -33 -1 -43t65 6l12 -42q-40 -15 -71.5 -18.5t-50 4t-28.5 21.5t-8.5 33.5t12.5 41.5q27 55 106 112h-40z" />
    <glyph glyph-name="Idotaccent" unicode="&#x130;" horiz-adv-x="267" 
d="M196 869h31q14 0 21.5 -8.5t5.5 -22.5l-8 -55q-3 -27 -29 -27h-31q-14 0 -21 8.5t-6 21.5l7 56q4 27 30 27zM143 0h-101l97 690h101z" />
    <glyph glyph-name="dotlessi" unicode="&#x131;" horiz-adv-x="252" 
d="M133 0h-97l69 488h97z" />
    <glyph glyph-name="IJ" unicode="&#x132;" horiz-adv-x="609" 
d="M143 0h-101l97 690h101zM585 690l-77 -541q-10 -78 -49.5 -118.5t-102.5 -39.5q-60 0 -99 14l19 71h45q78 0 87 72l76 542h101z" />
    <glyph glyph-name="ij" unicode="&#x133;" horiz-adv-x="502" 
d="M157 696h46q14 0 21 -8t5 -22l-7 -56q-4 -27 -30 -27h-46q-30 0 -27 31l9 56q2 26 29 26zM408 696h46q30 0 27 -30l-8 -56q-3 -27 -30 -27h-46q-31 0 -26 31l8 56q3 26 29 26zM133 0h-96l68 488h96zM452 488l-69 -496q-8 -60 -40.5 -111.5t-82.5 -83.5l-52 45
q66 69 78 155l70 491h96z" />
    <glyph glyph-name="Kcommaaccent" unicode="&#x136;" horiz-adv-x="599" 
d="M344 360l-1 -4q19 -24 35 -55l165 -301h-113l-172 319h-78q0 -41 -4 -73l-34 -246h-100l97 690h100l-31 -213q-4 -38 -15 -77h74l239 290h121l-234 -284q-23 -28 -49 -46zM262 -58h26q34 0 28 -31l-7 -55q-10 -63 -55 -134l-43 14q24 69 31 103q-14 -1 -21 6t-6 20l8 49
q4 17 11.5 22.5t27.5 5.5z" />
    <glyph glyph-name="kcommaaccent" unicode="&#x137;" horiz-adv-x="527" 
d="M406 488h99q-42 -131 -162 -217q15 -23 30 -58l95 -213h-104l-94 225q-45 -24 -116 -56l-25 -169h-96l98 700h97l-44 -328q-9 -60 -32 -120q95 45 164.5 105.5t89.5 130.5zM237 -58h26q34 0 28 -31l-7 -55q-10 -63 -55 -134l-43 14q24 69 31 103q-14 -1 -21 6t-6 20l8 49
q4 17 11.5 22.5t27.5 5.5z" />
    <glyph glyph-name="Lacute" unicode="&#x139;" horiz-adv-x="511" 
d="M371 843l-212 -117l-29 45l196 147zM237 690l-76 -544q-8 -62 52 -62h246l-2 -78q-86 -8 -265 -8q-70 0 -105 38.5t-25 112.5l74 541h101z" />
    <glyph glyph-name="lacute" unicode="&#x13a;" horiz-adv-x="298" 
d="M368 864l-213 -116l-29 44l196 147zM228 700l-79 -561q-5 -33 7 -46.5t46 -13.5h46l4 -76q-27 -12 -93 -12q-58 0 -87.5 34t-21.5 96l82 579h96z" />
    <glyph glyph-name="Lcommaaccent" unicode="&#x13b;" horiz-adv-x="511" 
d="M237 690l-76 -544q-8 -62 52 -62h246l-2 -78q-86 -8 -265 -8q-70 0 -105 38.5t-25 112.5l74 541h101zM252 -59h26q34 0 28 -31l-7 -55q-8 -57 -54 -135l-43 14q26 82 30 103q-14 -1 -21 6.5t-6 19.5l8 50q4 17 11.5 22.5t27.5 5.5z" />
    <glyph glyph-name="lcommaaccent" unicode="&#x13c;" horiz-adv-x="298" 
d="M228 700l-79 -561q-5 -33 7 -46.5t46 -13.5h46l4 -76q-27 -12 -93 -12q-58 0 -87.5 34t-21.5 96l82 579h96zM128 -59h26q33 0 27 -31l-7 -55q-8 -57 -54 -135l-43 14q26 82 30 103q-14 -1 -21 6.5t-5 19.5l7 50q4 17 11.5 22.5t28.5 5.5z" />
    <glyph glyph-name="Lcaron" unicode="&#x13d;" horiz-adv-x="511" 
d="M353 691h26q34 0 28 -32l-8 -54q-8 -63 -54 -135l-43 14q25 74 31 103q-14 -1 -21.5 6t-5.5 20l8 49q4 17 11.5 23t27.5 6zM237 690l-76 -544q-8 -62 52 -62h246l-2 -78q-86 -8 -265 -8q-70 0 -105 38.5t-25 112.5l74 541h101z" />
    <glyph glyph-name="lcaron" unicode="&#x13e;" horiz-adv-x="298" 
d="M228 700l-79 -561q-5 -33 7 -46.5t46 -13.5h46l4 -76q-27 -12 -93 -12q-58 0 -87.5 34t-21.5 96l82 579h96zM319 700h26q34 0 28 -32l-7 -54q-10 -64 -55 -135l-43 14q24 69 31 103q-14 -1 -21 6t-6 20l8 49q4 17 11.5 23t27.5 6z" />
    <glyph glyph-name="Ldot" unicode="&#x13f;" horiz-adv-x="511" 
d="M237 690l-76 -544q-8 -62 52 -62h246l-2 -78q-86 -8 -265 -8q-70 0 -105 38.5t-25 112.5l74 541h101zM403 340h-31q-14 0 -22 8t-6 22l8 56q4 27 30 27h31q14 0 21 -8.5t5 -22.5l-7 -55q-4 -27 -29 -27z" />
    <glyph glyph-name="ldot" unicode="&#x140;" horiz-adv-x="343" 
d="M228 700l-79 -561q-5 -33 7 -46.5t46 -13.5h46l4 -76q-27 -12 -93 -12q-58 0 -87.5 34t-21.5 96l82 579h96zM320 316h-31q-14 0 -22 8.5t-6 22.5l8 55q4 27 30 27h31q14 0 21 -8.5t5 -21.5l-7 -56q-5 -27 -29 -27z" />
    <glyph glyph-name="Lslash" unicode="&#x141;" horiz-adv-x="510" 
d="M458 84l-2 -78q-86 -8 -265 -8q-70 0 -105 38.5t-25 112.5l24 179l-65 -26l6 60l68 27l41 301h101l-36 -260l124 49l-6 -60l-127 -50l-31 -223q-8 -62 52 -62h246z" />
    <glyph glyph-name="lslash" unicode="&#x142;" horiz-adv-x="301" 
d="M182 368l-33 -229q-5 -33 7 -46.5t46 -13.5h46l4 -76q-27 -12 -93 -12q-58 0 -87.5 34t-21.5 96l30 207l-68 -26l8 60l68 27l44 311h96l-38 -271l129 50l-9 -60z" />
    <glyph glyph-name="Nacute" unicode="&#x143;" horiz-adv-x="706" 
d="M599 843l-213 -117l-28 45l196 147zM679 690l-92 -653q-6 -37 -40 -37h-87q-28 0 -39 33l-161 470q-19 54 -27 94h-15q-1 -42 -8 -94l-68 -503h-100l91 653q6 37 42 37h85q27 0 40 -33l155 -457q31 -99 32 -104h17q3 57 10 104l66 490h99z" />
    <glyph glyph-name="nacute" unicode="&#x144;" horiz-adv-x="580" 
d="M295 547l-28 45l196 146l45 -74zM178 488l-5 -105q132 118 231 118q62 0 94 -35.5t22 -101.5l-52 -364h-96l47 340q6 46 -3.5 62.5t-41.5 16.5q-41 0 -85.5 -25t-116.5 -82l-43 -312h-97l69 488h77z" />
    <glyph glyph-name="Ncommaaccent" unicode="&#x145;" horiz-adv-x="706" 
d="M679 690l-92 -653q-6 -37 -40 -37h-87q-28 0 -39 33l-161 470q-19 54 -27 94h-15q-1 -42 -8 -94l-68 -503h-100l91 653q6 37 42 37h85q27 0 40 -33l155 -457q31 -99 32 -104h17q3 57 10 104l66 490h99zM315 -58h26q34 0 27 -31l-7 -55q-8 -59 -54 -134l-43 14
q22 63 30 103q-14 -1 -21 6.5t-5 19.5l7 49q4 17 11.5 22.5t28.5 5.5z" />
    <glyph glyph-name="ncommaaccent" unicode="&#x146;" horiz-adv-x="580" 
d="M178 488l-5 -105q132 118 231 118q62 0 94 -35.5t22 -101.5l-52 -364h-96l47 340q6 46 -3.5 62.5t-41.5 16.5q-41 0 -85.5 -25t-116.5 -82l-43 -312h-97l69 488h77zM241 -58h26q34 0 28 -31l-7 -55q-8 -60 -55 -134l-42 14q25 77 30 103q-14 -1 -21 6t-6 20l8 49
q4 17 11.5 22.5t27.5 5.5z" />
    <glyph glyph-name="Ncaron" unicode="&#x147;" horiz-adv-x="706" 
d="M610 871l-149 -129h-70l-117 136l39 35l113 -99h8l146 99zM679 690l-92 -653q-6 -37 -40 -37h-87q-28 0 -39 33l-161 470q-19 54 -27 94h-15q-1 -42 -8 -94l-68 -503h-100l91 653q6 37 42 37h85q27 0 40 -33l155 -457q31 -99 32 -104h17q3 57 10 104l66 490h99z" />
    <glyph glyph-name="ncaron" unicode="&#x148;" horiz-adv-x="580" 
d="M300 563l-117 135l39 36l113 -100h8l147 100l29 -42l-149 -129h-70zM178 488l-5 -105q132 118 231 118q62 0 94 -35.5t22 -101.5l-52 -364h-96l47 340q6 46 -3.5 62.5t-41.5 16.5q-41 0 -85.5 -25t-116.5 -82l-43 -312h-97l69 488h77z" />
    <glyph glyph-name="Eng" unicode="&#x14a;" horiz-adv-x="706" 
d="M679 690l-108 -767q-10 -67 -50 -103t-100 -35q-55 0 -95 15l17 62h46q80 0 90 73l10 65h-28q-5 0 -9 2t-7.5 7.5t-4.5 8.5t-5 11l-176 456q-17 43 -25 96h-15q-1 -42 -10 -98l-67 -483h-100l91 653q6 37 42 37h73q27 0 40 -33l166 -440q23 -62 35 -104h14q1 47 10 108
l66 469h100z" />
    <glyph glyph-name="eng" unicode="&#x14b;" horiz-adv-x="580" 
d="M175 488l-3 -106q128 119 229 119q67 0 97.5 -35.5t21.5 -101.5l-58 -413q-21 -155 -145 -155q-52 0 -91 15l17 61h39q36 0 56 16.5t26 57.5l55 394q6 40 -4 56t-44 16q-39 0 -84 -24.5t-115 -75.5l-43 -312h-97l69 488h74z" />
    <glyph glyph-name="Omacron" unicode="&#x14c;" horiz-adv-x="667" 
d="M543 782h-282l10 71h282zM387 703q147 0 202 -82.5t27 -279.5q-27 -199 -97.5 -276.5t-219.5 -77.5q-147 0 -203.5 81.5t-29.5 280.5q26 196 97 275t224 79zM382 614q-100 0 -144.5 -57.5t-67.5 -215.5q-21 -152 6.5 -208.5t124.5 -56.5q98 0 143.5 58.5t67.5 214.5
q22 155 -5.5 210t-124.5 55z" />
    <glyph glyph-name="omacron" unicode="&#x14d;" horiz-adv-x="566" 
d="M466 603h-282l10 71h282zM307 501q126 0 174 -60.5t28 -200.5q-19 -138 -79 -195.5t-183 -57.5q-125 0 -173.5 60.5t-29.5 199.5q19 138 78.5 196t184.5 58zM307 419q-77 0 -112.5 -37t-50.5 -142q-14 -101 7.5 -136.5t95.5 -35.5q78 0 113 38.5t49 140.5
q15 101 -6.5 136.5t-95.5 35.5z" />
    <glyph glyph-name="Ohungarumlaut" unicode="&#x150;" horiz-adv-x="667" 
d="M627 881l-159 -161l-39 32l138 171zM458 881l-158 -161l-41 32l140 171zM387 703q147 0 202 -82.5t27 -279.5q-27 -199 -97.5 -276.5t-219.5 -77.5q-147 0 -203.5 81.5t-29.5 280.5q26 196 97 275t224 79zM382 614q-100 0 -144.5 -57.5t-67.5 -215.5q-21 -152 6.5 -208.5
t124.5 -56.5q98 0 143.5 58.5t67.5 214.5q22 155 -5.5 210t-124.5 55z" />
    <glyph glyph-name="ohungarumlaut" unicode="&#x151;" horiz-adv-x="566" 
d="M550 701l-159 -160l-39 32l138 170zM381 701l-158 -160l-41 32l140 170zM307 501q126 0 174 -60.5t28 -200.5q-19 -138 -79 -195.5t-183 -57.5q-125 0 -173.5 60.5t-29.5 199.5q19 138 78.5 196t184.5 58zM307 419q-77 0 -112.5 -37t-50.5 -142q-14 -101 7.5 -136.5
t95.5 -35.5q78 0 113 38.5t49 140.5q15 101 -6.5 136.5t-95.5 35.5z" />
    <glyph glyph-name="OE" unicode="&#x152;" horiz-adv-x="925" 
d="M916 606h-270q-31 0 -47 -15t-20 -50l-19 -139h289l-10 -79h-289l-25 -177q-4 -34 7.5 -48t45.5 -14h265l-3 -78q-85 -8 -274 -8q-61 0 -99 24q-80 -35 -170 -35q-157 0 -208.5 79.5t-22.5 282.5q28 201 98 277.5t222 76.5q91 0 164 -30q36 19 85 19q205 0 295 -8z
M424 143l59 427q4 22 8 32q-51 12 -105 12q-101 0 -147.5 -58.5t-68.5 -214.5q-22 -151 5.5 -208t123.5 -57q68 0 124 16q-3 26 1 51z" />
    <glyph glyph-name="oe" unicode="&#x153;" horiz-adv-x="903" 
d="M803 81l7 -65q-68 -28 -197 -28q-124 0 -174 66q-60 -67 -192 -67q-125 0 -174 60.5t-30 199.5q20 139 79.5 196.5t184.5 57.5q126 0 173 -60q57 60 200 60q114 0 155 -40t30 -118q-12 -71 -56 -102.5t-134 -38.5l-170 -15q0 -69 30 -93.5t94 -24.5q68 0 174 12zM247 68
q77 0 112.5 38.5t49.5 140.5q15 101 -6.5 136.5t-95.5 35.5q-77 0 -112.5 -37t-50.5 -142q-14 -100 7.5 -136t95.5 -36zM512 259l162 15q46 3 67 19.5t28 57.5q2 20 -1 33t-8.5 20t-22.5 10.5t-30 4t-42 0.5q-76 0 -107 -31t-46 -129z" />
    <glyph glyph-name="Racute" unicode="&#x154;" horiz-adv-x="621" 
d="M329 726l-29 45l196 147l46 -75zM42 0l97 690q86 9 237 9q114 0 166.5 -45.5t37.5 -158.5q-11 -79 -47 -121t-107 -51l-1 -6q60 -17 75 -101l44 -216h-102l-41 217q-7 37 -24 52t-50 15l-147 1l-40 -285h-98zM192 370h138q73 1 106 28t43 99q10 67 -12.5 91.5t-93.5 24.5
q-108 0 -147 -1z" />
    <glyph glyph-name="racute" unicode="&#x155;" horiz-adv-x="401" 
d="M234 547l-29 45l196 146l45 -74zM175 488l-5 -112q122 125 220 125h26l-24 -91h-27q-38 0 -78 -22.5t-115 -76.5l-43 -311h-97l69 488h74z" />
    <glyph glyph-name="Rcommaaccent" unicode="&#x156;" horiz-adv-x="621" 
d="M42 0l97 690q86 9 237 9q114 0 166.5 -45.5t37.5 -158.5q-11 -79 -47 -121t-107 -51l-1 -6q60 -17 75 -101l44 -216h-102l-41 217q-7 37 -24 52t-50 15l-147 1l-40 -285h-98zM192 370h138q73 1 106 28t43 99q10 67 -12.5 91.5t-93.5 24.5q-108 0 -147 -1zM295 -58h26
q34 0 28 -31l-8 -55q-8 -59 -54 -134l-43 14q24 69 31 103q-14 -1 -21.5 6t-5.5 20l7 49q4 17 11.5 22.5t28.5 5.5z" />
    <glyph glyph-name="rcommaaccent" unicode="&#x157;" horiz-adv-x="401" 
d="M416 501l-24 -91h-27q-38 0 -78 -22.5t-115 -76.5l-43 -311h-97l69 488h74l-5 -112q122 125 220 125h26zM57 -58h26q34 0 28 -31l-7 -55q-8 -59 -54 -134l-43 14q25 77 30 103q-14 -1 -21 6t-6 20l8 49q4 17 11.5 22.5t27.5 5.5z" />
    <glyph glyph-name="Rcaron" unicode="&#x158;" horiz-adv-x="621" 
d="M333 742l-117 136l39 35l113 -99h8l147 99l29 -42l-149 -129h-70zM42 0l97 690q86 9 237 9q114 0 166.5 -45.5t37.5 -158.5q-11 -79 -47 -121t-107 -51l-1 -6q60 -17 75 -101l44 -216h-102l-41 217q-7 37 -24 52t-50 15l-147 1l-40 -285h-98zM192 370h138q73 1 106 28
t43 99q10 67 -12.5 91.5t-93.5 24.5q-108 0 -147 -1z" />
    <glyph glyph-name="rcaron" unicode="&#x159;" horiz-adv-x="401" 
d="M238 563l-117 135l39 36l113 -100h8l147 100l29 -42l-149 -129h-70zM175 488l-5 -112q122 125 220 125h26l-24 -91h-27q-38 0 -78 -22.5t-115 -76.5l-43 -311h-97l69 488h74z" />
    <glyph glyph-name="Sacute" unicode="&#x15a;" horiz-adv-x="562" 
d="M516 843l-213 -117l-28 45l196 147zM332 283l-135 48q-71 26 -97 73t-15 122q8 57 27 93t52.5 53.5t71 23.5t96.5 6q120 0 207 -22l-11 -72q-103 5 -196 5q-34 0 -49.5 -0.5t-36.5 -5t-30.5 -14.5t-18 -29t-12.5 -48q-6 -49 6.5 -67t59.5 -35l132 -47q76 -27 100.5 -71.5
t13.5 -124.5q-15 -110 -71.5 -146.5t-188.5 -36.5q-109 0 -213 20l13 74q156 -5 199 -5q88 1 120 19.5t41 84.5q6 49 -7 67.5t-58 34.5z" />
    <glyph glyph-name="sacute" unicode="&#x15b;" horiz-adv-x="508" 
d="M472 664l-213 -117l-29 45l196 146zM283 182l-131 60q-55 26 -78 58.5t-16 83.5q8 67 57 93t149 24q113 -2 209 -17l-12 -69q-127 4 -194 5q-66 0 -88.5 -7t-26.5 -36q-3 -25 9.5 -37t48.5 -28l132 -60q60 -28 82 -57.5t15 -83.5q-4 -33 -17 -55.5t-30.5 -35.5t-48 -20
t-60 -9t-75.5 -2q-48 0 -75.5 1.5t-61 6t-52.5 6.5l11 72q56 -5 153 -5q92 0 124 10t37 40q1 5 1 10t-0.5 8.5t-3 7t-4 6t-5.5 5.5t-7 5t-9 5t-9.5 4.5t-11 5t-12.5 5.5z" />
    <glyph glyph-name="Scedilla" unicode="&#x15e;" horiz-adv-x="562" 
d="M332 283l-135 48q-71 26 -97 73t-15 122q8 57 27 93t52.5 53.5t71 23.5t96.5 6q120 0 207 -22l-11 -72q-103 5 -196 5q-34 0 -49.5 -0.5t-36.5 -5t-30.5 -14.5t-18 -29t-12.5 -48q-6 -49 6.5 -67t59.5 -35l132 -47q76 -27 100.5 -71.5t13.5 -124.5q-15 -110 -71.5 -146.5
t-188.5 -36.5q-109 0 -213 20l13 74q156 -5 199 -5q88 1 120 19.5t41 84.5q6 49 -7 67.5t-58 34.5zM177 -99l12 45q66 6 92.5 -8t18.5 -61q-11 -64 -63.5 -97t-124.5 -23l18 51q38 -1 66.5 18.5t34.5 50.5q2 15 -8 19.5t-46 4.5z" />
    <glyph glyph-name="scedilla" unicode="&#x15f;" horiz-adv-x="508" 
d="M283 182l-131 60q-55 26 -78 58.5t-16 83.5q8 67 57 93t149 24q113 -2 209 -17l-12 -69q-127 4 -194 5q-66 0 -88.5 -7t-26.5 -36q-3 -25 9.5 -37t48.5 -28l132 -60q60 -28 82 -57.5t15 -83.5q-4 -33 -17 -55.5t-30.5 -35.5t-48 -20t-60 -9t-75.5 -2q-48 0 -75.5 1.5
t-61 6t-52.5 6.5l11 72q56 -5 153 -5q92 0 124 10t37 40q1 5 1 10t-0.5 8.5t-3 7t-4 6t-5.5 5.5t-7 5t-9 5t-9.5 4.5t-11 5t-12.5 5.5zM143 -98l11 45q67 6 93.5 -8t17.5 -61q-10 -64 -62.5 -97t-125.5 -23l18 51q38 -1 66.5 18t34.5 51q3 14 -6.5 18.5t-46.5 5.5z" />
    <glyph glyph-name="Scaron" unicode="&#x160;" horiz-adv-x="562" 
d="M527 871l-149 -129h-70l-117 136l39 35l113 -99h8l146 99zM332 283l-135 48q-71 26 -97 73t-15 122q8 57 27 93t52.5 53.5t71 23.5t96.5 6q120 0 207 -22l-11 -72q-103 5 -196 5q-34 0 -49.5 -0.5t-36.5 -5t-30.5 -14.5t-18 -29t-12.5 -48q-6 -49 6.5 -67t59.5 -35
l132 -47q76 -27 100.5 -71.5t13.5 -124.5q-15 -110 -71.5 -146.5t-188.5 -36.5q-109 0 -213 20l13 74q156 -5 199 -5q88 1 120 19.5t41 84.5q6 49 -7 67.5t-58 34.5z" />
    <glyph glyph-name="scaron" unicode="&#x161;" horiz-adv-x="508" 
d="M483 692l-149 -129h-70l-117 135l39 36l112 -100h8l147 100zM283 182l-131 60q-55 26 -78 58.5t-16 83.5q8 67 57 93t149 24q113 -2 209 -17l-12 -69q-127 4 -194 5q-66 0 -88.5 -7t-26.5 -36q-3 -25 9.5 -37t48.5 -28l132 -60q60 -28 82 -57.5t15 -83.5
q-4 -33 -17 -55.5t-30.5 -35.5t-48 -20t-60 -9t-75.5 -2q-48 0 -75.5 1.5t-61 6t-52.5 6.5l11 72q56 -5 153 -5q92 0 124 10t37 40q1 5 1 10t-0.5 8.5t-3 7t-4 6t-5.5 5.5t-7 5t-9 5t-9.5 4.5t-11 5t-12.5 5.5z" />
    <glyph glyph-name="Tcedilla" unicode="&#x162;" horiz-adv-x="576" 
d="M600 601h-219l-85 -601h-100l85 601h-218l13 89h536zM177 -87l12 45q66 6 92.5 -8t18.5 -61q-11 -64 -63.5 -97t-124.5 -23l18 51q38 -1 66.5 18t34.5 51q2 14 -7.5 18.5t-46.5 5.5z" />
    <glyph glyph-name="tcedilla" unicode="&#x163;" horiz-adv-x="385" 
d="M225 413l-39 -274q-5 -35 6.5 -47.5t46.5 -12.5h73l4 -75q-44 -13 -114 -13q-65 0 -93.5 36t-19.5 103l40 283h-89l9 70l91 5l21 143h95l-20 -143h150l-10 -75h-151zM109 -97l12 45q65 7 92 -7.5t19 -60.5q-11 -64 -63 -97t-125 -24l18 51q38 -1 66.5 18.5t34.5 50.5
q2 15 -7.5 19.5t-46.5 4.5z" />
    <glyph glyph-name="Tcaron" unicode="&#x164;" horiz-adv-x="576" 
d="M319 742l-117 136l39 35l112 -99h8l147 99l30 -42l-149 -129h-70zM600 601h-219l-85 -601h-100l85 601h-218l13 89h536z" />
    <glyph glyph-name="tcaron" unicode="&#x165;" horiz-adv-x="385" 
d="M351 775h26q33 0 27 -31l-7 -55q-8 -57 -54 -135l-43 14q26 82 30 103q-14 -1 -21 6.5t-5 20.5l7 49q4 17 11.5 22.5t28.5 5.5zM236 488h150l-10 -75h-151l-39 -274q-5 -35 6.5 -47.5t46.5 -12.5h73l4 -75q-44 -13 -114 -13q-65 0 -93.5 36t-19.5 103l40 283h-89l9 70
l91 5l21 143h95z" />
    <glyph glyph-name="Tbar" unicode="&#x166;" horiz-adv-x="576" 
d="M381 601l-26 -186h144l-7 -54h-145l-51 -361h-100l51 361h-131l7 54h132l26 186h-218l13 89h536l-12 -89h-219z" />
    <glyph glyph-name="tbar" unicode="&#x167;" horiz-adv-x="385" 
d="M225 413l-12 -85h128l-7 -55h-129l-19 -134q-5 -35 6.5 -47.5t46.5 -12.5h73l4 -75q-44 -13 -114 -13q-65 0 -93.5 36t-19.5 103l21 143h-65l7 55h65l12 85h-89l9 70l91 5l21 143h95l-20 -143h150l-10 -75h-151z" />
    <glyph glyph-name="Umacron" unicode="&#x16a;" horiz-adv-x="664" 
d="M542 782h-282l10 71h282zM642 690l-61 -426q-21 -151 -86 -214t-196 -63q-135 0 -190 66t-34 216l58 421h101l-60 -426q-15 -106 11.5 -147t110.5 -41q87 0 129 43t57 150l59 421h101z" />
    <glyph glyph-name="umacron" unicode="&#x16b;" horiz-adv-x="569" 
d="M472 607h-283l10 71h283zM523 488l-68 -488h-75l6 102q-119 -115 -222 -115q-66 0 -96 36.5t-21 99.5l51 365h97l-49 -340q-6 -43 6 -60.5t46 -17.5q41 0 80 24t107 84l42 310h96z" />
    <glyph glyph-name="Uring" unicode="&#x16e;" horiz-adv-x="664" 
d="M412 927q50 0 79.5 -31t23.5 -80q-6 -43 -36 -72.5t-77 -29.5q-50 0 -79 31t-24 79q5 44 35 73.5t78 29.5zM413 879q-26 0 -42.5 -16.5t-19.5 -41.5q-3 -28 12 -43.5t39 -15.5q26 0 42.5 17t18.5 43q2 25 -11.5 41t-38.5 16zM642 690l-61 -426q-21 -151 -86 -214
t-196 -63q-135 0 -190 66t-34 216l58 421h101l-60 -426q-15 -106 11.5 -147t110.5 -41q87 0 129 43t57 150l59 421h101z" />
    <glyph glyph-name="uring" unicode="&#x16f;" horiz-adv-x="569" 
d="M331 539q-50 0 -79 31t-24 79q5 44 35.5 73.5t77.5 29.5q50 0 80 -31t24 -80q-5 -44 -35.5 -73t-78.5 -29zM281 646q-3 -28 12 -43.5t39 -15.5q25 0 41.5 17t19.5 43q2 25 -12 41t-39 16q-26 0 -42.5 -16.5t-18.5 -41.5zM523 488l-68 -488h-75l6 102q-119 -115 -222 -115
q-66 0 -96 36.5t-21 99.5l51 365h97l-49 -340q-6 -43 6 -60.5t46 -17.5q41 0 80 24t107 84l42 310h96z" />
    <glyph glyph-name="Uhungarumlaut" unicode="&#x170;" horiz-adv-x="664" 
d="M457 881l-158 -161l-41 32l140 171zM626 881l-159 -161l-39 32l138 171zM642 690l-61 -426q-21 -151 -86 -214t-196 -63q-135 0 -190 66t-34 216l58 421h101l-60 -426q-15 -106 11.5 -147t110.5 -41q87 0 129 43t57 150l59 421h101z" />
    <glyph glyph-name="uhungarumlaut" unicode="&#x171;" horiz-adv-x="569" 
d="M228 545l-40 32l139 171l59 -42zM358 577l138 171l59 -42l-158 -161zM427 488h96l-68 -488h-75l6 102q-119 -115 -222 -115q-66 0 -96 36.5t-21 99.5l51 365h97l-49 -340q-6 -43 6 -60.5t46 -17.5q41 0 80 24t107 84z" />
    <glyph glyph-name="Uogonek" unicode="&#x172;" horiz-adv-x="664" 
d="M642 690l-61 -426q-20 -143 -79 -206.5t-175 -69.5q-46 -49 -82 -112q-19 -33 -1 -43t65 6l12 -42q-40 -15 -71.5 -18.5t-50 4t-28.5 21.5t-8.5 33.5t12.5 41.5q28 55 102 109q-123 5 -173 71.5t-29 209.5l58 421h101l-60 -426q-15 -106 11.5 -147t110.5 -41q87 0 129 43
t57 150l59 421h101z" />
    <glyph glyph-name="uogonek" unicode="&#x173;" horiz-adv-x="569" 
d="M523 488l-68 -488q-48 -51 -85 -115q-19 -33 -1 -43t65 6l12 -42q-40 -15 -71.5 -18.5t-50 4t-28.5 21.5t-9 33.5t12 41.5q30 56 107 112h-26l6 102q-119 -115 -222 -115q-66 0 -96 36.5t-21 99.5l51 365h97l-49 -340q-6 -43 6 -60.5t46 -17.5q41 0 80 24t107 84l42 310
h96z" />
    <glyph glyph-name="Wcircumflex" unicode="&#x174;" horiz-adv-x="946" 
d="M713 763l-35 -38l-121 101h-8l-149 -99l-28 42l148 129h69zM973 690l-226 -663q-11 -27 -41 -27h-109q-14 0 -24 9t-11 23l-31 507l-3 38.5t-2 38.5h-21l-25 -81l-170 -507q-9 -28 -40 -28h-108q-15 0 -25.5 9t-11.5 22l-42 659h102l24 -528q1 -14 1.5 -43.5t0.5 -44.5
h23q4 14 29 92l166 493q10 31 41 31h105q14 0 23.5 -10t10.5 -25l36 -494q4 -58 3 -87h24l27 90l169 526h105z" />
    <glyph glyph-name="wcircumflex" unicode="&#x175;" horiz-adv-x="857" 
d="M639 584l-35 -38l-120 101h-9l-149 -98l-27 42l147 129h69zM208 76h14q29 0 49 38q23 43 49 133q23 84 43 217q3 24 27 24h106q21 0 24 -22l45 -390h12q21 0 41 32q40 62 67 139q38 104 58 241h101q-32 -152 -85 -280q-46 -108 -83 -155q-40 -53 -92 -53h-64
q-12 0 -20 7.5t-10 18.5l-42 399h-13q-8 -90 -37 -202q-27 -90 -61 -152q-39 -71 -119 -71h-55q-26 0 -31 26l-90 462h101z" />
    <glyph glyph-name="Ycircumflex" unicode="&#x176;" horiz-adv-x="571" 
d="M210 728l-27 42l147 129h69l124 -135l-35 -38l-121 101h-8zM325 238l-33 -238h-101l35 243l-163 447h101l99 -285q14 -44 18 -80h9q13 41 40 83l178 282h109z" />
    <glyph glyph-name="ycircumflex" unicode="&#x177;" horiz-adv-x="545" 
d="M158 549l-27 42l148 129h68l125 -136l-36 -38l-120 101h-8zM430 488h101q-54 -238 -141 -403q-78 -148 -154.5 -210t-182.5 -80l-18 69q64 15 112 45t92 91h-45q-23 0 -39 12.5t-20 34.5l-94 441h102l74 -395q3 -17 20 -17h49q4 7 11 20.5l9 17.5q88 183 124 374z" />
    <glyph glyph-name="Ydieresis" unicode="&#x178;" horiz-adv-x="571" 
d="M281 765h-32q-27 0 -24 25l9 56q4 27 31 27h29q28 0 25 -27l-9 -55q-3 -26 -29 -26zM449 765h-33q-25 0 -24 25l9 56q5 27 31 27h30q28 0 24 -27l-9 -55q-3 -26 -28 -26zM325 238l-33 -238h-101l35 243l-163 447h101l99 -285q14 -44 18 -80h9q13 41 40 83l178 282h109z
" />
    <glyph glyph-name="Zacute" unicode="&#x179;" horiz-adv-x="564" 
d="M312 726l-29 45l196 147l46 -75zM569 690l-13 -85l-429 -520h364l-12 -85h-474l12 85l429 520h-351l13 85h461z" />
    <glyph glyph-name="zacute" unicode="&#x17a;" horiz-adv-x="508" 
d="M249 547l-28 45l196 146l45 -74zM475 409l-348 -330h305l-11 -79h-415l10 79l348 330h-297l11 79h407z" />
    <glyph glyph-name="Zdotaccent" unicode="&#x17b;" horiz-adv-x="564" 
d="M369 756h-31q-14 0 -21 8.5t-5 21.5l7 56q3 27 29 27h31q31 0 28 -31l-8 -55q-4 -27 -30 -27zM569 690l-13 -85l-429 -520h364l-12 -85h-474l12 85l429 520h-351l13 85h461z" />
    <glyph glyph-name="zdotaccent" unicode="&#x17c;" horiz-adv-x="508" 
d="M307 576h-31q-14 0 -21.5 8.5t-5.5 22.5l7 55q4 27 30 27h31q14 0 21.5 -8.5t5.5 -21.5l-8 -56q-4 -27 -29 -27zM475 409l-348 -330h305l-11 -79h-415l10 79l348 330h-297l11 79h407z" />
    <glyph glyph-name="Zcaron" unicode="&#x17d;" horiz-adv-x="564" 
d="M316 742l-116 136l39 35l112 -99h8l147 99l29 -42l-148 -129h-71zM569 690l-13 -85l-429 -520h364l-12 -85h-474l12 85l429 520h-351l13 85h461z" />
    <glyph glyph-name="zcaron" unicode="&#x17e;" horiz-adv-x="508" 
d="M254 563l-117 135l39 36l113 -100h8l147 100l29 -42l-149 -129h-70zM475 409l-348 -330h305l-11 -79h-415l10 79l348 330h-297l11 79h407z" />
    <glyph glyph-name="florin" unicode="&#x192;" horiz-adv-x="444" 
d="M467 620h-70q-44 0 -66 -16t-32 -61l-33 -142h137l-17 -76h-138l-77 -332q-17 -71 -56 -106.5t-112 -35.5q-67 0 -108 7l19 73h65q42 0 64.5 18t32.5 59l74 317h-98l14 67l102 8l37 158q33 143 172 143q64 0 109 -8z" />
    <glyph glyph-name="Scommaaccent" unicode="&#x218;" horiz-adv-x="562" 
d="M332 283l-135 48q-71 26 -97 73t-15 122q8 57 27 93t52.5 53.5t71 23.5t96.5 6q120 0 207 -22l-11 -72q-103 5 -196 5q-34 0 -49.5 -0.5t-36.5 -5t-30.5 -14.5t-18 -29t-12.5 -48q-6 -49 6.5 -67t59.5 -35l132 -47q76 -27 100.5 -71.5t13.5 -124.5q-15 -110 -71.5 -146.5
t-188.5 -36.5q-109 0 -213 20l13 74q156 -5 199 -5q88 1 120 19.5t41 84.5q6 49 -7 67.5t-58 34.5zM247 -58h26q34 0 28 -31l-8 -55q-8 -59 -54 -134l-43 14q24 69 31 103q-14 -1 -21.5 6t-5.5 20l7 49q4 17 12 22.5t28 5.5z" />
    <glyph glyph-name="scommaaccent" unicode="&#x219;" horiz-adv-x="508" 
d="M283 182l-131 60q-55 26 -78 58.5t-16 83.5q8 67 57 93t149 24q113 -2 209 -17l-12 -69q-127 4 -194 5q-66 0 -88.5 -7t-26.5 -36q-3 -25 9.5 -37t48.5 -28l132 -60q60 -28 82 -57.5t15 -83.5q-4 -33 -17 -55.5t-30.5 -35.5t-48 -20t-60 -9t-75.5 -2q-48 0 -75.5 1.5
t-61 6t-52.5 6.5l11 72q56 -5 153 -5q92 0 124 10t37 40q1 5 1 10t-0.5 8.5t-3 7t-4 6t-5.5 5.5t-7 5t-9 5t-9.5 4.5t-11 5t-12.5 5.5zM200 -58h26q33 0 27 -31l-7 -55q-8 -59 -54 -134l-43 14q25 77 30 103q-14 -1 -21 6.5t-5 19.5l7 49q4 17 11.5 22.5t28.5 5.5z" />
    <glyph glyph-name="uni021A" unicode="&#x21a;" horiz-adv-x="576" 
d="M600 601h-219l-85 -601h-100l85 601h-218l13 89h536zM229 -58h26q34 0 28 -31l-7 -55q-8 -59 -54 -134l-43 14q25 77 30 103q-14 -1 -21 6t-6 20l8 49q4 17 11.5 22.5t27.5 5.5z" />
    <glyph glyph-name="uni021B" unicode="&#x21b;" horiz-adv-x="385" 
d="M225 413l-39 -274q-5 -35 6.5 -47.5t46.5 -12.5h73l4 -75q-44 -13 -114 -13q-65 0 -93.5 36t-19.5 103l40 283h-89l9 70l91 5l21 143h95l-20 -143h150l-10 -75h-151zM174 -58h26q34 0 27 -31l-7 -55q-8 -59 -54 -134l-43 14q22 63 30 103q-14 -1 -21 6.5t-5 19.5l7 49
q4 17 11.5 22.5t28.5 5.5z" />
    <glyph glyph-name="circumflex" unicode="&#x2c6;" horiz-adv-x="425" 
d="M436 579l-35 -38l-120 101h-9l-149 -98l-27 41l147 129h69z" />
    <glyph glyph-name="caron" unicode="&#x2c7;" horiz-adv-x="425" 
d="M443 687l-149 -129h-70l-117 135l39 35l112 -99h8l147 99z" />
    <glyph glyph-name="breve" unicode="&#x2d8;" horiz-adv-x="378" 
d="M357 700l48 -11q-5 -60 -50 -96.5t-116 -36.5q-76 0 -114 38.5t-25 98.5l49 3q-4 -33 19.5 -51t69.5 -18q51 0 82.5 19.5t36.5 53.5z" />
    <glyph glyph-name="dotaccent" unicode="&#x2d9;" horiz-adv-x="223" 
d="M155 687h31q14 0 22 -8.5t6 -21.5l-8 -56q-4 -27 -30 -27h-31q-14 0 -21 8.5t-5 22.5l7 55q4 27 29 27z" />
    <glyph glyph-name="ring" unicode="&#x2da;" horiz-adv-x="302" 
d="M211 743q49 0 79 -31t25 -79q-6 -44 -36 -73.5t-78 -29.5q-50 0 -79 31t-24 79q5 44 35 73.5t78 29.5zM212 695q-26 0 -42.5 -16.5t-18.5 -41.5q-4 -28 11.5 -43t39.5 -15q25 0 41.5 16.5t18.5 42.5q2 25 -11.5 41t-38.5 16z" />
    <glyph glyph-name="ogonek" unicode="&#x2db;" horiz-adv-x="251" 
d="M105 3l45 -3q-48 -51 -85 -115q-19 -33 -1 -43t65 6l12 -42q-40 -15 -71.5 -18.5t-50 4t-28.5 21.5t-8.5 33.5t12.5 41.5q30 58 110 115z" />
    <glyph glyph-name="tilde" unicode="&#x2dc;" horiz-adv-x="423" 
d="M143 580l-44 4q2 60 27.5 90.5t62.5 27.5q34 -3 76.5 -26.5t66.5 -26.5q29 -4 42.5 8.5t17.5 41.5l44 -4q-1 -58 -26 -88t-64 -27t-83 27.5t-61 27.5q-28 3 -41.5 -10.5t-17.5 -44.5z" />
    <glyph glyph-name="hungarumlaut" unicode="&#x2dd;" horiz-adv-x="463" 
d="M297 689l-158 -160l-40 32l139 171zM466 689l-159 -160l-39 32l139 171z" />
    <glyph glyph-name="Delta" unicode="&#x394;" horiz-adv-x="631" 
d="M573 40l-6 -40h-582l5 40l333 650h100zM465 81l-93 434q-6 31 -11 78q-17 -49 -33 -80l-213 -432h350z" />
    <glyph glyph-name="Omega" unicode="&#x3a9;" horiz-adv-x="715" 
d="M21 88h96q33 0 67 -7q-61 60 -87 131t-12 168q22 164 99.5 243.5t225.5 79.5q291 0 244 -332q-16 -107 -57 -171.5t-127 -119.5q32 8 65 8h101l-11 -88h-255l9 85q79 52 117 115.5t52 165.5q19 134 -13 191.5t-129 57.5q-100 0 -149.5 -60t-69.5 -199q-15 -104 4.5 -161
t82.5 -112l-10 -83h-254z" />
    <glyph glyph-name="mu" unicode="&#x3bc;" horiz-adv-x="595" 
d="M537 488l-69 -488h-73v71q-112 -84 -197 -84q-46 0 -79 22q3 -38 -1 -72l-20 -136h-85l48 340l48 347h97l-48 -340q-4 -37 11 -53t53 -16q62 0 170 57l48 352h97z" />
    <glyph glyph-name="pi" unicode="&#x3c0;" horiz-adv-x="640" 
d="M631 410h-90l-58 -410h-96l57 410h-215l-57 -410h-97l58 410h-91l11 78h589z" />
    <glyph glyph-name="uni0401" unicode="&#x401;" horiz-adv-x="560" 
d="M311 785h-33q-27 0 -24 25l9 56q4 26 31 26h29q16 0 21.5 -6t3.5 -20l-9 -55q-3 -26 -28 -26zM478 785h-32q-27 0 -24 25l9 56q3 26 31 26h29q16 0 21 -6t3 -20l-8 -55q-3 -26 -29 -26zM551 606h-272q-32 0 -47.5 -14.5t-19.5 -50.5l-19 -140h291l-10 -77h-292l-24 -178
q-4 -34 7.5 -48t44.5 -14h267l-2 -78q-86 -8 -277 -8q-80 0 -115.5 38.5t-26.5 106.5l59 427q8 58 47 90t105 32q207 0 297 -8z" />
    <glyph glyph-name="uni0402" unicode="&#x402;" horiz-adv-x="748" 
d="M381 601l-31 -223q97 66 206 66q80 0 120.5 -47t23.5 -167q-20 -133 -92 -186t-196 -49l-4 73q95 8 136 40.5t56 119.5q4 44 4 69.5t-13.5 39t-27.5 17.5t-36 4q-50 0 -91 -15t-98 -52l-41 -291h-100l85 601h-218l13 89h536l-12 -89h-220z" />
    <glyph glyph-name="uni0403" unicode="&#x403;" horiz-adv-x="516" 
d="M532 843l-213 -117l-29 45l196 147zM40 0l78 558q9 65 47.5 99.5t96.5 34.5q201 0 289 -9l-14 -77h-246q-40 0 -55 -14t-21 -57l-75 -535h-100z" />
    <glyph glyph-name="uni0404" unicode="&#x404;" 
d="M582 681l-16 -77q-79 8 -155 8q-58 0 -94 -8t-65 -31t-46 -64t-29 -108h289l-10 -77h-291q-15 -93 -4 -146.5t42.5 -74.5t97.5 -25q80 -4 194 10l5 -77q-95 -28 -201 -23q-157 7 -208 87.5t-26 273.5q27 202 103 277.5t235 75.5q101 0 179 -21z" />
    <glyph glyph-name="uni0405" unicode="&#x405;" horiz-adv-x="562" 
d="M332 283l-135 48q-71 26 -97 73t-15 122q8 57 27 93t52.5 53.5t71 23.5t96.5 6q120 0 207 -22l-11 -72q-103 5 -196 5q-34 0 -49.5 -0.5t-36.5 -5t-30.5 -14.5t-18 -29t-12.5 -48q-6 -49 6.5 -67t59.5 -35l132 -47q76 -27 100.5 -71.5t13.5 -124.5q-15 -110 -71.5 -146.5
t-188.5 -36.5q-109 0 -213 20l13 74q156 -5 199 -5q88 1 120 19.5t41 84.5q6 49 -7 67.5t-58 34.5z" />
    <glyph glyph-name="uni0406" unicode="&#x406;" horiz-adv-x="266" 
d="M143 0h-101l97 690h101z" />
    <glyph glyph-name="uni0407" unicode="&#x407;" horiz-adv-x="267" 
d="M117 873h29q16 0 21 -6.5t3 -20.5l-9 -55q-1 -26 -28 -26h-32q-27 0 -24 25l9 56q3 27 31 27zM284 873h29q29 0 25 -27l-9 -55q-3 -26 -29 -26h-32q-27 0 -24 25l9 56q5 27 31 27zM143 0h-101l97 690h101z" />
    <glyph glyph-name="uni0408" unicode="&#x408;" horiz-adv-x="342" 
d="M318 690l-76 -541q-11 -78 -50.5 -118.5t-102.5 -39.5q-61 0 -99 14l19 71h46q76 0 87 72l75 542h101z" />
    <glyph glyph-name="uni0409" unicode="&#x409;" horiz-adv-x="974" 
d="M585 417h131q127 0 173.5 -49t29.5 -170q-16 -118 -69 -162t-169 -44q-165 0 -254 8l86 609h-105q-38 0 -56.5 -15.5t-27.5 -56.5l-20.5 -92.5t-20 -85.5l-17 -65t-19.5 -65t-20.5 -49t-27.5 -51q-38 -60 -86.5 -91.5t-117.5 -39.5l-4 88q77 16 117 76q10 16 18.5 32.5
t15 30.5t14.5 38.5t12.5 40t13 50.5t13 55.5l15.5 70l18 79.5q15 67 52 99t101 32h242zM538 80l123 -1q85 0 116 25.5t42 102.5q11 74 -9.5 101t-99.5 27h-136z" />
    <glyph glyph-name="uni040A" unicode="&#x40a;" horiz-adv-x="976" 
d="M586 417h133q127 0 173 -49t29 -170q-16 -119 -68.5 -162.5t-169.5 -43.5q-166 0 -254 8l47 334h-285l-47 -334h-101l97 690h101l-39 -274h285l39 274h99zM539 80l129 -1q82 0 112 25.5t41 102.5q11 74 -9.5 101t-99.5 27h-137z" />
    <glyph glyph-name="uni040B" unicode="&#x40b;" horiz-adv-x="767" 
d="M381 601l-32 -227q113 70 222 70q166 0 144 -160l-40 -284h-100l38 268q7 50 -9.5 69t-67.5 19t-95 -15.5t-105 -54.5l-40 -286h-100l85 601h-218l13 89h536l-12 -89h-219z" />
    <glyph glyph-name="uni040C" unicode="&#x40c;" horiz-adv-x="601" 
d="M333 726l-29 45l196 147l46 -75zM344 360l-1 -4q79 -11 117 -84q26 -52 61 -214q10 -46 12 -58h-101q-4 17 -10 49l-12 57.5l-11 49t-12 44.5l-13 35.5t-16 31l-19 22.5t-23.5 18t-28.5 8.5t-35 3.5h-71q1 -27 -5 -73l-34 -246h-100l97 690h100l-31 -213q-4 -42 -16 -77
h66q81 0 145 91q31 44 107 199h103l-26.5 -56l-23.5 -49.5t-24.5 -48l-23 -40t-24.5 -38l-24.5 -30t-27.5 -27.5l-28 -19t-32.5 -15.5t-34.5 -6.5z" />
    <glyph glyph-name="uni040D" unicode="&#x40d;" horiz-adv-x="692" 
d="M466 770l-34 -44l-195 122l52 69zM568 0h-96l65 465q7 45 20 102h-5q-34 -61 -46 -78l-354 -489h-110l97 690h97l-65 -465q-8 -52 -22 -102h5q18 34 50 80l352 487h109z" />
    <glyph glyph-name="uni040E" unicode="&#x40e;" horiz-adv-x="568" 
d="M467 888l48 -11q-4 -60 -49 -96.5t-116 -36.5q-76 0 -114.5 38.5t-25.5 97.5l49 4q-4 -33 20 -51t70 -18q51 0 82 19.5t36 53.5zM612 690l-255 -520q-40 -83 -81.5 -127.5t-100.5 -49.5q-62 -5 -131 16l16 72q36 -2 56 -3t40 2.5t29 7.5t22 18t20.5 26.5l23.5 40.5l16 27
h-33q-56 0 -67 51l-95 439h100l79 -393q3 -13 17 -13h42l195 406h107z" />
    <glyph glyph-name="uni040F" unicode="&#x40f;" horiz-adv-x="676" 
d="M648 690l-97 -690h-207l-25 -151h-70l17 151h-223l97 690h101l-86 -609h307l85 609h101z" />
    <glyph glyph-name="uni0410" unicode="&#x410;" horiz-adv-x="623" 
d="M442 208h-276l-92 -208h-106l310 665q10 25 39 25h102q13 0 22.5 -8.5t10.5 -20.5l125 -661h-100zM428 296l-43 259q-4 20 -8 60h-30l-26 -60l-116 -259h223z" />
    <glyph glyph-name="uni0411" unicode="&#x411;" horiz-adv-x="597" 
d="M227 606l-29 -209h134q129 0 175 -45.5t30 -160.5q-17 -116 -69.5 -158t-169.5 -42q-154 0 -256 9l97 690q108 6 217 6q105 0 213 -6l-21 -84h-321zM187 319l-34 -242h131q82 0 112 24.5t41 99.5q9 72 -10.5 95t-99.5 23h-140z" />
    <glyph glyph-name="uni0412" unicode="&#x412;" horiz-adv-x="620" 
d="M42 0l97 690q81 8 226 8q127 0 176 -40t34 -144q-11 -75 -43 -112t-95 -43l-1 -5q138 -11 112 -186q-16 -104 -68 -140t-172 -36q-175 0 -266 8zM196 396h138q72 0 103.5 24t41.5 90q9 63 -16 83t-103 20h-134zM151 78l142 -1q82 0 115 23.5t43 92.5q10 74 -15.5 99.5
t-106.5 26.5h-144z" />
    <glyph glyph-name="uni0413" unicode="&#x413;" horiz-adv-x="516" 
d="M40 0l78 558q9 65 47.5 99.5t96.5 34.5q201 0 289 -9l-14 -77h-246q-40 0 -55 -14t-21 -57l-75 -535h-100z" />
    <glyph glyph-name="uni0414" unicode="&#x414;" horiz-adv-x="697" 
d="M639 81l-10 -74l-22 -158h-78l13 151h-475l-31 -151h-78l22 152l11 80h65q109 180 169 478q11 63 51.5 97t103.5 34h259l-85 -609h85zM454 81l74 528h-125q-69 0 -83 -72q-54 -286 -154 -456h288z" />
    <glyph glyph-name="uni0415" unicode="&#x415;" horiz-adv-x="560" 
d="M551 606h-272q-32 0 -47.5 -14.5t-19.5 -50.5l-19 -140h291l-10 -77h-292l-24 -178q-4 -34 7.5 -48t44.5 -14h267l-2 -78q-86 -8 -277 -8q-80 0 -115.5 38.5t-26.5 106.5l59 427q8 58 47 90t105 32q207 0 297 -8z" />
    <glyph glyph-name="uni0416" unicode="&#x416;" horiz-adv-x="906" 
d="M654 360l-1 -4q41 -5 68.5 -26.5t46 -66t31.5 -96t31 -136.5l6 -31h-99q-39 179 -48 206q-27 86 -75 105q-20 8 -46 8h-68q2 -37 -3 -73l-34 -246h-96l35 250q4 27 16 69h-64q-30 0 -55 -11.5t-44 -29t-43.5 -56.5t-42 -72.5l-49.5 -97.5l-26 -52h-106q90 190 124 243
q60 93 135 112q13 3 28 5l1 4q-27 4 -48 15t-37.5 35.5t-27.5 45.5t-22.5 66t-18 73.5t-18.5 90.5h98l6 -29q10 -51 15.5 -75t16 -61t20 -54.5t24 -36.5t32.5 -26.5t42 -7.5h72q-1 35 5 80l29 210h96l-31 -213q-4 -38 -15 -77h60q72 0 135 92q32 47 106 198h102
q-78 -169 -106 -214q-60 -95 -137 -113q-10 -2 -20 -3z" />
    <glyph glyph-name="uni0417" unicode="&#x417;" horiz-adv-x="549" 
d="M106 605l-3 77q84 16 194 16q119 0 170 -41t37 -143q-11 -75 -42.5 -112t-94.5 -43l-1 -5q135 -13 110 -186q-14 -102 -64.5 -139t-172.5 -37q-145 0 -240 24l12 72q110 -14 211 -14q78 0 111.5 24.5t43.5 94.5q10 73 -15.5 99t-103.5 26h-121l10 79h117q69 0 100 24
t40 89q10 66 -13 86.5t-100 20.5q-72 0 -185 -12z" />
    <glyph glyph-name="uni0418" unicode="&#x418;" horiz-adv-x="692" 
d="M568 0h-96l65 465q7 45 20 102h-5q-34 -61 -46 -78l-354 -489h-110l97 690h97l-65 -465q-8 -52 -22 -102h5q18 34 50 80l352 487h109z" />
    <glyph glyph-name="uni0419" unicode="&#x419;" horiz-adv-x="692" 
d="M510 883h73q-4 -62 -49 -100.5t-116 -38.5q-76 0 -114.5 38.5t-25.5 100.5h72q-13 -86 74 -86q76 0 86 86zM568 0h-96l65 465q7 45 20 102h-5q-34 -61 -46 -78l-354 -489h-110l97 690h97l-65 -465q-8 -52 -22 -102h5q18 34 50 80l352 487h109z" />
    <glyph glyph-name="uni041A" unicode="&#x41a;" horiz-adv-x="601" 
d="M344 360l-1 -4q79 -11 117 -84q26 -52 61 -214q10 -46 12 -58h-101q-4 17 -10 49l-12 57.5l-11 49t-12 44.5l-13 35.5t-16 31l-19 22.5t-23.5 18t-28.5 8.5t-35 3.5h-71q1 -27 -5 -73l-34 -246h-100l97 690h100l-31 -213q-4 -42 -16 -77h66q81 0 145 91q31 44 107 199
h103l-26.5 -56l-23.5 -49.5t-24.5 -48l-23 -40t-24.5 -38l-24.5 -30t-27.5 -27.5l-28 -19t-32.5 -15.5t-34.5 -6.5z" />
    <glyph glyph-name="uni041B" unicode="&#x41b;" horiz-adv-x="654" 
d="M626 690l-97 -690h-100l86 609h-124q-39 0 -57.5 -15.5t-26.5 -56.5q-32 -140 -45 -191.5t-33 -111.5t-46 -105q-77 -134 -203 -131l-4 82q36 10 63 27.5t52 57.5q35 55 56.5 127.5t64.5 270.5q28 127 159 127h255z" />
    <glyph glyph-name="uni041C" unicode="&#x41c;" horiz-adv-x="880" 
d="M685 690h109q20 0 30 -11.5t8 -31.5l-63 -647h-99l63 607h-19l-209 -493q-13 -32 -46 -32h-87q-35 0 -40 36l-77 489h-20l-106 -607h-100l118 651q6 39 44 39h107q32 0 37 -36l65 -404q4 -23 11 -94h18l21.5 53t15.5 39l173 409q13 32 46 33z" />
    <glyph glyph-name="uni041D" unicode="&#x41d;" horiz-adv-x="668" 
d="M641 690l-97 -690h-100l46 324h-302l-45 -324h-101l97 690h101l-40 -279h302l39 279h100z" />
    <glyph glyph-name="uni041E" unicode="&#x41e;" horiz-adv-x="667" 
d="M387 703q147 0 202 -82.5t27 -279.5q-27 -199 -97.5 -276.5t-219.5 -77.5q-147 0 -203.5 81.5t-29.5 280.5q26 196 97 275t224 79zM382 614q-100 0 -144.5 -57.5t-67.5 -215.5q-21 -152 6.5 -208.5t124.5 -56.5q98 0 143.5 58.5t67.5 214.5q22 155 -5.5 210t-124.5 55z
" />
    <glyph glyph-name="uni041F" unicode="&#x41f;" horiz-adv-x="670" 
d="M643 690l-97 -690h-101l86 609h-303l-85 -609h-101l97 690h504z" />
    <glyph glyph-name="uni0420" unicode="&#x420;" horiz-adv-x="590" 
d="M42 0l97 690q86 9 237 9q123 0 169.5 -51t29.5 -171q-10 -68 -27 -109.5t-47.5 -65t-70.5 -32t-103 -8.5q-61 0 -147 10l-38 -272h-100zM191 348h132q79 0 110 28t43 109q11 76 -12 102t-92 26q-105 0 -144 -1z" />
    <glyph glyph-name="uni0421" unicode="&#x421;" horiz-adv-x="568" 
d="M494 88l5 -77q-83 -23 -206 -23q-149 0 -202 85.5t-25 275.5q27 196 97 274.5t220 78.5q107 0 191 -21l-16 -76q-79 8 -177 8q-67 0 -105.5 -22t-64.5 -81t-41 -169q-22 -150 5 -206.5t120 -57.5q112 -1 199 11z" />
    <glyph glyph-name="uni0422" unicode="&#x422;" horiz-adv-x="576" 
d="M600 601h-219l-85 -601h-100l85 601h-218l13 89h536z" />
    <glyph glyph-name="uni0423" unicode="&#x423;" horiz-adv-x="568" 
d="M612 690l-255 -520q-40 -83 -81.5 -127.5t-100.5 -49.5q-62 -5 -131 16l16 72q36 -2 56 -3t40 2.5t29 7.5t22 18t20.5 26.5l23.5 40.5l16 27h-33q-56 0 -67 51l-95 439h100l79 -393q3 -13 17 -13h42l195 406h107z" />
    <glyph glyph-name="uni0424" unicode="&#x424;" horiz-adv-x="819" 
d="M525 737l-13 -98q167 -8 230 -74t42 -218q-22 -153 -100.5 -216t-254.5 -69l-13 -97h-100l13 98q-171 8 -232.5 73.5t-39.5 218.5q21 152 100.5 215.5t253.5 69.5l13 97h101zM495 556l-58 -410q124 7 176.5 52t69.5 157q15 111 -24.5 154t-163.5 47zM345 146l58 410
q-124 -6 -176.5 -51t-68.5 -158q-16 -111 23.5 -154t163.5 -47z" />
    <glyph glyph-name="uni0425" unicode="&#x425;" horiz-adv-x="613" 
d="M411 357l140 -357h-102l-121 320h-25l-208 -320h-116l242 357l-129 333h102l109 -294h26l197 294h110z" />
    <glyph glyph-name="uni0426" unicode="&#x426;" horiz-adv-x="691" 
d="M634 81l-11 -81l-21 -151h-78l13 151h-494l97 690h101l-86 -609h294l86 609h100l-86 -609h85z" />
    <glyph glyph-name="uni0427" unicode="&#x427;" horiz-adv-x="626" 
d="M599 690l-97 -690h-100l45 323q-60 -37 -123 -56t-111 -19q-83 0 -118 39.5t-24 121.5l40 281h100l-36 -265q-8 -48 8.5 -68t65.5 -20q52 0 98.5 16.5t111.5 53.5l40 283h100z" />
    <glyph glyph-name="uni0428" unicode="&#x428;" horiz-adv-x="933" 
d="M906 690l-97 -690h-767l97 690h98l-85 -609h236l86 609h97l-85 -609h237l85 609h98z" />
    <glyph glyph-name="uni0429" unicode="&#x429;" horiz-adv-x="958" 
d="M816 81h84l-11 -81l-21 -151h-78l13 151h-760l97 690h98l-86 -609h234l86 609h98l-86 -609h234l85 609h98z" />
    <glyph glyph-name="uni042A" unicode="&#x42a;" horiz-adv-x="741" 
d="M352 417h132q126 0 172.5 -49t30.5 -170q-16 -118 -69 -162t-169 -44q-166 0 -255 8l84 601h-216l12 89h317zM305 80l129 -1q82 0 112 25.5t41 102.5q11 74 -9.5 101t-99.5 27h-137z" />
    <glyph glyph-name="uni042B" unicode="&#x42b;" horiz-adv-x="853" 
d="M201 417h134q126 0 172.5 -49t30.5 -170q-16 -118 -69 -162t-170 -44q-167 0 -257 8l97 690h101zM826 690l-97 -690h-101l97 690h101zM154 80l130 -1q82 0 112.5 25.5t41.5 102.5q10 74 -10.5 101t-98.5 27h-139z" />
    <glyph glyph-name="uni042C" unicode="&#x42c;" horiz-adv-x="592" 
d="M201 417h134q126 0 172.5 -49t30.5 -170q-16 -118 -69 -162t-170 -44q-167 0 -257 8l97 690h101zM154 80l130 -1q82 0 112.5 25.5t41.5 102.5q10 74 -10.5 101t-98.5 27h-139z" />
    <glyph glyph-name="uni042D" unicode="&#x42d;" horiz-adv-x="576" 
d="M101 604l-4 78q78 20 177 20q164 0 221 -79.5t30 -281.5q-25 -194 -97.5 -271t-225.5 -82q-112 -4 -200 25l15 75q91 -14 186 -10q100 5 146.5 58t70.5 189h-294l10 77h294q4 35 4 63t-4 49.5t-10 37t-17.5 26.5t-24 17.5t-31 10t-37 5t-44.5 1.5q-82 0 -165 -8z" />
    <glyph glyph-name="uni042E" unicode="&#x42e;" horiz-adv-x="930" 
d="M200 399h151q30 170 97.5 237t199.5 67q145 0 202.5 -82t29.5 -280q-29 -201 -99 -277.5t-222 -76.5q-140 0 -191 74.5t-29 256.5h-151l-44 -318h-101l97 690h101zM775 349q21 151 -6 208t-121 57q-95 0 -140.5 -59.5t-67.5 -213.5q-21 -151 4.5 -208t116.5 -57
q99 0 145.5 59.5t68.5 213.5z" />
    <glyph glyph-name="uni042F" unicode="&#x42f;" horiz-adv-x="613" 
d="M489 0h-101l39 277l-136 -1q-36 0 -59.5 -16t-39.5 -55l-85 -205h-109l91 214q46 94 112 98l1 4q-44 8 -70.5 39t-34 71.5t-0.5 86.5q14 102 72 144t172 42q145 0 245 -9zM439 362l35 250q-36 1 -132 1q-70 0 -102 -24.5t-42 -88.5q-10 -68 12.5 -103t86.5 -35h142z" />
    <glyph glyph-name="uni0430" unicode="&#x430;" horiz-adv-x="578" 
d="M462 0h-76l4 90q-88 -102 -211 -102q-89 0 -120 58t-10 204q11 81 31 132.5t53 76.5t68 33.5t90 8.5q118 0 238 -26zM389 176l35 242q-92 2 -103 2q-52 0 -79.5 -5t-48 -25.5t-29.5 -52.5t-18 -94q-14 -109 -4 -140t57 -31t91 25.5t99 78.5z" />
    <glyph glyph-name="uni0431" unicode="&#x431;" 
d="M541 726l9 -86q-55 -21 -127.5 -29.5t-95.5 -14.5q-39 -10 -66 -24.5t-44 -37t-26 -41.5t-20 -51l-21 -70h2q28 46 70.5 73.5t120.5 27.5q111 0 147 -61t23 -176q-15 -131 -74 -189.5t-179 -58.5q-48 0 -83.5 9t-58 23.5t-36.5 39.5t-20 48.5t-6 60.5t3 65t9 72
q10 70 20 115t26.5 90t39.5 73t58 51t83 38q35 10 113.5 21.5t132.5 31.5zM318 391q-83 0 -115.5 -36.5t-43.5 -120.5q-12 -92 10 -128.5t93 -36.5q68 0 102 37t48 135q13 89 -6.5 119.5t-87.5 30.5z" />
    <glyph glyph-name="uni0432" unicode="&#x432;" horiz-adv-x="544" 
d="M358 263l-1 -3q70 -5 96.5 -39.5t16.5 -103.5q-11 -72 -60.5 -101t-165.5 -29q-45 0 -77 4t-58 15.5t-40.5 30t-22.5 48t-7 70t9 95.5q12 80 31 129.5t51.5 76.5t72.5 36t104 9q30 0 53 -2t52.5 -10t46.5 -21.5t26 -40.5t2 -64q-18 -88 -129 -100zM149 281l119 12
q69 7 94.5 23t31.5 45q9 36 -14 49t-87 13q-72 0 -99.5 -25.5t-44.5 -116.5zM264 224l-125 -12q-8 -40 -5 -67t6.5 -42.5t18.5 -23.5t30.5 -10.5t43.5 -2.5q74 0 105 16t38 63q6 48 -17.5 67t-94.5 12z" />
    <glyph glyph-name="uni0433" unicode="&#x433;" horiz-adv-x="520" 
d="M76 392l-2 77q90 27 202 32q32 0 62 0.5t56.5 -6.5t45.5 -18.5t28.5 -35t5.5 -57.5t-20 -61.5t-39.5 -44t-42 -25.5t-39.5 -17q-4 -1 -6 -2l-141 -56q-34 -15 -48.5 -27.5t-16.5 -32.5q-3 -30 16.5 -39t64.5 -8q123 3 238 39l3 -79q-112 -44 -239 -44q-93 0 -140 32
t-39 101q6 50 37.5 81.5t95.5 56.5l129 50q51 18 71.5 34t22.5 40q2 25 -20 33t-92 5q-78 -4 -193 -28z" />
    <glyph glyph-name="uni0434" unicode="&#x434;" horiz-adv-x="567" 
d="M148 641l15 71q51 -6 92 -16t82 -26.5t69.5 -39.5t54 -55.5t36.5 -74.5t16 -97t-7 -123q-21 -149 -79.5 -221t-187.5 -72q-114 0 -159.5 57.5t-29.5 177.5q29 227 225 227q88 0 140 -51q-1 54 -15 94t-34.5 64t-58.5 41.5t-71 25.5t-88 18zM245 68q76 0 110.5 50.5
t51.5 172.5q4 31 5 43q-49 33 -115 33q-69 0 -102.5 -37t-44.5 -115q-12 -80 10.5 -113.5t84.5 -33.5z" />
    <glyph glyph-name="uni0435" unicode="&#x435;" horiz-adv-x="539" 
d="M443 81l6 -65q-71 -28 -201 -28q-125 0 -173 65.5t-30 203.5q19 141 77.5 192.5t192.5 51.5q114 0 155 -40t30 -118q-12 -71 -56 -102.5t-135 -38.5l-169 -15q-1 -69 29 -93.5t94 -24.5q68 0 180 12zM146 259l163 15q46 3 67 19.5t27 57.5q6 47 -15.5 58t-87.5 11
q-76 0 -107.5 -31.5t-46.5 -129.5z" />
    <glyph glyph-name="uni0436" unicode="&#x436;" horiz-adv-x="757" 
d="M532 254l-1 -2q64 -8 89 -51t58 -173q4 -18 7 -28h-92q-33 135 -48 165q-24 48 -73 52h-10h-54q2 -29 -2 -48l-23 -169h-87l25 173q3 19 11 44h-51q-23 0 -42.5 -9t-34.5 -21t-35.5 -44.5t-35 -58.5l-45.5 -84h-99l20 38l42.5 80.5t34.5 56t37.5 44t39.5 23t52 13.5l1 3
q-28 4 -48 15.5t-33 26t-24.5 47.5t-18 59.5t-18.5 81.5h92q26 -113 48.5 -155.5t75.5 -42.5h53q-2 28 3 58l19 140h87l-21 -144q-5 -33 -11 -54h41q53 0 88.5 42.5t95.5 155.5h96l-27.5 -54.5t-23 -44t-24 -40.5l-22 -30t-24 -27l-24.5 -17.5t-30.5 -14.5t-33.5 -6z" />
    <glyph glyph-name="uni0437" unicode="&#x437;" horiz-adv-x="500" 
d="M76 408l-3 72q63 17 159 17q122 0 171.5 -28t38.5 -107q-8 -54 -34.5 -80t-84.5 -31l-1 -2q63 -5 87.5 -37t15.5 -95q-11 -78 -58.5 -102t-166.5 -24q-125 0 -201 16l12 73q96 -8 184 -8q78 0 103.5 13.5t31.5 59.5q5 40 -16.5 53.5t-89.5 14.5l-123 2l8 69h118
q63 0 89 15.5t32 57.5q5 38 -15.5 48.5t-99.5 10.5t-157 -8z" />
    <glyph glyph-name="uni0438" unicode="&#x438;" horiz-adv-x="573" 
d="M525 488l-68 -488h-75l6 102q-119 -115 -222 -115q-67 0 -97 36t-21 100l51 365h98l-49 -340q-6 -43 5.5 -60.5t45.5 -17.5q41 0 80.5 24t106.5 84l43 310h96z" />
    <glyph glyph-name="uni0439" unicode="&#x439;" horiz-adv-x="573" 
d="M421 704h73q-5 -62 -49.5 -101t-115.5 -39q-75 0 -114 39t-26 101h72q-13 -87 74 -87q76 0 86 87zM525 488l-68 -488h-75l6 102q-119 -115 -222 -115q-67 0 -97 36t-21 100l51 365h98l-49 -340q-6 -43 5.5 -60.5t45.5 -17.5q41 0 80.5 24t106.5 84l43 310h96z" />
    <glyph glyph-name="uni043A" unicode="&#x43a;" horiz-adv-x="536" 
d="M305 254l-1 -2q70 -7 96 -49.5t57 -169.5q5 -22 8 -33h-96q-34 130 -46 157q-23 49 -71 57q-11 2 -26 2h-70q2 -25 -2 -48l-24 -168h-96l69 488h96l-20 -143q-5 -31 -13 -54h59q64 0 100 42t92 155h103q-65 -131 -104 -178t-111 -56z" />
    <glyph glyph-name="uni043B" unicode="&#x43b;" horiz-adv-x="567" 
d="M520 488l-69 -488h-97l59 413h-94q-30 0 -46 -14t-25 -49q-32 -136 -80 -248q-25 -60 -67.5 -84.5t-107.5 -22.5l-7 79q49 9 64 21q18 13 32 43q30 66 77 236q15 59 46.5 86.5t89.5 27.5h225z" />
    <glyph glyph-name="uni043C" unicode="&#x43c;" horiz-adv-x="750" 
d="M556 488h98q17 0 26.5 -10.5t7.5 -27.5l-44 -450h-88l39 415h-15l-158 -331q-13 -29 -39 -29h-76q-28 0 -35 33l-67 327h-17l-75 -415h-89l82 454q6 34 39 34h97q27 0 34 -33l53 -260q10 -56 12 -77h16q18 50 29 72l130 269q13 29 40 29z" />
    <glyph glyph-name="uni043D" unicode="&#x43d;" horiz-adv-x="582" 
d="M535 488l-69 -488h-96l32 222h-241l-31 -222h-96l69 488h95l-27 -192h241l27 192h96z" />
    <glyph glyph-name="uni043E" unicode="&#x43e;" horiz-adv-x="569" 
d="M309 501q126 0 173.5 -60.5t28.5 -200.5q-19 -138 -79 -195.5t-184 -57.5t-173 60.5t-30 199.5q19 138 78.5 196t185.5 58zM309 419q-77 0 -112.5 -37t-50.5 -142q-14 -100 7 -136t95 -36q78 0 113.5 38.5t49.5 140.5q14 101 -7 136.5t-95 35.5z" />
    <glyph glyph-name="uni043F" unicode="&#x43f;" horiz-adv-x="584" 
d="M180 488l-5 -105q132 118 231 118q62 0 94 -35.5t22 -101.5l-52 -364h-96l47 340q6 46 -3.5 62.5t-41.5 16.5q-42 0 -85.5 -24.5t-117.5 -82.5l-42 -312h-97l69 488h77z" />
    <glyph glyph-name="uni0440" unicode="&#x440;" horiz-adv-x="580" 
d="M180 488l-6 -104q48 48 107 82t108 34q58 0 89 -22t43 -80.5t-4 -159.5q-11 -82 -31 -133t-52 -76.5t-66 -33.5t-87 -8q-70 0 -154 13q-2 -58 -7 -93l-18 -107h-97l98 688h77zM175 310l-33 -242q46 -1 103 -1q52 0 79 5t47.5 25t29.5 53t18 95q14 109 3.5 140t-56.5 31
q-33 0 -84.5 -28t-106.5 -78z" />
    <glyph glyph-name="uni0441" unicode="&#x441;" horiz-adv-x="490" 
d="M412 80l6 -66q-75 -26 -171 -26q-129 0 -175.5 60t-26.5 200t79 196.5t185 56.5q98 0 160 -26l-15 -60q-60 4 -130 4q-88 0 -126.5 -35.5t-51.5 -142.5t11.5 -139.5t107.5 -32.5q85 0 147 11z" />
    <glyph glyph-name="uni0442" unicode="&#x442;" horiz-adv-x="875" 
d="M177 488l-5 -104q116 117 211 117q56 0 85.5 -29t29.5 -81q57 58 105 84t97 26q64 0 93 -36.5t20 -100.5l-51 -364h-96l48 340q6 44 -7 61.5t-45 17.5q-35 0 -70.5 -22.5t-103.5 -86.5l-43 -310h-94l48 340q5 42 -6 60.5t-46 18.5q-36 0 -71.5 -22.5t-102.5 -83.5
l-43 -313h-96l69 488h74z" />
    <glyph glyph-name="uni0443" unicode="&#x443;" horiz-adv-x="547" 
d="M432 488h100q-45 -213 -138 -404q-47 -98 -98 -163t-98.5 -92t-97.5 -36.5t-96 2.5l9 79q130 -25 233 126h-50q-23 0 -39 12.5t-20 34.5l-94 441h102l74 -395q3 -17 20 -17h51l19 37q90 181 123 375z" />
    <glyph glyph-name="uni0444" unicode="&#x444;" horiz-adv-x="720" 
d="M462 700l-27 -201q140 -8 192.5 -68.5t34.5 -190.5t-86.5 -187.5t-213.5 -63.5l-26 -188h-89l25 188q-141 8 -193.5 68.5t-34.5 189.5q19 131 87.5 189t213.5 64l28 200h89zM419 419l-50 -348q98 5 142.5 44.5t57.5 131.5q13 93 -19.5 130.5t-130.5 41.5zM288 70l49 348
q-97 -6 -141.5 -46t-58.5 -132q-12 -92 20.5 -128.5t130.5 -41.5z" />
    <glyph glyph-name="uni0445" unicode="&#x445;" horiz-adv-x="531" 
d="M347 252l123 -252h-97l-102 216h-22l-163 -216h-108l196 253l-114 235h97l90 -197h27l149 197h105z" />
    <glyph glyph-name="uni0446" unicode="&#x446;" horiz-adv-x="601" 
d="M531 0l-21 -149h-82l31 149q-36 2 -56.5 25.5t-16.5 67.5v6q-118 -112 -220 -112q-67 0 -97 36t-21 100l51 365h98l-49 -340q-6 -43 5.5 -60.5t45.5 -17.5q41 0 80 24t107 83l43 311h96l-54 -394q-2 -22 18 -22h52z" />
    <glyph glyph-name="uni0447" unicode="&#x447;" horiz-adv-x="540" 
d="M493 488l-69 -488h-97l30 214q-102 -48 -184 -48q-70 -1 -101 27t-23 83l30 212h97l-25 -183q-6 -36 5 -48t49 -12q74 0 163 52l27 191h98z" />
    <glyph glyph-name="uni0448" unicode="&#x448;" horiz-adv-x="857" 
d="M809 488l-69 -488h-75l5 102q-108 -115 -202 -115q-55 0 -84.5 28.5t-29.5 79.5q-102 -108 -193 -108q-63 0 -92.5 36.5t-20.5 99.5l51 365h97l-48 -340q-6 -40 7 -56t47 -16q35 0 64 19t98 83l43 310h94l-48 -340q-5 -38 6.5 -55t47.5 -17q26 0 51 12.5t42.5 27
l68.5 59.5l44 313h96z" />
    <glyph glyph-name="uni0449" unicode="&#x449;" horiz-adv-x="885" 
d="M825 72l-10 -72l-21 -149h-82l34 149q-37 1 -59 24.5t-18 68.5l1 9q-108 -115 -202 -115q-55 0 -84.5 28.5t-29.5 79.5q-102 -108 -193 -108q-63 0 -92.5 36.5t-20.5 99.5l51 365h97l-48 -340q-6 -40 7 -56t47 -16q35 0 64 19t98 83l43 310h94l-48 -340q-5 -38 6.5 -55
t47.5 -17q26 0 51 12.5t43 27t69 60.5l43 312h96l-54 -394q-3 -22 18 -22h52z" />
    <glyph glyph-name="uni044A" unicode="&#x44a;" horiz-adv-x="631" 
d="M355 488l-52 -197q47 13 87 13q115 0 155 -35t26 -124t-58.5 -120.5t-142.5 -31.5q-19 0 -33 0.5t-34 2t-34.5 4.5t-32 9.5t-28.5 14.5t-21.5 21t-14.5 29.5t-4 38.5t7 49l67 249h-204l11 77h306zM284 220l-19 -74q-10 -45 15 -61t75 -16q60 0 85 17.5t34 69.5
q8 45 -10.5 61.5t-78.5 16.5q-48 0 -101 -14z" />
    <glyph glyph-name="uni044B" unicode="&#x44b;" horiz-adv-x="724" 
d="M193 488l-29 -203q57 19 107 19q115 0 154 -34.5t27 -124.5q-12 -88 -56.5 -120t-143.5 -32q-22 0 -33 0.5l-34 1.5t-36.5 5l-33 10t-30.5 17t-21.5 25t-14 35t-0.5 47l51 354h93zM676 488l-68 -488h-98l69 488h97zM155 217l-12 -84q-6 -39 18 -51.5t75 -12.5
q61 0 86.5 18t32.5 69q7 45 -11 61.5t-78 16.5q-48 0 -111 -17z" />
    <glyph glyph-name="uni044C" unicode="&#x44c;" horiz-adv-x="512" 
d="M193 488l-29 -203q57 19 107 19q115 0 154 -34.5t27 -124.5q-12 -88 -56.5 -120t-143.5 -32q-22 0 -33 0.5l-34 1.5t-36.5 5l-33 10t-30.5 17t-21.5 25t-14 35t-0.5 47l51 354h93zM155 217l-12 -84q-6 -39 18 -51.5t75 -12.5q61 0 86.5 18t32.5 69q7 45 -11 61.5
t-78 16.5q-48 0 -111 -17z" />
    <glyph glyph-name="uni044D" unicode="&#x44d;" horiz-adv-x="509" 
d="M72 409l-4 68q58 18 152 18q142 0 194.5 -55.5t33.5 -201.5q-18 -142 -80.5 -196.5t-201.5 -52.5q-97 1 -164 22l13 67q73 -6 141 -6q95 -3 134.5 25.5t55.5 116.5h-246l10 69h245q7 84 -23 107.5t-117 23.5q-75 0 -143 -5z" />
    <glyph glyph-name="uni044E" unicode="&#x44e;" horiz-adv-x="799" 
d="M172 289h119q23 120 78.5 166t167.5 46q127 0 174.5 -57t27.5 -203q-20 -144 -77.5 -197t-185.5 -53q-118 0 -163 48.5t-33 174.5h-119l-30 -214h-96l68 488h97zM639 249q14 99 -8 134.5t-97 35.5q-76 0 -110.5 -38t-47.5 -139q-14 -99 6.5 -134.5t92.5 -35.5
q79 0 115 38.5t49 138.5z" />
    <glyph glyph-name="uni044F" unicode="&#x44f;" horiz-adv-x="540" 
d="M493 487l-69 -487h-95l25 178h-113q-77 0 -95 -49l-47 -129h-98l50 143q14 36 44 53t63 15l1 4q-106 20 -90 136q9 88 62 115.5t173 27.5q102 0 189 -7zM365 250l23 166h-121q-58 0 -79 -15t-27 -62q-6 -49 10 -69t68 -20h126z" />
    <glyph glyph-name="uni0451" unicode="&#x451;" horiz-adv-x="539" 
d="M254 586h-32q-27 0 -24 25l9 55q4 27 31 27h29q16 0 21.5 -6t3.5 -21l-9 -54q-3 -26 -29 -26zM422 586h-33q-26 0 -23 25l8 55q4 27 32 27h29q16 0 21 -6t3 -21l-9 -54q-1 -26 -28 -26zM443 81l6 -65q-71 -28 -201 -28q-125 0 -173 65.5t-30 203.5q19 141 77.5 192.5
t192.5 51.5q114 0 155 -40t30 -118q-12 -71 -56 -102.5t-135 -38.5l-169 -15q-1 -69 29 -93.5t94 -24.5q68 0 180 12zM146 259l163 15q46 3 67 19.5t27 57.5q6 47 -15.5 58t-87.5 11q-76 0 -107.5 -31.5t-46.5 -129.5z" />
    <glyph glyph-name="uni0452" unicode="&#x452;" horiz-adv-x="580" 
d="M219 494l-14 -104q-7 -48 -16 -77q118 91 218 91q68 0 98.5 -35t21.5 -101l-38 -268h-97l35 244q5 42 -8.5 58t-55.5 16q-39 0 -79 -19.5t-103 -64.5l-31 -234h-98l70 494h-69l7 54h70l21 152h97l-21 -152h185l-8 -54h-185z" />
    <glyph glyph-name="uni0453" unicode="&#x453;" horiz-adv-x="520" 
d="M446 664l-213 -117l-29 45l196 146zM76 392l-2 77q90 27 202 32q32 0 62 0.5t56.5 -6.5t45.5 -18.5t28.5 -35t5.5 -57.5t-20 -61.5t-39.5 -44t-42 -25.5t-39.5 -17q-4 -1 -6 -2l-141 -56q-34 -15 -48.5 -27.5t-16.5 -32.5q-3 -30 16.5 -39t64.5 -8q123 3 238 39l3 -79
q-112 -44 -239 -44q-93 0 -140 32t-39 101q6 50 37.5 81.5t95.5 56.5l129 50q51 18 71.5 34t22.5 40q2 25 -20 33t-92 5q-78 -4 -193 -28z" />
    <glyph glyph-name="uni0454" unicode="&#x454;" horiz-adv-x="506" 
d="M484 475l-13 -66q-82 5 -142 5q-88 0 -125 -25.5t-54 -105.5h247l-9 -69h-248q-9 -88 18.5 -113t122.5 -29q47 -2 146 6l6 -68q-79 -21 -173 -21q-126 0 -180 58t-35 199q20 143 82.5 196t199.5 53q99 0 157 -20z" />
    <glyph glyph-name="uni0455" unicode="&#x455;" horiz-adv-x="511" 
d="M285 182l-131 60q-55 26 -78 58.5t-16 83.5q8 67 57 93t149 24q114 -2 208 -17l-11 -69q-126 4 -195 5q-65 0 -88 -7t-27 -36q-3 -25 10 -37t48 -28l133 -60q60 -28 82 -57.5t15 -83.5q-4 -33 -17 -55.5t-30.5 -35.5t-48 -20t-60 -9t-75.5 -2q-48 0 -75.5 1.5t-61 6
t-52.5 6.5l11 72q55 -5 152 -5q93 0 125 10t37 40q1 5 1 10t-0.5 8.5t-3 7t-4 6t-5.5 5.5t-7 5t-9 5t-9.5 4.5t-11 5t-12.5 5.5z" />
    <glyph glyph-name="uni0456" unicode="&#x456;" horiz-adv-x="255" 
d="M159 696h46q14 0 21 -8t5 -22l-7 -56q-4 -27 -30 -27h-46q-14 0 -21.5 8.5t-5.5 22.5l8 56q3 26 30 26zM135 0h-96l68 488h96z" />
    <glyph glyph-name="uni0457" unicode="&#x457;" horiz-adv-x="252" 
d="M252 693h29q16 0 21.5 -6t3.5 -21l-9 -54q-3 -26 -29 -26h-32q-27 0 -24 25l9 55q4 27 31 27zM85 693h29q16 0 21 -6t3 -21l-9 -54q-1 -26 -28 -26h-32q-27 0 -24 25l9 55q3 27 31 27zM133 0h-97l69 488h97z" />
    <glyph glyph-name="uni0458" unicode="&#x458;" horiz-adv-x="255" 
d="M159 696h46q14 0 21 -8t5 -22l-7 -56q-4 -27 -30 -27h-46q-14 0 -21.5 8.5t-5.5 22.5l8 56q3 26 30 26zM203 488l-70 -496q-8 -60 -40.5 -111.5t-82.5 -83.5l-52 45q67 70 79 155l70 491h96z" />
    <glyph glyph-name="uni0459" unicode="&#x459;" horiz-adv-x="806" 
d="M485 488l-29 -205q59 21 126 21q105 0 140 -37.5t24 -121.5q-13 -90 -57 -120t-142 -32q-102 -2 -155 27t-45 114l40 281h-75q-53 0 -66 -51q-27 -119 -43 -170t-44 -97q-59 -100 -169 -100l-4 76q53 7 90 56q25 33 39 76t39 149q5 23 8 35q24 99 121 99h202zM446 216
l-12 -83q-5 -38 18.5 -51t75.5 -13q64 0 89 17.5t32 69.5q7 45 -10.5 61.5t-71.5 16.5t-121 -18z" />
    <glyph glyph-name="uni045A" unicode="&#x45a;" horiz-adv-x="815" 
d="M497 488l-29 -204q55 20 107 20q114 0 153 -34.5t26 -124.5q-12 -88 -56 -120t-142 -32q-24 0 -37 0.5t-39 3t-41.5 7.5t-35 15t-29.5 24.5t-16 38t-3 52.5l15 100h-214l-33 -234h-89l69 488h89l-26 -184h214l26 184h91zM458 217l-12 -84q-5 -39 18.5 -51.5t75.5 -12.5
q60 0 85.5 17.5t32.5 69.5q6 45 -11.5 61.5t-75.5 16.5q-48 0 -113 -17z" />
    <glyph glyph-name="uni045B" unicode="&#x45b;" horiz-adv-x="580" 
d="M219 494l-11 -85q-8 -58 -19 -97q118 92 218 92q68 0 98.5 -35t21.5 -101l-39 -276q-9 -60 -41.5 -111.5t-81.5 -83.5l-52 45q67 70 79 155l35 247q5 42 -8.5 58t-55.5 16q-39 0 -79.5 -19.5t-103.5 -64.5l-30 -234h-98l70 494h-69l7 54h70l21 152h97l-21 -152h185
l-8 -54h-185z" />
    <glyph glyph-name="uni045C" unicode="&#x45c;" horiz-adv-x="536" 
d="M279 547l-29 45l196 146l46 -74zM305 254l-1 -2q70 -7 96 -49.5t57 -169.5q5 -22 8 -33h-96q-34 130 -46 157q-23 49 -71 57q-11 2 -26 2h-70q2 -25 -2 -48l-24 -168h-96l69 488h96l-20 -143q-5 -31 -13 -54h59q64 0 100 42t92 155h103q-65 -131 -104 -178t-111 -56z" />
    <glyph glyph-name="uni045D" unicode="&#x45d;" horiz-adv-x="573" 
d="M343 547l-195 122l52 68l177 -147zM525 488l-68 -488h-75l6 102q-119 -115 -222 -115q-67 0 -97 36t-21 100l51 365h98l-49 -340q-6 -43 5.5 -60.5t45.5 -17.5q41 0 80.5 24t106.5 84l43 310h96z" />
    <glyph glyph-name="uni045E" unicode="&#x45e;" horiz-adv-x="547" 
d="M392 704h74q-5 -62 -50 -101t-116 -39q-75 0 -113.5 39t-25.5 101h72q-13 -87 73 -87q77 0 86 87zM432 488h100q-45 -213 -138 -404q-47 -98 -98 -163t-98.5 -92t-97.5 -36.5t-96 2.5l9 79q130 -25 233 126h-50q-23 0 -39 12.5t-20 34.5l-94 441h102l74 -395
q3 -17 20 -17h51l19 37q90 181 123 375z" />
    <glyph glyph-name="uni045F" unicode="&#x45f;" horiz-adv-x="573" 
d="M525 488l-68 -488h-75l6 102q-119 -115 -222 -115q-67 0 -97 36t-21 100l51 365h98l-49 -340q-6 -43 5.5 -60.5t45.5 -17.5q41 0 80.5 24t106.5 84l43 310h96zM231 -41h64l-18 -190h-83z" />
    <glyph glyph-name="uni0490" unicode="&#x490;" horiz-adv-x="522" 
d="M555 675l-12 -69h-251q-38 0 -54.5 -14t-22.5 -57l-75 -535h-100l78 558q9 65 47 99.5t97 34.5q149 0 218 -7l33 156h68z" />
    <glyph glyph-name="uni0491" unicode="&#x491;" horiz-adv-x="457" 
d="M450 414h-206q-58 0 -67 -60l-49 -354h-96l54 384q15 107 120 107q121 0 182 -3l30 145h66l-23 -151z" />
    <glyph glyph-name="uni04B0" unicode="&#x4b0;" horiz-adv-x="582" 
d="M359 278h127l-9 -60h-146l-31 -218h-100l31 218h-149l9 60h130l-151 412h104l98 -285q11 -34 18 -80l9 4q28 59 40 79l179 282h107z" />
    <glyph glyph-name="uni04B1" unicode="&#x4b1;" horiz-adv-x="584" 
d="M330 78h128l-8 -61h-150l-30 -219h-101l31 219h-145l8 61h127l-150 410h102l99 -285q14 -43 18 -80h9q13 41 40 83l178 282h109z" />
    <glyph glyph-name="uni04B6" unicode="&#x4b6;" horiz-adv-x="666" 
d="M608 69l-9 -69l-22 -151h-77l13 151h-101l45 319q-125 -71 -245 -71q-79 0 -115.5 40t-24.5 121l40 281h100l-36 -265q-8 -49 9 -69.5t71 -20.5q51 0 99.5 16.5t113.5 53.5l40 285h100l-87 -621h86z" />
    <glyph glyph-name="uni04B7" unicode="&#x4b7;" horiz-adv-x="566" 
d="M493 5l-21 -149h-90l35 144h-90l30 214q-102 -48 -184 -48q-70 -1 -101 27t-23 83l30 212h97l-25 -183q-6 -36 5 -48t49 -12q74 0 164 52l27 191h97l-60 -410h70z" />
    <glyph glyph-name="uni04BA" unicode="&#x4ba;" horiz-adv-x="636" 
d="M240 690l-45 -319q125 71 244 71q79 0 116 -40.5t24 -120.5l-39 -281h-101l38 265q7 49 -10 69.5t-71 20.5q-90 0 -213 -71l-40 -284h-101l97 690h101z" />
    <glyph glyph-name="uni04C0" unicode="&#x4c0;" horiz-adv-x="268" 
d="M144 0h-101l97 690h101z" />
    <glyph glyph-name="Wgrave" unicode="&#x1e80;" horiz-adv-x="946" 
d="M588 769l-34 -43l-195 121l52 69zM973 690l-226 -663q-11 -27 -41 -27h-109q-14 0 -24 9t-11 23l-31 507l-3 38.5t-2 38.5h-21l-25 -81l-170 -507q-9 -28 -40 -28h-108q-15 0 -25.5 9t-11.5 22l-42 659h102l24 -528q1 -14 1.5 -43.5t0.5 -44.5h23q4 14 29 92l166 493
q10 31 41 31h105q14 0 23.5 -10t10.5 -25l36 -494q4 -58 3 -87h24l27 90l169 526h105z" />
    <glyph glyph-name="wgrave" unicode="&#x1e81;" horiz-adv-x="857" 
d="M515 590l-34 -43l-195 122l52 68zM208 76h14q29 0 49 38q23 43 49 133q23 84 43 217q3 24 27 24h106q21 0 24 -22l45 -390h12q21 0 41 32q40 62 67 139q38 104 58 241h101q-32 -152 -85 -280q-46 -108 -83 -155q-40 -53 -92 -53h-64q-12 0 -20 7.5t-10 18.5l-42 399h-13
q-8 -90 -37 -202q-27 -90 -61 -152q-39 -71 -119 -71h-55q-26 0 -31 26l-90 462h101z" />
    <glyph glyph-name="Wacute" unicode="&#x1e82;" horiz-adv-x="946" 
d="M711 842l-213 -116l-29 44l196 147zM973 690l-226 -663q-11 -27 -41 -27h-109q-14 0 -24 9t-11 23l-31 507l-3 38.5t-2 38.5h-21l-25 -81l-170 -507q-9 -28 -40 -28h-108q-15 0 -25.5 9t-11.5 22l-42 659h102l24 -528q1 -14 1.5 -43.5t0.5 -44.5h23q4 14 29 92l166 493
q10 31 41 31h105q14 0 23.5 -10t10.5 -25l36 -494q4 -58 3 -87h24l27 90l169 526h105z" />
    <glyph glyph-name="wacute" unicode="&#x1e83;" horiz-adv-x="857" 
d="M637 664l-213 -117l-29 45l196 146zM208 76h14q29 0 49 38q23 43 49 133q23 84 43 217q3 24 27 24h106q21 0 24 -22l45 -390h12q21 0 41 32q40 62 67 139q38 104 58 241h101q-32 -152 -85 -280q-46 -108 -83 -155q-40 -53 -92 -53h-64q-12 0 -20 7.5t-10 18.5l-42 399
h-13q-8 -90 -37 -202q-27 -90 -61 -152q-39 -71 -119 -71h-55q-26 0 -31 26l-90 462h101z" />
    <glyph glyph-name="Wdieresis" unicode="&#x1e84;" horiz-adv-x="946" 
d="M622 872h29q29 0 25 -27l-9 -55q-3 -26 -28 -26h-33q-27 0 -24 25l9 56q5 27 31 27zM455 872h29q28 0 25 -27l-9 -55q-3 -26 -29 -26h-32q-27 0 -24 25l9 56q4 27 31 27zM973 690l-226 -663q-11 -27 -41 -27h-109q-14 0 -24 9t-11 23l-31 507l-3 38.5t-2 38.5h-21
l-25 -81l-170 -507q-9 -28 -40 -28h-108q-15 0 -25.5 9t-11.5 22l-42 659h102l24 -528q1 -14 1.5 -43.5t0.5 -44.5h23q4 14 29 92l166 493q10 31 41 31h105q14 0 23.5 -10t10.5 -25l36 -494q4 -58 3 -87h24l27 90l169 526h105z" />
    <glyph glyph-name="wdieresis" unicode="&#x1e85;" horiz-adv-x="857" 
d="M381 693h29q16 0 21.5 -6t3.5 -21l-9 -54q-3 -26 -29 -26h-32q-27 0 -24 25l9 55q4 27 31 27zM549 693h29q16 0 21 -6t3 -21l-9 -54q-1 -26 -28 -26h-32q-27 0 -24 25l8 55q4 27 32 27zM208 76h14q29 0 49 38q23 43 49 133q23 84 43 217q3 24 27 24h106q21 0 24 -22
l45 -390h12q21 0 41 32q40 62 67 139q38 104 58 241h101q-32 -152 -85 -280q-46 -108 -83 -155q-40 -53 -92 -53h-64q-12 0 -20 7.5t-10 18.5l-42 399h-13q-8 -90 -37 -202q-27 -90 -61 -152q-39 -71 -119 -71h-55q-26 0 -31 26l-90 462h101z" />
    <glyph glyph-name="Ygrave" unicode="&#x1ef2;" horiz-adv-x="571" 
d="M364 726l-194 122l52 69l176 -147zM325 238l-33 -238h-101l35 243l-163 447h101l99 -285q14 -44 18 -80h9q13 41 40 83l178 282h109z" />
    <glyph glyph-name="ygrave" unicode="&#x1ef3;" horiz-adv-x="545" 
d="M313 547l-195 122l52 68l177 -147zM430 488h101q-54 -238 -141 -403q-78 -148 -154.5 -210t-182.5 -80l-18 69q64 15 112 45t92 91h-45q-23 0 -39 12.5t-20 34.5l-94 441h102l74 -395q3 -17 20 -17h49q4 7 11 20.5l9 17.5q88 183 124 374z" />
    <glyph glyph-name="endash" unicode="&#x2013;" horiz-adv-x="585" 
d="M505 216h-447l10 74h447z" />
    <glyph glyph-name="emdash" unicode="&#x2014;" horiz-adv-x="888" 
d="M808 216h-750l10 74h750z" />
    <glyph glyph-name="quoteleft" unicode="&#x2018;" horiz-adv-x="221" 
d="M151 484h-28q-38 0 -31 34l8 59q9 66 60 147l47 -15q-28 -81 -34 -112q33 2 30 -29l-9 -53q-4 -18 -12.5 -24.5t-30.5 -6.5z" />
    <glyph glyph-name="quoteright" unicode="&#x2019;" horiz-adv-x="219" 
d="M155 715h29q37 0 30 -35l-8 -59q-10 -68 -60 -146l-47 15q28 81 34 112q-15 -1 -23 7t-7 21l9 54q4 18 12.5 24.5t30.5 6.5z" />
    <glyph glyph-name="quotesinglbase" unicode="&#x201a;" horiz-adv-x="232" 
d="M79 114h29q37 0 30 -35l-8 -59q-10 -68 -60 -146l-47 15q28 81 34 112q-16 -1 -24 7t-6 21l8 54q5 18 13.5 24.5t30.5 6.5z" />
    <glyph glyph-name="quotedblleft" unicode="&#x201c;" horiz-adv-x="381" 
d="M151 484h-28q-38 0 -31 34l8 59q9 66 60 147l47 -15q-28 -81 -34 -112q33 2 30 -29l-9 -53q-4 -18 -12.5 -24.5t-30.5 -6.5zM311 484h-28q-37 0 -31 34l8 59q9 66 60 147l47 -15q-28 -81 -34 -112q33 2 30 -29l-8 -53q-5 -18 -13.5 -24.5t-30.5 -6.5z" />
    <glyph glyph-name="quotedblright" unicode="&#x201d;" horiz-adv-x="379" 
d="M155 715h29q37 0 30 -35l-8 -59q-10 -68 -60 -146l-47 15q28 81 34 112q-15 -1 -23 7t-7 21l9 54q4 18 12.5 24.5t30.5 6.5zM315 715h29q37 0 30 -35l-8 -59q-10 -67 -59 -146l-48 15q28 81 34 112q-15 -1 -23 7t-6 21l8 54q4 18 12.5 24.5t30.5 6.5z" />
    <glyph glyph-name="quotedblbase" unicode="&#x201e;" horiz-adv-x="392" 
d="M79 113h28q37 0 31 -34l-8 -60q-9 -65 -60 -146l-47 15q28 81 34 112q-16 -1 -24 7t-6 21l8 54q5 18 13.5 24.5t30.5 6.5zM239 113h28q37 0 31 -34l-8 -60q-9 -65 -60 -146l-47 15q28 81 34 112q-16 -1 -24 7t-6 21l8 54q5 18 13.5 24.5t30.5 6.5z" />
    <glyph glyph-name="dagger" unicode="&#x2020;" horiz-adv-x="453" 
d="M213 -110h-87l80 538l8 56l24 207h88l-33 -207l-8 -56zM54 404l11 84h130l-10 -73zM442 488l-11 -84l-129 11l10 73h130z" />
    <glyph glyph-name="daggerdbl" unicode="&#x2021;" horiz-adv-x="492" 
d="M313 486l-56 -393l-24 -203h-87l32 203l56 393l24 205h88zM204 415l-131 -11l12 84h130zM450 404l-129 11l11 73h130zM170 166l-10 -73h-130l11 84zM407 93h-130l10 73l131 11z" />
    <glyph glyph-name="bullet" unicode="&#x2022;" horiz-adv-x="363" 
d="M184 362h13q48 0 65.5 -20t10.5 -68l-2 -14q-7 -51 -27 -69t-69 -18h-13q-51 0 -68.5 20.5t-10.5 71.5l2 13q7 49 27.5 66.5t71.5 17.5z" />
    <glyph glyph-name="ellipsis" unicode="&#x2026;" horiz-adv-x="855" 
d="M67 124h32q37 0 33 -37l-8 -53q-3 -34 -37 -34h-32q-39 0 -33 37l8 54q3 33 37 33zM694 124h32q38 0 32 -37l-7 -53q-4 -34 -37 -34h-32q-38 0 -34 37l8 54q4 33 38 33zM380 124h32q39 0 33 -37l-7 -53q-4 -34 -38 -34h-31q-40 0 -34 37l8 54q4 33 37 33z" />
    <glyph glyph-name="perthousand" unicode="&#x2030;" horiz-adv-x="1272" 
d="M255 703q93 0 124.5 -48t15.5 -161q-16 -111 -57 -156t-129 -45q-91 0 -122 48t-16 161q16 111 56.5 156t127.5 45zM223 0h-75l538 690h75zM258 643q-57 0 -79.5 -31.5t-34.5 -117.5q-11 -81 1.5 -111t60.5 -30q59 0 81.5 31.5t34.5 117.5q12 80 -1 110.5t-63 30.5z
M700 399q93 0 124.5 -48t15.5 -160q-16 -111 -57 -156t-129 -45q-91 0 -122 48t-15 160q15 111 55.5 156t127.5 45zM1074 399q92 0 123.5 -48t15.5 -160q-15 -110 -56 -155.5t-129 -45.5q-92 0 -123 47.5t-15 160.5q16 111 56.5 156t127.5 45zM703 339q-57 0 -79.5 -31.5
t-34.5 -116.5q-11 -81 2 -111.5t61 -30.5q58 0 80.5 31.5t34.5 117.5q12 80 -1 110.5t-63 30.5zM1077 339q-58 0 -80 -31t-34 -117q-12 -81 1 -111.5t61 -30.5q59 0 81.5 31.5t34.5 117.5q11 80 -2 110.5t-62 30.5z" />
    <glyph glyph-name="guilsinglleft" unicode="&#x2039;" horiz-adv-x="296" 
d="M262 425l-148 -174l106 -181l-48 -32l-137 207l2 22l186 193z" />
    <glyph glyph-name="guilsinglright" unicode="&#x203a;" horiz-adv-x="297" 
d="M249 253l-2 -22l-186 -193l-39 36l149 174l-106 180l47 32z" />
    <glyph glyph-name="fraction" unicode="&#x2044;" horiz-adv-x="160" 
d="M-141 0h-76l531 690h77z" />
    <glyph glyph-name="Euro" unicode="&#x20ac;" horiz-adv-x="633" 
d="M626 681l-16 -78q-71 14 -156 9q-80 -3 -125 -42t-69 -124h249l-17 -58h-246q-2 -8 -4.5 -24.5l-3.5 -23.5l-3 -23h221l-17 -59h-208q-3 -92 29 -135t108 -45q92 -5 177 11l4 -78q-79 -23 -177 -23q-131 0 -190 66.5t-54 203.5h-85l9 59h80l4 32l6 39h-80l8 58h84
q33 131 105.5 193.5t201.5 62.5q90 0 165 -21z" />
    <glyph glyph-name="trademark" unicode="&#x2122;" horiz-adv-x="961" 
d="M832 696h72q12 0 18.5 -8t5.5 -21l-34 -351h-63l30 327h-11l-120 -260q-10 -20 -29 -20h-51q-24 0 -26 24l-50 256h-12l-59 -327h-64l64 356q4 24 26 24h70q23 0 26 -24l41 -211q2 -8 4 -26.5l3 -27.5h11q9 32 20 53l99 216q9 20 29 20zM437 639h-129l-45 -323h-69
l45 323h-129l8 57h327z" />
    <glyph glyph-name="partialdiff" unicode="&#x2202;" horiz-adv-x="570" 
d="M175 629l5 74q61 1 107 -3t87.5 -14t69.5 -28.5t49 -46.5t29.5 -67t7.5 -91.5t-13 -119.5q-31 -175 -99.5 -260t-192.5 -85q-60 0 -102 21t-61 55t-26 78t5 90q18 98 77.5 159t155.5 60q102 -2 152 -75q13 60 10 103.5t-14.5 72.5t-44.5 46t-80.5 24t-121.5 7zM228 75
q79 0 121 62.5t67 184.5q-52 47 -120 47q-132 0 -161 -145q-28 -149 93 -149z" />
    <glyph glyph-name="emptyset" unicode="&#x2205;" horiz-adv-x="685" 
d="M350 633q121 0 206.5 -85.5t85.5 -206.5t-85.5 -207t-206.5 -86q-122 0 -207.5 86t-85.5 207t86 206.5t207 85.5zM319 241h54q0 35 14.5 64.5t32.5 46.5t32.5 43.5t14.5 56.5q0 93 -117 93q-50 0 -122 -11l3 -45q60 9 119 9q66 0 66 -46q0 -21 -15 -44.5t-33.5 -42.5
t-33.5 -52t-15 -72zM366 171h-39q-7 0 -7 -8v-37q0 -7 7 -7h39q8 0 8 7v37q0 8 -8 8z" />
    <glyph glyph-name="product" unicode="&#x220f;" horiz-adv-x="717" 
d="M724 608h-101l-99 -710h-97l100 710h-251l-100 -710h-96l99 710h-101l12 82h646z" />
    <glyph glyph-name="summation" unicode="&#x2211;" horiz-adv-x="589" 
d="M575 609h-368l126 -266l-223 -376h385l-12 -81h-493l11 81l228 378l-125 264l11 81h472z" />
    <glyph glyph-name="minus" unicode="&#x2212;" horiz-adv-x="585" 
d="M508 259h-442l11 72h442z" />
    <glyph glyph-name="radical" unicode="&#x221a;" horiz-adv-x="565" 
d="M626 876l-375 -870q-2 -6 -10 -6h-112q-5 0 -10 3t-4 7l-59 478h78l51 -423h13l346 811h82z" />
    <glyph glyph-name="infinity" unicode="&#x221e;" horiz-adv-x="775" 
d="M596 448q62 0 97.5 -36t26.5 -105q-10 -69 -56.5 -107t-110.5 -38q-93 0 -165 92q-112 -92 -196 -92q-66 0 -104.5 40.5t-28.5 111.5q9 67 53 100.5t106 33.5q55 0 93.5 -25.5t77.5 -71.5q115 97 207 97zM140 304q-10 -71 66 -71q27 0 54 13t40.5 25l45.5 41
q-25 34 -49 49.5t-64 15.5q-83 0 -93 -73zM637 312q10 65 -60 65q-16 0 -31.5 -4t-26 -9t-24.5 -15.5t-21 -16.5t-21.5 -20l-19.5 -19q21 -29 44 -44.5t63 -15.5t66.5 20.5t30.5 58.5z" />
    <glyph glyph-name="integral" unicode="&#x222b;" horiz-adv-x="365" 
d="M112 -68l47 651q10 131 127 131q69 0 105 -4l-13 -69h-62q-68 0 -75 -78l-46 -654q-5 -68 -36 -99.5t-97 -31.5q-72 0 -100 4l13 69h60q36 0 54.5 19t22.5 62z" />
    <glyph glyph-name="approxequal" unicode="&#x2248;" horiz-adv-x="584" 
d="M142 322l-63 4q0 66 30 96t81 28q35 -2 112.5 -29t110.5 -28q26 -1 38 10.5t17 42.5l64 -3q1 -63 -27.5 -93.5t-86.5 -29.5q-39 1 -116 29t-105 29q-26 1 -38.5 -11.5t-16.5 -44.5zM115 130l-64 4q0 67 30 97t82 28q35 -2 112.5 -29.5t110.5 -28.5q26 -1 38 11t17 43
l64 -4q1 -62 -27 -92.5t-86 -29.5q-40 1 -117 28.5t-105 28.5q-26 1 -38.5 -11.5t-16.5 -44.5z" />
    <glyph glyph-name="notequal" unicode="&#x2260;" horiz-adv-x="613" 
d="M370 363l-104 -139h251l-10 -72h-294l-92 -123l-28 14l82 109h-110l10 72h153l104 139h-238l10 72h282l81 109l27 -15l-70 -94h122l-10 -72h-166z" />
    <glyph glyph-name="lessequal" unicode="&#x2264;" horiz-adv-x="561" 
d="M511 463l-342 -99l315 -93l-10 -75l-394 129l10 77l432 138zM465 74h-431l10 71h431z" />
    <glyph glyph-name="greaterequal" unicode="&#x2265;" horiz-adv-x="559" 
d="M501 402l-11 -77l-431 -129l13 80l339 95l-312 97l9 72zM465 74h-431l10 71h431z" />
    <glyph glyph-name="lozenge" unicode="&#x25ca;" horiz-adv-x="570" 
d="M39 357l293 335q9 10 15 -2l198 -337q5 -11 1 -18l-292 -338q-9 -11 -16 3l-199 339q-5 10 0 18zM117 345l139 -247l216 251l-142 245z" />
    <glyph glyph-name="c_t" horiz-adv-x="831" 
d="M672 413l-39 -274q-5 -35 6.5 -47.5t45.5 -12.5h74l3 -75q-43 -13 -113 -13q-65 0 -94 36t-19 103l40 283h-254q-88 0 -126.5 -34.5t-51.5 -137.5q-13 -107 11.5 -139.5t107.5 -32.5q85 0 147 11l7 -66q-75 -26 -172 -26q-129 0 -175 60t-26 200q20 131 79 185.5
t184 54.5h280l20 143h96l-20 -143h150l-10 -75h-151z" />
    <glyph glyph-name="f_f_y" horiz-adv-x="1233" 
d="M1117 488h101q-55 -242 -141 -403q-78 -148 -154.5 -210t-182.5 -80l-18 69q64 15 112 45t93 91h-45q-23 0 -39.5 12.5t-20.5 34.5l-69 326q-8 40 -50 40h-137l-64 -456q-20 -143 -159 -143q-54 0 -121 8l16 72h74q47 0 67 15.5t27 62.5l63 441h-240l-67 -469
q-20 -143 -159 -143q-54 0 -121 8l15 72h75q47 0 67 15.5t27 62.5l65 454h-89l9 70l91 5l11 76q21 142 160 142q87 0 142 -7l-15 -72h-96q-47 0 -68 -15.5t-28 -62.5l-9 -61h241l12 87q20 142 160 142q96 0 143 -7l-16 -72h-96q-47 0 -68 -15.5t-28 -62.5l-10 -72h159
q96 0 112 -94l56 -301q5 -17 21 -17h49l6 11.5t7 14l6 12.5q87 178 124 374z" />
    <glyph glyph-name="f_t" horiz-adv-x="722" 
d="M563 413l-39 -274q-5 -35 6.5 -47.5t45.5 -12.5h74l3 -75q-43 -13 -114 -13q-64 0 -93 36t-19 103l40 283h-239l-66 -469q-20 -143 -159 -143q-54 0 -121 8l15 72h75q47 0 67 15.5t27 62.5l64 454h-87l9 70l89 5l12 87q20 142 160 142q97 0 143 -7l-16 -72h-96
q-47 0 -67.5 -15.5t-27.5 -62.5l-11 -72h240l20 143h96l-21 -143h151l-10 -75h-151z" />
    <glyph glyph-name="f_y" horiz-adv-x="893" 
d="M778 488h101q-54 -238 -141 -403q-78 -148 -154.5 -210t-182.5 -80l-18 69q64 15 112 45t93 91h-46q-23 0 -39 12.5t-20 34.5l-69 326q-9 40 -50 40h-137l-65 -469q-20 -143 -159 -143q-54 0 -121 8l15 72h75q47 0 67 15.5t27 62.5l64 454h-88l9 70l89 5l13 87
q19 142 160 142q97 0 142 -7l-16 -72h-96q-47 0 -67.5 -16t-27.5 -62l-10 -72h159q95 0 111 -94l57 -301q3 -17 21 -17h49l5.5 11.5t7 14l6.5 12.5q88 183 124 374z" />
    <glyph glyph-name="s_t" horiz-adv-x="859" 
d="M700 413l-39 -274q-5 -35 6 -47.5t46 -12.5h73l4 -75q-43 -13 -114 -13q-64 0 -93 36t-19 103l40 283h-337q-66 0 -88.5 -6t-26.5 -30q-3 -25 9.5 -37t48.5 -28l132 -60q60 -28 82 -57.5t15 -83.5q-4 -33 -17 -55.5t-30.5 -35.5t-48 -20t-60 -9t-75.5 -2q-48 0 -75.5 1.5
t-61 6t-52.5 6.5l11 72q56 -5 153 -5q92 0 124 10t37 40q1 5 1 10t-0.5 8.5t-3 7t-4 6t-5.5 5.5t-7 5t-9 5t-9.5 4.5t-11 5t-12.5 5.5l-131 60q-55 26 -78 58.5t-16 83.5q8 59 57.5 82.5t148.5 21.5h351l20 143h95l-20 -143h151l-11 -75h-150z" />
    <glyph glyph-name="t_t" horiz-adv-x="743" 
d="M584 413l-39 -274q-5 -35 6.5 -47.5t45.5 -12.5h74l3 -75q-43 -13 -113 -13q-65 0 -94 36t-19 103l40 283h-263l-39 -274q-5 -35 6.5 -47.5t46.5 -12.5h73l4 -75q-44 -13 -114 -13q-65 0 -93.5 36t-19.5 103l40 283h-89l9 70l91 5l21 143h95l-20 -143h263l20 143h96
l-20 -143h150l-10 -75h-151z" />
    <glyph glyph-name="t_y" horiz-adv-x="914" 
d="M799 488h101q-54 -238 -141 -403q-78 -148 -154.5 -210t-182.5 -80l-18 69q64 15 112 45t93 91h-46q-23 0 -39 12.5t-20 34.5l-69 326q-9 40 -50 40h-160l-39 -274q-5 -35 6.5 -47.5t46.5 -12.5h73l4 -75q-44 -13 -114 -13q-65 0 -93.5 36t-19.5 103l40 283h-89l9 70
l91 5l21 143h95l-20 -143h169q108 0 127 -106l54 -289q5 -17 21 -17h49l6 11.5t7 14l6 12.5q87 178 124 374z" />
    <glyph glyph-name="brevecy" horiz-adv-x="377" 
d="M331 696h74q-5 -63 -50 -101.5t-116 -38.5q-75 0 -113.5 39t-25.5 101h72q-13 -87 73 -87q77 0 86 87z" />
    </font>
</defs>
</svg>
