<?xml version="1.0" standalone="no"?>
<!DOCTYPE svg PUBLIC "-//W3C//DTD SVG 1.1//EN" "http://www.w3.org/Graphics/SVG/1.1/DTD/svg11.dtd" >
<svg>
<metadata>
Created by FontForge 20090622 at Tue May 26 14:23:23 2015
 By deploy user
&#194;&#169; 2014 Microsoft Corporation. All Rights Reserved.
</metadata>
<defs>
<font id="SegoeUI-Italic" horiz-adv-x="0" >
  <font-face 
    font-family="Segoe UI"
    font-weight="400"
    font-style="italic"
    font-stretch="normal"
    units-per-em="2048"
    panose-1="2 11 5 2 4 2 4 9 2 3"
    ascent="1638"
    descent="-410"
    x-height="1024"
    cap-height="1434"
    bbox="-937 -514 2913 2150"
    underline-thickness="119"
    underline-position="-119"
    slope="-12"
    unicode-range="U+000D-U+FFFD"
  />
<missing-glyph horiz-adv-x="1322" 
d="M166 0v1398h990v-1398h-990zM314 148h694v1102h-694v-1102z" />
    <glyph glyph-name=".notdef" horiz-adv-x="1322" 
d="M166 0v1398h990v-1398h-990zM314 148h694v1102h-694v-1102z" />
    <glyph glyph-name="glyph1" 
 />
    <glyph glyph-name="uni000D" unicode="&#xd;" horiz-adv-x="199" 
 />
    <glyph glyph-name="space" unicode=" " horiz-adv-x="563" 
 />
    <glyph glyph-name="exclam" unicode="!" horiz-adv-x="653" 
d="M367 403h-136l201 1031h172zM354 92q0 -23 -9 -43t-24 -35t-35 -23.5t-42 -8.5q-23 0 -43.5 8.5t-35.5 23.5t-23.5 35t-8.5 43t8.5 43.5t23.5 35.5t35.5 23.5t43.5 8.5q22 0 42 -8.5t35 -23.5t24 -35.5t9 -43.5z" />
    <glyph glyph-name="quotedbl" unicode="&#x22;" horiz-adv-x="766" 
d="M684 987h-119l-8 447h137zM401 987h-116l-11 447h138z" />
    <glyph glyph-name="numbersign" unicode="#" horiz-adv-x="1210" 
d="M1202 926h-260l-63 -299h280l-26 -107h-275l-88 -397h-127l86 397h-250l-84 -397h-125l84 397h-262l21 107h264l61 297h-276l20 108h277l84 402h127l-82 -402h250l86 402h123l-82 -402h260zM565 926l-65 -299h254l63 299h-252z" />
    <glyph glyph-name="dollar" unicode="$" horiz-adv-x="1104" 
d="M1018 1233q-21 12 -49 24.5t-60.5 23.5t-67 19t-67.5 11l-119 -553q53 -39 103 -80t88.5 -86.5t62 -97.5t23.5 -113q0 -67 -22 -135.5t-73.5 -125t-136 -94.5t-208.5 -42l-43 -193h-103l41 195q-42 2 -88 10t-88 19t-78 23.5t-59 24.5l28 162q28 -18 65.5 -35t79.5 -31
t85 -24t82 -14l114 530q-61 44 -113 86.5t-89.5 90t-58.5 104.5t-21 129q0 82 32.5 152.5t91.5 122.5t142.5 82.5t185.5 31.5l35 166h105l-37 -170q69 -5 135 -23t111 -37zM668 1313q-63 -4 -110.5 -26t-79.5 -56.5t-48 -77.5t-16 -88q0 -38 11 -71t31 -62t47.5 -55
t61.5 -52zM764 365q0 29 -8 55.5t-25 53t-45 54t-68 58.5l-96 -465q65 5 110.5 27.5t75 56t43 75t13.5 85.5z" />
    <glyph glyph-name="percent" unicode="%" horiz-adv-x="1686" 
d="M1591 428q0 -84 -28 -164.5t-78.5 -143.5t-122 -101.5t-158.5 -38.5t-143.5 29.5t-89.5 73.5t-45.5 96t-12.5 97q0 81 28 160.5t79.5 143t124.5 102.5t164 39q64 0 116 -19.5t89 -57t57 -92t20 -124.5zM338 0h-148l1229 1434h148zM848 1161q0 -84 -28 -164.5t-79 -143.5
t-122 -101.5t-158 -38.5q-58 0 -102.5 13.5t-77 37t-54 53.5t-34 63t-18 66.5t-5.5 63.5q0 54 12.5 107.5t36.5 103t58.5 92t78 74t96.5 49.5t113 18q64 0 116 -19.5t89 -57t57.5 -92t20.5 -124.5zM1456 424q0 36 -8 69.5t-26 59.5t-47 41.5t-70 15.5q-61 0 -108.5 -32
t-80.5 -81.5t-50 -108.5t-17 -114q0 -35 9 -68.5t28 -59t49 -41t73 -15.5q56 0 101.5 28.5t78 75t50.5 106.5t18 124zM713 1157q0 36 -8 69.5t-26 59.5t-47 41.5t-71 15.5q-61 0 -108.5 -32t-80.5 -81t-50 -108.5t-17 -113.5q0 -35 9 -68t28 -59t49.5 -42t73.5 -16
q55 0 100.5 28.5t78.5 75t51 106.5t18 124z" />
    <glyph glyph-name="ampersand" unicode="&#x26;" horiz-adv-x="1576" 
d="M1336 -23q-57 0 -101 17t-80 48t-65.5 74t-56.5 95q-50 -45 -109 -87.5t-128 -75t-148.5 -52t-171.5 -19.5q-103 0 -182.5 28.5t-133.5 78.5t-81.5 118t-27.5 148q0 92 32 166.5t90 134t138.5 106.5t177.5 84q-21 18 -42.5 44.5t-38.5 59.5t-28 71.5t-11 81.5
q0 84 33.5 150.5t90.5 113t132.5 71.5t159.5 25q75 0 137 -20.5t106.5 -56.5t69 -85t24.5 -107q0 -75 -24 -130.5t-69.5 -98.5t-110 -77t-145.5 -66q59 -31 106.5 -72.5t86 -89.5t69.5 -100.5t56 -106.5q137 146 208 312.5t79 360.5h159q-4 -119 -36 -230t-84.5 -212.5
t-121.5 -193t-146 -171.5q24 -48 46 -83t46 -57.5t53 -33.5t66 -11q30 0 62 7t69 21l-33 -155q-23 -11 -53.5 -18t-68.5 -7zM484 119q79 0 147.5 18t129.5 48.5t114.5 71t102.5 84.5q-36 85 -73 148.5t-80 112.5t-95 86.5t-118 68.5q-72 -24 -142 -57.5t-125 -81t-88.5 -111
t-33.5 -147.5q0 -56 18.5 -100.5t53 -76t82.5 -48t107 -16.5zM963 1169q0 38 -15 67t-40.5 49.5t-59.5 31t-72 10.5q-57 0 -103 -17t-78 -47.5t-49.5 -72t-17.5 -89.5q0 -71 34.5 -124.5t85.5 -82.5q61 21 117.5 45.5t100.5 57t70.5 74.5t26.5 98z" />
    <glyph glyph-name="quotesingle" unicode="'" horiz-adv-x="463" 
d="M393 987h-114l-11 447h135z" />
    <glyph glyph-name="parenleft" unicode="(" horiz-adv-x="623" 
d="M813 1434q-124 -122 -223.5 -252t-169.5 -269t-108 -288.5t-38 -311.5q0 -80 10.5 -161.5t31.5 -160t51 -152.5t69 -138h-141q-42 66 -73.5 140.5t-52.5 152.5t-31.5 157t-10.5 154q0 173 37 326.5t105 292.5t165.5 265.5t218.5 244.5h160z" />
    <glyph glyph-name="parenright" unicode=")" horiz-adv-x="623" 
d="M504 829q0 -172 -37 -326t-105.5 -292.5t-166 -265t-218.5 -244.5h-161q124 122 224 251.5t170 268.5t108 288.5t38 311.5q0 80 -10.5 161t-31 160t-50.5 153t-69 139h139q42 -67 74 -142t53 -153t32 -156.5t11 -153.5z" />
    <glyph glyph-name="asterisk" unicode="*" horiz-adv-x="856" 
d="M600 1049l191 -244l-111 -76l-156 264l-157 -264l-111 76l193 244l-277 55l43 125l262 -99l-22 304h137l-23 -304l262 99l43 -125z" />
    <glyph glyph-name="plus" unicode="+" horiz-adv-x="1403" 
d="M793 530v-403h-131v403h-406v134h406v403h131v-403h403v-134h-403z" />
    <glyph glyph-name="comma" unicode="," horiz-adv-x="446" 
d="M51 -264h-129l201 491h164z" />
    <glyph glyph-name="hyphen" unicode="-" horiz-adv-x="819" 
d="M678 506h-547l29 129h547z" />
    <glyph glyph-name="hyphen" unicode="&#x2010;" horiz-adv-x="819" 
d="M678 506h-547l29 129h547z" />
    <glyph glyph-name="period" unicode="." horiz-adv-x="446" 
d="M244 88q0 -23 -8.5 -43t-23.5 -35t-35.5 -24t-43.5 -9t-43 9t-35 24t-23.5 35t-8.5 43t8.5 43.5t23.5 35.5t35 23.5t43 8.5t43.5 -8.5t35.5 -23.5t23.5 -35.5t8.5 -43.5z" />
    <glyph glyph-name="slash" unicode="/" horiz-adv-x="811" 
d="M4 -238h-168l1041 1672h167z" />
    <glyph glyph-name="zero" unicode="0" horiz-adv-x="1104" 
d="M1098 1034q0 -75 -7 -156.5t-22 -164.5t-38.5 -164.5t-56.5 -157.5t-75.5 -143.5t-95.5 -122.5q-144 -150 -346 -150q-81 0 -148.5 31.5t-115.5 92t-74.5 149t-26.5 203.5q0 111 18 229.5t55 231t92 212.5t130 176q71 75 159 116.5t199 41.5q80 0 145 -27t111.5 -80.5
t71.5 -132.5t25 -184zM932 1020q0 140 -52 219.5t-151 79.5q-59 0 -111 -25.5t-102 -76.5q-39 -41 -73.5 -97.5t-63 -122t-50.5 -137.5t-37.5 -144t-23.5 -141t-8 -129q0 -87 16.5 -149.5t45.5 -103t68.5 -59.5t84.5 -19q54 0 106 24t97 72q53 57 99 147.5t80.5 199.5
t54.5 228.5t20 233.5z" />
    <glyph glyph-name="one" unicode="1" horiz-adv-x="1104" 
d="M460 0l267 1249l-354 -96l35 158l526 147l-308 -1458h-166z" />
    <glyph glyph-name="two" unicode="2" horiz-adv-x="1104" 
d="M905 1116q0 96 -57.5 149.5t-159.5 53.5q-97 0 -195 -41t-183 -119l41 184q86 65 173.5 90t203.5 25q160 0 255 -84.5t95 -227.5q0 -122 -41.5 -214.5t-132.5 -178.5t-266 -196q-159 -99 -241.5 -163t-122.5 -118t-57 -129h708l-31 -147h-885l15 71q26 121 77.5 208
t144.5 169t287 206q141 89 220.5 160t115.5 139t36 163z" />
    <glyph glyph-name="three" unicode="3" horiz-adv-x="1104" 
d="M1051 1137q0 -72 -22 -136.5t-69 -116.5t-120 -89.5t-174 -55.5v-4q60 -9 110 -36t85.5 -68t55 -94t19.5 -115q0 -91 -33 -172t-100.5 -142t-169 -97t-238.5 -36q-55 0 -108 7.5t-99.5 19t-85.5 26t-67 29.5l35 156q27 -18 64.5 -36t81 -31.5t91 -22t94.5 -8.5
q105 0 176 25.5t114 67t61 95t18 109.5q0 119 -88 188.5t-266 69.5h-109l31 141h119q104 0 183.5 21t133.5 59.5t81.5 93.5t27.5 123q0 43 -14 81.5t-43.5 67t-74 45.5t-106.5 17q-51 0 -97.5 -7.5t-87.5 -19.5t-76 -27t-62 -30l34 164q26 10 58 20.5t71 19t86 14t103 5.5
q101 0 172 -28t117 -73.5t67 -103t21 -116.5z" />
    <glyph glyph-name="four" unicode="4" horiz-adv-x="1104" 
d="M1054 1434l-201 -947h188l-32 -150h-188l-72 -337h-162l72 337h-673l30 142q217 197 445 451t412 504h181zM691 487l146 687q-265 -335 -626 -687h480z" />
    <glyph glyph-name="five" unicode="5" horiz-adv-x="1104" 
d="M1053 1284h-539l-88 -418l106 4q200 0 312 -98.5t112 -277.5q0 -151 -73 -273t-202.5 -184t-301.5 -62q-88 0 -177.5 15t-140.5 39l37 161q50 -33 132 -54t161 -21q126 0 214 45.5t135.5 125t47.5 179.5q0 129 -72 195.5t-229 66.5q-139 0 -249 -10l151 717h694z" />
    <glyph glyph-name="six" unicode="6" horiz-adv-x="1104" 
d="M1081 1262q-42 24 -101 40.5t-128 16.5q-81 0 -154 -29t-135 -82q-51 -42 -94 -100.5t-77.5 -126.5t-59.5 -141.5t-39 -145.5h4q26 43 63 80t82.5 64.5t99 43t111.5 15.5q89 0 156 -28t112 -79t68 -122t23 -158q0 -100 -31.5 -196t-93 -171.5t-151.5 -121.5t-206 -46
q-92 0 -168 31t-130.5 94t-84.5 158t-30 223q0 129 24.5 251.5t70 231t110 199t145.5 154.5q91 72 195.5 106.5t209.5 34.5q78 0 141.5 -13.5t100.5 -27.5zM844 496q0 55 -14.5 102.5t-44.5 82.5t-77 55t-112 20q-77 0 -135 -29t-97 -76t-59 -106t-20 -119q0 -71 18 -128.5
t51 -98t80.5 -62.5t106.5 -22q72 0 128.5 32.5t95 85.5t59 122t20.5 141z" />
    <glyph glyph-name="seven" unicode="7" horiz-adv-x="1104" 
d="M391 0h-186q94 267 302.5 610t472.5 676h-709l32 148h912l-20 -95q-308 -392 -512.5 -734.5t-291.5 -604.5z" />
    <glyph glyph-name="eight" unicode="8" horiz-adv-x="1104" 
d="M65 345q0 154 101 274.5t264 158.5q-67 43 -110 114t-43 165q0 112 59 205t165.5 144.5t243.5 51.5q159 0 256 -86t97 -227q0 -129 -71 -224.5t-205 -142.5q87 -37 139 -122t52 -191q0 -134 -70 -247t-193 -177t-268 -64q-198 0 -307.5 93.5t-109.5 274.5zM247 351
q0 -105 64 -167t186 -62q89 0 168.5 45t127 126t47.5 176q0 105 -64.5 170.5t-169.5 65.5q-94 0 -178 -47.5t-132.5 -129t-48.5 -177.5zM443 1036q0 -87 55.5 -142t144.5 -55q68 0 135.5 37.5t109 103t41.5 144.5q0 87 -55 141.5t-149 54.5q-118 0 -200 -82t-82 -202z" />
    <glyph glyph-name="nine" unicode="9" horiz-adv-x="1104" 
d="M1071 961q0 -118 -22 -240.5t-67 -236t-112.5 -211.5t-158.5 -167q-90 -68 -190 -99.5t-212 -31.5q-78 0 -140.5 12t-94.5 29l22 156q35 -20 90.5 -38.5t130.5 -18.5q84 0 162 27.5t139 76.5q50 38 93 91t78.5 118t62.5 141t43 160h-4q-28 -45 -65 -83t-81 -65t-95 -42
t-107 -15q-105 0 -176.5 38t-115 96.5t-62.5 129.5t-19 136q0 60 12.5 122.5t39 122t66.5 112t94.5 92t125 62.5t156.5 23q103 0 179.5 -37.5t127 -104.5t75.5 -157.5t25 -197.5zM903 1004q0 71 -18 129t-51 99t-79 64t-102 23q-75 0 -133.5 -32t-99 -84.5t-61.5 -121
t-21 -141.5q0 -50 13 -99.5t42 -88.5t75.5 -63.5t113.5 -24.5q84 0 145 31t100 80.5t57.5 110t18.5 118.5z" />
    <glyph glyph-name="colon" unicode=":" horiz-adv-x="446" 
d="M422 936q0 -23 -9 -43.5t-24 -35.5t-35 -23.5t-43 -8.5t-43 8.5t-35 23.5t-23.5 35.5t-8.5 43.5q0 22 8.5 42t23.5 35.5t35 24.5t43 9t43.5 -9t35.5 -24.5t23.5 -35.5t8.5 -42zM244 88q0 -23 -8.5 -43t-23.5 -35t-35.5 -24t-43.5 -9t-43 9t-35 24t-23.5 35t-8.5 43
t8.5 43.5t23.5 35.5t35 23.5t43 8.5t43.5 -8.5t35.5 -23.5t23.5 -35.5t8.5 -43.5z" />
    <glyph glyph-name="semicolon" unicode=";" horiz-adv-x="446" 
d="M422 936q0 -23 -9 -43.5t-24 -35.5t-35 -23.5t-43 -8.5t-43 8.5t-35 23.5t-23.5 35.5t-8.5 43.5q0 22 8.5 42t23.5 35.5t35 24.5t43 9t43.5 -9t35.5 -24.5t23.5 -35.5t8.5 -42zM27 -264h-129l202 491h164z" />
    <glyph glyph-name="less" unicode="&#x3c;" horiz-adv-x="1403" 
d="M238 559v59l860 482v-150l-643 -356v-4l643 -314v-149z" />
    <glyph glyph-name="equal" unicode="=" horiz-adv-x="1403" 
d="M256 743v134h940v-134h-940zM256 317v134h940v-134h-940z" />
    <glyph glyph-name="greater" unicode="&#x3e;" horiz-adv-x="1403" 
d="M330 127v149l643 312v6l-643 354v152l858 -482v-59z" />
    <glyph glyph-name="question" unicode="?" horiz-adv-x="881" 
d="M922 1145q0 -62 -15.5 -116t-48.5 -103.5t-83.5 -97t-119.5 -95.5q-53 -37 -89.5 -70.5t-62 -71t-42.5 -83t-29 -105.5h-151q14 72 32.5 130t47 106.5t70 90t101.5 81.5q63 42 107 80.5t72 77t40.5 77.5t12.5 82q0 37 -13 72.5t-40 63t-67.5 44.5t-94.5 17
q-68 0 -140.5 -22t-140.5 -68l29 168q62 28 134 43.5t147 15.5q86 0 150.5 -26t107.5 -70t64.5 -101.5t21.5 -119.5zM414 92q0 -23 -9 -43t-24.5 -35t-35.5 -23.5t-42 -8.5q-23 0 -43 8.5t-35 23.5t-23.5 35t-8.5 43t8.5 43.5t23.5 35.5t35 23.5t43 8.5q22 0 42 -8.5
t35.5 -23.5t24.5 -35.5t9 -43.5z" />
    <glyph glyph-name="at" unicode="@" horiz-adv-x="1966" 
d="M1825 797q0 -128 -34.5 -240.5t-97 -196t-148.5 -132t-189 -48.5q-51 0 -90 14.5t-65.5 39.5t-40 58.5t-13.5 72.5q0 15 1.5 24.5l4.5 28.5h-4q-60 -115 -135.5 -175.5t-175.5 -60.5q-54 0 -99.5 22t-78.5 62.5t-51.5 97.5t-18.5 128q0 117 38 223t103.5 187t153 129
t186.5 48q43 0 78 -10t61 -27t43.5 -40.5t26.5 -49.5h4q1 5 5.5 21l10 35l10 35.5t5.5 21.5h131l-24.5 -84.5l-34.5 -118l-38 -134l-35 -133t-26 -115t-10 -79.5q0 -60 23.5 -83t72.5 -23q72 0 131.5 42.5t103 111t67.5 153.5t24 170q0 71 -14 140.5t-44.5 132t-78.5 116
t-115.5 92t-155 60.5t-198.5 22q-100 0 -195 -25t-179.5 -72t-154.5 -115t-121 -154.5t-79.5 -190t-28.5 -221.5q0 -138 39.5 -253.5t120.5 -198.5t204.5 -129t290.5 -46q83 0 157.5 8.5t137 21.5t111.5 29t80 31l-25 -126q-28 -13 -72 -27t-102 -26t-130.5 -19.5
t-158.5 -7.5q-185 0 -330.5 52t-246.5 148.5t-154 234t-53 308.5q0 136 33 255t92.5 219t143 178.5t184 133t216 83t238.5 28.5q179 0 312.5 -53.5t222.5 -144t133.5 -209.5t44.5 -250zM1221 811q0 75 -40 116.5t-106 41.5q-70 0 -132.5 -37.5t-109 -102.5t-73.5 -151
t-27 -184q0 -47 11.5 -83.5t31 -61t45.5 -37.5t56 -13q60 0 112 32.5t94 89.5t74 133t51 163q13 51 13 94z" />
    <glyph glyph-name="A" unicode="A" horiz-adv-x="1294" 
d="M999 0l-65 401h-608l-232 -401h-198l854 1434h176l250 -1434h-177zM815 1163q-1 10 -1.5 23t-0.5 26v26v22h-4q-3 -9 -8 -21.5t-11 -26t-12.5 -26.5l-11.5 -23l-354 -610h495z" />
    <glyph glyph-name="B" unicode="B" horiz-adv-x="1174" 
d="M1126 1124q0 -67 -19 -128.5t-58.5 -111.5t-101 -86.5t-146.5 -52.5v-4q62 -10 108.5 -36.5t77.5 -64.5t46.5 -85.5t15.5 -101.5q0 -111 -40.5 -195.5t-112.5 -141.5t-170.5 -86.5t-213.5 -29.5h-438l303 1434h395q86 0 152 -24t111 -66t68 -98.5t23 -121.5zM950 1092
q0 38 -12 72t-38.5 60.5t-69 42t-103.5 15.5h-209l-100 -463h188q86 0 150.5 20t107 56t63.5 86t21 111h2zM872 442q0 105 -73 165.5t-224 60.5h-190l-106 -516h231q94 0 162 20.5t112.5 58.5t66 91.5t21.5 119.5z" />
    <glyph glyph-name="C" unicode="C" horiz-adv-x="1309" 
d="M1325 1196q-29 19 -66.5 39t-82.5 36t-98.5 26t-114.5 10q-150 0 -270.5 -53t-204.5 -146t-129.5 -218.5t-45.5 -271.5q0 -119 33 -210.5t94 -154t146 -94.5t188 -32q66 0 120 7.5t100 21t86.5 32t78.5 39.5l-39 -176q-81 -37 -173.5 -56.5t-207.5 -19.5
q-136 0 -247.5 45t-190 127.5t-121.5 198.5t-43 258q0 188 59.5 345t169 270t263 176t340.5 63q128 0 226.5 -27.5t166.5 -62.5z" />
    <glyph glyph-name="D" unicode="D" horiz-adv-x="1458" 
d="M1401 854q0 -106 -21.5 -211t-66 -200t-114.5 -176t-167 -140.5t-222.5 -93t-281.5 -33.5h-454l305 1434h399q140 0 255 -39.5t196.5 -114.5t126.5 -182.5t45 -243.5zM1225 842q0 210 -123 325t-365 115h-219l-242 -1130h267q169 0 296.5 54t213 148t129 219.5
t43.5 268.5z" />
    <glyph glyph-name="E" unicode="E" horiz-adv-x="1022" 
d="M1071 1282h-553l-104 -489h512l-33 -152h-512l-105 -489h588l-30 -152h-760l303 1434h727z" />
    <glyph glyph-name="F" unicode="F" horiz-adv-x="1001" 
d="M1071 1278h-553l-106 -490h514l-33 -155h-514l-133 -633h-172l303 1434h727z" />
    <glyph glyph-name="G" unicode="G" horiz-adv-x="1409" 
d="M1350 1190q-33 22 -75.5 43t-93.5 37.5t-110.5 26.5t-126.5 10q-149 0 -266 -53t-198 -144.5t-124 -215.5t-43 -265q0 -117 32.5 -210t93.5 -158t147.5 -99.5t195.5 -34.5q75 0 135.5 12.5t112.5 32.5l86 418h-332l33 149h504l-141 -661q-85 -45 -188 -75t-230 -30
q-147 0 -263 49t-196.5 134.5t-123 202t-42.5 251.5q0 116 24 224t71 202.5t117 172t162 133t205.5 86t248.5 30.5q74 0 137.5 -9t116 -23t93.5 -30.5t70 -31.5z" />
    <glyph glyph-name="H" unicode="H" horiz-adv-x="1450" 
d="M1151 0h-172l137 647h-733l-135 -647h-174l303 1434h174l-135 -629h733l135 629h172z" />
    <glyph glyph-name="I" unicode="I" horiz-adv-x="545" 
d="M246 0h-172l303 1434h174z" />
    <glyph glyph-name="J" unicode="J" horiz-adv-x="709" 
d="M535 508q-28 -130 -69.5 -230t-99.5 -167t-134 -101.5t-173 -34.5q-18 0 -43 3t-49 8.5t-44 11.5t-29 12l28 160q11 -9 26.5 -17.5t33.5 -14.5t38 -9.5t39 -3.5q54 0 100 19.5t83.5 64t67.5 116t52 175.5l197 934h172z" />
    <glyph glyph-name="K" unicode="K" horiz-adv-x="1228" 
d="M573 723l498 -723h-209l-434 653l-15 27t-14 27h-4l-149 -707h-172l303 1434h174l-143 -674h4l23.5 25l23.5 24l659 625h228z" />
    <glyph glyph-name="L" unicode="L" horiz-adv-x="948" 
d="M817 0h-743l303 1434h174l-272 -1278h571z" />
    <glyph glyph-name="M" unicode="M" horiz-adv-x="1675" 
d="M1376 0h-167l204 962q12 57 31 129.5t44 155.5h-4q-12 -24 -30 -53.5t-37.5 -57l-35.5 -49.5t-23 -33l-513 -680h-82l-224 678q-2 12 -9.5 34.5t-14.5 50t-12.5 56.5t-5.5 54h-4q-6 -43 -19.5 -116t-33.5 -171l-204 -960h-162l304 1434h200l227 -682q15 -45 23.5 -84
t10.5 -68h6l39 70t59 86l515 678h222z" />
    <glyph glyph-name="N" unicode="N" horiz-adv-x="1538" 
d="M1241 0h-186l-529 1149l-7 19.5t-8 24.5t-7 25t-4 19h-6l-2.5 -24.5t-3.5 -29.5t-4.5 -29.5l-4.5 -25.5l-239 -1128h-166l303 1434h201l507 -1125q5 -9 10 -21.5l10 -26l9.5 -26.5l7.5 -22h4q1 12 3 28l4 33.5t5 34.5l5 29l233 1096h170z" />
    <glyph glyph-name="O" unicode="O" horiz-adv-x="1544" 
d="M1487 852q0 -93 -17 -184.5t-49 -176.5t-78.5 -161t-105.5 -137q-48 -50 -104 -90.5t-120 -69t-137 -43.5t-157 -15q-135 0 -243 46.5t-183.5 128t-115.5 193.5t-40 243q0 208 67.5 373t188.5 286q98 98 226.5 155.5t291.5 57.5q132 0 238.5 -45t181.5 -126t115.5 -192
t40.5 -243zM1309 846q0 107 -29 192t-83 145t-130 92t-170 32q-111 0 -212 -48t-179 -133q-44 -48 -79.5 -110t-61 -132t-39 -146t-13.5 -154q0 -100 27.5 -184t80 -144.5t129.5 -94.5t177 -34q111 0 212.5 44.5t178.5 131.5q48 54 83.5 120.5t59.5 138t36 144.5t12 140z
" />
    <glyph glyph-name="P" unicode="P" horiz-adv-x="1178" 
d="M1176 1057q0 -106 -36 -199.5t-109.5 -163.5t-186.5 -110.5t-266 -40.5h-218l-114 -543h-172l303 1434h371q115 0 196.5 -31.5t133 -84t75 -120.5t23.5 -141zM999 1042q0 54 -18.5 98.5t-54.5 76t-89.5 48.5t-123.5 17h-195l-125 -588h201q106 0 182.5 26.5t126 73
t73 110t23.5 138.5z" />
    <glyph glyph-name="Q" unicode="Q" horiz-adv-x="1544" 
d="M1487 848q0 -206 -76.5 -388t-213.5 -306.5t-316 -159.5l288 -340h-225l-233 321q-173 4 -303 81.5t-200.5 214.5t-70.5 311q0 382 223 629t555 247q169 0 300.5 -77.5t201.5 -217t70 -315.5zM1309 842q0 212 -109 338.5t-299 126.5q-158 0 -293.5 -92.5t-215 -262
t-79.5 -370.5q0 -207 111.5 -331t302.5 -124q161 0 292.5 89.5t210.5 264t79 361.5z" />
    <glyph glyph-name="R" unicode="R" horiz-adv-x="1192" 
d="M1169 1079q0 -93 -32.5 -168t-89.5 -129t-136 -86.5t-172 -40.5v-4q47 -15 82.5 -63t57.5 -129l120 -459h-184l-106 428q-23 94 -73.5 138t-133.5 44h-125l-131 -610h-172l303 1434h395q105 0 180 -28t123 -76.5t71 -113t23 -137.5zM993 1061q0 48 -15 88.5t-46 70
t-79 46t-114 16.5h-221l-110 -520h198q105 0 178.5 25t120 66t67.5 95.5t21 112.5z" />
    <glyph glyph-name="S" unicode="S" horiz-adv-x="1018" 
d="M991 1219q-25 18 -59.5 34t-74 28t-82.5 19t-85 7q-80 0 -134.5 -22.5t-87.5 -57t-47.5 -75.5t-14.5 -77q0 -47 13 -85t39 -73t67 -70t96 -75q62 -45 110.5 -89t82.5 -90.5t51.5 -98t17.5 -111.5q0 -37 -7.5 -81.5t-27 -89.5t-53.5 -88t-86.5 -76t-126.5 -53t-174 -20
q-56 0 -110 8t-102.5 21t-89 29.5t-69.5 32.5l29 174q32 -23 73 -43.5t87 -36t95 -24.5t97 -9q76 0 130.5 18t90 49.5t52 74.5t16.5 93q0 45 -14 81t-43 70.5t-73.5 70t-105.5 78.5q-49 35 -93.5 75.5t-78 88.5t-53 104.5t-19.5 122.5q0 82 30.5 155.5t90.5 129t148.5 88
t205.5 32.5q45 0 89.5 -5.5t86.5 -15t79.5 -21t66.5 -23.5z" />
    <glyph glyph-name="T" unicode="T" horiz-adv-x="1077" 
d="M1190 1282h-408l-270 -1282h-172l272 1282h-417l32 152h996z" />
    <glyph glyph-name="U" unicode="U" horiz-adv-x="1411" 
d="M1247 563q-30 -140 -75.5 -249.5t-117 -184.5t-174.5 -114.5t-247 -39.5q-111 0 -198 35t-146 96t-90 144t-31 180q0 43 5.5 97t14.5 102l174 805h173l-173 -795l-8.5 -50t-8 -54t-5.5 -51t-2 -42q0 -80 24 -139t66.5 -98t100 -58.5t124.5 -19.5q85 0 152 24t118 75
t87.5 130t60.5 189l191 889h172z" />
    <glyph glyph-name="V" unicode="V" horiz-adv-x="1286" 
d="M596 0h-168l-215 1434h174l158 -1123q5 -28 7 -63.5t-1 -61.5h4l11.5 29t15 32.5l17 33l15.5 30.5l641 1123h193z" />
    <glyph glyph-name="W" unicode="W" horiz-adv-x="1903" 
d="M1362 0h-178l-92 1063q-2 31 0.5 70t5.5 73h-4q-10 -32 -25 -72t-31 -69l-544 -1065h-183l-114 1434h178l74 -1092q2 -34 0 -73t-7 -70h4q5 14 12 32l15 37.5l16.5 38.5t16.5 35l557 1092h154l90 -1100q3 -28 2 -66t-4 -69h4q5 16 11.5 34.5t14 37l15 36t14.5 31.5
l526 1096h187z" />
    <glyph glyph-name="X" unicode="X" horiz-adv-x="1210" 
d="M1364 1434q-7 -9 -35 -42l-69 -82l-92 -108.5l-104 -121.5l-104.5 -122.5l-93.5 -109.5l-71 -83.5t-37 -45.5q3 -10 17 -44l35 -83.5l46.5 -110l52 -123l52 -122.5l46.5 -109.5l35.5 -83t18.5 -43.5h-195l-213 549q-2 5 -5 14.5t-6 20.5t-5 21.5t-4 17.5h-4l-8 -15.5
l-11.5 -21t-13.5 -22.5t-14 -19l-455 -545h-215l36 41.5l72 82.5l96 109.5l108 124l109 125l98.5 113l76.5 88l43 49.5q-5 15 -20.5 51.5l-37 86l-47 108l-52 118.5l-51.5 117l-45 103.5l-33.5 77.5t-16.5 39h198l203 -535q3 -7 6.5 -16.5t6.5 -20l6 -20.5t4 -17h4l8 15.5
t11.5 20l13.5 21.5t14 19l440 533h201z" />
    <glyph glyph-name="Y" unicode="Y" horiz-adv-x="1135" 
d="M651 545l-114 -545h-172l114 541l-268 893h182l178 -660q7 -23 11.5 -46.5l7.5 -39.5h2q8 16 22 38.5l29 45.5l477 662h193z" />
    <glyph glyph-name="Z" unicode="Z" horiz-adv-x="1167" 
d="M1309 1391l-1082 -1239h799l-33 -152h-1071l10 51l1074 1231h-744l31 152h1026z" />
    <glyph glyph-name="bracketleft" unicode="[" horiz-adv-x="623" 
d="M752 1315h-222l-323 -1522h221l-25 -119h-368l375 1760h368z" />
    <glyph glyph-name="backslash" unicode="\" horiz-adv-x="791" 
d="M506 -240l-348 1674h147l344 -1674h-143z" />
    <glyph glyph-name="bracketright" unicode="]" horiz-adv-x="623" 
d="M215 -326h-367l25 119h221l324 1520h-221l24 121h369z" />
    <glyph glyph-name="asciicircum" unicode="^" horiz-adv-x="1403" 
d="M1055 625l-332 618h-6l-307 -618h-148l422 833h66l456 -833h-151z" />
    <glyph glyph-name="underscore" unicode="_" horiz-adv-x="850" 
d="M-172 -297l25 119h849l-24 -119h-850z" />
    <glyph glyph-name="grave" unicode="`" horiz-adv-x="715" 
d="M528 1219l-239 327h153l207 -327h-121z" />
    <glyph glyph-name="a" unicode="a" horiz-adv-x="1110" 
d="M905 328q-8 -38 -15.5 -85.5t-13 -94t-9 -86.5t-3.5 -62h-170q1 20 3 48t5.5 58l7 59t7.5 50h-4q-31 -49 -63 -92.5t-71 -76.5t-87 -52t-113 -19q-67 0 -122.5 24t-95.5 71.5t-61.5 119t-21.5 166.5q0 58 12 132t40.5 151t76 150.5t118 131.5t166.5 93t222 35
q80 0 165 -12t169 -29zM858 889q-35 8 -82 14t-88 6q-87 0 -153.5 -27.5t-115.5 -72t-82.5 -102.5t-53.5 -118.5t-28.5 -119.5t-8.5 -107q0 -57 10 -102.5t31.5 -77.5t55 -49.5t79.5 -17.5q50 0 93.5 20.5t81.5 55.5t69 81t56 97.5t42.5 105t28.5 103.5z" />
    <glyph glyph-name="b" unicode="b" horiz-adv-x="1110" 
d="M1032 666q0 -68 -14 -145.5t-45 -154t-79 -147.5t-115.5 -125t-156 -86.5t-200.5 -32.5q-46 0 -95 6.5t-96 18.5t-90 29t-78 39l308 1448h166l-103 -490l-22.5 -103t-22.5 -96h2q32 51 68 92t77.5 70t89 44.5t103.5 15.5q146 0 224.5 -100t78.5 -283zM864 662
q0 57 -10.5 103t-33 78t-57.5 49t-85 17q-63 0 -121 -37t-106 -98t-83 -138t-51 -157l-67 -319q34 -19 85.5 -32t106.5 -13q71 0 130 23.5t106 64.5t82 95t58 114.5t34.5 125t11.5 124.5z" />
    <glyph glyph-name="c" unicode="c" horiz-adv-x="893" 
d="M864 821q-42 37 -101.5 62.5t-131.5 25.5q-69 0 -124.5 -24t-98.5 -64t-74 -92t-51 -108t-29.5 -111.5t-9.5 -103.5q0 -143 63 -217t172 -74q66 0 137 27.5t134 70.5l-35 -164q-65 -35 -129.5 -54.5t-136.5 -19.5q-94 0 -163.5 32t-115.5 88t-69 132.5t-23 165.5
q0 84 17 165.5t50.5 154t82.5 134.5t112.5 106.5t141.5 70t169 25.5q43 0 82 -6t71 -16t57 -21.5t40 -22.5z" />
    <glyph glyph-name="d" unicode="d" horiz-adv-x="1110" 
d="M901 315q-7 -32 -13.5 -77t-11.5 -90.5t-8.5 -85.5t-3.5 -62h-170q0 17 2.5 45.5t6 59.5t7.5 59.5t7 46.5h-4q-36 -58 -72 -102.5t-76 -74t-85 -44.5t-99 -15q-70 0 -126 25t-95.5 73.5t-60.5 120t-21 164.5q0 74 15.5 154t48 157t82.5 146t119 121t158 82.5t199 30.5
q56 0 104 -7.5t83 -15.5l104 490h162zM858 885q-38 11 -79.5 17.5t-88.5 6.5q-87 0 -153.5 -27t-116 -72t-83 -102.5t-54 -118t-29 -119t-8.5 -105.5q0 -56 9.5 -102t31 -79t55.5 -51t82 -18q50 0 93.5 21t81.5 57t69 83t56 100t42.5 107.5t28.5 104.5z" />
    <glyph glyph-name="e" unicode="e" horiz-adv-x="997" 
d="M958 784q0 -81 -36 -147.5t-119 -114t-219 -73.5t-336 -27q-2 -11 -2 -23v-20q0 -54 15 -102t46.5 -84t81 -57t117.5 -21q69 0 151.5 26.5t157.5 75.5l-31 -162q-55 -32 -131 -56t-170 -24q-113 0 -190.5 35t-125 93.5t-68.5 135t-21 160.5q0 90 20 173.5t56.5 155.5
t87.5 131.5t113 101.5t133 65t147 23q79 0 139.5 -21t101 -57.5t61.5 -84.5t21 -102zM791 776q0 63 -46.5 98t-123.5 35q-61 0 -118 -26.5t-105 -73t-83 -111t-51 -139.5q143 0 243 14.5t163 42.5t92 68.5t29 91.5z" />
    <glyph glyph-name="f" unicode="f" horiz-adv-x="604" 
d="M823 1374q-10 5 -24 9.5t-30 8.5t-33.5 6.5t-33.5 2.5q-82 0 -126.5 -53.5t-67.5 -159.5l-37 -164h242l-33 -139h-242l-262 -1225h-166l264 1225h-176l31 139h176l41 190q19 88 53 150t81 101t106.5 57t130.5 18q37 0 72.5 -6t60.5 -14z" />
    <glyph glyph-name="g" unicode="g" horiz-adv-x="1110" 
d="M850 74q-25 -120 -66 -221.5t-108.5 -176t-166.5 -116t-241 -41.5q-98 0 -170.5 23t-132.5 55l31 153q63 -38 134 -64t153 -26q89 0 154.5 26t113 76.5t79 123.5t52.5 167l35 160h-4q-38 -61 -74.5 -105.5t-76.5 -74t-84 -44t-97 -14.5q-69 0 -125 24.5t-95.5 72.5
t-61 120t-21.5 166q0 89 19.5 175t56.5 163t90.5 141.5t121.5 111.5t149.5 73.5t174.5 26.5t186 -12t171 -27zM858 889q-34 8 -82.5 14t-103.5 6q-94 0 -172 -43.5t-134.5 -118t-88 -173.5t-31.5 -209q0 -54 9.5 -100t30 -79t53 -52t79.5 -19q55 0 101.5 23t85.5 61
t69.5 86.5t54 99.5t39.5 100.5t25 89.5z" />
    <glyph glyph-name="h" unicode="h" horiz-adv-x="1141" 
d="M1036 766q0 -13 -3.5 -39.5t-8 -56.5t-10 -59.5t-10.5 -49.5l-119 -561h-166l125 600q4 16 8 37t7 42t5 38.5t2 27.5q0 78 -35.5 121t-109.5 43q-64 0 -128 -37.5t-119 -97t-95.5 -133t-56.5 -145.5l-107 -496h-166l324 1516h164l-156 -732h4q37 57 81 105.5t93.5 84
t104 55.5t112.5 20q128 0 194 -75.5t66 -207.5z" />
    <glyph glyph-name="i" unicode="i" horiz-adv-x="530" 
d="M416 4q-25 -8 -56.5 -13t-62.5 -5q-101 0 -151 50.5t-50 135.5q0 25 5 59t16 84l149 709h166l-150 -713q-9 -42 -12.5 -65t-3.5 -39q0 -41 22.5 -62.5t71.5 -21.5q26 0 45.5 3t36.5 9zM533 1389q0 -45 -30.5 -77t-75.5 -32q-44 0 -76.5 31.5t-32.5 77.5t32.5 75t76.5 29
t75 -29.5t31 -74.5z" />
    <glyph glyph-name="j" unicode="j" horiz-adv-x="492" 
d="M225 47q-55 -264 -170.5 -396t-298.5 -132q-17 0 -36.5 2t-39 6t-38 9.5t-33.5 12.5l29 154q12 -8 28 -16t34 -14.5t36.5 -10.5t34.5 -4q103 0 174 89t108 269l215 1008h164zM533 1389q0 -45 -30.5 -77t-75.5 -32q-44 0 -76.5 31.5t-32.5 77.5t32.5 75t76.5 29t75 -29.5
t31 -74.5z" />
    <glyph glyph-name="k" unicode="k" horiz-adv-x="1004" 
d="M498 551l362 -551h-190l-336 541h-4l-115 -541h-166l324 1516h164l-197 -926h4l510 434h213z" />
    <glyph glyph-name="l" unicode="l" horiz-adv-x="530" 
d="M416 4q-25 -8 -56.5 -13t-62.5 -5q-101 0 -151 50.5t-50 135.5q0 25 5 59t16 84l256 1202h166l-257 -1206q-9 -42 -12.5 -65t-3.5 -39q0 -41 22.5 -62.5t71.5 -21.5q26 0 45.5 3t36.5 9z" />
    <glyph glyph-name="m" unicode="m" horiz-adv-x="1757" 
d="M1653 766q0 -13 -3.5 -39.5t-9 -56.5l-11 -59.5l-9.5 -49.5l-121 -561h-164l125 600q4 17 8 38t7.5 41.5t5.5 38t2 27.5q0 79 -34 121.5t-106 42.5q-38 0 -78.5 -17.5t-79 -47.5t-74 -70t-65 -85.5t-50.5 -93t-31 -93.5l-107 -502h-166l127 600q4 17 8 38t7.5 41.5
t5.5 38t2 27.5q0 79 -35 121.5t-105 42.5q-39 0 -80 -17.5t-80 -48t-74.5 -71t-65 -86t-50 -93t-30.5 -93.5l-107 -500h-166l158 731l16 81.5l15 82t12 73.5l8 56h160q-5 -39 -12 -81.5t-12 -78.5q-6 -42 -13 -82h4q36 58 78 107t89 84.5t98 55.5t106 20q64 0 110 -19
t76.5 -53.5t46.5 -83.5t19 -109q37 56 79.5 104.5t91 84t103 56t115.5 20.5q128 0 192 -74.5t64 -208.5z" />
    <glyph glyph-name="n" unicode="n" horiz-adv-x="1151" 
d="M1046 768q0 -15 -3.5 -41t-9 -56l-11 -59.5t-10.5 -50.5l-119 -561h-166l125 600q4 16 8 37t7 42t5 38.5t2 27.5q0 76 -36.5 120t-108.5 44q-66 0 -131 -39t-120 -99t-94.5 -132t-53.5 -139l-107 -500h-166l158 731l16 81.5l15 82t12 73.5l8 56h160q-5 -39 -12 -81.5
t-12 -78.5q-6 -42 -13 -82h4q35 55 77.5 103.5t92 85t105 57.5t116.5 21q68 0 117 -20.5t81.5 -57.5t48 -89t15.5 -114z" />
    <glyph glyph-name="o" unicode="o" horiz-adv-x="1096" 
d="M1018 645q0 -136 -38.5 -258t-111 -213.5t-176 -145t-233.5 -53.5q-88 0 -158.5 28t-120 80.5t-76 127t-26.5 168.5q0 141 40.5 263.5t114 213t176 142t226.5 51.5q87 0 157.5 -28t120.5 -80.5t77.5 -127t27.5 -168.5zM850 637q0 65 -16 115.5t-45 85t-70 53t-92 18.5
q-88 0 -159 -45t-120 -118.5t-75.5 -167t-26.5 -191.5q0 -62 15.5 -112.5t44 -86t70 -54.5t93.5 -19q89 0 160 44.5t120 118t75 167.5t26 192z" />
    <glyph glyph-name="p" unicode="p" horiz-adv-x="1110" 
d="M1032 666q0 -74 -16 -153.5t-49 -156.5t-82.5 -146t-116.5 -121.5t-152 -83t-188 -30.5q-59 0 -116.5 11t-100.5 26l-102 -487h-166l250 1184q7 32 13 77t10.5 90.5t7.5 85.5t3 62h168q0 -17 -2.5 -46t-6.5 -60.5l-8 -61t-7 -47.5h4q71 121 160 180.5t194 59.5
q70 0 126 -24t95.5 -72t60.5 -120t21 -167zM864 659q0 54 -9.5 100t-31.5 79t-56.5 52t-84.5 19q-52 0 -97.5 -21.5t-84.5 -57.5t-71 -83.5t-57 -98.5t-42.5 -102.5t-26.5 -96.5l-63 -297q18 -8 43 -14.5t52 -11.5t55 -8t52 -3q69 0 127.5 23t105 62.5t82 93t59.5 114
t36 125t12 126.5z" />
    <glyph glyph-name="q" unicode="q" horiz-adv-x="1110" 
d="M735 -475h-166l101 473q9 49 21.5 103t23.5 96h-2q-34 -52 -70.5 -93.5t-77 -70t-86 -43.5t-98.5 -15q-70 0 -126.5 25t-95.5 74t-60 120t-21 164q0 66 13.5 143t44 154t79 148t118.5 125.5t163 87.5t211 33q54 0 104.5 -5t94 -12t79.5 -15.5t62 -15.5zM858 885
q-35 9 -76 16.5t-94 7.5q-85 0 -151 -27t-115.5 -71.5t-83 -101.5t-54 -117.5t-29.5 -119.5t-9 -107q0 -54 9 -100t30 -79t55 -52t84 -19q52 0 97 22t83 58.5t69 83.5t54.5 98.5t40 102.5t25.5 95z" />
    <glyph glyph-name="r" unicode="r" horiz-adv-x="727" 
d="M766 850h-4q-20 12 -52.5 23.5t-64.5 11.5q-58 0 -111 -37.5t-96.5 -99t-76 -140.5t-50.5 -162l-96 -446h-164l144 680l18 88t16.5 92t13.5 88t9 76h162q-3 -30 -7 -63.5l-8 -65t-8 -57t-6 -39.5h4q32 57 65 103t69.5 78.5t77.5 50.5t89 18q28 0 55.5 -5.5t49.5 -11.5z
" />
    <glyph glyph-name="s" unicode="s" horiz-adv-x="809" 
d="M725 844q-45 29 -101 47t-112 18q-94 0 -145.5 -43t-51.5 -114q0 -29 9.5 -53t28 -45.5t47 -41.5t65.5 -43q112 -65 161.5 -133.5t49.5 -154.5q0 -58 -21.5 -113.5t-68.5 -98t-121.5 -68.5t-181.5 -26q-30 0 -66 4t-72.5 12t-70 19.5t-58.5 26.5l33 156q20 -14 49.5 -28
t64 -25t72 -18t74.5 -7q100 0 149.5 40t49.5 111q0 26 -7.5 48t-26.5 44t-50 44.5t-78 50.5q-102 62 -150.5 129.5t-48.5 152.5q0 62 23 118.5t68.5 100t114.5 69.5t161 26q72 0 136.5 -14t109.5 -36z" />
    <glyph glyph-name="t" unicode="t" horiz-adv-x="662" 
d="M690 885h-258l-115 -543q-6 -31 -12 -67t-6 -58q0 -51 22.5 -73.5t71.5 -22.5q12 0 31 4t39 10t39.5 13.5l34.5 13.5l-31 -144q-35 -15 -79.5 -25.5t-84.5 -10.5q-57 0 -97 14.5t-65.5 41.5t-37 65.5t-11.5 86.5q0 29 5.5 67.5t13.5 70.5l118 557h-170l31 139h168l53 250
q4 2 30.5 9.5l58 17l58 17.5t29.5 9l-63 -303h258z" />
    <glyph glyph-name="u" unicode="u" horiz-adv-x="1143" 
d="M930 291q-9 -39 -16.5 -81l-14.5 -81t-12 -73l-8 -56h-160q5 39 11.5 81.5l12.5 78.5q7 42 13 82h-4q-35 -55 -77.5 -103.5t-92 -85t-105 -57.5t-115.5 -21q-66 0 -115.5 20.5t-82.5 57.5t-49.5 89t-16.5 116q0 13 4 39l9 56t11.5 59.5t10.5 50.5l119 561h166l-127 -600
q-4 -16 -8 -37t-7.5 -42t-5.5 -38.5t-2 -27.5q0 -75 36.5 -119.5t109.5 -44.5q44 0 88 18t85.5 48.5t78.5 71t67 86t51 93.5t31 92l107 500h165z" />
    <glyph glyph-name="v" unicode="v" horiz-adv-x="969" 
d="M438 0h-139l-162 1024h166l90 -645q3 -19 5.5 -43l5 -49t3.5 -49t1 -43h4l18.5 41t23.5 47.5l26.5 49.5l25.5 46l366 645h187z" />
    <glyph glyph-name="w" unicode="w" horiz-adv-x="1475" 
d="M1024 0h-162l-59 727q-1 9 -1 23t0.5 28t2 27.5t2.5 21.5h-4q-3 -10 -8 -23l-11 -27.5t-12.5 -28l-11.5 -23.5l-383 -725h-162l-90 1024h158l49 -766q2 -22 0.5 -47.5t-4.5 -48.5h6l18.5 51.5t20.5 48.5l399 762h146l57 -768q2 -23 -0.5 -49.5t-5.5 -46.5h8
q2 10 6.5 22.5l9.5 26t10.5 26.5t10.5 23l368 766h166z" />
    <glyph glyph-name="x" unicode="x" horiz-adv-x="932" 
d="M559 500l236 -500l-181 -2l-129 321l-16.5 43l-19.5 50h-5l-16.5 -22.5l-18.5 -24.5l-17.5 -22.5l-14.5 -18.5l-268 -324h-195l461 510l-230 514h181l123 -326q9 -24 18 -52l14 -44h4q6 7 14 17.5l17 22.5l18.5 24t18.5 22l278 336h187z" />
    <glyph glyph-name="y" unicode="y" horiz-adv-x="991" 
d="M367 -170q-46 -75 -93 -132.5t-98.5 -97.5t-110 -60.5t-128.5 -20.5q-23 0 -51.5 4.5t-45.5 9.5l31 145q15 -8 39 -13t47 -5q69 0 124.5 38t104.5 116l123 190l-186 1020h170l119 -786q3 -22 3.5 -42.5t-1.5 -35.5h6q5 12 15.5 34t23.5 42l454 788h181z" />
    <glyph glyph-name="z" unicode="z" horiz-adv-x="926" 
d="M981 975l-768 -836h582l-31 -139h-842l12 53l768 832h-534l31 139h792z" />
    <glyph glyph-name="braceleft" unicode="{" horiz-adv-x="623" 
d="M709 1309q-77 0 -127.5 -45t-73.5 -152l-62 -283q-24 -112 -73 -181.5t-123 -92.5v-4q38 -19 64 -61.5t26 -116.5q0 -22 -2 -45t-8 -49l-56 -259q-5 -26 -8.5 -49t-3.5 -43q0 -60 31.5 -87.5t97.5 -30.5l-26 -121q-66 1 -113.5 18t-78 46.5t-44.5 69t-14 87.5
q0 22 2.5 43.5t7.5 44.5l61 285q5 21 7 41t2 38q0 63 -30 100t-93 42l26 114q83 5 131.5 54.5t71.5 156.5l61 289q20 95 56 155.5t84.5 96t107.5 49.5t125 15z" />
    <glyph glyph-name="bar" unicode="|" horiz-adv-x="492" 
d="M174 -481v2048h145v-2048h-145z" />
    <glyph glyph-name="braceright" unicode="}" horiz-adv-x="623" 
d="M524 504q-41 -2 -73.5 -15t-57.5 -38.5t-42.5 -64.5t-28.5 -93l-62 -287q-20 -95 -55.5 -156t-83.5 -96t-107 -49t-125 -14l25 123q78 1 129 46t74 152l59 281q25 112 74 182.5t125 93.5v4q-38 19 -65 61.5t-27 117.5q0 20 2.5 44t7.5 50l55 258q12 50 12 90
q0 60 -30 88.5t-97 30.5l25 121q67 -1 114.5 -17.5t77.5 -45.5t44 -69t14 -88q0 -21 -2.5 -43t-7.5 -45l-60 -284q-5 -23 -7.5 -42.5t-2.5 -37.5q0 -65 30.5 -101.5t92.5 -39.5z" />
    <glyph glyph-name="asciitilde" unicode="~" horiz-adv-x="1403" 
d="M1210 750q-3 -67 -21.5 -124t-53 -98t-86 -64.5t-119.5 -23.5q-39 0 -73 8.5t-65.5 23.5t-61.5 35l-62 42q-18 12 -37.5 23.5t-40 21.5t-42 16t-42.5 6q-69 0 -105.5 -45.5t-40.5 -130.5h-135q3 68 22 125t54 98t86.5 64t118.5 23q38 0 71 -7.5t61.5 -20t53.5 -28.5
l49 -32l58.5 -39.5t47.5 -28.5t44 -17t47 -6q31 0 56 13t42.5 37t27.5 57t11 72h135z" />
    <glyph glyph-name="Adieresis" unicode="&#xc4;" horiz-adv-x="1294" 
d="M999 0l-65 401h-608l-232 -401h-198l854 1434h176l250 -1434h-177zM815 1163q-1 10 -1.5 23t-0.5 26v26v22h-4q-3 -9 -8 -21.5t-11 -26t-12.5 -26.5l-11.5 -23l-354 -610h495zM1151 1665q0 -42 -29 -70t-70 -28q-40 0 -69 27.5t-29 70.5q0 21 8 39t21 31t30.5 20.5
t36.5 7.5q21 0 39.5 -7.5t32 -21t21.5 -31t8 -38.5zM766 1665q0 -21 -8 -38.5t-21.5 -31t-32 -21t-39.5 -7.5q-19 0 -37 7.5t-31.5 20.5t-21.5 31t-8 39t8 39t21.5 31t31.5 20.5t37 7.5q21 0 39.5 -7.5t32 -21t21.5 -31t8 -38.5z" />
    <glyph glyph-name="Aring" unicode="&#xc5;" horiz-adv-x="1294" 
d="M999 0l-65 401h-608l-232 -401h-198l825 1384q-38 23 -62 63.5t-24 94.5q0 45 16.5 82t45 63t66.5 40t81 14q45 0 82 -14.5t64 -40t42 -61t15 -77.5q0 -59 -31 -104t-80 -68l240 -1376h-177zM954 1548q0 25 -9 45.5t-24.5 35t-36 22.5t-44.5 8q-51 0 -82 -31.5t-31 -79.5
q0 -55 31.5 -84.5t81.5 -29.5q49 0 81.5 32.5t32.5 81.5zM815 1163q-1 10 -1.5 23t-0.5 26v26v22h-4q-3 -9 -8 -21.5t-11 -26t-12.5 -26.5l-11.5 -23l-354 -610h495z" />
    <glyph glyph-name="Ccedilla" unicode="&#xc7;" horiz-adv-x="1309" 
d="M1116 51q-87 -38 -175.5 -57t-190.5 -19l-17 -79q36 0 68.5 -8.5t56.5 -25.5t38.5 -42t14.5 -58q0 -89 -74.5 -142.5t-218.5 -53.5q-20 0 -43 1.5t-45 4.5l19 88q39 -6 76 -6q86 0 128 25t42 67q0 35 -28.5 55.5t-90.5 20.5q-13 0 -27 -1t-28 -3l34 162
q-119 13 -215.5 63t-164.5 131t-105 190t-37 240q0 188 59.5 345t169 270t263 176t340.5 63q128 0 226.5 -27.5t166.5 -62.5l-37 -172q-29 19 -66 39t-82.5 36t-99 26t-115.5 10q-150 0 -269.5 -53t-203.5 -146t-129 -218.5t-45 -271.5q0 -119 33 -210.5t93.5 -154
t145 -94.5t187.5 -32q66 0 120 7.5t100 21t86.5 32t78.5 39.5z" />
    <glyph glyph-name="Eacute" unicode="&#xc9;" horiz-adv-x="1022" 
d="M1071 1282h-553l-104 -489h512l-33 -152h-512l-105 -489h588l-30 -152h-760l303 1434h727zM768 1567h-123l289 327h161z" />
    <glyph glyph-name="Ntilde" unicode="&#xd1;" horiz-adv-x="1538" 
d="M1241 0h-186l-529 1149l-7 19.5t-8 24.5t-7 25t-4 19h-6l-2.5 -24.5t-3.5 -29.5t-4.5 -29.5l-4.5 -25.5l-239 -1128h-166l303 1434h201l507 -1125q5 -9 10 -21.5l10 -26l9.5 -26.5l7.5 -22h4q1 12 3 28l4 33.5t5 34.5l5 29l233 1096h170zM1325 1806q-3 -45 -20.5 -85
t-46 -70t-67 -47t-83.5 -17q-48 0 -80.5 14.5t-58 31.5l-49 31.5t-54.5 14.5q-51 0 -80.5 -33t-34.5 -79h-96q3 48 21.5 89t48.5 70t70.5 45.5t87.5 16.5q44 0 73.5 -15t54.5 -33.5t49.5 -33.5t57.5 -15q22 0 41 9t34 24.5t24 36.5t12 45h96z" />
    <glyph glyph-name="Odieresis" unicode="&#xd6;" horiz-adv-x="1544" 
d="M1487 852q0 -93 -17 -184.5t-49 -176.5t-78.5 -161t-105.5 -137q-48 -50 -104 -90.5t-120 -69t-137 -43.5t-157 -15q-135 0 -243 46.5t-183.5 128t-115.5 193.5t-40 243q0 208 67.5 373t188.5 286q98 98 226.5 155.5t291.5 57.5q132 0 238.5 -45t181.5 -126t115.5 -192
t40.5 -243zM1309 846q0 107 -29 192t-83 145t-130 92t-170 32q-111 0 -212 -48t-179 -133q-44 -48 -79.5 -110t-61 -132t-39 -146t-13.5 -154q0 -100 27.5 -184t80 -144.5t129.5 -94.5t177 -34q111 0 212.5 44.5t178.5 131.5q48 54 83.5 120.5t59.5 138t36 144.5t12 140z
M1237 1665q0 -42 -29 -70t-70 -28q-40 0 -69 27.5t-29 70.5q0 21 8 39t21 31t30.5 20.5t36.5 7.5q21 0 39.5 -7.5t32 -21t21.5 -31t8 -38.5zM852 1665q0 -21 -8 -38.5t-21.5 -31t-32 -21t-39.5 -7.5q-19 0 -37 7.5t-31.5 20.5t-21.5 31t-8 39t8 39t21.5 31t31.5 20.5t37 7.5
q21 0 39.5 -7.5t32 -21t21.5 -31t8 -38.5z" />
    <glyph glyph-name="Udieresis" unicode="&#xdc;" horiz-adv-x="1411" 
d="M1247 563q-30 -140 -75.5 -249.5t-117 -184.5t-174.5 -114.5t-247 -39.5q-111 0 -198 35t-146 96t-90 144t-31 180q0 43 5.5 97t14.5 102l174 805h173l-173 -795l-8.5 -50t-8 -54t-5.5 -51t-2 -42q0 -80 24 -139t66.5 -98t100 -58.5t124.5 -19.5q85 0 152 24t118 75
t87.5 130t60.5 189l191 889h172zM1209 1665q0 -42 -29 -70t-70 -28q-40 0 -69 27.5t-29 70.5q0 21 8 39t21 31t30.5 20.5t36.5 7.5q21 0 39.5 -7.5t32 -21t21.5 -31t8 -38.5zM824 1665q0 -21 -8 -38.5t-21.5 -31t-32 -21t-39.5 -7.5q-19 0 -37 7.5t-31.5 20.5t-21.5 31
t-8 39t8 39t21.5 31t31.5 20.5t37 7.5q21 0 39.5 -7.5t32 -21t21.5 -31t8 -38.5z" />
    <glyph glyph-name="aacute" unicode="&#xe1;" horiz-adv-x="1110" 
d="M905 328q-8 -38 -15.5 -85.5t-13 -94t-9 -86.5t-3.5 -62h-170q1 20 3 48t5.5 58l7 59t7.5 50h-4q-31 -49 -63 -92.5t-71 -76.5t-87 -52t-113 -19q-67 0 -122.5 24t-95.5 71.5t-61.5 119t-21.5 166.5q0 58 12 132t40.5 151t76 150.5t118 131.5t166.5 93t222 35
q80 0 165 -12t169 -29zM858 889q-35 8 -82 14t-88 6q-87 0 -153.5 -27.5t-115.5 -72t-82.5 -102.5t-53.5 -118.5t-28.5 -119.5t-8.5 -107q0 -57 10 -102.5t31.5 -77.5t55 -49.5t79.5 -17.5q50 0 93.5 20.5t81.5 55.5t69 81t56 97.5t42.5 105t28.5 103.5zM699 1219h-123
l289 327h161z" />
    <glyph glyph-name="agrave" unicode="&#xe0;" horiz-adv-x="1110" 
d="M905 328q-8 -38 -15.5 -85.5t-13 -94t-9 -86.5t-3.5 -62h-170q1 20 3 48t5.5 58l7 59t7.5 50h-4q-31 -49 -63 -92.5t-71 -76.5t-87 -52t-113 -19q-67 0 -122.5 24t-95.5 71.5t-61.5 119t-21.5 166.5q0 58 12 132t40.5 151t76 150.5t118 131.5t166.5 93t222 35
q80 0 165 -12t169 -29zM858 889q-35 8 -82 14t-88 6q-87 0 -153.5 -27.5t-115.5 -72t-82.5 -102.5t-53.5 -118.5t-28.5 -119.5t-8.5 -107q0 -57 10 -102.5t31.5 -77.5t55 -49.5t79.5 -17.5q50 0 93.5 20.5t81.5 55.5t69 81t56 97.5t42.5 105t28.5 103.5zM774 1219l-239 327
h153l207 -327h-121z" />
    <glyph glyph-name="acircumflex" unicode="&#xe2;" horiz-adv-x="1110" 
d="M905 328q-8 -38 -15.5 -85.5t-13 -94t-9 -86.5t-3.5 -62h-170q1 20 3 48t5.5 58l7 59t7.5 50h-4q-31 -49 -63 -92.5t-71 -76.5t-87 -52t-113 -19q-67 0 -122.5 24t-95.5 71.5t-61.5 119t-21.5 166.5q0 58 12 132t40.5 151t76 150.5t118 131.5t166.5 93t222 35
q80 0 165 -12t169 -29zM858 889q-35 8 -82 14t-88 6q-87 0 -153.5 -27.5t-115.5 -72t-82.5 -102.5t-53.5 -118.5t-28.5 -119.5t-8.5 -107q0 -57 10 -102.5t31.5 -77.5t55 -49.5t79.5 -17.5q50 0 93.5 20.5t81.5 55.5t69 81t56 97.5t42.5 105t28.5 103.5zM880 1219l-114 231
l-213 -231h-121l283 331h133l145 -331h-113z" />
    <glyph glyph-name="adieresis" unicode="&#xe4;" horiz-adv-x="1110" 
d="M905 328q-8 -38 -15.5 -85.5t-13 -94t-9 -86.5t-3.5 -62h-170q1 20 3 48t5.5 58l7 59t7.5 50h-4q-31 -49 -63 -92.5t-71 -76.5t-87 -52t-113 -19q-67 0 -122.5 24t-95.5 71.5t-61.5 119t-21.5 166.5q0 58 12 132t40.5 151t76 150.5t118 131.5t166.5 93t222 35
q80 0 165 -12t169 -29zM858 889q-35 8 -82 14t-88 6q-87 0 -153.5 -27.5t-115.5 -72t-82.5 -102.5t-53.5 -118.5t-28.5 -119.5t-8.5 -107q0 -57 10 -102.5t31.5 -77.5t55 -49.5t79.5 -17.5q50 0 93.5 20.5t81.5 55.5t69 81t56 97.5t42.5 105t28.5 103.5zM1002 1317
q0 -42 -29 -70t-70 -28q-40 0 -69 27.5t-29 70.5q0 21 8 39t21 31t30.5 20.5t36.5 7.5q21 0 39.5 -7.5t32 -21t21.5 -31t8 -38.5zM617 1317q0 -21 -8 -38.5t-21.5 -31t-32 -21t-39.5 -7.5q-19 0 -37 7.5t-31.5 20.5t-21.5 31t-8 39t8 39t21.5 31t31.5 20.5t37 7.5
q21 0 39.5 -7.5t32 -21t21.5 -31t8 -38.5z" />
    <glyph glyph-name="atilde" unicode="&#xe3;" horiz-adv-x="1110" 
d="M905 328q-8 -38 -15.5 -85.5t-13 -94t-9 -86.5t-3.5 -62h-170q1 20 3 48t5.5 58l7 59t7.5 50h-4q-31 -49 -63 -92.5t-71 -76.5t-87 -52t-113 -19q-67 0 -122.5 24t-95.5 71.5t-61.5 119t-21.5 166.5q0 58 12 132t40.5 151t76 150.5t118 131.5t166.5 93t222 35
q80 0 165 -12t169 -29zM858 889q-35 8 -82 14t-88 6q-87 0 -153.5 -27.5t-115.5 -72t-82.5 -102.5t-53.5 -118.5t-28.5 -119.5t-8.5 -107q0 -57 10 -102.5t31.5 -77.5t55 -49.5t79.5 -17.5q50 0 93.5 20.5t81.5 55.5t69 81t56 97.5t42.5 105t28.5 103.5zM1041 1458
q-3 -45 -20.5 -85t-46 -70t-67 -47t-83.5 -17q-48 0 -80.5 14.5t-58 31.5l-49 31.5t-54.5 14.5q-51 0 -80.5 -33t-34.5 -79h-96q3 48 21.5 89t48.5 70t70.5 45.5t87.5 16.5q44 0 73.5 -15t54.5 -33.5t49.5 -33.5t57.5 -15q22 0 41 9t34 24.5t24 36.5t12 45h96z" />
    <glyph glyph-name="aring" unicode="&#xe5;" horiz-adv-x="1110" 
d="M905 328q-8 -38 -15.5 -85.5t-13 -94t-9 -86.5t-3.5 -62h-170q1 20 3 48t5.5 58l7 59t7.5 50h-4q-31 -49 -63 -92.5t-71 -76.5t-87 -52t-113 -19q-67 0 -122.5 24t-95.5 71.5t-61.5 119t-21.5 166.5q0 58 12 132t40.5 151t76 150.5t118 131.5t166.5 93t222 35
q80 0 165 -12t169 -29zM858 889q-35 8 -82 14t-88 6q-87 0 -153.5 -27.5t-115.5 -72t-82.5 -102.5t-53.5 -118.5t-28.5 -119.5t-8.5 -107q0 -57 10 -102.5t31.5 -77.5t55 -49.5t79.5 -17.5q50 0 93.5 20.5t81.5 55.5t69 81t56 97.5t42.5 105t28.5 103.5zM934 1374
q0 -42 -16 -78t-44 -63t-66 -42t-81 -15t-80 13.5t-64.5 38.5t-43 60t-15.5 78q0 46 16.5 83t44.5 62.5t66.5 39.5t81.5 14q45 0 82 -14t63.5 -39.5t41 -60.5t14.5 -77zM842 1372q0 25 -9 45.5t-24.5 35t-36.5 22.5t-45 8q-49 0 -80.5 -31.5t-31.5 -79.5q0 -54 32 -84.5
t80 -30.5q25 0 46 9t36.5 25t24 36.5t8.5 44.5z" />
    <glyph glyph-name="ccedilla" unicode="&#xe7;" horiz-adv-x="893" 
d="M715 49q-63 -34 -127.5 -54t-138.5 -20l-17 -79q36 0 68.5 -8.5t56.5 -25.5t38.5 -42t14.5 -58q0 -89 -74.5 -142.5t-218.5 -53.5q-20 0 -43 1.5t-45 4.5l19 88q39 -6 76 -6q86 0 128 25t42 67q0 35 -28.5 55.5t-90.5 20.5q-13 0 -27.5 -1t-28.5 -3l37 168
q-70 15 -122.5 51t-87 89.5t-51.5 121t-17 145.5q0 84 17 165.5t50.5 154t82.5 134.5t112.5 106.5t141.5 70t169 25.5q43 0 82 -6t71 -16t57 -21.5t40 -22.5l-37 -162q-42 37 -101.5 62.5t-131.5 25.5q-69 0 -124.5 -24t-98.5 -64t-74 -92t-51 -108t-29.5 -111.5
t-9.5 -103.5q0 -143 63 -217t172 -74q66 0 137 27.5t134 70.5z" />
    <glyph glyph-name="eacute" unicode="&#xe9;" horiz-adv-x="997" 
d="M958 784q0 -81 -36 -147.5t-119 -114t-219 -73.5t-336 -27q-2 -11 -2 -23v-20q0 -54 15 -102t46.5 -84t81 -57t117.5 -21q69 0 151.5 26.5t157.5 75.5l-31 -162q-55 -32 -131 -56t-170 -24q-113 0 -190.5 35t-125 93.5t-68.5 135t-21 160.5q0 90 20 173.5t56.5 155.5
t87.5 131.5t113 101.5t133 65t147 23q79 0 139.5 -21t101 -57.5t61.5 -84.5t21 -102zM791 776q0 63 -46.5 98t-123.5 35q-61 0 -118 -26.5t-105 -73t-83 -111t-51 -139.5q143 0 243 14.5t163 42.5t92 68.5t29 91.5zM623 1219h-123l289 327h161z" />
    <glyph glyph-name="egrave" unicode="&#xe8;" horiz-adv-x="997" 
d="M958 784q0 -81 -36 -147.5t-119 -114t-219 -73.5t-336 -27q-2 -11 -2 -23v-20q0 -54 15 -102t46.5 -84t81 -57t117.5 -21q69 0 151.5 26.5t157.5 75.5l-31 -162q-55 -32 -131 -56t-170 -24q-113 0 -190.5 35t-125 93.5t-68.5 135t-21 160.5q0 90 20 173.5t56.5 155.5
t87.5 131.5t113 101.5t133 65t147 23q79 0 139.5 -21t101 -57.5t61.5 -84.5t21 -102zM791 776q0 63 -46.5 98t-123.5 35q-61 0 -118 -26.5t-105 -73t-83 -111t-51 -139.5q143 0 243 14.5t163 42.5t92 68.5t29 91.5zM700 1219l-239 327h153l207 -327h-121z" />
    <glyph glyph-name="ecircumflex" unicode="&#xea;" horiz-adv-x="997" 
d="M958 784q0 -81 -36 -147.5t-119 -114t-219 -73.5t-336 -27q-2 -11 -2 -23v-20q0 -54 15 -102t46.5 -84t81 -57t117.5 -21q69 0 151.5 26.5t157.5 75.5l-31 -162q-55 -32 -131 -56t-170 -24q-113 0 -190.5 35t-125 93.5t-68.5 135t-21 160.5q0 90 20 173.5t56.5 155.5
t87.5 131.5t113 101.5t133 65t147 23q79 0 139.5 -21t101 -57.5t61.5 -84.5t21 -102zM791 776q0 63 -46.5 98t-123.5 35q-61 0 -118 -26.5t-105 -73t-83 -111t-51 -139.5q143 0 243 14.5t163 42.5t92 68.5t29 91.5zM815 1219l-114 231l-213 -231h-121l283 331h133l145 -331
h-113z" />
    <glyph glyph-name="edieresis" unicode="&#xeb;" horiz-adv-x="997" 
d="M958 784q0 -81 -36 -147.5t-119 -114t-219 -73.5t-336 -27q-2 -11 -2 -23v-20q0 -54 15 -102t46.5 -84t81 -57t117.5 -21q69 0 151.5 26.5t157.5 75.5l-31 -162q-55 -32 -131 -56t-170 -24q-113 0 -190.5 35t-125 93.5t-68.5 135t-21 160.5q0 90 20 173.5t56.5 155.5
t87.5 131.5t113 101.5t133 65t147 23q79 0 139.5 -21t101 -57.5t61.5 -84.5t21 -102zM791 776q0 63 -46.5 98t-123.5 35q-61 0 -118 -26.5t-105 -73t-83 -111t-51 -139.5q143 0 243 14.5t163 42.5t92 68.5t29 91.5zM940 1317q0 -42 -29 -70t-70 -28q-40 0 -69 27.5t-29 70.5
q0 21 8 39t21 31t30.5 20.5t36.5 7.5q21 0 39.5 -7.5t32 -21t21.5 -31t8 -38.5zM555 1317q0 -21 -8 -38.5t-21.5 -31t-32 -21t-39.5 -7.5q-19 0 -37 7.5t-31.5 20.5t-21.5 31t-8 39t8 39t21.5 31t31.5 20.5t37 7.5q21 0 39.5 -7.5t32 -21t21.5 -31t8 -38.5z" />
    <glyph glyph-name="iacute" unicode="&#xed;" horiz-adv-x="530" 
d="M416 4q-25 -8 -56.5 -13t-62.5 -5q-101 0 -151 50.5t-50 135.5q0 25 5 59t16 84l149 709h166l-150 -713q-9 -42 -12.5 -65t-3.5 -39q0 -41 22.5 -62.5t71.5 -21.5q26 0 45.5 3t36.5 9zM335 1219h-123l289 327h161z" />
    <glyph glyph-name="igrave" unicode="&#xec;" horiz-adv-x="530" 
d="M416 4q-25 -8 -56.5 -13t-62.5 -5q-101 0 -151 50.5t-50 135.5q0 25 5 59t16 84l149 709h166l-150 -713q-9 -42 -12.5 -65t-3.5 -39q0 -41 22.5 -62.5t71.5 -21.5q26 0 45.5 3t36.5 9zM437 1219l-239 327h153l207 -327h-121z" />
    <glyph glyph-name="icircumflex" unicode="&#xee;" horiz-adv-x="530" 
d="M416 4q-25 -8 -56.5 -13t-62.5 -5q-101 0 -151 50.5t-50 135.5q0 25 5 59t16 84l149 709h166l-150 -713q-9 -42 -12.5 -65t-3.5 -39q0 -41 22.5 -62.5t71.5 -21.5q26 0 45.5 3t36.5 9zM547 1219l-114 231l-213 -231h-121l283 331h133l145 -331h-113z" />
    <glyph glyph-name="idieresis" unicode="&#xef;" horiz-adv-x="530" 
d="M416 4q-25 -8 -56.5 -13t-62.5 -5q-101 0 -151 50.5t-50 135.5q0 25 5 59t16 84l149 709h166l-150 -713q-9 -42 -12.5 -65t-3.5 -39q0 -41 22.5 -62.5t71.5 -21.5q26 0 45.5 3t36.5 9zM687 1317q0 -42 -29 -70t-70 -28q-40 0 -69 27.5t-29 70.5q0 21 8 39t21 31
t30.5 20.5t36.5 7.5q21 0 39.5 -7.5t32 -21t21.5 -31t8 -38.5zM302 1317q0 -21 -8 -38.5t-21.5 -31t-32 -21t-39.5 -7.5q-19 0 -37 7.5t-31.5 20.5t-21.5 31t-8 39t8 39t21.5 31t31.5 20.5t37 7.5q21 0 39.5 -7.5t32 -21t21.5 -31t8 -38.5z" />
    <glyph glyph-name="ntilde" unicode="&#xf1;" horiz-adv-x="1151" 
d="M1046 768q0 -15 -3.5 -41t-9 -56l-11 -59.5t-10.5 -50.5l-119 -561h-166l125 600q4 16 8 37t7 42t5 38.5t2 27.5q0 76 -36.5 120t-108.5 44q-66 0 -131 -39t-120 -99t-94.5 -132t-53.5 -139l-107 -500h-166l158 731l16 81.5l15 82t12 73.5l8 56h160q-5 -39 -12 -81.5
t-12 -78.5q-6 -42 -13 -82h4q35 55 77.5 103.5t92 85t105 57.5t116.5 21q68 0 117 -20.5t81.5 -57.5t48 -89t15.5 -114zM1041 1458q-3 -45 -20.5 -85t-46 -70t-67 -47t-83.5 -17q-48 0 -80.5 14.5t-58 31.5l-49 31.5t-54.5 14.5q-51 0 -80.5 -33t-34.5 -79h-96q3 48 21.5 89
t48.5 70t70.5 45.5t87.5 16.5q44 0 73.5 -15t54.5 -33.5t49.5 -33.5t57.5 -15q22 0 41 9t34 24.5t24 36.5t12 45h96z" />
    <glyph glyph-name="oacute" unicode="&#xf3;" horiz-adv-x="1096" 
d="M1018 645q0 -136 -38.5 -258t-111 -213.5t-176 -145t-233.5 -53.5q-88 0 -158.5 28t-120 80.5t-76 127t-26.5 168.5q0 141 40.5 263.5t114 213t176 142t226.5 51.5q87 0 157.5 -28t120.5 -80.5t77.5 -127t27.5 -168.5zM850 637q0 65 -16 115.5t-45 85t-70 53t-92 18.5
q-88 0 -159 -45t-120 -118.5t-75.5 -167t-26.5 -191.5q0 -62 15.5 -112.5t44 -86t70 -54.5t93.5 -19q89 0 160 44.5t120 118t75 167.5t26 192zM639 1219h-123l289 327h161z" />
    <glyph glyph-name="ograve" unicode="&#xf2;" horiz-adv-x="1096" 
d="M1018 645q0 -136 -38.5 -258t-111 -213.5t-176 -145t-233.5 -53.5q-88 0 -158.5 28t-120 80.5t-76 127t-26.5 168.5q0 141 40.5 263.5t114 213t176 142t226.5 51.5q87 0 157.5 -28t120.5 -80.5t77.5 -127t27.5 -168.5zM850 637q0 65 -16 115.5t-45 85t-70 53t-92 18.5
q-88 0 -159 -45t-120 -118.5t-75.5 -167t-26.5 -191.5q0 -62 15.5 -112.5t44 -86t70 -54.5t93.5 -19q89 0 160 44.5t120 118t75 167.5t26 192zM745 1219l-239 327h153l207 -327h-121z" />
    <glyph glyph-name="ocircumflex" unicode="&#xf4;" horiz-adv-x="1096" 
d="M1018 645q0 -136 -38.5 -258t-111 -213.5t-176 -145t-233.5 -53.5q-88 0 -158.5 28t-120 80.5t-76 127t-26.5 168.5q0 141 40.5 263.5t114 213t176 142t226.5 51.5q87 0 157.5 -28t120.5 -80.5t77.5 -127t27.5 -168.5zM850 637q0 65 -16 115.5t-45 85t-70 53t-92 18.5
q-88 0 -159 -45t-120 -118.5t-75.5 -167t-26.5 -191.5q0 -62 15.5 -112.5t44 -86t70 -54.5t93.5 -19q89 0 160 44.5t120 118t75 167.5t26 192zM827 1219l-114 231l-213 -231h-121l283 331h133l145 -331h-113z" />
    <glyph glyph-name="odieresis" unicode="&#xf6;" horiz-adv-x="1096" 
d="M1018 645q0 -136 -38.5 -258t-111 -213.5t-176 -145t-233.5 -53.5q-88 0 -158.5 28t-120 80.5t-76 127t-26.5 168.5q0 141 40.5 263.5t114 213t176 142t226.5 51.5q87 0 157.5 -28t120.5 -80.5t77.5 -127t27.5 -168.5zM850 637q0 65 -16 115.5t-45 85t-70 53t-92 18.5
q-88 0 -159 -45t-120 -118.5t-75.5 -167t-26.5 -191.5q0 -62 15.5 -112.5t44 -86t70 -54.5t93.5 -19q89 0 160 44.5t120 118t75 167.5t26 192zM971 1317q0 -42 -29 -70t-70 -28q-40 0 -69 27.5t-29 70.5q0 21 8 39t21 31t30.5 20.5t36.5 7.5q21 0 39.5 -7.5t32 -21t21.5 -31
t8 -38.5zM586 1317q0 -21 -8 -38.5t-21.5 -31t-32 -21t-39.5 -7.5q-19 0 -37 7.5t-31.5 20.5t-21.5 31t-8 39t8 39t21.5 31t31.5 20.5t37 7.5q21 0 39.5 -7.5t32 -21t21.5 -31t8 -38.5z" />
    <glyph glyph-name="otilde" unicode="&#xf5;" horiz-adv-x="1096" 
d="M1018 645q0 -136 -38.5 -258t-111 -213.5t-176 -145t-233.5 -53.5q-88 0 -158.5 28t-120 80.5t-76 127t-26.5 168.5q0 141 40.5 263.5t114 213t176 142t226.5 51.5q87 0 157.5 -28t120.5 -80.5t77.5 -127t27.5 -168.5zM850 637q0 65 -16 115.5t-45 85t-70 53t-92 18.5
q-88 0 -159 -45t-120 -118.5t-75.5 -167t-26.5 -191.5q0 -62 15.5 -112.5t44 -86t70 -54.5t93.5 -19q89 0 160 44.5t120 118t75 167.5t26 192zM1020 1458q-3 -45 -20.5 -85t-46 -70t-67 -47t-83.5 -17q-48 0 -80.5 14.5t-58 31.5l-49 31.5t-54.5 14.5q-51 0 -80.5 -33
t-34.5 -79h-96q3 48 21.5 89t48.5 70t70.5 45.5t87.5 16.5q44 0 73.5 -15t54.5 -33.5t49.5 -33.5t57.5 -15q22 0 41 9t34 24.5t24 36.5t12 45h96z" />
    <glyph glyph-name="uacute" unicode="&#xfa;" horiz-adv-x="1143" 
d="M930 291q-9 -39 -16.5 -81l-14.5 -81t-12 -73l-8 -56h-160q5 39 11.5 81.5l12.5 78.5q7 42 13 82h-4q-35 -55 -77.5 -103.5t-92 -85t-105 -57.5t-115.5 -21q-66 0 -115.5 20.5t-82.5 57.5t-49.5 89t-16.5 116q0 13 4 39l9 56t11.5 59.5t10.5 50.5l119 561h166l-127 -600
q-4 -16 -8 -37t-7.5 -42t-5.5 -38.5t-2 -27.5q0 -75 36.5 -119.5t109.5 -44.5q44 0 88 18t85.5 48.5t78.5 71t67 86t51 93.5t31 92l107 500h165zM678 1219h-123l289 327h161z" />
    <glyph glyph-name="ugrave" unicode="&#xf9;" horiz-adv-x="1143" 
d="M930 291q-9 -39 -16.5 -81l-14.5 -81t-12 -73l-8 -56h-160q5 39 11.5 81.5l12.5 78.5q7 42 13 82h-4q-35 -55 -77.5 -103.5t-92 -85t-105 -57.5t-115.5 -21q-66 0 -115.5 20.5t-82.5 57.5t-49.5 89t-16.5 116q0 13 4 39l9 56t11.5 59.5t10.5 50.5l119 561h166l-127 -600
q-4 -16 -8 -37t-7.5 -42t-5.5 -38.5t-2 -27.5q0 -75 36.5 -119.5t109.5 -44.5q44 0 88 18t85.5 48.5t78.5 71t67 86t51 93.5t31 92l107 500h165zM743 1219l-239 327h153l207 -327h-121z" />
    <glyph glyph-name="ucircumflex" unicode="&#xfb;" horiz-adv-x="1143" 
d="M930 291q-9 -39 -16.5 -81l-14.5 -81t-12 -73l-8 -56h-160q5 39 11.5 81.5l12.5 78.5q7 42 13 82h-4q-35 -55 -77.5 -103.5t-92 -85t-105 -57.5t-115.5 -21q-66 0 -115.5 20.5t-82.5 57.5t-49.5 89t-16.5 116q0 13 4 39l9 56t11.5 59.5t10.5 50.5l119 561h166l-127 -600
q-4 -16 -8 -37t-7.5 -42t-5.5 -38.5t-2 -27.5q0 -75 36.5 -119.5t109.5 -44.5q44 0 88 18t85.5 48.5t78.5 71t67 86t51 93.5t31 92l107 500h165zM852 1219l-114 231l-213 -231h-121l283 331h133l145 -331h-113z" />
    <glyph glyph-name="udieresis" unicode="&#xfc;" horiz-adv-x="1143" 
d="M930 291q-9 -39 -16.5 -81l-14.5 -81t-12 -73l-8 -56h-160q5 39 11.5 81.5l12.5 78.5q7 42 13 82h-4q-35 -55 -77.5 -103.5t-92 -85t-105 -57.5t-115.5 -21q-66 0 -115.5 20.5t-82.5 57.5t-49.5 89t-16.5 116q0 13 4 39l9 56t11.5 59.5t10.5 50.5l119 561h166l-127 -600
q-4 -16 -8 -37t-7.5 -42t-5.5 -38.5t-2 -27.5q0 -75 36.5 -119.5t109.5 -44.5q44 0 88 18t85.5 48.5t78.5 71t67 86t51 93.5t31 92l107 500h165zM1000 1317q0 -42 -29 -70t-70 -28q-40 0 -69 27.5t-29 70.5q0 21 8 39t21 31t30.5 20.5t36.5 7.5q21 0 39.5 -7.5t32 -21
t21.5 -31t8 -38.5zM615 1317q0 -21 -8 -38.5t-21.5 -31t-32 -21t-39.5 -7.5q-19 0 -37 7.5t-31.5 20.5t-21.5 31t-8 39t8 39t21.5 31t31.5 20.5t37 7.5q21 0 39.5 -7.5t32 -21t21.5 -31t8 -38.5z" />
    <glyph glyph-name="dagger" unicode="&#x2020;" horiz-adv-x="770" 
d="M806 893l-256 30l-187 -694h-76l107 694l-268 -30l32 150l297 -20l47 410h156l-127 -410l307 20z" />
    <glyph glyph-name="degree" unicode="&#xb0;" horiz-adv-x="772" 
d="M801 1176q0 -58 -22 -108.5t-60 -88.5t-88.5 -60t-108.5 -22q-57 0 -107.5 22t-88 60t-59 88.5t-21.5 108.5q0 57 21.5 107t59 87t88 58.5t107.5 21.5q58 0 108.5 -21.5t88.5 -58.5t60 -87t22 -107zM682 1176q0 33 -12.5 61.5t-34.5 50t-51 33.5t-62 12q-32 0 -60.5 -12
t-50 -33.5t-34 -50t-12.5 -61.5t12.5 -62.5t34 -51.5t50 -35t60.5 -13t61 13t51 35t35 51.5t13 62.5z" />
    <glyph glyph-name="cent" unicode="&#xa2;" horiz-adv-x="1104" 
d="M999 993q-29 32 -74 56.5t-102 33.5l-166 -780q60 6 115.5 30t112.5 66l-33 -168q-43 -27 -99.5 -47.5t-125.5 -25.5l-43 -207h-127l43 211q-75 13 -132.5 49.5t-97 90.5t-60 123t-20.5 148q0 86 14.5 159.5t40.5 136.5t62 116t78 96q34 34 74.5 60t85 44t91 28.5
t91.5 13.5l39 186h127l-39 -190q62 -8 111 -23.5t73 -34.5zM696 1079q-60 -12 -111 -41.5t-91 -74.5q-31 -35 -56 -78.5t-41.5 -92.5t-25.5 -101.5t-9 -104.5q0 -113 46.5 -181t123.5 -90z" />
    <glyph glyph-name="sterling" unicode="&#xa3;" horiz-adv-x="1104" 
d="M1100 1262q-42 27 -91.5 42t-103.5 15q-110 0 -186 -74.5t-111 -240.5l-49 -228h297l-31 -141h-295l-41 -184q-23 -113 -83 -190.5t-154 -121.5h688l-29 -139h-901l31 135q119 34 189.5 115t95.5 199l39 186h-197l29 141h198l56 260q23 106 66.5 185.5t103 132t134 78.5
t158.5 26q70 0 127 -12t93 -29z" />
    <glyph glyph-name="section" unicode="&#xa7;" horiz-adv-x="918" 
d="M893 1305q-37 23 -89.5 40t-105.5 17q-46 0 -85 -10t-67 -30.5t-43.5 -50.5t-15.5 -69q0 -37 13.5 -66t36 -53t52.5 -44.5l62 -41.5q58 -37 95 -72t58.5 -70t29.5 -70.5t8 -73.5q0 -50 -17.5 -96t-48 -85t-71.5 -68.5t-89 -47.5q29 -41 43.5 -78.5t14.5 -85.5
q0 -61 -21 -118t-67 -101t-119.5 -70.5t-177.5 -26.5q-36 0 -72.5 4.5t-69.5 11.5t-60 16t-44 18l31 151q23 -15 51.5 -28.5t59 -23t61.5 -15t59 -5.5q103 0 158 41t55 115q0 33 -11.5 60.5t-33.5 52t-55 49t-76 51.5q-35 23 -66 50.5t-54 60.5t-36.5 72t-13.5 85
q0 56 19 102t50.5 82.5t73 63.5t86.5 45q-27 35 -48 80t-21 94q0 88 32.5 149.5t85 100.5t119 56.5t133.5 17.5q26 0 55.5 -3t59.5 -8t57.5 -13t49.5 -17zM684 688q0 21 -5 42.5t-19 44.5t-38 46t-63 47q-22 14 -39.5 26.5l-40.5 29.5q-68 -28 -108.5 -76.5t-40.5 -114.5
q0 -28 4.5 -50.5t19 -44.5t40.5 -45t69 -52q20 -14 40.5 -26.5t37.5 -31.5q74 34 108.5 90t34.5 115z" />
    <glyph glyph-name="bullet" unicode="&#x2022;" horiz-adv-x="829" 
d="M698 635q0 -53 -20.5 -99.5t-55.5 -81.5t-82 -55t-100 -20t-99.5 20t-81.5 55t-55 81.5t-20 99.5t20.5 100t55.5 82t82 55.5t100 20.5t100 -20.5t81.5 -55.5t54.5 -82t20 -100z" />
    <glyph glyph-name="paragraph" unicode="&#xb6;" horiz-adv-x="938" 
d="M778 1331v-1331h-106v1331h-158v-1331h-108v903q-52 0 -97.5 19.5t-79.5 54.5t-53.5 84t-19.5 108q0 63 21.5 112.5t57.5 83t82 51.5t95 18h493v-103h-127z" />
    <glyph glyph-name="germandbls" unicode="&#xdf;" horiz-adv-x="1106" 
d="M1077 1221q0 -88 -31 -157.5t-79.5 -121.5t-108.5 -85t-119 -48v-4q72 -15 125 -49t88 -82.5t52.5 -108.5t17.5 -125q0 -88 -28.5 -171.5t-87 -149t-148.5 -105t-213 -39.5q-23 0 -50 2.5t-52.5 7t-47.5 10t-35 11.5l35 156q16 -11 37 -19.5t43 -14.5t43 -9.5t37 -3.5
q84 0 140.5 30t91.5 77t50 104.5t15 111.5q0 63 -17.5 116t-54 92.5t-93 63.5t-134.5 29l27 133q77 12 138 41t103.5 72.5t65 100.5t22.5 124q0 39 -11.5 74t-34 61t-54.5 41t-74 15q-52 0 -95.5 -17t-78.5 -54.5t-61.5 -98t-44.5 -146.5l-232 -1085h-166l242 1137
q20 93 56 167.5t91 127t130 80.5t172 28q79 0 140 -25t103 -68t64 -101t22 -125z" />
    <glyph glyph-name="uni00AD" unicode="&#xad;" horiz-adv-x="819" 
d="M678 506h-547l29 129h547z" />
    <glyph glyph-name="registered" unicode="&#xae;" horiz-adv-x="1823" 
d="M912 255q-249 0 -424.5 175t-175.5 424t175.5 424.5t424.5 175.5q248 0 423.5 -175.5t175.5 -424.5t-175.5 -424t-423.5 -175zM913 1360q-210 0 -358.5 -148t-148.5 -358q0 -209 148.5 -357t358.5 -148q209 0 356.5 148t147.5 357q0 210 -147.5 358t-356.5 148zM1203 479
h-138l-83 183q-63 138 -136 138h-52v-321h-117v763h215q133 0 205.5 -56t72.5 -152q0 -78 -51 -133.5t-142 -74.5v-3q63 -14 126 -141zM794 1143v-245h94q158 0 158 123q0 71 -42.5 96.5t-134.5 25.5h-75z" />
    <glyph glyph-name="copyright" unicode="&#xa9;" horiz-adv-x="1862" 
d="M1720 719q0 -105 -26 -201.5t-74.5 -179t-116 -149.5t-151 -114.5t-180.5 -73.5t-203 -26q-161 0 -298.5 55.5t-238 154t-157 233.5t-56.5 295q0 104 26 200t74 178.5t116 150t151.5 116t181.5 74.5t205 26q155 0 291 -54t237.5 -152t160 -233.5t58.5 -299.5zM1630 715
q0 143 -52 264t-141 209.5t-209 138t-257 49.5q-144 0 -266 -51t-210.5 -140.5t-138 -210t-49.5 -259.5q0 -96 23.5 -182.5t67 -160.5t104 -133.5t134.5 -101t158.5 -64t176.5 -22.5q135 0 255 50t209.5 139t142 210.5t52.5 264.5zM1270 266q-18 -10 -44.5 -22.5t-61 -22.5
t-75.5 -17t-88 -7q-103 0 -193 37t-156 103t-104 157t-38 198q0 130 40.5 230.5t111 169.5t165.5 105t203 36q36 0 71 -5t66 -12.5t56.5 -17t42.5 -18.5v-150q-21 16 -49.5 29.5t-61.5 23t-69.5 14.5t-73.5 5q-69 0 -133.5 -24t-114.5 -72.5t-80.5 -122.5t-30.5 -174
q0 -92 29.5 -164t80 -121t117 -74.5t140.5 -25.5q32 0 67 6t68.5 16.5t63 24.5t51.5 30v-135z" />
    <glyph glyph-name="trademark" unicode="&#x2122;" horiz-adv-x="1583" 
d="M1368 772v477h-4l-221 -477h-58l-213 477h-4v-477h-102v662h127l225 -496h4l230 496h123v-662h-107zM473 1335v-563h-113v561h-204v101h524v-99h-207z" />
    <glyph glyph-name="acute" unicode="&#xb4;" horiz-adv-x="715" 
d="M455 1219h-123l289 327h161z" />
    <glyph glyph-name="dieresis" unicode="&#xa8;" horiz-adv-x="715" 
d="M799 1317q0 -42 -29 -70t-70 -28q-40 0 -69 27.5t-29 70.5q0 21 8 39t21 31t30.5 20.5t36.5 7.5q21 0 39.5 -7.5t32 -21t21.5 -31t8 -38.5zM414 1317q0 -21 -8 -38.5t-21.5 -31t-32 -21t-39.5 -7.5q-19 0 -37 7.5t-31.5 20.5t-21.5 31t-8 39t8 39t21.5 31t31.5 20.5
t37 7.5q21 0 39.5 -7.5t32 -21t21.5 -31t8 -38.5z" />
    <glyph glyph-name="notequal" unicode="&#x2260;" horiz-adv-x="1403" 
d="M651 317l-162 -317h-141l164 317h-250v134h320l149 292h-469v134h539l157 311h142l-160 -311h262v-134h-330l-151 -292h481v-134h-551z" />
    <glyph glyph-name="AE" unicode="&#xc6;" horiz-adv-x="1751" 
d="M1800 1280h-555l-104 -487h514l-33 -152h-514l-104 -489h587l-30 -152h-760l86 401h-508l-293 -401h-207l1067 1434h887zM1016 1280l-522 -723h426l151 723h-55z" />
    <glyph glyph-name="Oslash" unicode="&#xd8;" horiz-adv-x="1544" 
d="M1384 1219q51 -79 77 -172.5t26 -198.5q0 -94 -17.5 -188t-52.5 -182.5t-87.5 -168.5t-121.5 -145q-94 -90 -215 -139.5t-280 -49.5q-68 0 -128 12.5t-112 34.5t-95 52t-77 65l-170 -168l-82 78l180 180q-43 76 -67.5 165t-24.5 192q0 208 69 372t187 283
q100 100 226.5 156.5t293.5 56.5q130 0 229.5 -41.5t168.5 -107.5l159 161l80 -80zM1190 1186q-51 52 -124 84.5t-163 32.5q-61 0 -117.5 -13t-106.5 -36t-94 -54.5t-79 -69.5q-46 -51 -82 -113.5t-60.5 -133t-37.5 -147.5t-13 -158q0 -62 12 -118t33 -106zM1309 850
q0 71 -14.5 132.5t-39.5 111.5l-833 -838q51 -63 127 -96t178 -33q106 0 198.5 37t164.5 108q52 51 93 117t69 141t42.5 156.5t14.5 163.5z" />
    <glyph glyph-name="infinity" unicode="&#x221e;" horiz-adv-x="1673" 
d="M1624 600q0 -78 -28 -149.5t-78 -125.5t-118 -86t-149 -32q-111 0 -207 67t-178 207q-85 -139 -183.5 -206.5t-197.5 -67.5q-82 0 -150.5 27.5t-117.5 78t-76.5 121.5t-27.5 158q0 78 28 149.5t77.5 125.5t117.5 86t149 32q118 0 213 -66.5t172 -205.5q79 133 175 202.5
t204 69.5q83 0 152 -27.5t118.5 -78t77 -121.5t27.5 -158zM1491 600q0 54 -17.5 101.5t-49 83t-76 55.5t-97.5 20q-89 0 -167 -64t-152 -200q68 -137 146 -198.5t171 -61.5q59 0 104 20.5t75.5 56t46.5 83.5t16 104zM805 598q-68 137 -147.5 199.5t-172.5 62.5
q-57 0 -102 -21t-76 -57t-47 -85t-16 -105q0 -55 18 -101.5t50 -81t76 -54t97 -19.5q90 0 168 63t152 199z" />
    <glyph glyph-name="plusminus" unicode="&#xb1;" horiz-adv-x="1403" 
d="M793 651v-403h-131v403h-406v133h406v404h131v-404h403v-133h-403zM256 0v133h940v-133h-940z" />
    <glyph glyph-name="lessequal" unicode="&#x2264;" horiz-adv-x="1403" 
d="M303 659v58l860 481v-149l-643 -355v-4l643 -313v-152zM262 18v134h940v-134h-940z" />
    <glyph glyph-name="greaterequal" unicode="&#x2265;" horiz-adv-x="1403" 
d="M303 225v152l643 309v6l-643 357v149l860 -481v-58zM262 18v134h940v-134h-940z" />
    <glyph glyph-name="yen" unicode="&#xa5;" horiz-adv-x="1104" 
d="M741 778h285l-29 -139h-335l-44 -207h334l-28 -139h-334l-64 -293h-164l64 293h-342l29 139h342l43 207h-342l30 139h291l-213 656h174l146 -525q11 -38 17 -63.5t9 -46.5h6q14 28 32.5 56l41.5 60l359 519h190z" />
    <glyph glyph-name="uni00B5" unicode="&#xb5;" horiz-adv-x="1175" 
d="M114 -395h-162l300 1419h166l-127 -600q-4 -16 -8 -37t-7.5 -42t-5.5 -38.5t-2 -27.5q0 -75 36.5 -119.5t109.5 -44.5q44 0 88 18t85.5 48.5t78 71t66.5 86t51.5 93.5t31.5 92l107 500h165l-153 -713q-7 -31 -12 -65t-5 -54q0 -22 8 -37t20 -24t27 -12.5t30 -3.5
q18 0 36.5 3t35.5 9l-26 -131q-25 -8 -57 -13t-63 -5q-96 0 -138 45.5t-42 120.5q0 9 0.5 22.5t2 27.5l3 27l2.5 21h-4q-31 -56 -70.5 -104.5t-86 -84.5t-100.5 -57t-114 -21t-105 27t-62 71z" />
    <glyph glyph-name="partialdiff" unicode="&#x2202;" horiz-adv-x="1096" 
d="M1051 934q0 -55 -4.5 -114.5t-12.5 -118t-18.5 -112t-22.5 -97.5q-30 -115 -78 -210t-114 -163t-149 -106t-183 -38q-84 0 -152 27.5t-116 79t-74.5 125t-26.5 164.5q0 81 16 162.5t46.5 155.5t76 138.5t103.5 111.5t128.5 74t152.5 27q92 0 156 -43t106 -125h4
q2 19 2 34v36q0 94 -14 169t-45.5 127.5t-83 81t-125.5 28.5q-31 0 -65.5 -7.5t-67.5 -19t-61.5 -25.5t-49.5 -28l37 155q26 15 57 27t64 20.5t66 13.5t63 5q79 0 138.5 -20.5t102 -57.5t70.5 -88.5t44.5 -113.5t23 -131.5t6.5 -143.5zM874 692q-13 45 -34 83t-50.5 66
t-66 44t-80.5 16q-59 0 -109.5 -21.5t-92 -59.5t-74 -89t-54.5 -109t-33.5 -120.5t-11.5 -124.5q0 -58 14.5 -106.5t41.5 -83t66.5 -53.5t90.5 -19q78 0 144.5 44t117 121t84.5 182.5t47 229.5z" />
    <glyph glyph-name="summation" unicode="&#x2211;" horiz-adv-x="1262" 
d="M82 -469v78l676 883l-639 851v91h1081v-154h-835l593 -784l-628 -818h911v-147h-1159z" />
    <glyph glyph-name="product" unicode="&#x220f;" horiz-adv-x="1544" 
d="M1227 -469v1747h-838v-1747h-168v1903h1176v-1903h-170z" />
    <glyph glyph-name="integral" unicode="&#x222b;" horiz-adv-x="1104" 
d="M946 1372q-20 11 -48 19t-62 8q-44 0 -76.5 -16t-53.5 -44.5t-31.5 -68.5t-10.5 -88v-1321q0 -91 -28.5 -156.5t-75 -107.5t-104 -62t-116.5 -20q-35 0 -67.5 5t-51.5 13v148q19 -11 48 -19t61 -8q44 0 76 15.5t53.5 44t32 68.5t10.5 89v1319q0 92 29 157.5t75.5 108
t104.5 62.5t116 20q34 0 67.5 -5t51.5 -13v-148z" />
    <glyph glyph-name="ordfeminine" unicode="&#xaa;" horiz-adv-x="893" 
d="M817 942q-5 -26 -10.5 -59t-10 -65.5t-7.5 -60t-3 -42.5h-137l2.5 32t4 38.5t4.5 38.5t4 32h-2q-47 -69 -111 -114.5t-145 -45.5q-100 0 -154.5 71t-54.5 202q0 39 8.5 90t28.5 105t53 106.5t83 93.5t118 66.5t157 25.5q29 0 64 -2.5t71 -6.5t70.5 -10t64.5 -12z
M764 1331q-26 6 -61.5 10.5t-63.5 4.5q-57 0 -102 -18t-79 -48.5t-57.5 -69t-38.5 -79.5t-21.5 -81t-6.5 -73q0 -37 6.5 -69t21 -54.5t38 -35.5t57.5 -13q51 0 95 32.5t78 80.5t57.5 103.5t33.5 100.5z" />
    <glyph glyph-name="ordmasculine" unicode="&#xba;" horiz-adv-x="915" 
d="M938 1151q0 -82 -23 -163.5t-72.5 -146t-127 -105t-185.5 -40.5q-73 0 -131 23.5t-99 65.5t-63 100.5t-22 128.5q0 91 28 171t80.5 140t128.5 94.5t173 34.5q76 0 134.5 -23t98 -64t60 -96t20.5 -120zM803 1141q0 41 -11 78t-34 64.5t-58.5 43.5t-83.5 16q-66 0 -116 -27
t-83 -72.5t-50 -104t-17 -121.5q0 -48 13 -86.5t37 -66.5t58.5 -43t76.5 -15q75 0 126.5 31t83 79t45 107.5t13.5 116.5z" />
    <glyph glyph-name="uni2126" unicode="&#x2126;" horiz-adv-x="1578" 
d="M1542 893q0 -136 -41 -251t-109 -209t-157.5 -165.5t-187.5 -120.5h339l-30 -147h-516l32 162q99 51 186.5 120t152 157.5t102 197.5t37.5 240q0 96 -29.5 175t-85 135.5t-135 88t-178.5 31.5q-130 0 -239.5 -49t-189 -137t-124 -210.5t-44.5 -269.5q0 -88 16 -157
t45 -126t69 -104t88 -92l-33 -162h-516l29 147h356q-42 35 -85.5 84t-78 113t-56.5 141.5t-22 169.5q0 181 61 329t168 253.5t251.5 163t312.5 57.5q146 0 259.5 -44t192 -120t119.5 -179t41 -222z" />
    <glyph glyph-name="ae" unicode="&#xe6;" horiz-adv-x="1692" 
d="M1655 784q0 -81 -36 -147.5t-119 -114t-220 -73.5t-338 -27q0 -11 -1 -20.5t-1 -18.5q0 -54 14.5 -102.5t46 -85t81.5 -58.5t120 -22q69 0 151.5 26.5t157.5 75.5l-30 -162q-56 -32 -131.5 -56t-169.5 -24q-90 0 -159 25.5t-117 70.5t-75 107.5t-34 136.5h-4
q-36 -64 -80 -125t-97.5 -109t-116.5 -77t-137 -29q-76 0 -129.5 27.5t-87.5 76.5t-49.5 116.5t-15.5 146.5q0 71 16.5 151t51 158.5t88.5 150.5t129.5 127t174 87.5t220.5 32.5q96 0 172.5 -22.5t136.5 -51.5q56 35 122.5 54.5t147.5 19.5q64 0 121.5 -18t101 -52
t69.5 -83.5t26 -111.5zM1487 774q0 33 -13 58t-36.5 42.5t-55 26t-69.5 8.5q-61 0 -117.5 -24t-103.5 -69t-82 -109.5t-52 -145.5q144 0 245 15t164 42.5t91.5 67t28.5 88.5zM942 868q-17 8 -40 15.5t-49 13t-54 9t-54 3.5q-89 0 -161 -27t-128 -71.5t-96 -103t-65.5 -121
t-38 -125t-12.5 -115.5q0 -51 8.5 -93.5t25.5 -73t43.5 -47.5t63.5 -17q42 0 88 20.5t94.5 68t99 125.5t101.5 193l30 69l40 90t48.5 97t55.5 90z" />
    <glyph glyph-name="oslash" unicode="&#xf8;" horiz-adv-x="1096" 
d="M979 838q19 -39 29 -88t10 -105q0 -142 -40.5 -264.5t-114 -212.5t-176.5 -141.5t-228 -51.5q-90 0 -161.5 29.5t-121.5 85.5l-156 -145l-75 82l170 157q-17 44 -27 91.5t-10 103.5q0 140 40.5 262t114 213t176.5 143t228 52q91 0 160.5 -30t120.5 -83l180 168l78 -82z
M799 823q-29 44 -73 65t-99 21q-88 0 -159 -45t-120 -118.5t-75.5 -168t-26.5 -194.5q0 -38 6 -70zM850 643q0 39 -6 70l-549 -512q26 -38 71.5 -62t102.5 -24q89 0 160 45t120 118.5t75 169t26 195.5z" />
    <glyph glyph-name="questiondown" unicode="&#xbf;" horiz-adv-x="881" 
d="M698 942q0 -23 -8.5 -43.5t-23.5 -36t-35 -24.5t-43 -9q-22 0 -42.5 9t-35.5 24.5t-24 36t-9 43.5t9 43.5t24 35.5t35.5 23.5t42.5 8.5q23 0 43 -8.5t35 -23.5t23.5 -35.5t8.5 -43.5zM598 -367q-62 -27 -136 -44t-149 -17q-78 0 -141.5 24t-108.5 67t-69.5 100.5
t-24.5 125.5q0 62 15.5 116t48.5 103.5t83.5 97t119.5 95.5q53 37 90 70.5t62.5 71t42 83t28.5 105.5h149q-14 -72 -31.5 -130t-45.5 -106.5t-69 -90t-102 -81.5q-63 -41 -106.5 -80t-71.5 -77t-40.5 -77.5t-12.5 -82.5q0 -45 15 -81t42 -62t65 -40t83 -14q68 0 141 22
t141 70z" />
    <glyph glyph-name="uni00A0" unicode="&#xa0;" horiz-adv-x="563" 
 />
    <glyph glyph-name="exclamdown" unicode="&#xa1;" horiz-adv-x="653" 
d="M520 942q0 -23 -8.5 -43.5t-23.5 -36t-34.5 -24.5t-41.5 -9q-23 0 -43.5 9t-35.5 24.5t-23.5 36t-8.5 43.5t8.5 43.5t23.5 35.5t35.5 23.5t43.5 8.5q22 0 41.5 -8.5t34.5 -23.5t23.5 -35.5t8.5 -43.5zM221 -399h-172l238 1030h135z" />
    <glyph glyph-name="logicalnot" unicode="&#xac;" horiz-adv-x="1403" 
d="M1055 254v432h-809v131h940v-563h-131z" />
    <glyph glyph-name="radical" unicode="&#x221a;" horiz-adv-x="1331" 
d="M756 -2h-113l-319 762h-170v110h264l274 -663l334 1309h119z" />
    <glyph glyph-name="florin" unicode="&#x192;" horiz-adv-x="1104" 
d="M1014 1260q-20 12 -52 23t-61 11q-62 0 -107.5 -39t-64.5 -120l-45 -209h174l-31 -138h-172l-139 -649q-26 -123 -61.5 -203.5t-79 -127.5t-94.5 -65.5t-109 -18.5q-10 0 -25 1t-31.5 3.5t-32 6.5t-26.5 9l17 145q21 -14 45 -20t41 -6q32 0 60 13t52 46t45 90.5t39 145.5
l136 628h-119l30 140h115l47 219q14 66 42.5 119.5t70 91t95.5 58t118 20.5q40 0 82.5 -8t68.5 -17z" />
    <glyph glyph-name="approxequal" unicode="&#x2248;" horiz-adv-x="1403" 
d="M1225 961q-3 -67 -21.5 -124t-53.5 -98t-86.5 -64.5t-119.5 -23.5q-38 0 -72 8.5t-65.5 23.5t-62 35l-62.5 42l-37 23.5t-39.5 21.5t-42 16t-43.5 6q-69 0 -105.5 -45.5t-39.5 -130.5h-135q3 68 22 124.5t54 98t86 64.5t118 23q39 0 71.5 -8t61 -20.5t54 -28.5l49.5 -32
l58.5 -39t48 -28t44 -17t45.5 -6q31 0 56 13t43 37t28 57t11 72h135zM1225 549q-3 -67 -21.5 -123.5t-53.5 -97.5t-86.5 -64.5t-119.5 -23.5q-38 0 -72 8.5t-65.5 23.5t-62 34.5l-62.5 41.5l-37 23.5t-39.5 21t-42 15.5t-43.5 6q-69 0 -105.5 -44.5t-39.5 -129.5h-135
q3 68 22 124.5t54 97.5t86 64t118 23q39 0 71.5 -7.5t61 -20t54 -28.5l49.5 -32l58.5 -40t48 -28t44 -16.5t45.5 -5.5q62 0 99 48.5t39 129.5h135z" />
    <glyph glyph-name="Delta" unicode="&#x394;" horiz-adv-x="1360" 
d="M1171 0h-1200l19 82l794 1352h191l213 -1352zM864 1094q-3 23 -6 49l-5.5 49.5t-3.5 43t-1 28.5h-4l-25 -52.5t-31 -60.5l-578 -998h795z" />
    <glyph glyph-name="guillemotleft" unicode="&#xab;" horiz-adv-x="1053" 
d="M655 526l222 -325h-156l-227 336l364 344h176zM250 526l223 -325h-158l-227 336l365 344h176z" />
    <glyph glyph-name="guillemotright" unicode="&#xbb;" horiz-adv-x="1053" 
d="M600 203h-176l381 354l-225 326h155l230 -336zM195 203h-177l381 354l-223 326h156l227 -336z" />
    <glyph glyph-name="ellipsis" unicode="&#x2026;" horiz-adv-x="1507" 
d="M1276 92q0 -22 -8.5 -42t-23.5 -35t-35.5 -24t-43.5 -9q-22 0 -41.5 9t-34.5 24t-23.5 35t-8.5 42q0 23 8.5 43.5t23.5 36t34.5 24.5t41.5 9q23 0 43.5 -9t35.5 -24.5t23.5 -36t8.5 -43.5zM774 92q0 -22 -8.5 -42t-23.5 -35t-35 -24t-43 -9t-43.5 9t-35.5 24t-23.5 35
t-8.5 42q0 23 8.5 43.5t23.5 36t35.5 24.5t43.5 9t43 -9t35 -24.5t23.5 -36t8.5 -43.5zM272 92q0 -22 -8.5 -42t-23.5 -35t-35 -24t-43 -9q-22 0 -42 9t-35 24t-23.5 35t-8.5 42q0 23 8.5 43.5t23.5 36t35 24.5t42 9q23 0 43 -9t35 -24.5t23.5 -36t8.5 -43.5z" />
    <glyph glyph-name="Agrave" unicode="&#xc0;" horiz-adv-x="1294" 
d="M999 0l-65 401h-608l-232 -401h-198l854 1434h176l250 -1434h-177zM815 1163q-1 10 -1.5 23t-0.5 26v26v22h-4q-3 -9 -8 -21.5t-11 -26t-12.5 -26.5l-11.5 -23l-354 -610h495zM897 1567l-239 327h153l207 -327h-121z" />
    <glyph glyph-name="Atilde" unicode="&#xc3;" horiz-adv-x="1294" 
d="M999 0l-65 401h-608l-232 -401h-198l854 1434h176l250 -1434h-177zM815 1163q-1 10 -1.5 23t-0.5 26v26v22h-4q-3 -9 -8 -21.5t-11 -26t-12.5 -26.5l-11.5 -23l-354 -610h495zM1198 1806q-3 -45 -20.5 -85t-46 -70t-67 -47t-83.5 -17q-48 0 -80.5 14.5t-58 31.5l-49 31.5
t-54.5 14.5q-51 0 -80.5 -33t-34.5 -79h-96q3 48 21.5 89t48.5 70t70.5 45.5t87.5 16.5q44 0 73.5 -15t54.5 -33.5t49.5 -33.5t57.5 -15q22 0 41 9t34 24.5t24 36.5t12 45h96z" />
    <glyph glyph-name="Otilde" unicode="&#xd5;" horiz-adv-x="1544" 
d="M1487 852q0 -93 -17 -184.5t-49 -176.5t-78.5 -161t-105.5 -137q-48 -50 -104 -90.5t-120 -69t-137 -43.5t-157 -15q-135 0 -243 46.5t-183.5 128t-115.5 193.5t-40 243q0 208 67.5 373t188.5 286q98 98 226.5 155.5t291.5 57.5q132 0 238.5 -45t181.5 -126t115.5 -192
t40.5 -243zM1309 846q0 107 -29 192t-83 145t-130 92t-170 32q-111 0 -212 -48t-179 -133q-44 -48 -79.5 -110t-61 -132t-39 -146t-13.5 -154q0 -100 27.5 -184t80 -144.5t129.5 -94.5t177 -34q111 0 212.5 44.5t178.5 131.5q48 54 83.5 120.5t59.5 138t36 144.5t12 140z
M1286 1806q-3 -45 -20.5 -85t-46 -70t-67 -47t-83.5 -17q-48 0 -80.5 14.5t-58 31.5l-49 31.5t-54.5 14.5q-51 0 -80.5 -33t-34.5 -79h-96q3 48 21.5 89t48.5 70t70.5 45.5t87.5 16.5q44 0 73.5 -15t54.5 -33.5t49.5 -33.5t57.5 -15q22 0 41 9t34 24.5t24 36.5t12 45h96z
" />
    <glyph glyph-name="OE" unicode="&#x152;" horiz-adv-x="1892" 
d="M1942 1282h-553l-105 -489h514l-33 -152h-514l-104 -489h588l-31 -152h-676q-35 0 -71 -4l-74 -8.5t-80 -8.5t-90 -4q-135 0 -242.5 46.5t-182.5 128.5t-115 194t-40 242q0 208 67.5 373t188.5 286q98 98 228 155.5t301 57.5q62 0 116 -3.5t102.5 -8l92 -8.5t84.5 -4h661
zM1214 1274q-52 15 -127 24t-182 9q-121 0 -222.5 -46.5t-176.5 -130.5q-44 -47 -80 -108t-61.5 -131.5t-39.5 -148t-14 -158.5q0 -96 26 -179.5t78 -145t130.5 -97t183.5 -35.5q71 0 132.5 10.5t117.5 26.5z" />
    <glyph glyph-name="oe" unicode="&#x153;" horiz-adv-x="1743" 
d="M1706 784q0 -81 -36 -147.5t-119 -114t-220 -73.5t-338 -27q0 -11 -1 -23.5t-1 -23.5q0 -51 15 -98t46.5 -83t81 -57.5t117.5 -21.5q35 0 73.5 7t79 20t81 32t78.5 43l-31 -162q-56 -32 -132.5 -56t-170.5 -24q-77 0 -136 18t-102 50t-71.5 76.5t-45.5 97.5h-4
q-72 -112 -177.5 -177t-233.5 -65q-88 0 -158.5 28t-120 80.5t-76 127t-26.5 168.5q0 141 40.5 263.5t114 213t176 142t226.5 51.5q64 0 117 -17.5t94.5 -49.5t71 -76t45.5 -97h4q37 54 81.5 98.5t96.5 76t111.5 48.5t125.5 17q79 0 139.5 -21t101.5 -57.5t62 -84.5t21 -102
zM1538 772q0 68 -47.5 102.5t-122.5 34.5q-60 0 -117 -25.5t-104.5 -71.5t-82.5 -110.5t-52 -142.5q157 0 258.5 17t161 46.5t83 68t23.5 81.5zM844 637q0 130 -57 201t-160 71q-88 0 -159 -45t-120 -118.5t-75.5 -167t-26.5 -191.5q0 -62 15.5 -112.5t44 -86t70 -54.5
t93.5 -19q89 0 159 44.5t118 118t73 167.5t25 192z" />
    <glyph glyph-name="endash" unicode="&#x2013;" horiz-adv-x="1024" 
d="M4 506l26 129h1024l-26 -129h-1024z" />
    <glyph glyph-name="emdash" unicode="&#x2014;" horiz-adv-x="2048" 
d="M4 506l26 129h2048l-26 -129h-2048z" />
    <glyph glyph-name="quotedblleft" unicode="&#x201c;" horiz-adv-x="766" 
d="M676 987h-150l207 447h117zM342 987h-149l204 447h119z" />
    <glyph glyph-name="quotedblright" unicode="&#x201d;" horiz-adv-x="766" 
d="M651 987h-116l176 447h147zM317 987h-116l176 447h147z" />
    <glyph glyph-name="quoteleft" unicode="&#x2018;" horiz-adv-x="432" 
d="M342 987h-149l204 447h119z" />
    <glyph glyph-name="quoteright" unicode="&#x2019;" horiz-adv-x="432" 
d="M317 987h-116l176 447h147z" />
    <glyph glyph-name="divide" unicode="&#xf7;" horiz-adv-x="1403" 
d="M836 975q0 -47 -30.5 -77t-71.5 -30q-45 0 -75 30.5t-30 74.5q0 45 29 76.5t76 31.5q102 0 102 -106zM1196 530h-940v134h940v-134zM830 217q0 -47 -29.5 -75.5t-70.5 -28.5q-45 0 -76 29.5t-31 72.5q0 46 30 78.5t77 32.5q100 0 100 -109z" />
    <glyph glyph-name="lozenge" unicode="&#x25ca;" horiz-adv-x="1194" 
d="M666 0h-76l-451 715l451 719h76l452 -717zM629 1292l-357 -575l357 -578l356 578z" />
    <glyph glyph-name="ydieresis" unicode="&#xff;" horiz-adv-x="991" 
d="M367 -170q-46 -75 -93 -132.5t-98.5 -97.5t-110 -60.5t-128.5 -20.5q-23 0 -51.5 4.5t-45.5 9.5l31 145q15 -8 39 -13t47 -5q69 0 124.5 38t104.5 116l123 190l-186 1020h170l119 -786q3 -22 3.5 -42.5t-1.5 -35.5h6q5 12 15.5 34t23.5 42l454 788h181zM912 1317
q0 -42 -29 -70t-70 -28q-40 0 -69 27.5t-29 70.5q0 21 8 39t21 31t30.5 20.5t36.5 7.5q21 0 39.5 -7.5t32 -21t21.5 -31t8 -38.5zM527 1317q0 -21 -8 -38.5t-21.5 -31t-32 -21t-39.5 -7.5q-19 0 -37 7.5t-31.5 20.5t-21.5 31t-8 39t8 39t21.5 31t31.5 20.5t37 7.5
q21 0 39.5 -7.5t32 -21t21.5 -31t8 -38.5z" />
    <glyph glyph-name="Ydieresis" unicode="&#x178;" horiz-adv-x="1135" 
d="M651 545l-114 -545h-172l114 541l-268 893h182l178 -660q7 -23 11.5 -46.5l7.5 -39.5h2q8 16 22 38.5l29 45.5l477 662h193zM1071 1665q0 -42 -29 -70t-70 -28q-40 0 -69 27.5t-29 70.5q0 21 8 39t21 31t30.5 20.5t36.5 7.5q21 0 39.5 -7.5t32 -21t21.5 -31t8 -38.5z
M686 1665q0 -21 -8 -38.5t-21.5 -31t-32 -21t-39.5 -7.5q-19 0 -37 7.5t-31.5 20.5t-21.5 31t-8 39t8 39t21.5 31t31.5 20.5t37 7.5q21 0 39.5 -7.5t32 -21t21.5 -31t8 -38.5z" />
    <glyph glyph-name="fraction" unicode="&#x2044;" horiz-adv-x="270" 
d="M-305 0h-148l1164 1434h145z" />
    <glyph glyph-name="fraction" unicode="&#x2215;" horiz-adv-x="270" 
d="M-305 0h-148l1164 1434h145z" />
    <glyph glyph-name="Euro" unicode="&#x20ac;" horiz-adv-x="1104" 
d="M1196 1225q-54 37 -118 60.5t-138 23.5q-101 0 -182.5 -29.5t-144.5 -82t-107.5 -124t-73.5 -155.5h576l-25 -109h-582q-11 -53 -15.5 -106t-6.5 -107h559l-23 -111h-532q19 -180 108.5 -269t239.5 -89q71 0 138.5 20.5t125.5 51.5l-22 -168q-47 -22 -113.5 -40
t-157.5 -18q-101 0 -187.5 33.5t-152 98.5t-106 160.5t-49.5 219.5h-160l25 111h135q2 54 7.5 106.5t16.5 106.5h-112l22 109h117q36 115 97.5 214t149 171.5t201 113.5t252.5 41q82 0 152 -19t117 -42z" />
    <glyph glyph-name="guilsinglleft" unicode="&#x2039;" horiz-adv-x="647" 
d="M250 526l223 -325h-158l-227 336l365 344h176z" />
    <glyph glyph-name="guilsinglright" unicode="&#x203a;" horiz-adv-x="647" 
d="M195 203h-177l379 354l-223 326h158l227 -336z" />
    <glyph glyph-name="uniFB01" unicode="&#xfb01;" horiz-adv-x="1134" 
d="M823 1374q-10 5 -24 9.5t-30 8.5t-33.5 6.5t-33.5 2.5q-82 0 -126.5 -53.5t-67.5 -159.5l-37 -164h242l-33 -139h-242l-262 -1225h-166l264 1225h-176l31 139h176l41 190q19 88 53 150t81 101t106.5 57t130.5 18q37 0 72.5 -6t60.5 -14zM1021 4q-25 -8 -56.5 -13
t-62.5 -5q-101 0 -151 50.5t-50 135.5q0 25 5 59t16 84l149 709h166l-150 -713q-9 -42 -12.5 -65t-3.5 -39q0 -41 22.5 -62.5t71.5 -21.5q26 0 45.5 3t36.5 9zM1138 1389q0 -45 -30.5 -77t-75.5 -32q-44 0 -76.5 31.5t-32.5 77.5t32.5 75t76.5 29t75 -29.5t31 -74.5z" />
    <glyph glyph-name="uniFB02" unicode="&#xfb02;" horiz-adv-x="1134" 
d="M823 1374q-10 5 -24 9.5t-30 8.5t-33.5 6.5t-33.5 2.5q-82 0 -126.5 -53.5t-67.5 -159.5l-37 -164h242l-33 -139h-242l-262 -1225h-166l264 1225h-176l31 139h176l41 190q19 88 53 150t81 101t106.5 57t130.5 18q37 0 72.5 -6t60.5 -14zM1021 4q-25 -8 -56.5 -13
t-62.5 -5q-101 0 -151 50.5t-50 135.5q0 25 5 59t16 84l256 1202h166l-257 -1206q-9 -42 -12.5 -65t-3.5 -39q0 -41 22.5 -62.5t71.5 -21.5q26 0 45.5 3t36.5 9z" />
    <glyph glyph-name="daggerdbl" unicode="&#x2021;" horiz-adv-x="770" 
d="M727 519l-298 20l-25 -310h-156l105 310l-305 -20l31 150l256 -30l99 192l-18 192l-268 -30l32 150l298 -20l25 310h156l-105 -310l306 20l-32 -150l-256 30l-98 -192l17 -192l268 30z" />
    <glyph glyph-name="periodcentered" unicode="&#xb7;" horiz-adv-x="446" 
d="M354 623q0 -23 -8.5 -43.5t-23.5 -35.5t-34.5 -23.5t-41.5 -8.5q-23 0 -43.5 8.5t-35.5 23.5t-23.5 35.5t-8.5 43.5q0 22 8.5 42t23.5 35t35 24t42 9q23 0 43 -9t35 -24t23.5 -35t8.5 -42z" />
    <glyph glyph-name="quotesinglbase" unicode="&#x201a;" horiz-adv-x="432" 
d="M59 -225h-116l176 444h147z" />
    <glyph glyph-name="quotedblbase" unicode="&#x201e;" horiz-adv-x="766" 
d="M393 -229h-117l177 446h147zM59 -229h-116l176 446h147z" />
    <glyph glyph-name="perthousand" unicode="&#x2030;" horiz-adv-x="2482" 
d="M2386 428q0 -84 -27.5 -164.5t-78 -143.5t-121.5 -101.5t-158 -38.5q-88 0 -144.5 29.5t-89 73.5t-45 96t-12.5 97q0 81 28 160.5t79 143t123.5 102.5t162.5 39q65 0 117 -19.5t89 -57t57 -92t20 -124.5zM1591 428q0 -84 -28 -164.5t-78.5 -143.5t-122 -101.5
t-158.5 -38.5t-143.5 29.5t-89.5 73.5t-45.5 96t-12.5 97q0 81 28 160.5t79.5 143t124.5 102.5t164 39q64 0 116 -19.5t89 -57t57 -92t20 -124.5zM338 0h-148l1229 1434h148zM848 1161q0 -84 -28 -164.5t-79 -143.5t-122 -101.5t-158 -38.5q-58 0 -102.5 13.5t-77 37
t-54 53.5t-34 63t-18 66.5t-5.5 63.5q0 54 12.5 107.5t36.5 103t58.5 92t78 74t96.5 49.5t113 18q64 0 116 -19.5t89 -57t57.5 -92t20.5 -124.5zM2253 424q0 36 -8 69.5t-26 59.5t-47 41.5t-71 15.5q-61 0 -108.5 -32t-80.5 -81.5t-50 -108.5t-17 -114q0 -35 8.5 -68.5
t27.5 -59t49.5 -41t74.5 -15.5q55 0 100.5 28.5t78.5 75t51 106.5t18 124zM1456 424q0 36 -8 69.5t-26 59.5t-47 41.5t-70 15.5q-61 0 -108.5 -32t-80.5 -81.5t-50 -108.5t-17 -114q0 -35 9 -68.5t28 -59t49 -41t73 -15.5q56 0 101.5 28.5t78 75t50.5 106.5t18 124z
M713 1157q0 36 -8 69.5t-26 59.5t-47 41.5t-71 15.5q-61 0 -108.5 -32t-80.5 -81t-50 -108.5t-17 -113.5q0 -35 9 -68t28 -59t49.5 -42t73.5 -16q55 0 100.5 28.5t78.5 75t51 106.5t18 124z" />
    <glyph glyph-name="Acircumflex" unicode="&#xc2;" horiz-adv-x="1294" 
d="M999 0l-65 401h-608l-232 -401h-198l854 1434h176l250 -1434h-177zM815 1163q-1 10 -1.5 23t-0.5 26v26v22h-4q-3 -9 -8 -21.5t-11 -26t-12.5 -26.5l-11.5 -23l-354 -610h495zM1022 1567l-114 231l-213 -231h-121l283 331h133l145 -331h-113z" />
    <glyph glyph-name="Ecircumflex" unicode="&#xca;" horiz-adv-x="1022" 
d="M1071 1282h-553l-104 -489h512l-33 -152h-512l-105 -489h588l-30 -152h-760l303 1434h727zM940 1567l-114 231l-213 -231h-121l283 331h133l145 -331h-113z" />
    <glyph glyph-name="Aacute" unicode="&#xc1;" horiz-adv-x="1294" 
d="M999 0l-65 401h-608l-232 -401h-198l854 1434h176l250 -1434h-177zM815 1163q-1 10 -1.5 23t-0.5 26v26v22h-4q-3 -9 -8 -21.5t-11 -26t-12.5 -26.5l-11.5 -23l-354 -610h495zM801 1567h-123l289 327h161z" />
    <glyph glyph-name="Edieresis" unicode="&#xcb;" horiz-adv-x="1022" 
d="M1071 1282h-553l-104 -489h512l-33 -152h-512l-105 -489h588l-30 -152h-760l303 1434h727zM1065 1665q0 -42 -29 -70t-70 -28q-40 0 -69 27.5t-29 70.5q0 21 8 39t21 31t30.5 20.5t36.5 7.5q21 0 39.5 -7.5t32 -21t21.5 -31t8 -38.5zM680 1665q0 -21 -8 -38.5t-21.5 -31
t-32 -21t-39.5 -7.5q-19 0 -37 7.5t-31.5 20.5t-21.5 31t-8 39t8 39t21.5 31t31.5 20.5t37 7.5q21 0 39.5 -7.5t32 -21t21.5 -31t8 -38.5z" />
    <glyph glyph-name="Egrave" unicode="&#xc8;" horiz-adv-x="1022" 
d="M1071 1282h-553l-104 -489h512l-33 -152h-512l-105 -489h588l-30 -152h-760l303 1434h727zM800 1567l-239 327h153l207 -327h-121z" />
    <glyph glyph-name="Iacute" unicode="&#xcd;" horiz-adv-x="545" 
d="M246 0h-172l303 1434h174zM434 1567h-123l289 327h161z" />
    <glyph glyph-name="Icircumflex" unicode="&#xce;" horiz-adv-x="545" 
d="M246 0h-172l303 1434h174zM653 1567l-114 231l-213 -231h-121l283 331h133l145 -331h-113z" />
    <glyph glyph-name="Idieresis" unicode="&#xcf;" horiz-adv-x="545" 
d="M246 0h-172l303 1434h174zM787 1665q0 -42 -29 -70t-70 -28q-40 0 -69 27.5t-29 70.5q0 21 8 39t21 31t30.5 20.5t36.5 7.5q21 0 39.5 -7.5t32 -21t21.5 -31t8 -38.5zM402 1665q0 -21 -8 -38.5t-21.5 -31t-32 -21t-39.5 -7.5q-19 0 -37 7.5t-31.5 20.5t-21.5 31t-8 39
t8 39t21.5 31t31.5 20.5t37 7.5q21 0 39.5 -7.5t32 -21t21.5 -31t8 -38.5z" />
    <glyph glyph-name="Igrave" unicode="&#xcc;" horiz-adv-x="545" 
d="M246 0h-172l303 1434h174zM548 1567l-239 327h153l207 -327h-121z" />
    <glyph glyph-name="Oacute" unicode="&#xd3;" horiz-adv-x="1544" 
d="M1487 852q0 -93 -17 -184.5t-49 -176.5t-78.5 -161t-105.5 -137q-48 -50 -104 -90.5t-120 -69t-137 -43.5t-157 -15q-135 0 -243 46.5t-183.5 128t-115.5 193.5t-40 243q0 208 67.5 373t188.5 286q98 98 226.5 155.5t291.5 57.5q132 0 238.5 -45t181.5 -126t115.5 -192
t40.5 -243zM1309 846q0 107 -29 192t-83 145t-130 92t-170 32q-111 0 -212 -48t-179 -133q-44 -48 -79.5 -110t-61 -132t-39 -146t-13.5 -154q0 -100 27.5 -184t80 -144.5t129.5 -94.5t177 -34q111 0 212.5 44.5t178.5 131.5q48 54 83.5 120.5t59.5 138t36 144.5t12 140z
M863 1567h-123l289 327h161z" />
    <glyph glyph-name="Ocircumflex" unicode="&#xd4;" horiz-adv-x="1544" 
d="M1487 852q0 -93 -17 -184.5t-49 -176.5t-78.5 -161t-105.5 -137q-48 -50 -104 -90.5t-120 -69t-137 -43.5t-157 -15q-135 0 -243 46.5t-183.5 128t-115.5 193.5t-40 243q0 208 67.5 373t188.5 286q98 98 226.5 155.5t291.5 57.5q132 0 238.5 -45t181.5 -126t115.5 -192
t40.5 -243zM1309 846q0 107 -29 192t-83 145t-130 92t-170 32q-111 0 -212 -48t-179 -133q-44 -48 -79.5 -110t-61 -132t-39 -146t-13.5 -154q0 -100 27.5 -184t80 -144.5t129.5 -94.5t177 -34q111 0 212.5 44.5t178.5 131.5q48 54 83.5 120.5t59.5 138t36 144.5t12 140z
M1075 1567l-114 231l-213 -231h-121l283 331h133l145 -331h-113z" />
    <glyph glyph-name="Ograve" unicode="&#xd2;" horiz-adv-x="1544" 
d="M1487 852q0 -93 -17 -184.5t-49 -176.5t-78.5 -161t-105.5 -137q-48 -50 -104 -90.5t-120 -69t-137 -43.5t-157 -15q-135 0 -243 46.5t-183.5 128t-115.5 193.5t-40 243q0 208 67.5 373t188.5 286q98 98 226.5 155.5t291.5 57.5q132 0 238.5 -45t181.5 -126t115.5 -192
t40.5 -243zM1309 846q0 107 -29 192t-83 145t-130 92t-170 32q-111 0 -212 -48t-179 -133q-44 -48 -79.5 -110t-61 -132t-39 -146t-13.5 -154q0 -100 27.5 -184t80 -144.5t129.5 -94.5t177 -34q111 0 212.5 44.5t178.5 131.5q48 54 83.5 120.5t59.5 138t36 144.5t12 140z
M985 1567l-239 327h153l207 -327h-121z" />
    <glyph glyph-name="Uacute" unicode="&#xda;" horiz-adv-x="1411" 
d="M1247 563q-30 -140 -75.5 -249.5t-117 -184.5t-174.5 -114.5t-247 -39.5q-111 0 -198 35t-146 96t-90 144t-31 180q0 43 5.5 97t14.5 102l174 805h173l-173 -795l-8.5 -50t-8 -54t-5.5 -51t-2 -42q0 -80 24 -139t66.5 -98t100 -58.5t124.5 -19.5q85 0 152 24t118 75
t87.5 130t60.5 189l191 889h172zM881 1567h-123l289 327h161z" />
    <glyph glyph-name="Ucircumflex" unicode="&#xdb;" horiz-adv-x="1411" 
d="M1247 563q-30 -140 -75.5 -249.5t-117 -184.5t-174.5 -114.5t-247 -39.5q-111 0 -198 35t-146 96t-90 144t-31 180q0 43 5.5 97t14.5 102l174 805h173l-173 -795l-8.5 -50t-8 -54t-5.5 -51t-2 -42q0 -80 24 -139t66.5 -98t100 -58.5t124.5 -19.5q85 0 152 24t118 75
t87.5 130t60.5 189l191 889h172zM1081 1567l-114 231l-213 -231h-121l283 331h133l145 -331h-113z" />
    <glyph glyph-name="Ugrave" unicode="&#xd9;" horiz-adv-x="1411" 
d="M1247 563q-30 -140 -75.5 -249.5t-117 -184.5t-174.5 -114.5t-247 -39.5q-111 0 -198 35t-146 96t-90 144t-31 180q0 43 5.5 97t14.5 102l174 805h173l-173 -795l-8.5 -50t-8 -54t-5.5 -51t-2 -42q0 -80 24 -139t66.5 -98t100 -58.5t124.5 -19.5q85 0 152 24t118 75
t87.5 130t60.5 189l191 889h172zM974 1567l-239 327h153l207 -327h-121z" />
    <glyph glyph-name="dotlessi" unicode="&#x131;" horiz-adv-x="530" 
d="M416 4q-25 -8 -56.5 -13t-62.5 -5q-101 0 -151 50.5t-50 135.5q0 25 5 59t16 84l149 709h166l-150 -713q-9 -42 -12.5 -65t-3.5 -39q0 -41 22.5 -62.5t71.5 -21.5q26 0 45.5 3t36.5 9z" />
    <glyph glyph-name="circumflex" unicode="&#x2c6;" horiz-adv-x="715" 
d="M657 1219l-114 231l-213 -231h-121l283 331h133l145 -331h-113z" />
    <glyph glyph-name="tilde" unicode="&#x2dc;" horiz-adv-x="715" 
d="M848 1458q-3 -45 -20.5 -85t-46 -70t-67 -47t-83.5 -17q-48 0 -80.5 14.5t-58 31.5l-49 31.5t-54.5 14.5q-51 0 -80.5 -33t-34.5 -79h-96q3 48 21.5 89t48.5 70t70.5 45.5t87.5 16.5q44 0 73.5 -15t54.5 -33.5t49.5 -33.5t57.5 -15q22 0 41 9t34 24.5t24 36.5t12 45h96z
" />
    <glyph glyph-name="uni02C9" unicode="&#x2c9;" horiz-adv-x="715" 
d="M240 1219l16 108h508l-16 -108h-508z" />
    <glyph glyph-name="breve" unicode="&#x2d8;" horiz-adv-x="715" 
d="M819 1473q-18 -60 -48.5 -107t-72 -80t-91.5 -50t-107 -17q-55 0 -100.5 16t-77 44.5t-49 68t-17.5 86.5q0 12 1.5 20t4.5 19h105q-2 -7 -2 -13v-14q0 -60 38.5 -93.5t100.5 -33.5q77 0 128 37.5t77 116.5h110z" />
    <glyph glyph-name="dotaccent" unicode="&#x2d9;" horiz-adv-x="715" 
d="M608 1319q0 -42 -28 -71t-70 -29q-19 0 -36.5 7.5t-30.5 21t-21 32t-8 39.5t8 38.5t21 30t30.5 20t36.5 7.5q20 0 37.5 -7.5t31 -20t21.5 -30t8 -38.5z" />
    <glyph glyph-name="ring" unicode="&#x2da;" horiz-adv-x="715" 
d="M729 1374q0 -42 -16 -78t-44 -63t-66 -42t-81 -15t-80 13.5t-64.5 38.5t-43 60t-15.5 78q0 46 16.5 83t44.5 62.5t66.5 39.5t81.5 14q45 0 82 -14t63.5 -39.5t41 -60.5t14.5 -77zM637 1372q0 25 -9 45.5t-24.5 35t-36.5 22.5t-45 8q-49 0 -80.5 -31.5t-31.5 -79.5
q0 -54 32 -84.5t80 -30.5q25 0 46 9t36.5 25t24 36.5t8.5 44.5z" />
    <glyph glyph-name="cedilla" unicode="&#xb8;" horiz-adv-x="715" 
d="M418 -238q0 -89 -75 -142.5t-218 -53.5q-20 0 -43 1.5t-45 4.5l18 88q41 -6 76 -6q87 0 128.5 25t41.5 67q0 35 -28.5 55.5t-90.5 20.5q-14 0 -27.5 -1t-27.5 -3l39 182h96l-24 -104q37 0 69.5 -8.5t57 -25.5t39 -42t14.5 -58z" />
    <glyph glyph-name="hungarumlaut" unicode="&#x2dd;" horiz-adv-x="715" 
d="M596 1219h-102l247 325h142zM340 1219h-102l249 325h136z" />
    <glyph glyph-name="ogonek" unicode="&#x2db;" horiz-adv-x="715" 
d="M301 0q-52 -47 -88 -83t-58 -65.5t-32 -54t-10 -47.5q0 -80 80 -80q23 0 48.5 8.5t41.5 16.5l-15 -103q-18 -9 -46 -15.5t-62 -6.5q-82 0 -122 41.5t-40 114.5q0 27 10 56.5t33 63t61.5 72t96.5 82.5h102z" />
    <glyph glyph-name="caron" unicode="&#x2c7;" horiz-adv-x="715" 
d="M559 1219h-135l-145 331h112l115 -231l215 231h119z" />
    <glyph glyph-name="Lslash" unicode="&#x141;" horiz-adv-x="948" 
d="M817 0h-743l125 592l-170 -74l30 158l174 76l144 682h174l-127 -600l315 145l-30 -156l-320 -149l-110 -518h571z" />
    <glyph glyph-name="lslash" unicode="&#x142;" horiz-adv-x="563" 
d="M315 311q-9 -42 -12.5 -65t-3.5 -39q0 -41 22.5 -62.5t71.5 -21.5q26 0 45.5 3t36.5 9l-26 -131q-25 -8 -56.5 -13t-62.5 -5q-101 0 -151 50.5t-50 135.5q0 25 5 59t16 84l69 320l-170 -100l31 155l170 96l156 731h166l-134 -626l180 104l-32 -153l-180 -103z" />
    <glyph glyph-name="Scaron" unicode="&#x160;" horiz-adv-x="1018" 
d="M991 1219q-25 18 -59.5 34t-74 28t-82.5 19t-85 7q-80 0 -134.5 -22.5t-87.5 -57t-47.5 -75.5t-14.5 -77q0 -47 13 -85t39 -73t67 -70t96 -75q62 -45 110.5 -89t82.5 -90.5t51.5 -98t17.5 -111.5q0 -37 -7.5 -81.5t-27 -89.5t-53.5 -88t-86.5 -76t-126.5 -53t-174 -20
q-56 0 -110 8t-102.5 21t-89 29.5t-69.5 32.5l29 174q32 -23 73 -43.5t87 -36t95 -24.5t97 -9q76 0 130.5 18t90 49.5t52 74.5t16.5 93q0 45 -14 81t-43 70.5t-73.5 70t-105.5 78.5q-49 35 -93.5 75.5t-78 88.5t-53 104.5t-19.5 122.5q0 82 30.5 155.5t90.5 129t148.5 88
t205.5 32.5q45 0 89.5 -5.5t86.5 -15t79.5 -21t66.5 -23.5zM790 1567h-135l-145 331h112l115 -231l215 231h119z" />
    <glyph glyph-name="scaron" unicode="&#x161;" horiz-adv-x="809" 
d="M725 844q-45 29 -101 47t-112 18q-94 0 -145.5 -43t-51.5 -114q0 -29 9.5 -53t28 -45.5t47 -41.5t65.5 -43q112 -65 161.5 -133.5t49.5 -154.5q0 -58 -21.5 -113.5t-68.5 -98t-121.5 -68.5t-181.5 -26q-30 0 -66 4t-72.5 12t-70 19.5t-58.5 26.5l33 156q20 -14 49.5 -28
t64 -25t72 -18t74.5 -7q100 0 149.5 40t49.5 111q0 26 -7.5 48t-26.5 44t-50 44.5t-78 50.5q-102 62 -150.5 129.5t-48.5 152.5q0 62 23 118.5t68.5 100t114.5 69.5t161 26q72 0 136.5 -14t109.5 -36zM610 1219h-135l-145 331h112l115 -231l215 231h119z" />
    <glyph glyph-name="Zcaron" unicode="&#x17d;" horiz-adv-x="1167" 
d="M1309 1391l-1082 -1239h799l-33 -152h-1071l10 51l1074 1231h-744l31 152h1026zM876 1567h-135l-145 331h112l115 -231l215 231h119z" />
    <glyph glyph-name="zcaron" unicode="&#x17e;" horiz-adv-x="926" 
d="M981 975l-768 -836h582l-31 -139h-842l12 53l768 832h-534l31 139h792zM682 1219h-135l-145 331h112l115 -231l215 231h119z" />
    <glyph glyph-name="brokenbar" unicode="&#xa6;" horiz-adv-x="492" 
d="M174 715v852h145v-852h-145zM174 -481v852h145v-852h-145z" />
    <glyph glyph-name="Eth" unicode="&#xd0;" horiz-adv-x="1458" 
d="M1401 844q0 -108 -22 -213t-67.5 -198.5t-116 -173t-168 -137t-223 -90t-280.5 -32.5h-450l139 649h-166l29 152h168l135 633h391q143 0 259.5 -41.5t199 -118t127.5 -185.5t45 -245zM1225 831q0 105 -31 189t-92.5 142t-152.5 89t-212 31h-219l-104 -481h342l-31 -152
h-342l-107 -497h252q179 0 310 51.5t217 142.5t128 215.5t42 269.5z" />
    <glyph glyph-name="eth" unicode="&#xf0;" horiz-adv-x="1069" 
d="M799 1303q91 -116 142.5 -269t51.5 -342q0 -80 -14.5 -164.5t-44 -164t-74.5 -150.5t-106.5 -123.5t-139.5 -83.5t-174 -31q-81 0 -148 26.5t-114.5 77.5t-73.5 125t-26 169q0 89 17.5 173.5t50 160t79 138t104 108t124.5 71t141 25.5q75 0 127 -29t80 -70h4
q-10 41 -26.5 82.5t-36 80t-41.5 71.5t-44 57l-295 -123l-40 96l268 111q-21 25 -48 50.5t-57 50.5l-60 48l-56 42h219q32 -25 70.5 -58.5t70.5 -71.5l287 121l43 -94zM825 653q0 49 -11 95t-36.5 82t-67 57.5t-102.5 21.5q-84 0 -151 -47.5t-114 -123.5t-72 -170t-25 -187
q0 -61 13 -110t39.5 -83.5t65 -53.5t89.5 -19q64 0 116.5 25.5t94 67.5t71.5 97.5t50 115t30 120t10 112.5z" />
    <glyph glyph-name="Yacute" unicode="&#xdd;" horiz-adv-x="1135" 
d="M651 545l-114 -545h-172l114 541l-268 893h182l178 -660q7 -23 11.5 -46.5l7.5 -39.5h2q8 16 22 38.5l29 45.5l477 662h193zM750 1567h-123l289 327h161z" />
    <glyph glyph-name="yacute" unicode="&#xfd;" horiz-adv-x="991" 
d="M367 -170q-46 -75 -93 -132.5t-98.5 -97.5t-110 -60.5t-128.5 -20.5q-23 0 -51.5 4.5t-45.5 9.5l31 145q15 -8 39 -13t47 -5q69 0 124.5 38t104.5 116l123 190l-186 1020h170l119 -786q3 -22 3.5 -42.5t-1.5 -35.5h6q5 12 15.5 34t23.5 42l454 788h181zM609 1219h-123
l289 327h161z" />
    <glyph glyph-name="Thorn" unicode="&#xde;" horiz-adv-x="1178" 
d="M1128 834q0 -106 -35.5 -200t-109 -164.5t-186 -111.5t-267.5 -41h-215l-69 -317h-172l303 1434h174l-47 -226h196q116 0 197 -31t132.5 -83t75 -119.5t23.5 -140.5zM952 819q0 49 -17 92.5t-53 75.5t-92.5 51t-136.5 19h-182l-125 -588h201q106 0 182.5 26.5t126 73
t73 111t23.5 139.5z" />
    <glyph glyph-name="thorn" unicode="&#xfe;" horiz-adv-x="1110" 
d="M1032 666q0 -74 -16 -153.5t-49 -156.5t-82.5 -146t-116.5 -121.5t-152 -83t-188 -30.5q-59 0 -116.5 11t-100.5 26l-102 -487h-166l422 1991h163l-106 -502q-12 -56 -24.5 -107.5t-26.5 -97.5h4q144 240 354 240q70 0 126 -24t95.5 -72t60.5 -120t21 -167zM864 659
q0 54 -9.5 100t-31.5 79t-56.5 52t-84.5 19q-52 0 -97.5 -21.5t-84.5 -57.5t-71 -83.5t-57 -98.5t-42.5 -102.5t-26.5 -96.5l-63 -297q18 -8 43 -14.5t52 -11.5t55 -8t52 -3q69 0 127.5 23t105 62.5t82 93t59.5 114t36 125t12 126.5z" />
    <glyph glyph-name="minus" unicode="&#x2212;" horiz-adv-x="1403" 
d="M256 530v134h940v-134h-940z" />
    <glyph glyph-name="multiply" unicode="&#xd7;" horiz-adv-x="1403" 
d="M1055 164l-338 340l-340 -340l-94 94l340 338l-340 340l94 94l340 -340l338 340l94 -94l-340 -340l340 -338z" />
    <glyph glyph-name="one.frac" horiz-adv-x="795" 
d="M174 584l25 112h182l127 592l-207 -55l27 125l348 96l-164 -758h190l-24 -112h-504z" />
    <glyph glyph-name="two.frac" horiz-adv-x="793" 
d="M121 584l24 110l297 250l83.5 72.5t66.5 69t43.5 69.5t15.5 74q0 43 -31 72.5t-88 29.5q-55 0 -114 -25.5t-109 -60.5l33 152q35 20 89 38.5t126 18.5q59 0 103 -16t73 -44t43.5 -66t14.5 -81q0 -61 -23 -112t-61.5 -97t-88 -88l-102.5 -84l-197 -155l-2 -4h381l-28 -123
h-549z" />
    <glyph glyph-name="three.frac" horiz-adv-x="788" 
d="M727 827q0 -44 -17 -91t-56 -85.5t-103 -63t-158 -24.5q-27 0 -61 3.5t-68 9.5t-63 15t-45 19l28 133q18 -12 43.5 -22.5t54.5 -19t60 -13t59 -4.5q53 0 89.5 12.5t59 33t32.5 46t10 51.5q0 30 -10.5 54t-34 41.5t-60 26.5t-88.5 9h-84l27 121h84q55 0 97 13t70 34.5
t42 49t14 55.5q0 43 -31 72.5t-100 29.5q-54 0 -102.5 -16t-93.5 -41l30 141q19 8 43 14.5t49.5 11.5t51.5 8t49 3q55 0 99.5 -14t76 -39.5t48.5 -62.5t17 -83q0 -86 -58 -144t-157 -83v-4q156 -41 156 -197z" />
    <glyph glyph-name="onehalf" unicode="&#xbd;" horiz-adv-x="1939" 
d="M174 584l25 112h182l127 592l-207 -55l27 125l348 96l-164 -758h190l-24 -112h-504zM1129 1l24 110l297 250l83.5 72.5t66.5 69t43.5 69.5t15.5 74q0 43 -31 72.5t-88 29.5q-55 0 -114 -25.5t-109 -60.5l33 152q35 20 89 38.5t126 18.5q59 0 103 -16t73 -44t43.5 -66
t14.5 -81q0 -61 -23 -112t-61.5 -97t-88 -88l-102.5 -84l-197 -155l-2 -4h381l-28 -123h-549zM477 0h-148l1164 1434h145z" />
    <glyph glyph-name="onequarter" unicode="&#xbc;" horiz-adv-x="1876" 
d="M174 584l25 112h182l127 592l-207 -55l27 125l348 96l-164 -758h190l-24 -112h-504zM1571 206l-45 -205h-131l45 205h-391l18 92l481 553h160l-115 -537h113l-23 -108h-112zM1552 732q-8 -15 -21 -33t-30 -36l-293 -349h254l70 326q5 22 11.5 47t12.5 43zM497 0h-148
l1164 1434h145z" />
    <glyph glyph-name="threequarters" unicode="&#xbe;" horiz-adv-x="1968" 
d="M727 827q0 -44 -17 -91t-56 -85.5t-103 -63t-158 -24.5q-27 0 -61 3.5t-68 9.5t-63 15t-45 19l28 133q18 -12 43.5 -22.5t54.5 -19t60 -13t59 -4.5q53 0 89.5 12.5t59 33t32.5 46t10 51.5q0 30 -10.5 54t-34 41.5t-60 26.5t-88.5 9h-84l27 121h84q55 0 97 13t70 34.5
t42 49t14 55.5q0 43 -31 72.5t-100 29.5q-54 0 -102.5 -16t-93.5 -41l30 141q19 8 43 14.5t49.5 11.5t51.5 8t49 3q55 0 99.5 -14t76 -39.5t48.5 -62.5t17 -83q0 -86 -58 -144t-157 -83v-4q156 -41 156 -197zM1657 206l-45 -205h-131l45 205h-391l18 92l481 553h160
l-115 -537h113l-23 -108h-112zM1638 732q-8 -15 -21 -33t-30 -36l-293 -349h254l70 326q5 22 11.5 47t12.5 43zM535 0h-148l1164 1434h145z" />
    <glyph glyph-name="franc" unicode="&#x20a3;" horiz-adv-x="999" 
d="M546 279h-244l-59 -279h-168l59 279h-158l33 155h158l213 1000h727l-32 -152h-559l-106 -496h518l-32 -151h-518l-43 -201h244z" />
    <glyph glyph-name="Gbreve" unicode="&#x11e;" horiz-adv-x="1409" 
d="M1350 1190q-33 22 -75.5 43t-93.5 37.5t-110.5 26.5t-126.5 10q-149 0 -266 -53t-198 -144.5t-124 -215.5t-43 -265q0 -117 32.5 -210t93.5 -158t147.5 -99.5t195.5 -34.5q75 0 135.5 12.5t112.5 32.5l86 418h-332l33 149h504l-141 -661q-85 -45 -188 -75t-230 -30
q-147 0 -263 49t-196.5 134.5t-123 202t-42.5 251.5q0 116 24 224t71 202.5t117 172t162 133t205.5 86t248.5 30.5q74 0 137.5 -9t116 -23t93.5 -30.5t70 -31.5zM1300 1820q-18 -60 -48.5 -107t-72 -80t-91.5 -50t-107 -17q-55 0 -100.5 16t-77 44.5t-49 68t-17.5 86.5
q0 12 1.5 20t4.5 19h105q-2 -7 -2 -13v-14q0 -60 38.5 -93.5t100.5 -33.5q77 0 128 37.5t77 116.5h110z" />
    <glyph glyph-name="gbreve" unicode="&#x11f;" horiz-adv-x="1110" 
d="M850 74q-25 -120 -66 -221.5t-108.5 -176t-166.5 -116t-241 -41.5q-98 0 -170.5 23t-132.5 55l31 153q63 -38 134 -64t153 -26q89 0 154.5 26t113 76.5t79 123.5t52.5 167l35 160h-4q-38 -61 -74.5 -105.5t-76.5 -74t-84 -44t-97 -14.5q-69 0 -125 24.5t-95.5 72.5
t-61 120t-21.5 166q0 89 19.5 175t56.5 163t90.5 141.5t121.5 111.5t149.5 73.5t174.5 26.5t186 -12t171 -27zM858 889q-34 8 -82.5 14t-103.5 6q-94 0 -172 -43.5t-134.5 -118t-88 -173.5t-31.5 -209q0 -54 9.5 -100t30 -79t53 -52t79.5 -19q55 0 101.5 23t85.5 61
t69.5 86.5t54 99.5t39.5 100.5t25 89.5zM1073 1473q-18 -60 -48.5 -107t-72 -80t-91.5 -50t-107 -17q-55 0 -100.5 16t-77 44.5t-49 68t-17.5 86.5q0 12 1.5 20t4.5 19h105q-2 -7 -2 -13v-14q0 -60 38.5 -93.5t100.5 -33.5q77 0 128 37.5t77 116.5h110z" />
    <glyph glyph-name="Idotaccent" unicode="&#x130;" horiz-adv-x="545" 
d="M246 0h-172l303 1434h174zM603 1667q0 -42 -28 -71t-70 -29q-19 0 -36.5 7.5t-30.5 21t-21 32t-8 39.5t8 38.5t21 30t30.5 20t36.5 7.5q20 0 37.5 -7.5t31 -20t21.5 -30t8 -38.5z" />
    <glyph glyph-name="Scedilla" unicode="&#x15e;" horiz-adv-x="1018" 
d="M616 -238q0 -89 -75 -142.5t-218 -53.5q-20 0 -43 1.5t-45 4.5l18 88q41 -6 76 -6q87 0 128.5 25t41.5 67q0 35 -28.5 55.5t-90.5 20.5q-14 0 -27.5 -1t-27.5 -3l34 159q-31 2 -61 6q-54 8 -102.5 21t-89 29.5t-69.5 32.5l29 174q32 -23 73 -43.5t87 -36t95 -24.5t97 -9
q76 0 130.5 18t90 49.5t52 74.5t16.5 93q0 45 -14 81t-43 70.5t-73.5 70t-105.5 78.5q-49 35 -93.5 75.5t-78 88.5t-53 104.5t-19.5 122.5q0 82 30.5 155.5t90.5 129t148.5 88t205.5 32.5q45 0 89.5 -5.5t86.5 -15t79.5 -21t66.5 -23.5l-33 -174q-25 18 -59.5 34t-74 28
t-82.5 19t-85 7q-80 0 -134.5 -22.5t-87.5 -57t-47.5 -75.5t-14.5 -77q0 -47 13 -85t39 -73t67 -70t96 -75q62 -45 110.5 -89t82.5 -90.5t51.5 -98t17.5 -111.5q0 -37 -7.5 -81.5t-27 -89.5t-53.5 -88t-86.5 -76t-126.5 -53q-56 -15 -128 -19l-18 -80q37 0 69.5 -8.5
t57 -25.5t39 -42t14.5 -58z" />
    <glyph glyph-name="scedilla" unicode="&#x15f;" horiz-adv-x="809" 
d="M497 -238q0 -89 -75 -142.5t-218 -53.5q-20 0 -43 1.5t-45 4.5l18 88q41 -6 76 -6q87 0 128.5 25t41.5 67q0 35 -28.5 55.5t-90.5 20.5q-14 0 -27.5 -1t-27.5 -3l34 159l-23 2q-36 4 -72.5 12t-70 19.5t-58.5 26.5l33 156q20 -14 49.5 -28t64 -25t72 -18t74.5 -7
q100 0 149.5 40t49.5 111q0 26 -7.5 48t-26.5 44t-50 44.5t-78 50.5q-102 62 -150.5 129.5t-48.5 152.5q0 62 23 118.5t68.5 100t114.5 69.5t161 26q72 0 136.5 -14t109.5 -36l-35 -155q-45 29 -101 47t-112 18q-94 0 -145.5 -43t-51.5 -114q0 -29 9.5 -53t28 -45.5
t47 -41.5t65.5 -43q112 -65 161.5 -133.5t49.5 -154.5q0 -58 -21.5 -113.5t-68.5 -98t-122 -68.5q-55 -19 -129 -24l-18 -81q37 0 69.5 -8.5t57 -25.5t39 -42t14.5 -58z" />
    <glyph glyph-name="Cacute" unicode="&#x106;" horiz-adv-x="1309" 
d="M1325 1196q-29 19 -66.5 39t-82.5 36t-98.5 26t-114.5 10q-150 0 -270.5 -53t-204.5 -146t-129.5 -218.5t-45.5 -271.5q0 -119 33 -210.5t94 -154t146 -94.5t188 -32q66 0 120 7.5t100 21t86.5 32t78.5 39.5l-39 -176q-81 -37 -173.5 -56.5t-207.5 -19.5
q-136 0 -247.5 45t-190 127.5t-121.5 198.5t-43 258q0 188 59.5 345t169 270t263 176t340.5 63q128 0 226.5 -27.5t166.5 -62.5zM924 1567h-123l289 327h161z" />
    <glyph glyph-name="cacute" unicode="&#x107;" horiz-adv-x="893" 
d="M864 821q-42 37 -101.5 62.5t-131.5 25.5q-69 0 -124.5 -24t-98.5 -64t-74 -92t-51 -108t-29.5 -111.5t-9.5 -103.5q0 -143 63 -217t172 -74q66 0 137 27.5t134 70.5l-35 -164q-65 -35 -129.5 -54.5t-136.5 -19.5q-94 0 -163.5 32t-115.5 88t-69 132.5t-23 165.5
q0 84 17 165.5t50.5 154t82.5 134.5t112.5 106.5t141.5 70t169 25.5q43 0 82 -6t71 -16t57 -21.5t40 -22.5zM694 1219h-123l289 327h161z" />
    <glyph glyph-name="Ccaron" unicode="&#x10c;" horiz-adv-x="1309" 
d="M1325 1196q-29 19 -66.5 39t-82.5 36t-98.5 26t-114.5 10q-150 0 -270.5 -53t-204.5 -146t-129.5 -218.5t-45.5 -271.5q0 -119 33 -210.5t94 -154t146 -94.5t188 -32q66 0 120 7.5t100 21t86.5 32t78.5 39.5l-39 -176q-81 -37 -173.5 -56.5t-207.5 -19.5
q-136 0 -247.5 45t-190 127.5t-121.5 198.5t-43 258q0 188 59.5 345t169 270t263 176t340.5 63q128 0 226.5 -27.5t166.5 -62.5zM991 1567h-135l-145 331h112l115 -231l215 231h119z" />
    <glyph glyph-name="ccaron" unicode="&#x10d;" horiz-adv-x="893" 
d="M864 821q-42 37 -101.5 62.5t-131.5 25.5q-69 0 -124.5 -24t-98.5 -64t-74 -92t-51 -108t-29.5 -111.5t-9.5 -103.5q0 -143 63 -217t172 -74q66 0 137 27.5t134 70.5l-35 -164q-65 -35 -129.5 -54.5t-136.5 -19.5q-94 0 -163.5 32t-115.5 88t-69 132.5t-23 165.5
q0 84 17 165.5t50.5 154t82.5 134.5t112.5 106.5t141.5 70t169 25.5q43 0 82 -6t71 -16t57 -21.5t40 -22.5zM733 1219h-135l-145 331h112l115 -231l215 231h119z" />
    <glyph glyph-name="dcroat" unicode="&#x111;" horiz-adv-x="1110" 
d="M901 315q-7 -32 -13.5 -77t-11.5 -90.5t-8.5 -85.5t-3.5 -62h-170q0 17 2.5 45.5t6 59.5t7.5 59.5t7 46.5h-4q-36 -58 -72 -102.5t-76 -74t-85 -44.5t-99 -15q-70 0 -126 25t-95.5 73.5t-60.5 120t-21 164.5q0 74 15.5 154t48 157t82.5 146t119 121t158 82.5t199 30.5
q56 0 104 -7.5t83 -15.5l37 176h-332l29 133h331l39 181h162l-38 -181h136l-29 -133h-135zM858 885q-38 11 -79.5 17.5t-88.5 6.5q-87 0 -153.5 -27t-116 -72t-83 -102.5t-54 -118t-29 -119t-8.5 -105.5q0 -56 9.5 -102t31 -79t55.5 -51t82 -18q50 0 93.5 21t81.5 57t69 83
t56 100t42.5 107.5t28.5 104.5z" />
    <glyph glyph-name="macron" unicode="&#xaf;" horiz-adv-x="715" 
d="M240 1219l16 108h508l-16 -108h-508z" />
    <glyph glyph-name="uni2219" unicode="&#x2219;" horiz-adv-x="444" 
d="M336 623q0 -47 -33 -80t-80 -33q-46 0 -78 33t-32 80q0 46 32 79t78 33q47 0 80 -33t33 -79z" />
    <glyph glyph-name="Abreve" unicode="&#x102;" horiz-adv-x="1294" 
d="M999 0l-65 401h-608l-232 -401h-198l854 1434h176l250 -1434h-177zM815 1163q-1 10 -1.5 23t-0.5 26v26v22h-4q-3 -9 -8 -21.5t-11 -26t-12.5 -26.5l-11.5 -23l-354 -610h495zM1165 1822q-18 -60 -48.5 -107t-72 -80t-91.5 -50t-107 -17q-55 0 -100.5 16t-77 44.5t-49 68
t-17.5 86.5q0 12 1.5 20t4.5 19h105q-2 -7 -2 -13v-14q0 -60 38.5 -93.5t100.5 -33.5q77 0 128 37.5t77 116.5h110z" />
    <glyph glyph-name="abreve" unicode="&#x103;" horiz-adv-x="1110" 
d="M905 328q-8 -38 -15.5 -85.5t-13 -94t-9 -86.5t-3.5 -62h-170q1 20 3 48t5.5 58l7 59t7.5 50h-4q-31 -49 -63 -92.5t-71 -76.5t-87 -52t-113 -19q-67 0 -122.5 24t-95.5 71.5t-61.5 119t-21.5 166.5q0 58 12 132t40.5 151t76 150.5t118 131.5t166.5 93t222 35
q80 0 165 -12t169 -29zM858 889q-35 8 -82 14t-88 6q-87 0 -153.5 -27.5t-115.5 -72t-82.5 -102.5t-53.5 -118.5t-28.5 -119.5t-8.5 -107q0 -57 10 -102.5t31.5 -77.5t55 -49.5t79.5 -17.5q50 0 93.5 20.5t81.5 55.5t69 81t56 97.5t42.5 105t28.5 103.5zM1030 1473
q-18 -60 -48.5 -107t-72 -80t-91.5 -50t-107 -17q-55 0 -100.5 16t-77 44.5t-49 68t-17.5 86.5q0 12 1.5 20t4.5 19h105q-2 -7 -2 -13v-14q0 -60 38.5 -93.5t100.5 -33.5q77 0 128 37.5t77 116.5h110z" />
    <glyph glyph-name="Aogonek" unicode="&#x104;" horiz-adv-x="1294" 
d="M1102 0q-52 -47 -88 -83t-58 -65.5t-32 -54t-10 -47.5q0 -80 80 -80q23 0 48.5 8.5t41.5 16.5l-15 -103q-18 -9 -46 -15.5t-62 -6.5q-82 0 -122 41.5t-40 114.5q0 27 10 56.5t33 63t61.5 72t96.5 82.5h-1l-65 401h-608l-232 -401h-198l854 1434h176l250 -1434h-74z
M815 1163q-1 10 -1.5 23t-0.5 26v48h-4q-3 -9 -8 -21.5t-11 -26t-13 -26.5l-11 -23l-354 -610h495z" />
    <glyph glyph-name="aogonek" unicode="&#x105;" horiz-adv-x="1110" 
d="M796 0q-52 -47 -88 -83t-58 -65.5t-32 -54t-10 -47.5q0 -80 80 -80q23 0 48.5 8.5t41.5 16.5l-15 -103q-18 -9 -46 -15.5t-62 -6.5q-82 0 -122 41.5t-40 114.5q0 27 10 56.5t33 63t61.5 72t96.5 82.5q1 20 3 48t5.5 58l7 59t7.5 50h-4q-31 -49 -63 -92.5t-71 -76.5
t-87 -52t-113 -19q-67 0 -122.5 24t-95.5 71.5t-61.5 119t-21.5 166.5q0 58 12 132t40.5 151t76 150.5t118 131.5t166.5 93t222 35q80 0 165 -12t169 -29l-142 -680q-8 -38 -15.5 -85.5t-13 -94t-9 -86.5t-3.5 -62h-68zM858 889q-35 8 -82 14t-88 6q-87 0 -153.5 -27.5
t-115.5 -72t-82.5 -102.5t-53.5 -118.5t-28.5 -119.5t-8.5 -107q0 -57 10 -102.5t31.5 -77.5t55 -49.5t79.5 -17.5q50 0 93.5 20.5t81.5 55.5t69 81t56 97.5t42.5 105t28.5 103.5z" />
    <glyph glyph-name="Dcaron" unicode="&#x10e;" horiz-adv-x="1458" 
d="M1401 854q0 -106 -21.5 -211t-66 -200t-114.5 -176t-167 -140.5t-222.5 -93t-281.5 -33.5h-454l305 1434h399q140 0 255 -39.5t196.5 -114.5t126.5 -182.5t45 -243.5zM1225 842q0 210 -123 325t-365 115h-219l-242 -1130h267q169 0 296.5 54t213 148t129 219.5
t43.5 268.5zM857 1567h-135l-145 331h112l115 -231l215 231h119z" />
    <glyph glyph-name="dcaron" unicode="&#x10f;" horiz-adv-x="1221" 
d="M901 315q-7 -32 -13.5 -77t-11.5 -90.5t-8.5 -85.5t-3.5 -62h-170q0 17 2.5 45.5t6 59.5t7.5 59.5t7 46.5h-4q-36 -58 -72 -102.5t-76 -74t-85 -44.5t-99 -15q-70 0 -126 25t-95.5 73.5t-60.5 120t-21 164.5q0 74 15.5 154t48 157t82.5 146t119 121t158 82.5t199 30.5
q56 0 104 -7.5t83 -15.5l104 490h162zM858 885q-38 11 -79.5 17.5t-88.5 6.5q-87 0 -153.5 -27t-116 -72t-83 -102.5t-54 -118t-29 -119t-8.5 -105.5q0 -56 9.5 -102t31 -79t55.5 -51t82 -18q50 0 93.5 21t81.5 57t69 83t56 100t42.5 107.5t28.5 104.5zM1525 1516l-221 -260
h-123l172 260h172z" />
    <glyph glyph-name="Dcroat" unicode="&#x110;" horiz-adv-x="1458" 
d="M1401 844q0 -108 -22 -213t-67.5 -198.5t-116 -173t-168 -137t-223 -90t-280.5 -32.5h-450l139 649h-166l29 152h168l135 633h391q143 0 259.5 -41.5t199 -118t127.5 -185.5t45 -245zM1225 831q0 105 -31 189t-92.5 142t-152.5 89t-212 31h-219l-104 -481h342l-31 -152
h-342l-107 -497h252q179 0 310 51.5t217 142.5t128 215.5t42 269.5z" />
    <glyph glyph-name="Eogonek" unicode="&#x118;" horiz-adv-x="1022" 
d="M695 0q-52 -47 -88 -83t-58 -65.5t-32 -54t-10 -47.5q0 -80 80 -80q23 0 48.5 8.5t41.5 16.5l-15 -103q-18 -9 -46 -15.5t-62 -6.5q-82 0 -122 41.5t-40 114.5q0 27 10 56.5t33 63t61.5 72t96.5 82.5h-519l303 1434h727l-33 -152h-553l-104 -489h512l-33 -152h-512
l-105 -489h588l-30 -152h-139z" />
    <glyph glyph-name="eogonek" unicode="&#x119;" horiz-adv-x="997" 
d="M958 784q0 -81 -36 -147.5t-119 -114t-219 -73.5t-336 -27q-2 -11 -2 -23v-20q0 -54 15 -102t46.5 -84t81 -57t117.5 -21q69 0 151.5 26.5t157.5 75.5l-31 -162q-55 -32 -131 -56q-50 -15 -107 -21l-63 -61q-36 -36 -58 -65.5t-32 -54t-10 -47.5q0 -80 80 -80
q23 0 48.5 8.5t41.5 16.5l-15 -103q-18 -9 -46 -15.5t-62 -6.5q-82 0 -122 41.5t-40 114.5q0 27 10 56.5t33 63t61 72.5q28 28 66 59q-84 5 -146 33q-77 35 -124.5 93.5t-68.5 135t-21 160.5q0 90 20 173.5t56.5 155.5t87.5 131.5t113 101.5t133 65t147 23q79 0 139.5 -21
t101 -57.5t61.5 -84.5t21 -102zM791 776q0 63 -46.5 98t-123.5 35q-61 0 -118 -26.5t-105 -73t-83 -111t-51 -139.5q143 0 243 14.5t163 42.5t92 68.5t29 91.5z" />
    <glyph glyph-name="Ecaron" unicode="&#x11a;" horiz-adv-x="1022" 
d="M1071 1282h-553l-104 -489h512l-33 -152h-512l-105 -489h588l-30 -152h-760l303 1434h727zM825 1567h-135l-145 331h112l115 -231l215 231h119z" />
    <glyph glyph-name="ecaron" unicode="&#x11b;" horiz-adv-x="997" 
d="M958 784q0 -81 -36 -147.5t-119 -114t-219 -73.5t-336 -27q-2 -11 -2 -23v-20q0 -54 15 -102t46.5 -84t81 -57t117.5 -21q69 0 151.5 26.5t157.5 75.5l-31 -162q-55 -32 -131 -56t-170 -24q-113 0 -190.5 35t-125 93.5t-68.5 135t-21 160.5q0 90 20 173.5t56.5 155.5
t87.5 131.5t113 101.5t133 65t147 23q79 0 139.5 -21t101 -57.5t61.5 -84.5t21 -102zM791 776q0 63 -46.5 98t-123.5 35q-61 0 -118 -26.5t-105 -73t-83 -111t-51 -139.5q143 0 243 14.5t163 42.5t92 68.5t29 91.5zM747 1219h-135l-145 331h112l115 -231l215 231h119z" />
    <glyph glyph-name="Lacute" unicode="&#x139;" horiz-adv-x="948" 
d="M817 0h-743l303 1434h174l-272 -1278h571zM787 1567h-123l289 327h161z" />
    <glyph glyph-name="lacute" unicode="&#x13a;" horiz-adv-x="530" 
d="M416 4q-25 -8 -56.5 -13t-62.5 -5q-101 0 -151 50.5t-50 135.5q0 25 5 59t16 84l256 1202h166l-257 -1206q-9 -42 -12.5 -65t-3.5 -39q0 -41 22.5 -62.5t71.5 -21.5q26 0 45.5 3t36.5 9zM467 1652h-123l289 327h161z" />
    <glyph glyph-name="Lcaron" unicode="&#x13d;" horiz-adv-x="965" 
d="M817 0h-743l303 1434h174l-272 -1278h571zM1094 1434l-221 -260h-123l172 260h172z" />
    <glyph glyph-name="lcaron" unicode="&#x13e;" horiz-adv-x="604" 
d="M416 4q-25 -8 -56.5 -13t-62.5 -5q-101 0 -151 50.5t-50 135.5q0 25 5 59t16 84l256 1202h166l-257 -1206q-9 -42 -12.5 -65t-3.5 -39q0 -41 22.5 -62.5t71.5 -21.5q26 0 45.5 3t36.5 9zM918 1516l-221 -260h-123l172 260h172z" />
    <glyph glyph-name="Ldot" unicode="&#x13f;" horiz-adv-x="965" 
d="M817 0h-743l303 1434h174l-272 -1278h571zM894 751q0 -42 -28 -71t-70 -29q-19 0 -36.5 7.5t-30.5 21t-21 32t-8 39.5t8 38.5t21 30t30.5 20t36.5 7.5q20 0 37.5 -7.5t31 -20t21.5 -30t8 -38.5z" />
    <glyph glyph-name="ldot" unicode="&#x140;" horiz-adv-x="645" 
d="M416 4q-25 -8 -56.5 -13t-62.5 -5q-101 0 -151 50.5t-50 135.5q0 25 5 59t16 84l256 1202h166l-257 -1206q-9 -42 -12.5 -65t-3.5 -39q0 -41 22.5 -62.5t71.5 -21.5q26 0 45.5 3t36.5 9zM708 751q0 -42 -28 -71t-70 -29q-19 0 -36.5 7.5t-30.5 21t-21 32t-8 39.5t8 38.5
t21 30t30.5 20t36.5 7.5q20 0 37.5 -7.5t31 -20t21.5 -30t8 -38.5z" />
    <glyph glyph-name="Nacute" unicode="&#x143;" horiz-adv-x="1538" 
d="M1241 0h-186l-529 1149l-7 19.5t-8 24.5t-7 25t-4 19h-6l-2.5 -24.5t-3.5 -29.5t-4.5 -29.5l-4.5 -25.5l-239 -1128h-166l303 1434h201l507 -1125q5 -9 10 -21.5l10 -26l9.5 -26.5l7.5 -22h4q1 12 3 28l4 33.5t5 34.5l5 29l233 1096h170zM937 1567h-123l289 327h161z" />
    <glyph glyph-name="nacute" unicode="&#x144;" horiz-adv-x="1151" 
d="M1046 768q0 -15 -3.5 -41t-9 -56l-11 -59.5t-10.5 -50.5l-119 -561h-166l125 600q4 16 8 37t7 42t5 38.5t2 27.5q0 76 -36.5 120t-108.5 44q-66 0 -131 -39t-120 -99t-94.5 -132t-53.5 -139l-107 -500h-166l158 731l16 81.5l15 82t12 73.5l8 56h160q-5 -39 -12 -81.5
t-12 -78.5q-6 -42 -13 -82h4q35 55 77.5 103.5t92 85t105 57.5t116.5 21q68 0 117 -20.5t81.5 -57.5t48 -89t15.5 -114zM775 1219h-123l289 327h161z" />
    <glyph glyph-name="Ncaron" unicode="&#x147;" horiz-adv-x="1538" 
d="M1241 0h-186l-529 1149l-7 19.5t-8 24.5t-7 25t-4 19h-6l-2.5 -24.5t-3.5 -29.5t-4.5 -29.5l-4.5 -25.5l-239 -1128h-166l303 1434h201l507 -1125q5 -9 10 -21.5l10 -26l9.5 -26.5l7.5 -22h4q1 12 3 28l4 33.5t5 34.5l5 29l233 1096h170zM1031 1567h-135l-145 331h112
l115 -231l215 231h119z" />
    <glyph glyph-name="ncaron" unicode="&#x148;" horiz-adv-x="1151" 
d="M1046 768q0 -15 -3.5 -41t-9 -56l-11 -59.5t-10.5 -50.5l-119 -561h-166l125 600q4 16 8 37t7 42t5 38.5t2 27.5q0 76 -36.5 120t-108.5 44q-66 0 -131 -39t-120 -99t-94.5 -132t-53.5 -139l-107 -500h-166l158 731l16 81.5l15 82t12 73.5l8 56h160q-5 -39 -12 -81.5
t-12 -78.5q-6 -42 -13 -82h4q35 55 77.5 103.5t92 85t105 57.5t116.5 21q68 0 117 -20.5t81.5 -57.5t48 -89t15.5 -114zM784 1219h-135l-145 331h112l115 -231l215 231h119z" />
    <glyph glyph-name="Ohungarumlaut" unicode="&#x150;" horiz-adv-x="1544" 
d="M1487 852q0 -93 -17 -184.5t-49 -176.5t-78.5 -161t-105.5 -137q-48 -50 -104 -90.5t-120 -69t-137 -43.5t-157 -15q-135 0 -243 46.5t-183.5 128t-115.5 193.5t-40 243q0 208 67.5 373t188.5 286q98 98 226.5 155.5t291.5 57.5q132 0 238.5 -45t181.5 -126t115.5 -192
t40.5 -243zM1309 846q0 107 -29 192t-83 145t-130 92t-170 32q-111 0 -212 -48t-179 -133q-44 -48 -79.5 -110t-61 -132t-39 -146t-13.5 -154q0 -100 27.5 -184t80 -144.5t129.5 -94.5t177 -34q111 0 212.5 44.5t178.5 131.5q48 54 83.5 120.5t59.5 138t36 144.5t12 140z
M1041 1568h-102l247 325h142zM785 1568h-102l249 325h136z" />
    <glyph glyph-name="ohungarumlaut" unicode="&#x151;" horiz-adv-x="1096" 
d="M1018 645q0 -136 -38.5 -258t-111 -213.5t-176 -145t-233.5 -53.5q-88 0 -158.5 28t-120 80.5t-76 127t-26.5 168.5q0 141 40.5 263.5t114 213t176 142t226.5 51.5q87 0 157.5 -28t120.5 -80.5t77.5 -127t27.5 -168.5zM850 637q0 65 -16 115.5t-45 85t-70 53t-92 18.5
q-88 0 -159 -45t-120 -118.5t-75.5 -167t-26.5 -191.5q0 -62 15.5 -112.5t44 -86t70 -54.5t93.5 -19q89 0 160 44.5t120 118t75 167.5t26 192zM808 1219h-102l247 325h142zM552 1219h-102l249 325h136z" />
    <glyph glyph-name="Racute" unicode="&#x154;" horiz-adv-x="1192" 
d="M1169 1079q0 -93 -32.5 -168t-89.5 -129t-136 -86.5t-172 -40.5v-4q47 -15 82.5 -63t57.5 -129l120 -459h-184l-106 428q-23 94 -73.5 138t-133.5 44h-125l-131 -610h-172l303 1434h395q105 0 180 -28t123 -76.5t71 -113t23 -137.5zM993 1061q0 48 -15 88.5t-46 70
t-79 46t-114 16.5h-221l-110 -520h198q105 0 178.5 25t120 66t67.5 95.5t21 112.5zM758 1567h-123l289 327h161z" />
    <glyph glyph-name="racute" unicode="&#x155;" horiz-adv-x="727" 
d="M766 850h-4q-20 12 -52.5 23.5t-64.5 11.5q-58 0 -111 -37.5t-96.5 -99t-76 -140.5t-50.5 -162l-96 -446h-164l144 680l18 88t16.5 92t13.5 88t9 76h162q-3 -30 -7 -63.5l-8 -65t-8 -57t-6 -39.5h4q32 57 65 103t69.5 78.5t77.5 50.5t89 18q28 0 55.5 -5.5t49.5 -11.5z
M575 1219h-123l289 327h161z" />
    <glyph glyph-name="Rcaron" unicode="&#x158;" horiz-adv-x="1192" 
d="M1169 1079q0 -93 -32.5 -168t-89.5 -129t-136 -86.5t-172 -40.5v-4q47 -15 82.5 -63t57.5 -129l120 -459h-184l-106 428q-23 94 -73.5 138t-133.5 44h-125l-131 -610h-172l303 1434h395q105 0 180 -28t123 -76.5t71 -113t23 -137.5zM993 1061q0 48 -15 88.5t-46 70
t-79 46t-114 16.5h-221l-110 -520h198q105 0 178.5 25t120 66t67.5 95.5t21 112.5zM802 1567h-135l-145 331h112l115 -231l215 231h119z" />
    <glyph glyph-name="rcaron" unicode="&#x159;" horiz-adv-x="727" 
d="M766 850h-4q-20 12 -52.5 23.5t-64.5 11.5q-58 0 -111 -37.5t-96.5 -99t-76 -140.5t-50.5 -162l-96 -446h-164l144 680l18 88t16.5 92t13.5 88t9 76h162q-3 -30 -7 -63.5l-8 -65t-8 -57t-6 -39.5h4q32 57 65 103t69.5 78.5t77.5 50.5t89 18q28 0 55.5 -5.5t49.5 -11.5z
M591 1219h-135l-145 331h112l115 -231l215 231h119z" />
    <glyph glyph-name="Sacute" unicode="&#x15a;" horiz-adv-x="1018" 
d="M991 1219q-25 18 -59.5 34t-74 28t-82.5 19t-85 7q-80 0 -134.5 -22.5t-87.5 -57t-47.5 -75.5t-14.5 -77q0 -47 13 -85t39 -73t67 -70t96 -75q62 -45 110.5 -89t82.5 -90.5t51.5 -98t17.5 -111.5q0 -37 -7.5 -81.5t-27 -89.5t-53.5 -88t-86.5 -76t-126.5 -53t-174 -20
q-56 0 -110 8t-102.5 21t-89 29.5t-69.5 32.5l29 174q32 -23 73 -43.5t87 -36t95 -24.5t97 -9q76 0 130.5 18t90 49.5t52 74.5t16.5 93q0 45 -14 81t-43 70.5t-73.5 70t-105.5 78.5q-49 35 -93.5 75.5t-78 88.5t-53 104.5t-19.5 122.5q0 82 30.5 155.5t90.5 129t148.5 88
t205.5 32.5q45 0 89.5 -5.5t86.5 -15t79.5 -21t66.5 -23.5zM726 1566h-123l289 327h161z" />
    <glyph glyph-name="sacute" unicode="&#x15b;" horiz-adv-x="809" 
d="M725 844q-45 29 -101 47t-112 18q-94 0 -145.5 -43t-51.5 -114q0 -29 9.5 -53t28 -45.5t47 -41.5t65.5 -43q112 -65 161.5 -133.5t49.5 -154.5q0 -58 -21.5 -113.5t-68.5 -98t-121.5 -68.5t-181.5 -26q-30 0 -66 4t-72.5 12t-70 19.5t-58.5 26.5l33 156q20 -14 49.5 -28
t64 -25t72 -18t74.5 -7q100 0 149.5 40t49.5 111q0 26 -7.5 48t-26.5 44t-50 44.5t-78 50.5q-102 62 -150.5 129.5t-48.5 152.5q0 62 23 118.5t68.5 100t114.5 69.5t161 26q72 0 136.5 -14t109.5 -36zM578 1219h-123l289 327h161z" />
    <glyph glyph-name="Tcommaaccent" unicode="&#x162;" horiz-adv-x="1077" 
d="M614 -238q0 -89 -75 -142.5t-218 -53.5q-20 0 -43 1.5t-45 4.5l18 88q41 -6 76 -6q87 0 128.5 25t41.5 67q0 35 -28.5 55.5t-90.5 20.5q-14 0 -27.5 -1t-27.5 -3l39 182h-22l272 1282h-417l32 152h996l-33 -152h-408l-270 -1282h-54l-24 -104q37 0 69.5 -8.5t57 -25.5
t39 -42t14.5 -58z" />
    <glyph glyph-name="tcommaaccent" unicode="&#x163;" horiz-adv-x="662" 
d="M495 -238q0 -89 -75 -142.5t-218 -53.5q-20 0 -43 1.5t-45 4.5l18 88q41 -6 76 -6q87 0 128.5 25t41.5 67q0 35 -28.5 55.5t-90.5 20.5q-14 0 -27.5 -1t-27.5 -3l38 179q-38 15 -63 41q-25 27 -36.5 65.5t-11.5 86.5q0 29 5.5 67.5t13.5 70.5l118 557h-170l31 139h168
l53 250q4 2 30.5 9.5l58 17l58 17.5t29.5 9l-63 -303h258l-31 -139h-258l-115 -543q-6 -31 -12 -67t-6 -58q0 -51 22.5 -73.5t71.5 -22.5q12 0 31 4t39 10t39.5 13.5l34.5 13.5l-31 -144q-35 -15 -79.5 -25.5t-84.5 -10.5h-7l-20 -86q37 0 69.5 -8.5t57 -25.5t39 -42
t14.5 -58z" />
    <glyph glyph-name="Tcaron" unicode="&#x164;" horiz-adv-x="1077" 
d="M1190 1282h-408l-270 -1282h-172l272 1282h-417l32 152h996zM811 1567h-135l-145 331h112l115 -231l215 231h119z" />
    <glyph glyph-name="tcaron" unicode="&#x165;" horiz-adv-x="745" 
d="M690 885h-258l-115 -543q-6 -31 -12 -67t-6 -58q0 -51 22.5 -73.5t71.5 -22.5q12 0 31 4t39 10t39.5 13.5l34.5 13.5l-31 -144q-35 -15 -79.5 -25.5t-84.5 -10.5q-57 0 -97 14.5t-65.5 41.5t-37 65.5t-11.5 86.5q0 29 5.5 67.5t13.5 70.5l118 557h-170l31 139h168l53 250
q4 2 30.5 9.5l58 17l58 17.5t29.5 9l-63 -303h258zM1049 1516l-221 -260h-123l172 260h172z" />
    <glyph glyph-name="Uring" unicode="&#x16e;" horiz-adv-x="1411" 
d="M1247 563q-30 -140 -75.5 -249.5t-117 -184.5t-174.5 -114.5t-247 -39.5q-111 0 -198 35t-146 96t-90 144t-31 180q0 43 5.5 97t14.5 102l174 805h173l-173 -795l-8.5 -50t-8 -54t-5.5 -51t-2 -42q0 -80 24 -139t66.5 -98t100 -58.5t124.5 -19.5q85 0 152 24t118 75
t87.5 130t60.5 189l191 889h172zM1127 1765q0 -42 -16 -78t-44 -63t-66 -42t-81 -15t-80 13.5t-64.5 38.5t-43 60t-15.5 78q0 46 16.5 83t44.5 62.5t66.5 39.5t81.5 14q45 0 82 -14t63.5 -39.5t41 -60.5t14.5 -77zM1035 1763q0 25 -9 45.5t-24.5 35t-36.5 22.5t-45 8
q-49 0 -80.5 -31.5t-31.5 -79.5q0 -54 32 -84.5t80 -30.5q25 0 46 9t36.5 25t24 36.5t8.5 44.5z" />
    <glyph glyph-name="uring" unicode="&#x16f;" horiz-adv-x="1143" 
d="M930 291q-9 -39 -16.5 -81l-14.5 -81t-12 -73l-8 -56h-160q5 39 11.5 81.5l12.5 78.5q7 42 13 82h-4q-35 -55 -77.5 -103.5t-92 -85t-105 -57.5t-115.5 -21q-66 0 -115.5 20.5t-82.5 57.5t-49.5 89t-16.5 116q0 13 4 39l9 56t11.5 59.5t10.5 50.5l119 561h166l-127 -600
q-4 -16 -8 -37t-7.5 -42t-5.5 -38.5t-2 -27.5q0 -75 36.5 -119.5t109.5 -44.5q44 0 88 18t85.5 48.5t78.5 71t67 86t51 93.5t31 92l107 500h165zM919 1374q0 -42 -16 -78t-44 -63t-66 -42t-81 -15t-80 13.5t-64.5 38.5t-43 60t-15.5 78q0 46 16.5 83t44.5 62.5t66.5 39.5
t81.5 14q45 0 82 -14t63.5 -39.5t41 -60.5t14.5 -77zM827 1372q0 25 -9 45.5t-24.5 35t-36.5 22.5t-45 8q-49 0 -80.5 -31.5t-31.5 -79.5q0 -54 32 -84.5t80 -30.5q25 0 46 9t36.5 25t24 36.5t8.5 44.5z" />
    <glyph glyph-name="Uhungarumlaut" unicode="&#x170;" horiz-adv-x="1411" 
d="M1247 563q-30 -140 -75.5 -249.5t-117 -184.5t-174.5 -114.5t-247 -39.5q-111 0 -198 35t-146 96t-90 144t-31 180q0 43 5.5 97t14.5 102l174 805h173l-173 -795l-8.5 -50t-8 -54t-5.5 -51t-2 -42q0 -80 24 -139t66.5 -98t100 -58.5t124.5 -19.5q85 0 152 24t118 75
t87.5 130t60.5 189l191 889h172zM1000 1567h-102l247 325h142zM744 1567h-102l249 325h136z" />
    <glyph glyph-name="uhungarumlaut" unicode="&#x171;" horiz-adv-x="1143" 
d="M930 291q-9 -39 -16.5 -81l-14.5 -81t-12 -73l-8 -56h-160q5 39 11.5 81.5l12.5 78.5q7 42 13 82h-4q-35 -55 -77.5 -103.5t-92 -85t-105 -57.5t-115.5 -21q-66 0 -115.5 20.5t-82.5 57.5t-49.5 89t-16.5 116q0 13 4 39l9 56t11.5 59.5t10.5 50.5l119 561h166l-127 -600
q-4 -16 -8 -37t-7.5 -42t-5.5 -38.5t-2 -27.5q0 -75 36.5 -119.5t109.5 -44.5q44 0 88 18t85.5 48.5t78.5 71t67 86t51 93.5t31 92l107 500h165zM818 1219h-102l247 325h142zM562 1219h-102l249 325h136z" />
    <glyph glyph-name="Zacute" unicode="&#x179;" horiz-adv-x="1167" 
d="M1309 1391l-1082 -1239h799l-33 -152h-1071l10 51l1074 1231h-744l31 152h1026zM799 1568h-123l289 327h161z" />
    <glyph glyph-name="zacute" unicode="&#x17a;" horiz-adv-x="926" 
d="M981 975l-768 -836h582l-31 -139h-842l12 53l768 832h-534l31 139h792zM616 1219h-123l289 327h161z" />
    <glyph glyph-name="Zdotaccent" unicode="&#x17b;" horiz-adv-x="1167" 
d="M1309 1391l-1082 -1239h799l-33 -152h-1071l10 51l1074 1231h-744l31 152h1026zM909 1666q0 -42 -28 -71t-70 -29q-19 0 -36.5 7.5t-30.5 21t-21 32t-8 39.5t8 38.5t21 30t30.5 20t36.5 7.5q20 0 37.5 -7.5t31 -20t21.5 -30t8 -38.5z" />
    <glyph glyph-name="zdotaccent" unicode="&#x17c;" horiz-adv-x="926" 
d="M981 975l-768 -836h582l-31 -139h-842l12 53l768 832h-534l31 139h792zM716 1319q0 -42 -28 -71t-70 -29q-19 0 -36.5 7.5t-30.5 21t-21 32t-8 39.5t8 38.5t21 30t30.5 20t36.5 7.5q20 0 37.5 -7.5t31 -20t21.5 -30t8 -38.5z" />
    <glyph glyph-name="Gamma" unicode="&#x393;" horiz-adv-x="967" 
d="M1089 1278h-572l-272 -1278h-172l305 1434h744z" />
    <glyph glyph-name="Theta" unicode="&#x398;" horiz-adv-x="1544" 
d="M1487 852q0 -93 -17 -184.5t-49 -176.5t-78.5 -161t-105.5 -137q-48 -50 -104 -90.5t-120 -69t-137 -43.5t-157 -15q-135 0 -243 46.5t-183.5 128t-115.5 193.5t-40 243q0 208 67.5 373t188.5 286q98 98 226.5 155.5t291.5 57.5q132 0 238.5 -45t181.5 -126t115.5 -192
t40.5 -243zM1309 846q0 107 -29 192t-83 145t-130 92t-170 32q-111 0 -212 -48t-179 -133q-44 -48 -79.5 -110t-61 -132t-39 -146t-13.5 -154q0 -100 27.5 -184t80 -144.5t129.5 -94.5t177 -34q111 0 212.5 44.5t178.5 131.5q48 54 83.5 120.5t59.5 138t36 144.5t12 140z
M1063 637h-538l33 156h538z" />
    <glyph glyph-name="Phi" unicode="&#x3a6;" horiz-adv-x="1544" 
d="M1517 825q0 -80 -18 -158.5t-53.5 -149t-89 -130t-124 -103t-158.5 -68t-194 -24.5h-117l-45 -211h-166l45 211h-63q-105 0 -190 31.5t-145 91.5t-93 146t-33 194q0 123 40.5 238t121 204t200.5 143t279 54h119l33 157h163l-34 -157h63q104 0 188.5 -32t144.5 -92.5
t93 -147.5t33 -197zM1345 818q0 83 -22.5 146t-64 105t-100.5 63.5t-133 21.5h-59l-174 -825h88q111 0 198 38.5t146 105t90 155.5t31 190zM712 1154q-111 0 -198 -38t-146 -104t-90 -155t-31 -190q0 -84 22.5 -147t64.5 -105.5t101 -64t132 -21.5h59l174 825h-88z" />
    <glyph glyph-name="alpha" unicode="&#x3b1;" horiz-adv-x="1282" 
d="M1286 1024l-38 -69l-51 -89.5l-58 -100l-58.5 -100l-53.5 -90l-42 -70.5q6 -100 15.5 -169t23.5 -112t34 -62t48 -19q12 0 28.5 2t28.5 7l-43 -154q-15 -5 -33 -8.5t-43 -3.5q-41 0 -74 17.5t-56.5 56.5t-37.5 103t-18 157h-2q-95 -175 -206.5 -260.5t-252.5 -85.5
q-73 0 -132.5 25t-100.5 73.5t-63.5 119.5t-22.5 163q0 94 21 182t59 165.5t91 141t116.5 109.5t135.5 71t148 25q73 0 125 -27t87 -73t55.5 -106t29.5 -126h2l38 70l43 82l42.5 82.5l35.5 72.5h179v0zM649 915q-81 0 -153 -46.5t-127 -124t-87 -177.5t-32 -208
q0 -55 12 -99.5t33.5 -76.5t53 -49.5t70.5 -17.5q94 0 186.5 74.5t182.5 233.5l15 27.5l18 32.5q11 18 21 38q-4 76 -15.5 147t-33.5 125.5t-57 87.5t-87 33z" />
    <glyph glyph-name="delta" unicode="&#x3b4;" horiz-adv-x="1196" 
d="M1180 1299q-34 22 -74.5 39.5t-83 30t-86 19t-82.5 6.5q-127 0 -197 -43t-70 -118q0 -44 18.5 -81t51 -71.5t76 -68.5l94.5 -72q65 -48 115.5 -99t84.5 -107.5t51.5 -119.5t17.5 -135q0 -108 -33.5 -200.5t-103 -160t-175.5 -105.5t-251 -38q-106 0 -191 29.5t-144.5 85
t-91.5 134t-32 175.5q0 88 23.5 158t62.5 125t91 96.5t108.5 72t115 51t111.5 34.5q-34 28 -64.5 61t-53.5 71t-36.5 80t-13.5 87q0 85 38 142.5t101.5 92t145.5 49.5t169 15q100 0 189.5 -19.5t152.5 -50.5zM692 847q-89 -23 -170 -56.5t-143 -85t-98.5 -125.5t-36.5 -177
q0 -66 19.5 -119.5t56.5 -91t91 -57.5t124 -20q89 0 161 23.5t123 68.5t79 111.5t28 152.5q0 68 -19.5 123t-52 100t-75 82.5t-87.5 70.5z" />
    <glyph glyph-name="epsilon" unicode="&#x3b5;" horiz-adv-x="936" 
d="M887 834q-24 17 -57.5 30.5t-71 24t-75.5 16t-71 5.5q-51 0 -99.5 -8.5t-86 -27.5t-60 -49.5t-22.5 -74.5q0 -48 23 -78t59.5 -47.5t81 -24t86.5 -6.5h31.5t42.5 0.5t41.5 1.5t29.5 2l-24 -139q-7 2 -46.5 3t-95.5 1q-80 0 -147 -10t-115.5 -33t-75.5 -60t-27 -92
q0 -34 13.5 -62.5t42.5 -49t75 -31.5t111 -11q89 0 182 24.5t176 66.5l-37 -168q-62 -26 -150 -44t-191 -18q-102 0 -176 21t-122.5 58.5t-71.5 88.5t-23 111q0 72 31 122.5t79 84t105.5 51.5t111.5 25l2 4q-37 9 -71.5 27t-61 44.5t-42 62t-15.5 79.5q0 81 37.5 137.5
t99.5 91.5t141.5 50.5t163.5 15.5q97 0 175 -16t124 -42z" />
    <glyph glyph-name="sigma" unicode="&#x3c3;" horiz-adv-x="1171" 
d="M1239 892h-244q19 -51 31 -119.5t12 -145.5q0 -139 -35.5 -258.5t-105.5 -207t-172.5 -137t-237.5 -49.5q-97 0 -173 29.5t-128.5 83.5t-80 130.5t-27.5 171.5q0 152 45.5 270t130 199t205 123t270.5 42h539zM870 631q0 71 -7.5 140t-24.5 119h-118q-99 0 -185.5 -30
t-150 -92t-100 -157t-36.5 -224q0 -64 18 -114.5t51.5 -86t80.5 -54t104 -18.5q72 0 127.5 23t96 62t68.5 90.5t44.5 109t24 117.5t7.5 115z" />
    <glyph glyph-name="tau" unicode="&#x3c4;" horiz-adv-x="1001" 
d="M1041 885h-407l-121 -574q-3 -12 -5.5 -27l-5 -30t-4 -27.5t-1.5 -19.5q0 -27 9 -43.5t23 -25.5t30.5 -12t31.5 -3q26 0 45.5 3t36.5 9l-27 -131q-25 -8 -56.5 -13t-62.5 -5q-52 0 -90 13.5t-62.5 38.5t-36 59t-11.5 75q0 15 2 34t5 39t6.5 38.5t6.5 31.5l121 570h-143
q-34 0 -70 -6.5t-70 -16.5t-65 -23t-56 -26l33 157q45 21 111.5 37.5t157.5 16.5h706z" />
    <glyph glyph-name="phi" unicode="&#x3c6;" horiz-adv-x="1494" 
d="M1416 651q0 -122 -27.5 -219.5t-76 -173t-113.5 -129t-139.5 -88t-155 -50.5t-160.5 -16h-30l-96 -456h-166l97 456h-28q-97 0 -178.5 27t-140.5 79.5t-91.5 130.5t-32.5 179t24.5 191t66.5 169t99 147.5t122 125.5h196q-73 -61 -135 -132.5t-107 -150.5t-70 -165
t-25 -177q0 -88 28.5 -144.5t73 -88.5t100 -44.5t109.5 -12.5h17l133 624q16 75 44.5 134t72 99.5t102.5 61.5t137 21q80 0 144.5 -29t110.5 -81.5t70.5 -125.5t24.5 -162zM1244 645q0 128 -51 199t-136 71q-74 0 -117 -42t-62 -132l-135 -632h26q86 0 171 30t152.5 94.5
t109.5 166t42 245.5z" />
    <glyph glyph-name="underscoredbl" unicode="&#x2017;" horiz-adv-x="850" 
d="M0 -277v119h850v-119h-850zM0 -514v119h850v-119h-850z" />
    <glyph glyph-name="exclamdbl" unicode="&#x203c;" horiz-adv-x="983" 
d="M367 403h-136l201 1031h172zM354 92q0 -23 -9 -43t-24 -35t-35 -23.5t-42 -8.5q-23 0 -43.5 8.5t-35.5 23.5t-23.5 35t-8.5 43t8.5 43.5t23.5 35.5t35.5 23.5t43.5 8.5q22 0 42 -8.5t35 -23.5t24 -35.5t9 -43.5zM769 403h-136l201 1031h172zM756 92q0 -23 -9 -43t-24 -35
t-35 -23.5t-42 -8.5q-23 0 -43.5 8.5t-35.5 23.5t-23.5 35t-8.5 43t8.5 43.5t23.5 35.5t35.5 23.5t43.5 8.5q22 0 42 -8.5t35 -23.5t24 -35.5t9 -43.5z" />
    <glyph glyph-name="uni207F" unicode="&#x207f;" horiz-adv-x="803" 
d="M260 717h-129l153 719h129l-35 -156h4q23 36 52 68t64 56t74.5 38t82.5 14q81 0 129 -50t48 -144q0 -21 -3 -50t-11 -64l-91 -431h-129l96 450q2 9 3.5 20l3 22.5t2.5 21.5t1 17q0 42 -24.5 68.5t-75.5 26.5q-50 0 -95 -26t-80 -64.5t-58.5 -82.5t-31.5 -80z" />
    <glyph glyph-name="peseta" unicode="&#x20a7;" horiz-adv-x="2273" 
d="M1598 741h-236l-85 -399q-3 -15 -6 -33l-6 -36t-4.5 -33.5t-1.5 -26.5q0 -43 18.5 -67.5t60.5 -24.5q26 0 69.5 10.5t89.5 30.5l-31 -147q-35 -15 -79.5 -24t-84.5 -9q-57 0 -96.5 15.5t-64.5 43.5t-36 67.5t-11 87.5q0 29 4.5 66t11.5 66l88 413h-156l19 86
q-36 -75 -97 -133q-73 -70 -185.5 -110.5t-266.5 -40.5h-148l-114 -543h-172l303 1434h301q116 0 197 -31.5t132.5 -84t75 -120.5t23.5 -141q0 -94 -28 -177h145l53 250q2 1 15.5 5l32.5 9.5l40.5 12l40.5 12l32 9.5t15 5l-63 -303h236zM933 1042q0 54 -18.5 98.5t-54.5 76
t-89.5 48.5t-123.5 17h-125l-125 -588h131q106 0 182.5 26.5t126 73t73 110t23.5 138.5zM2195 678q-42 30 -99 48.5t-109 18.5q-88 0 -140.5 -29t-52.5 -87q0 -21 9 -37.5t28.5 -32t50 -31t73.5 -33.5q59 -25 99 -51t64 -54.5t34 -61.5t10 -74q0 -59 -22 -110t-66.5 -88.5
t-111.5 -59t-157 -21.5q-40 0 -81 4t-78.5 12t-70.5 19.5t-58 26.5l33 156q20 -14 49.5 -28t64 -25t72 -18t74.5 -7q55 0 94 10t64 28t36.5 42t11.5 52q0 23 -9 42t-30 36.5t-54.5 35.5t-82.5 40q-54 24 -90.5 48.5t-59 52.5t-32.5 60t-10 71q0 56 24.5 102.5t69.5 79.5
t108.5 51.5t141.5 18.5q28 0 61 -3.5t65 -10.5t61.5 -16t50.5 -20z" />
    <glyph glyph-name="IJ" unicode="&#x132;" horiz-adv-x="1268" 
d="M246 0h-172l303 1434h174zM1094 508q-28 -130 -69.5 -230t-99.5 -167t-134 -101.5t-173 -34.5q-18 0 -43 3t-49 8.5t-44 11.5t-29 12l28 160q11 -9 26.5 -17.5t33.5 -14.5t38 -9.5t39 -3.5q54 0 100 19.5t83.5 64t67.5 116t52 175.5l197 934h172z" />
    <glyph glyph-name="ij" unicode="&#x133;" horiz-adv-x="1025" 
d="M416 4q-25 -8 -56.5 -13t-62.5 -5q-101 0 -151 50.5t-50 135.5q0 25 5 59t16 84l149 709h166l-150 -713q-9 -42 -12.5 -65t-3.5 -39q0 -41 22.5 -62.5t71.5 -21.5q26 0 45.5 3t36.5 9zM533 1389q0 -45 -30.5 -77t-75.5 -32q-44 0 -76.5 31.5t-32.5 77.5t32.5 75t76.5 29
t75 -29.5t31 -74.5zM758 47q-55 -264 -170.5 -396t-298.5 -132q-17 0 -36.5 2t-39 6t-38 9.5t-33.5 12.5l29 154q12 -8 28 -16t34 -14.5t36.5 -10.5t34.5 -4q103 0 174 89t108 269l215 1008h164zM1066 1389q0 -45 -30.5 -77t-75.5 -32q-44 0 -76.5 31.5t-32.5 77.5t32.5 75
t76.5 29t75 -29.5t31 -74.5z" />
    <glyph glyph-name="napostrophe" unicode="&#x149;" horiz-adv-x="1241" 
d="M1136 768q0 -15 -3.5 -41t-9 -56l-11 -59.5t-10.5 -50.5l-119 -561h-166l125 600q4 16 8 37t7 42t5 38.5t2 27.5q0 76 -36.5 120t-108.5 44q-66 0 -131 -39t-120 -99t-94.5 -132t-53.5 -139l-107 -500h-166l158 731l16 81.5l15 82t12 73.5l8 56h160q-5 -39 -12 -81.5
t-12 -78.5q-6 -42 -13 -82h4q35 55 77.5 103.5t92 85t105 57.5t116.5 21q68 0 117 -20.5t81.5 -57.5t48 -89t15.5 -114zM193 987h-116l176 447h147z" />
    <glyph glyph-name="minute" unicode="&#x2032;" horiz-adv-x="469" 
d="M489 1434l-106 -447h-114l84 447h136z" />
    <glyph glyph-name="second" unicode="&#x2033;" horiz-adv-x="772" 
d="M773 1434l-105 -447h-116l86 447h135zM491 1434l-105 -447h-115l85 447h135z" />
    <glyph glyph-name="afii61248" unicode="&#x2105;" horiz-adv-x="1646" 
d="M1535 428q0 -177 -106 -309q-113 -139 -280 -139q-157 0 -233 103q-58 79 -58 193q0 172 107 303q115 142 287 142q130 0 206.5 -77.5t76.5 -215.5zM1510 1434l-1228 -1434h-147l1228 1434h147zM1400 423q0 186 -150 186q-114 0 -189 -112q-68 -101 -68 -222
q0 -184 159 -184q107 0 179 103q69 97 69 229zM744 1271q-79 68 -169 68q-126 0 -200 -113q-61 -94 -61 -210q0 -188 154 -188q86 0 204 79l-30 -141q-103 -53 -195 -53q-132 0 -203 85q-67 79 -67 209q0 184 107 311q116 136 305 136q114 0 187 -50z" />
    <glyph glyph-name="afii61289" unicode="&#x2113;" horiz-adv-x="662" 
d="M3 453l190 224v435q0 72 8 140t33 121.5t72 85.5t124 32q48 0 87.5 -14t68 -41t44 -66.5t15.5 -90.5q0 -57 -22 -120.5t-67 -137.5t-112.5 -162.5t-158.5 -196.5v-399q0 -48 6.5 -85.5t21.5 -64t40.5 -40.5t64.5 -14q45 0 94.5 29.5t103.5 76.5v-99q-52 -43 -104.5 -67
t-120.5 -24q-100 0 -149 68t-49 220v291l-130 -155zM285 785q129 152 199.5 272.5t70.5 219.5q0 36 -10 61t-27.5 41t-40 23.5t-47.5 7.5q-48 0 -76.5 -24.5t-44 -66t-20 -96.5t-4.5 -115v-323z" />
    <glyph glyph-name="H22073" unicode="&#x25a1;" horiz-adv-x="1237" 
d="M145 944h945v-944h-945v944zM221 868v-792h793v792h-793z" />
    <glyph glyph-name="H18543" unicode="&#x25aa;" horiz-adv-x="725" 
d="M594 907v-463h-463v463h463z" />
    <glyph glyph-name="H18551" unicode="&#x25ab;" horiz-adv-x="725" 
d="M594 907v-463h-463v463h463zM518 831h-311v-311h311v311z" />
    <glyph glyph-name="H18533" unicode="&#x25cf;" horiz-adv-x="1237" 
d="M618 1018q116 0 220.5 -59.5t160.5 -159.5q60 -107 60 -221q0 -184 -127.5 -312.5t-310.5 -128.5q-184 0 -313.5 128.5t-129.5 312.5q0 119 60 223t165.5 160.5t214.5 56.5z" />
    <glyph glyph-name="openbullet" unicode="&#x25e6;" horiz-adv-x="725" 
d="M363 928q104 0 177.5 -73.5t73.5 -176.5q0 -105 -73 -178.5t-178 -73.5q-104 0 -177.5 74t-73.5 178q0 102 73.5 176t177.5 74zM362 852q-72 0 -123 -51t-51 -123q0 -74 51 -125t125 -51q73 0 123.5 51t50.5 125q0 73 -51.5 123.5t-124.5 50.5z" />
    <glyph glyph-name="Amacron" unicode="&#x100;" horiz-adv-x="1294" 
d="M999 0l-65 401h-608l-232 -401h-198l854 1434h176l250 -1434h-177zM815 1163q-1 10 -1.5 23t-0.5 26v26v22h-4q-3 -9 -8 -21.5t-11 -26t-12.5 -26.5l-11.5 -23l-354 -610h495zM583 1567l16 108h508l-16 -108h-508z" />
    <glyph glyph-name="amacron" unicode="&#x101;" horiz-adv-x="1110" 
d="M905 328q-8 -38 -15.5 -85.5t-13 -94t-9 -86.5t-3.5 -62h-170q1 20 3 48t5.5 58l7 59t7.5 50h-4q-31 -49 -63 -92.5t-71 -76.5t-87 -52t-113 -19q-67 0 -122.5 24t-95.5 71.5t-61.5 119t-21.5 166.5q0 58 12 132t40.5 151t76 150.5t118 131.5t166.5 93t222 35
q80 0 165 -12t169 -29zM858 889q-35 8 -82 14t-88 6q-87 0 -153.5 -27.5t-115.5 -72t-82.5 -102.5t-53.5 -118.5t-28.5 -119.5t-8.5 -107q0 -57 10 -102.5t31.5 -77.5t55 -49.5t79.5 -17.5q50 0 93.5 20.5t81.5 55.5t69 81t56 97.5t42.5 105t28.5 103.5zM463 1219l16 108
h508l-16 -108h-508z" />
    <glyph glyph-name="Ccircumflex" unicode="&#x108;" horiz-adv-x="1309" 
d="M1325 1196q-29 19 -66.5 39t-82.5 36t-98.5 26t-114.5 10q-150 0 -270.5 -53t-204.5 -146t-129.5 -218.5t-45.5 -271.5q0 -119 33 -210.5t94 -154t146 -94.5t188 -32q66 0 120 7.5t100 21t86.5 32t78.5 39.5l-39 -176q-81 -37 -173.5 -56.5t-207.5 -19.5
q-136 0 -247.5 45t-190 127.5t-121.5 198.5t-43 258q0 188 59.5 345t169 270t263 176t340.5 63q128 0 226.5 -27.5t166.5 -62.5zM1113 1568l-114 231l-213 -231h-121l283 331h133l145 -331h-113z" />
    <glyph glyph-name="ccircumflex" unicode="&#x109;" horiz-adv-x="893" 
d="M864 821q-42 37 -101.5 62.5t-131.5 25.5q-69 0 -124.5 -24t-98.5 -64t-74 -92t-51 -108t-29.5 -111.5t-9.5 -103.5q0 -143 63 -217t172 -74q66 0 137 27.5t134 70.5l-35 -164q-65 -35 -129.5 -54.5t-136.5 -19.5q-94 0 -163.5 32t-115.5 88t-69 132.5t-23 165.5
q0 84 17 165.5t50.5 154t82.5 134.5t112.5 106.5t141.5 70t169 25.5q43 0 82 -6t71 -16t57 -21.5t40 -22.5zM833 1219l-114 231l-213 -231h-121l283 331h133l145 -331h-113z" />
    <glyph glyph-name="Cdotaccent" unicode="&#x10a;" horiz-adv-x="1309" 
d="M1325 1196q-29 19 -66.5 39t-82.5 36t-98.5 26t-114.5 10q-150 0 -270.5 -53t-204.5 -146t-129.5 -218.5t-45.5 -271.5q0 -119 33 -210.5t94 -154t146 -94.5t188 -32q66 0 120 7.5t100 21t86.5 32t78.5 39.5l-39 -176q-81 -37 -173.5 -56.5t-207.5 -19.5
q-136 0 -247.5 45t-190 127.5t-121.5 198.5t-43 258q0 188 59.5 345t169 270t263 176t340.5 63q128 0 226.5 -27.5t166.5 -62.5zM1094 1667q0 -42 -28 -71t-70 -29q-19 0 -36.5 7.5t-30.5 21t-21 32t-8 39.5t8 38.5t21 30t30.5 20t36.5 7.5q20 0 37.5 -7.5t31 -20t21.5 -30
t8 -38.5z" />
    <glyph glyph-name="cdotaccent" unicode="&#x10b;" horiz-adv-x="893" 
d="M864 821q-42 37 -101.5 62.5t-131.5 25.5q-69 0 -124.5 -24t-98.5 -64t-74 -92t-51 -108t-29.5 -111.5t-9.5 -103.5q0 -143 63 -217t172 -74q66 0 137 27.5t134 70.5l-35 -164q-65 -35 -129.5 -54.5t-136.5 -19.5q-94 0 -163.5 32t-115.5 88t-69 132.5t-23 165.5
q0 84 17 165.5t50.5 154t82.5 134.5t112.5 106.5t141.5 70t169 25.5q43 0 82 -6t71 -16t57 -21.5t40 -22.5zM807 1319q0 -42 -28 -71t-70 -29q-19 0 -36.5 7.5t-30.5 21t-21 32t-8 39.5t8 38.5t21 30t30.5 20t36.5 7.5q20 0 37.5 -7.5t31 -20t21.5 -30t8 -38.5z" />
    <glyph glyph-name="Emacron" unicode="&#x112;" horiz-adv-x="1022" 
d="M1071 1282h-553l-104 -489h512l-33 -152h-512l-105 -489h588l-30 -152h-760l303 1434h727zM496 1567l16 108h508l-16 -108h-508z" />
    <glyph glyph-name="emacron" unicode="&#x113;" horiz-adv-x="997" 
d="M958 784q0 -81 -36 -147.5t-119 -114t-219 -73.5t-336 -27q-2 -11 -2 -23v-20q0 -54 15 -102t46.5 -84t81 -57t117.5 -21q69 0 151.5 26.5t157.5 75.5l-31 -162q-55 -32 -131 -56t-170 -24q-113 0 -190.5 35t-125 93.5t-68.5 135t-21 160.5q0 90 20 173.5t56.5 155.5
t87.5 131.5t113 101.5t133 65t147 23q79 0 139.5 -21t101 -57.5t61.5 -84.5t21 -102zM791 776q0 63 -46.5 98t-123.5 35q-61 0 -118 -26.5t-105 -73t-83 -111t-51 -139.5q143 0 243 14.5t163 42.5t92 68.5t29 91.5zM430 1219l16 108h508l-16 -108h-508z" />
    <glyph glyph-name="Ebreve" unicode="&#x114;" horiz-adv-x="1022" 
d="M1071 1282h-553l-104 -489h512l-33 -152h-512l-105 -489h588l-30 -152h-760l303 1434h727zM1062 1822q-18 -60 -48.5 -107t-72 -80t-91.5 -50t-107 -17q-55 0 -100.5 16t-77 44.5t-49 68t-17.5 86.5q0 12 1.5 20t4.5 19h105q-2 -7 -2 -13v-14q0 -60 38.5 -93.5
t100.5 -33.5q77 0 128 37.5t77 116.5h110z" />
    <glyph glyph-name="ebreve" unicode="&#x115;" horiz-adv-x="997" 
d="M958 784q0 -81 -36 -147.5t-119 -114t-219 -73.5t-336 -27q-2 -11 -2 -23v-20q0 -54 15 -102t46.5 -84t81 -57t117.5 -21q69 0 151.5 26.5t157.5 75.5l-31 -162q-55 -32 -131 -56t-170 -24q-113 0 -190.5 35t-125 93.5t-68.5 135t-21 160.5q0 90 20 173.5t56.5 155.5
t87.5 131.5t113 101.5t133 65t147 23q79 0 139.5 -21t101 -57.5t61.5 -84.5t21 -102zM791 776q0 63 -46.5 98t-123.5 35q-61 0 -118 -26.5t-105 -73t-83 -111t-51 -139.5q143 0 243 14.5t163 42.5t92 68.5t29 91.5zM990 1473q-18 -60 -48.5 -107t-72 -80t-91.5 -50t-107 -17
q-55 0 -100.5 16t-77 44.5t-49 68t-17.5 86.5q0 12 1.5 20t4.5 19h105q-2 -7 -2 -13v-14q0 -60 38.5 -93.5t100.5 -33.5q77 0 128 37.5t77 116.5h110z" />
    <glyph glyph-name="Edotaccent" unicode="&#x116;" horiz-adv-x="1022" 
d="M1071 1282h-553l-104 -489h512l-33 -152h-512l-105 -489h588l-30 -152h-760l303 1434h727zM863 1667q0 -42 -28 -71t-70 -29q-19 0 -36.5 7.5t-30.5 21t-21 32t-8 39.5t8 38.5t21 30t30.5 20t36.5 7.5q20 0 37.5 -7.5t31 -20t21.5 -30t8 -38.5z" />
    <glyph glyph-name="edotaccent" unicode="&#x117;" horiz-adv-x="997" 
d="M958 784q0 -81 -36 -147.5t-119 -114t-219 -73.5t-336 -27q-2 -11 -2 -23v-20q0 -54 15 -102t46.5 -84t81 -57t117.5 -21q69 0 151.5 26.5t157.5 75.5l-31 -162q-55 -32 -131 -56t-170 -24q-113 0 -190.5 35t-125 93.5t-68.5 135t-21 160.5q0 90 20 173.5t56.5 155.5
t87.5 131.5t113 101.5t133 65t147 23q79 0 139.5 -21t101 -57.5t61.5 -84.5t21 -102zM791 776q0 63 -46.5 98t-123.5 35q-61 0 -118 -26.5t-105 -73t-83 -111t-51 -139.5q143 0 243 14.5t163 42.5t92 68.5t29 91.5zM788 1319q0 -42 -28 -71t-70 -29q-19 0 -36.5 7.5
t-30.5 21t-21 32t-8 39.5t8 38.5t21 30t30.5 20t36.5 7.5q20 0 37.5 -7.5t31 -20t21.5 -30t8 -38.5z" />
    <glyph glyph-name="Gcircumflex" unicode="&#x11c;" horiz-adv-x="1409" 
d="M1350 1190q-33 22 -75.5 43t-93.5 37.5t-110.5 26.5t-126.5 10q-149 0 -266 -53t-198 -144.5t-124 -215.5t-43 -265q0 -117 32.5 -210t93.5 -158t147.5 -99.5t195.5 -34.5q75 0 135.5 12.5t112.5 32.5l86 418h-332l33 149h504l-141 -661q-85 -45 -188 -75t-230 -30
q-147 0 -263 49t-196.5 134.5t-123 202t-42.5 251.5q0 116 24 224t71 202.5t117 172t162 133t205.5 86t248.5 30.5q74 0 137.5 -9t116 -23t93.5 -30.5t70 -31.5zM1113 1569l-114 231l-213 -231h-121l283 331h133l145 -331h-113z" />
    <glyph glyph-name="gcircumflex" unicode="&#x11d;" horiz-adv-x="1110" 
d="M850 74q-25 -120 -66 -221.5t-108.5 -176t-166.5 -116t-241 -41.5q-98 0 -170.5 23t-132.5 55l31 153q63 -38 134 -64t153 -26q89 0 154.5 26t113 76.5t79 123.5t52.5 167l35 160h-4q-38 -61 -74.5 -105.5t-76.5 -74t-84 -44t-97 -14.5q-69 0 -125 24.5t-95.5 72.5
t-61 120t-21.5 166q0 89 19.5 175t56.5 163t90.5 141.5t121.5 111.5t149.5 73.5t174.5 26.5t186 -12t171 -27zM858 889q-34 8 -82.5 14t-103.5 6q-94 0 -172 -43.5t-134.5 -118t-88 -173.5t-31.5 -209q0 -54 9.5 -100t30 -79t53 -52t79.5 -19q55 0 101.5 23t85.5 61
t69.5 86.5t54 99.5t39.5 100.5t25 89.5zM889 1219l-114 231l-213 -231h-121l283 331h133l145 -331h-113z" />
    <glyph glyph-name="Gdotaccent" unicode="&#x120;" horiz-adv-x="1409" 
d="M1350 1190q-33 22 -75.5 43t-93.5 37.5t-110.5 26.5t-126.5 10q-149 0 -266 -53t-198 -144.5t-124 -215.5t-43 -265q0 -117 32.5 -210t93.5 -158t147.5 -99.5t195.5 -34.5q75 0 135.5 12.5t112.5 32.5l86 418h-332l33 149h504l-141 -661q-85 -45 -188 -75t-230 -30
q-147 0 -263 49t-196.5 134.5t-123 202t-42.5 251.5q0 116 24 224t71 202.5t117 172t162 133t205.5 86t248.5 30.5q74 0 137.5 -9t116 -23t93.5 -30.5t70 -31.5zM1116 1667q0 -42 -28 -71t-70 -29q-19 0 -36.5 7.5t-30.5 21t-21 32t-8 39.5t8 38.5t21 30t30.5 20t36.5 7.5
q20 0 37.5 -7.5t31 -20t21.5 -30t8 -38.5z" />
    <glyph glyph-name="gdotaccent" unicode="&#x121;" horiz-adv-x="1110" 
d="M850 74q-25 -120 -66 -221.5t-108.5 -176t-166.5 -116t-241 -41.5q-98 0 -170.5 23t-132.5 55l31 153q63 -38 134 -64t153 -26q89 0 154.5 26t113 76.5t79 123.5t52.5 167l35 160h-4q-38 -61 -74.5 -105.5t-76.5 -74t-84 -44t-97 -14.5q-69 0 -125 24.5t-95.5 72.5
t-61 120t-21.5 166q0 89 19.5 175t56.5 163t90.5 141.5t121.5 111.5t149.5 73.5t174.5 26.5t186 -12t171 -27zM858 889q-34 8 -82.5 14t-103.5 6q-94 0 -172 -43.5t-134.5 -118t-88 -173.5t-31.5 -209q0 -54 9.5 -100t30 -79t53 -52t79.5 -19q55 0 101.5 23t85.5 61
t69.5 86.5t54 99.5t39.5 100.5t25 89.5zM835 1319q0 -42 -28 -71t-70 -29q-19 0 -36.5 7.5t-30.5 21t-21 32t-8 39.5t8 38.5t21 30t30.5 20t36.5 7.5q20 0 37.5 -7.5t31 -20t21.5 -30t8 -38.5z" />
    <glyph glyph-name="Gcommaaccent" unicode="&#x122;" horiz-adv-x="1409" 
d="M1350 1190q-33 22 -75.5 43t-93.5 37.5t-110.5 26.5t-126.5 10q-149 0 -266 -53t-198 -144.5t-124 -215.5t-43 -265q0 -117 32.5 -210t93.5 -158t147.5 -99.5t195.5 -34.5q75 0 135.5 12.5t112.5 32.5l86 418h-332l33 149h504l-141 -661q-85 -45 -188 -75t-230 -30
q-147 0 -263 49t-196.5 134.5t-123 202t-42.5 251.5q0 116 24 224t71 202.5t117 172t162 133t205.5 86t248.5 30.5q74 0 137.5 -9t116 -23t93.5 -30.5t70 -31.5zM840 -119l-166 -260h-123l117 260h172z" />
    <glyph glyph-name="gcommaaccent" unicode="&#x123;" horiz-adv-x="1110" 
d="M850 74q-25 -120 -66 -221.5t-108.5 -176t-166.5 -116t-241 -41.5q-98 0 -170.5 23t-132.5 55l31 153q63 -38 134 -64t153 -26q89 0 154.5 26t113 76.5t79 123.5t52.5 167l35 160h-4q-38 -61 -74.5 -105.5t-76.5 -74t-84 -44t-97 -14.5q-69 0 -125 24.5t-95.5 72.5
t-61 120t-21.5 166q0 89 19.5 175t56.5 163t90.5 141.5t121.5 111.5t149.5 73.5t174.5 26.5t186 -12t171 -27zM858 889q-34 8 -82.5 14t-103.5 6q-94 0 -172 -43.5t-134.5 -118t-88 -173.5t-31.5 -209q0 -54 9.5 -100t30 -79t53 -52t79.5 -19q55 0 101.5 23t85.5 61
t69.5 86.5t54 99.5t39.5 100.5t25 89.5zM762 1219h-172l221 260h123z" />
    <glyph glyph-name="Hcircumflex" unicode="&#x124;" horiz-adv-x="1450" 
d="M1151 0h-172l137 647h-733l-135 -647h-174l303 1434h174l-135 -629h733l135 629h172zM1088 1567l-114 231l-213 -231h-121l283 331h133l145 -331h-113z" />
    <glyph glyph-name="hcircumflex" unicode="&#x125;" horiz-adv-x="1141" 
d="M1036 766q0 -13 -3.5 -39.5t-8 -56.5t-10 -59.5t-10.5 -49.5l-119 -561h-166l125 600q4 16 8 37t7 42t5 38.5t2 27.5q0 78 -35.5 121t-109.5 43q-64 0 -128 -37.5t-119 -97t-95.5 -133t-56.5 -145.5l-107 -496h-166l324 1516h164l-156 -732h4q37 57 81 105.5t93.5 84
t104 55.5t112.5 20q128 0 194 -75.5t66 -207.5zM913 1648l-114 231l-213 -231h-121l283 331h133l145 -331h-113z" />
    <glyph glyph-name="Hbar" unicode="&#x126;" horiz-adv-x="1450" 
d="M1151 0h-172l137 647h-733l-135 -647h-174l217 1028h-160l33 152h159l54 254h174l-55 -254h733l55 254h172l-54 -254h158l-33 -152h-158zM1149 805l48 223h-733l-48 -223h733z" />
    <glyph glyph-name="hbar" unicode="&#x127;" horiz-adv-x="1141" 
d="M1036 766q0 -13 -3.5 -39.5t-8 -56.5t-10 -59.5t-10.5 -49.5l-119 -561h-166l125 600q4 16 8 37t7 42t5 38.5t2 27.5q0 78 -35.5 121t-109.5 43q-64 0 -128 -37.5t-119 -97t-95.5 -133t-56.5 -145.5l-107 -496h-166l257 1202h-135l28 133h135l39 181h164l-39 -181h332
l-28 -133h-332l-89 -418h4q37 57 81 105.5t93.5 84t104 55.5t112.5 20q128 0 194 -75.5t66 -207.5z" />
    <glyph glyph-name="Itilde" unicode="&#x128;" horiz-adv-x="545" 
d="M246 0h-172l303 1434h174zM816 1803q-3 -45 -20.5 -85t-46 -70t-67 -47t-83.5 -17q-48 0 -80.5 14.5t-58 31.5l-49 31.5t-54.5 14.5q-51 0 -80.5 -33t-34.5 -79h-96q3 48 21.5 89t48.5 70t70.5 45.5t87.5 16.5q44 0 73.5 -15t54.5 -33.5t49.5 -33.5t57.5 -15q22 0 41 9
t34 24.5t24 36.5t12 45h96z" />
    <glyph glyph-name="itilde" unicode="&#x129;" horiz-adv-x="530" 
d="M416 4q-25 -8 -56.5 -13t-62.5 -5q-101 0 -151 50.5t-50 135.5q0 25 5 59t16 84l149 709h166l-150 -713q-9 -42 -12.5 -65t-3.5 -39q0 -41 22.5 -62.5t71.5 -21.5q26 0 45.5 3t36.5 9zM743 1458q-3 -45 -20.5 -85t-46 -70t-67 -47t-83.5 -17q-48 0 -80.5 14.5t-58 31.5
l-49 31.5t-54.5 14.5q-51 0 -80.5 -33t-34.5 -79h-96q3 48 21.5 89t48.5 70t70.5 45.5t87.5 16.5q44 0 73.5 -15t54.5 -33.5t49.5 -33.5t57.5 -15q22 0 41 9t34 24.5t24 36.5t12 45h96z" />
    <glyph glyph-name="Imacron" unicode="&#x12a;" horiz-adv-x="545" 
d="M246 0h-172l303 1434h174zM228 1566l16 108h508l-16 -108h-508z" />
    <glyph glyph-name="imacron" unicode="&#x12b;" horiz-adv-x="530" 
d="M416 4q-25 -8 -56.5 -13t-62.5 -5q-101 0 -151 50.5t-50 135.5q0 25 5 59t16 84l149 709h166l-150 -713q-9 -42 -12.5 -65t-3.5 -39q0 -41 22.5 -62.5t71.5 -21.5q26 0 45.5 3t36.5 9zM107 1219l16 108h508l-16 -108h-508z" />
    <glyph glyph-name="Ibreve" unicode="&#x12c;" horiz-adv-x="545" 
d="M246 0h-172l303 1434h174zM811 1821q-18 -60 -48.5 -107t-72 -80t-91.5 -50t-107 -17q-55 0 -100.5 16t-77 44.5t-49 68t-17.5 86.5q0 12 1.5 20t4.5 19h105q-2 -7 -2 -13v-14q0 -60 38.5 -93.5t100.5 -33.5q77 0 128 37.5t77 116.5h110z" />
    <glyph glyph-name="ibreve" unicode="&#x12d;" horiz-adv-x="530" 
d="M416 4q-25 -8 -56.5 -13t-62.5 -5q-101 0 -151 50.5t-50 135.5q0 25 5 59t16 84l149 709h166l-150 -713q-9 -42 -12.5 -65t-3.5 -39q0 -41 22.5 -62.5t71.5 -21.5q26 0 45.5 3t36.5 9zM699 1473q-18 -60 -48.5 -107t-72 -80t-91.5 -50t-107 -17q-55 0 -100.5 16t-77 44.5
t-49 68t-17.5 86.5q0 12 1.5 20t4.5 19h105q-2 -7 -2 -13v-14q0 -60 38.5 -93.5t100.5 -33.5q77 0 128 37.5t77 116.5h110z" />
    <glyph glyph-name="Iogonek" unicode="&#x12e;" horiz-adv-x="545" 
d="M225 0q-52 -47 -88 -83t-58 -65.5t-32 -54t-10 -47.5q0 -80 80 -80q23 0 48.5 8.5t41.5 16.5l-15 -103q-18 -9 -46 -15.5t-62 -6.5q-82 0 -122 41.5t-40 114.5q0 27 10 56.5t33 63t61.5 72t96.5 82.5h-49l303 1434h174l-305 -1434h-21z" />
    <glyph glyph-name="iogonek" unicode="&#x12f;" horiz-adv-x="530" 
d="M292 -14q-94 0 -145 49.5t-51 136.5q0 25 5 59t16 84l149 709h166l-150 -713q-9 -42 -12.5 -65t-3.5 -39q0 -41 22.5 -62.5t71.5 -21.5q26 0 45.5 3t36.5 9l-26 -131q-56 -51 -92 -87t-58 -65.5t-32 -54t-10 -47.5q0 -80 80 -80q23 0 48.5 8.5t41.5 16.5l-15 -103
q-18 -9 -46 -15.5t-62 -6.5q-82 0 -122 41.5t-40 114.5q0 27 10 56.5t33 63t63 73t77 67.5zM533 1389q0 -45 -30.5 -77t-75.5 -32q-44 0 -76.5 31.5t-32.5 77.5t32.5 75t76.5 29t75 -29.5t31 -74.5z" />
    <glyph glyph-name="Jcircumflex" unicode="&#x134;" horiz-adv-x="709" 
d="M535 508q-28 -130 -69.5 -230t-99.5 -167t-134 -101.5t-173 -34.5q-18 0 -43 3t-49 8.5t-44 11.5t-29 12l28 160q11 -9 26.5 -17.5t33.5 -14.5t38 -9.5t39 -3.5q54 0 100 19.5t83.5 64t67.5 116t52 175.5l197 934h172zM809 1567l-114 231l-213 -231h-121l283 331h133
l145 -331h-113z" />
    <glyph glyph-name="jcircumflex" unicode="&#x135;" horiz-adv-x="492" 
d="M225 47q-55 -264 -170.5 -396t-298.5 -132q-17 0 -36.5 2t-39 6t-38 9.5t-33.5 12.5l29 154q12 -8 28 -16t34 -14.5t36.5 -10.5t34.5 -4q103 0 174 89t108 269l215 1008h164zM519 1219l-114 231l-213 -231h-121l283 331h133l145 -331h-113z" />
    <glyph glyph-name="Kcommaaccent" unicode="&#x136;" horiz-adv-x="1228" 
d="M573 723l498 -723h-209l-434 653l-15 27t-14 27h-4l-149 -707h-172l303 1434h174l-143 -674h4l23.5 25l23.5 24l659 625h228zM647 -119l-166 -260h-123l117 260h172z" />
    <glyph glyph-name="kcommaaccent" unicode="&#x137;" horiz-adv-x="1004" 
d="M498 551l362 -551h-190l-336 541h-4l-115 -541h-166l324 1516h164l-197 -926h4l510 434h213zM556 -119l-166 -260h-123l117 260h172z" />
    <glyph glyph-name="kgreenlandic" unicode="&#x138;" horiz-adv-x="1004" 
d="M495 534l365 -534h-190l-339 524h-4l-112 -524h-166l218 1024h164l-94 -451h4l513 451h213z" />
    <glyph glyph-name="Lcommaaccent" unicode="&#x13b;" horiz-adv-x="948" 
d="M619 -238q0 -89 -75 -142.5t-218 -53.5q-20 0 -43 1.5t-45 4.5l18 88q41 -6 76 -6q87 0 128.5 25t41.5 67q0 35 -28.5 55.5t-90.5 20.5q-14 0 -27.5 -1t-27.5 -3l39 182h-293l303 1434h174l-272 -1278h571l-33 -156h-354l-24 -104q37 0 69.5 -8.5t57 -25.5t39 -42
t14.5 -58z" />
    <glyph glyph-name="lcommaaccent" unicode="&#x13c;" horiz-adv-x="530" 
d="M197 3q-28 11 -51 33q-50 51 -50 136q0 25 5 59t16 84l256 1202h166l-257 -1206q-9 -42 -12.5 -65t-3.5 -39q0 -41 22.5 -62.5t71.5 -21.5q26 0 45.5 3t36.5 9l-26 -131q-25 -8 -53.5 -13t-72.5 -6l-21 -89q37 0 69.5 -8.5t57 -25.5t39 -42t14.5 -58q0 -89 -75 -142.5
t-218 -53.5q-20 0 -43 1.5t-45 4.5l18 88q41 -6 76 -6q87 0 128.5 25t41.5 67q0 35 -28.5 55.5t-90.5 20.5q-14 0 -27.5 -1t-27.5 -3z" />
    <glyph glyph-name="Ncommaaccent" unicode="&#x145;" horiz-adv-x="1538" 
d="M1241 0h-186l-529 1149l-7 19.5t-8 24.5t-7 25t-4 19h-6l-2.5 -24.5t-3.5 -29.5t-4.5 -29.5l-4.5 -25.5l-239 -1128h-166l303 1434h201l507 -1125q5 -9 10 -21.5l10 -26l9.5 -26.5l7.5 -22h4q1 12 3 28l4 33.5t5 34.5l5 29l233 1096h170zM776 -119l-166 -260h-123
l117 260h172z" />
    <glyph glyph-name="ncommaaccent" unicode="&#x146;" horiz-adv-x="1151" 
d="M1046 768q0 -15 -3.5 -41t-9 -56l-11 -59.5t-10.5 -50.5l-119 -561h-166l125 600q4 16 8 37t7 42t5 38.5t2 27.5q0 76 -36.5 120t-108.5 44q-66 0 -131 -39t-120 -99t-94.5 -132t-53.5 -139l-107 -500h-166l158 731l16 81.5l15 82t12 73.5l8 56h160q-5 -39 -12 -81.5
t-12 -78.5q-6 -42 -13 -82h4q35 55 77.5 103.5t92 85t105 57.5t116.5 21q68 0 117 -20.5t81.5 -57.5t48 -89t15.5 -114zM583 -119l-166 -260h-123l117 260h172z" />
    <glyph glyph-name="Eng" unicode="&#x14a;" horiz-adv-x="1538" 
d="M543 1132q-3 8 -9.5 23t-13 32l-12 32t-6.5 22h-6q-1 -10 -3 -24.5l-4 -29.5l-4 -29.5t-4 -25.5l-241 -1132h-166l303 1434h201l512 -1100q5 -9 10 -21.5l10 -26l9.5 -26.5l7.5 -22h4q1 12 3 28t4.5 33.5l5 34.5t4.5 29l228 1071h170l-305 -1434q-18 -89 -49.5 -166
t-81.5 -134t-121 -89.5t-169 -32.5q-17 0 -40.5 2.5t-47.5 7t-46.5 11t-37.5 13.5l28 146q12 -8 30.5 -15.5t39 -13t41 -9t36.5 -3.5q56 0 95.5 18t68 53.5t48.5 88.5t37 122z" />
    <glyph glyph-name="eng" unicode="&#x14b;" horiz-adv-x="1151" 
d="M915 106q-55 -264 -170.5 -396t-298.5 -132q-17 0 -36.5 2t-39 6t-38 9.5t-33.5 12.5l29 154q12 -8 28 -16t34 -14.5t36.5 -10.5t34.5 -4q103 0 174 89t108 269l109 525q4 16 8 37t7 42t5 38.5t2 27.5q0 76 -36.5 120t-108.5 44q-66 0 -131 -39t-120 -99t-94.5 -132
t-53.5 -139l-107 -500h-166l158 731l16 81.5l15 82t12 73.5l8 56h160q-5 -39 -12 -81.5t-12 -78.5q-6 -42 -13 -82h4q35 55 77.5 103.5t92 85t105 57.5t116.5 21q68 0 117 -20.5t81.5 -57.5t48 -89t15.5 -114q0 -15 -3.5 -41t-9 -56l-11 -59.5t-10.5 -50.5z" />
    <glyph glyph-name="Omacron" unicode="&#x14c;" horiz-adv-x="1544" 
d="M1487 852q0 -93 -17 -184.5t-49 -176.5t-78.5 -161t-105.5 -137q-48 -50 -104 -90.5t-120 -69t-137 -43.5t-157 -15q-135 0 -243 46.5t-183.5 128t-115.5 193.5t-40 243q0 208 67.5 373t188.5 286q98 98 226.5 155.5t291.5 57.5q132 0 238.5 -45t181.5 -126t115.5 -192
t40.5 -243zM1309 846q0 107 -29 192t-83 145t-130 92t-170 32q-111 0 -212 -48t-179 -133q-44 -48 -79.5 -110t-61 -132t-39 -146t-13.5 -154q0 -100 27.5 -184t80 -144.5t129.5 -94.5t177 -34q111 0 212.5 44.5t178.5 131.5q48 54 83.5 120.5t59.5 138t36 144.5t12 140z
M668 1567l16 108h508l-16 -108h-508z" />
    <glyph glyph-name="omacron" unicode="&#x14d;" horiz-adv-x="1096" 
d="M1018 645q0 -136 -38.5 -258t-111 -213.5t-176 -145t-233.5 -53.5q-88 0 -158.5 28t-120 80.5t-76 127t-26.5 168.5q0 141 40.5 263.5t114 213t176 142t226.5 51.5q87 0 157.5 -28t120.5 -80.5t77.5 -127t27.5 -168.5zM850 637q0 65 -16 115.5t-45 85t-70 53t-92 18.5
q-88 0 -159 -45t-120 -118.5t-75.5 -167t-26.5 -191.5q0 -62 15.5 -112.5t44 -86t70 -54.5t93.5 -19q89 0 160 44.5t120 118t75 167.5t26 192zM393 1219l16 108h508l-16 -108h-508z" />
    <glyph glyph-name="Obreve" unicode="&#x14e;" horiz-adv-x="1544" 
d="M1487 852q0 -93 -17 -184.5t-49 -176.5t-78.5 -161t-105.5 -137q-48 -50 -104 -90.5t-120 -69t-137 -43.5t-157 -15q-135 0 -243 46.5t-183.5 128t-115.5 193.5t-40 243q0 208 67.5 373t188.5 286q98 98 226.5 155.5t291.5 57.5q132 0 238.5 -45t181.5 -126t115.5 -192
t40.5 -243zM1309 846q0 107 -29 192t-83 145t-130 92t-170 32q-111 0 -212 -48t-179 -133q-44 -48 -79.5 -110t-61 -132t-39 -146t-13.5 -154q0 -100 27.5 -184t80 -144.5t129.5 -94.5t177 -34q111 0 212.5 44.5t178.5 131.5q48 54 83.5 120.5t59.5 138t36 144.5t12 140z
M1272 1822q-18 -60 -48.5 -107t-72 -80t-91.5 -50t-107 -17q-55 0 -100.5 16t-77 44.5t-49 68t-17.5 86.5q0 12 1.5 20t4.5 19h105q-2 -7 -2 -13v-14q0 -60 38.5 -93.5t100.5 -33.5q77 0 128 37.5t77 116.5h110z" />
    <glyph glyph-name="obreve" unicode="&#x14f;" horiz-adv-x="1096" 
d="M1018 645q0 -136 -38.5 -258t-111 -213.5t-176 -145t-233.5 -53.5q-88 0 -158.5 28t-120 80.5t-76 127t-26.5 168.5q0 141 40.5 263.5t114 213t176 142t226.5 51.5q87 0 157.5 -28t120.5 -80.5t77.5 -127t27.5 -168.5zM850 637q0 65 -16 115.5t-45 85t-70 53t-92 18.5
q-88 0 -159 -45t-120 -118.5t-75.5 -167t-26.5 -191.5q0 -62 15.5 -112.5t44 -86t70 -54.5t93.5 -19q89 0 160 44.5t120 118t75 167.5t26 192zM1003 1473q-18 -60 -48.5 -107t-72 -80t-91.5 -50t-107 -17q-55 0 -100.5 16t-77 44.5t-49 68t-17.5 86.5q0 12 1.5 20t4.5 19
h105q-2 -7 -2 -13v-14q0 -60 38.5 -93.5t100.5 -33.5q77 0 128 37.5t77 116.5h110z" />
    <glyph glyph-name="Rcommaaccent" unicode="&#x156;" horiz-adv-x="1192" 
d="M1169 1079q0 -93 -32.5 -168t-89.5 -129t-136 -86.5t-172 -40.5v-4q47 -15 82.5 -63t57.5 -129l120 -459h-184l-106 428q-23 94 -73.5 138t-133.5 44h-125l-131 -610h-172l303 1434h395q105 0 180 -28t123 -76.5t71 -113t23 -137.5zM993 1061q0 48 -15 88.5t-46 70
t-79 46t-114 16.5h-221l-110 -520h198q105 0 178.5 25t120 66t67.5 95.5t21 112.5zM629 -119l-166 -260h-123l117 260h172z" />
    <glyph glyph-name="rcommaaccent" unicode="&#x157;" horiz-adv-x="727" 
d="M766 850h-4q-20 12 -52.5 23.5t-64.5 11.5q-58 0 -111 -37.5t-96.5 -99t-76 -140.5t-50.5 -162l-96 -446h-164l144 680l18 88t16.5 92t13.5 88t9 76h162q-3 -30 -7 -63.5l-8 -65t-8 -57t-6 -39.5h4q32 57 65 103t69.5 78.5t77.5 50.5t89 18q28 0 55.5 -5.5t49.5 -11.5z
M451 -119l-166 -260h-123l117 260h172z" />
    <glyph glyph-name="Scircumflex" unicode="&#x15c;" horiz-adv-x="1018" 
d="M991 1219q-25 18 -59.5 34t-74 28t-82.5 19t-85 7q-80 0 -134.5 -22.5t-87.5 -57t-47.5 -75.5t-14.5 -77q0 -47 13 -85t39 -73t67 -70t96 -75q62 -45 110.5 -89t82.5 -90.5t51.5 -98t17.5 -111.5q0 -37 -7.5 -81.5t-27 -89.5t-53.5 -88t-86.5 -76t-126.5 -53t-174 -20
q-56 0 -110 8t-102.5 21t-89 29.5t-69.5 32.5l29 174q32 -23 73 -43.5t87 -36t95 -24.5t97 -9q76 0 130.5 18t90 49.5t52 74.5t16.5 93q0 45 -14 81t-43 70.5t-73.5 70t-105.5 78.5q-49 35 -93.5 75.5t-78 88.5t-53 104.5t-19.5 122.5q0 82 30.5 155.5t90.5 129t148.5 88
t205.5 32.5q45 0 89.5 -5.5t86.5 -15t79.5 -21t66.5 -23.5zM904 1567l-114 231l-213 -231h-121l283 331h133l145 -331h-113z" />
    <glyph glyph-name="scircumflex" unicode="&#x15d;" horiz-adv-x="809" 
d="M725 844q-45 29 -101 47t-112 18q-94 0 -145.5 -43t-51.5 -114q0 -29 9.5 -53t28 -45.5t47 -41.5t65.5 -43q112 -65 161.5 -133.5t49.5 -154.5q0 -58 -21.5 -113.5t-68.5 -98t-121.5 -68.5t-181.5 -26q-30 0 -66 4t-72.5 12t-70 19.5t-58.5 26.5l33 156q20 -14 49.5 -28
t64 -25t72 -18t74.5 -7q100 0 149.5 40t49.5 111q0 26 -7.5 48t-26.5 44t-50 44.5t-78 50.5q-102 62 -150.5 129.5t-48.5 152.5q0 62 23 118.5t68.5 100t114.5 69.5t161 26q72 0 136.5 -14t109.5 -36zM730 1219l-114 231l-213 -231h-121l283 331h133l145 -331h-113z" />
    <glyph glyph-name="Tbar" unicode="&#x166;" horiz-adv-x="1073" 
d="M1190 1282h-408l-103 -489h244l-34 -152h-242l-135 -641h-172l136 641h-250l34 152h248l104 489h-417l32 152h996z" />
    <glyph glyph-name="tbar" unicode="&#x167;" horiz-adv-x="662" 
d="M690 885h-258l-44 -205h248l-28 -133h-248l-43 -205q-6 -31 -12 -67t-6 -58q0 -51 22.5 -73.5t71.5 -22.5q12 0 31 4t39 10t39.5 13.5l34.5 13.5l-31 -144q-35 -15 -79.5 -25.5t-84.5 -10.5q-57 0 -97 14.5t-65.5 41.5t-37 65.5t-11.5 86.5q0 29 5.5 67.5t13.5 70.5
l46 219h-164l28 133h164l44 205h-170l31 139h168l53 250q4 2 30.5 9.5l58 17l58 17.5t29.5 9l-63 -303h258z" />
    <glyph glyph-name="Utilde" unicode="&#x168;" horiz-adv-x="1411" 
d="M1247 563q-30 -140 -75.5 -249.5t-117 -184.5t-174.5 -114.5t-247 -39.5q-111 0 -198 35t-146 96t-90 144t-31 180q0 43 5.5 97t14.5 102l174 805h173l-173 -795l-8.5 -50t-8 -54t-5.5 -51t-2 -42q0 -80 24 -139t66.5 -98t100 -58.5t124.5 -19.5q85 0 152 24t118 75
t87.5 130t60.5 189l191 889h172zM1265 1806q-3 -45 -20.5 -85t-46 -70t-67 -47t-83.5 -17q-48 0 -80.5 14.5t-58 31.5l-49 31.5t-54.5 14.5q-51 0 -80.5 -33t-34.5 -79h-96q3 48 21.5 89t48.5 70t70.5 45.5t87.5 16.5q44 0 73.5 -15t54.5 -33.5t49.5 -33.5t57.5 -15
q22 0 41 9t34 24.5t24 36.5t12 45h96z" />
    <glyph glyph-name="utilde" unicode="&#x169;" horiz-adv-x="1143" 
d="M930 291q-9 -39 -16.5 -81l-14.5 -81t-12 -73l-8 -56h-160q5 39 11.5 81.5l12.5 78.5q7 42 13 82h-4q-35 -55 -77.5 -103.5t-92 -85t-105 -57.5t-115.5 -21q-66 0 -115.5 20.5t-82.5 57.5t-49.5 89t-16.5 116q0 13 4 39l9 56t11.5 59.5t10.5 50.5l119 561h166l-127 -600
q-4 -16 -8 -37t-7.5 -42t-5.5 -38.5t-2 -27.5q0 -75 36.5 -119.5t109.5 -44.5q44 0 88 18t85.5 48.5t78.5 71t67 86t51 93.5t31 92l107 500h165zM1034 1458q-3 -45 -20.5 -85t-46 -70t-67 -47t-83.5 -17q-48 0 -80.5 14.5t-58 31.5l-49 31.5t-54.5 14.5q-51 0 -80.5 -33
t-34.5 -79h-96q3 48 21.5 89t48.5 70t70.5 45.5t87.5 16.5q44 0 73.5 -15t54.5 -33.5t49.5 -33.5t57.5 -15q22 0 41 9t34 24.5t24 36.5t12 45h96z" />
    <glyph glyph-name="Umacron" unicode="&#x16a;" horiz-adv-x="1411" 
d="M1247 563q-30 -140 -75.5 -249.5t-117 -184.5t-174.5 -114.5t-247 -39.5q-111 0 -198 35t-146 96t-90 144t-31 180q0 43 5.5 97t14.5 102l174 805h173l-173 -795l-8.5 -50t-8 -54t-5.5 -51t-2 -42q0 -80 24 -139t66.5 -98t100 -58.5t124.5 -19.5q85 0 152 24t118 75
t87.5 130t60.5 189l191 889h172zM652 1566l16 108h508l-16 -108h-508z" />
    <glyph glyph-name="umacron" unicode="&#x16b;" horiz-adv-x="1143" 
d="M930 291q-9 -39 -16.5 -81l-14.5 -81t-12 -73l-8 -56h-160q5 39 11.5 81.5l12.5 78.5q7 42 13 82h-4q-35 -55 -77.5 -103.5t-92 -85t-105 -57.5t-115.5 -21q-66 0 -115.5 20.5t-82.5 57.5t-49.5 89t-16.5 116q0 13 4 39l9 56t11.5 59.5t10.5 50.5l119 561h166l-127 -600
q-4 -16 -8 -37t-7.5 -42t-5.5 -38.5t-2 -27.5q0 -75 36.5 -119.5t109.5 -44.5q44 0 88 18t85.5 48.5t78.5 71t67 86t51 93.5t31 92l107 500h165zM443 1219l16 108h508l-16 -108h-508z" />
    <glyph glyph-name="Ubreve" unicode="&#x16c;" horiz-adv-x="1411" 
d="M1247 563q-30 -140 -75.5 -249.5t-117 -184.5t-174.5 -114.5t-247 -39.5q-111 0 -198 35t-146 96t-90 144t-31 180q0 43 5.5 97t14.5 102l174 805h173l-173 -795l-8.5 -50t-8 -54t-5.5 -51t-2 -42q0 -80 24 -139t66.5 -98t100 -58.5t124.5 -19.5q85 0 152 24t118 75
t87.5 130t60.5 189l191 889h172zM1218 1821q-18 -60 -48.5 -107t-72 -80t-91.5 -50t-107 -17q-55 0 -100.5 16t-77 44.5t-49 68t-17.5 86.5q0 12 1.5 20t4.5 19h105q-2 -7 -2 -13v-14q0 -60 38.5 -93.5t100.5 -33.5q77 0 128 37.5t77 116.5h110z" />
    <glyph glyph-name="ubreve" unicode="&#x16d;" horiz-adv-x="1143" 
d="M930 291q-9 -39 -16.5 -81l-14.5 -81t-12 -73l-8 -56h-160q5 39 11.5 81.5l12.5 78.5q7 42 13 82h-4q-35 -55 -77.5 -103.5t-92 -85t-105 -57.5t-115.5 -21q-66 0 -115.5 20.5t-82.5 57.5t-49.5 89t-16.5 116q0 13 4 39l9 56t11.5 59.5t10.5 50.5l119 561h166l-127 -600
q-4 -16 -8 -37t-7.5 -42t-5.5 -38.5t-2 -27.5q0 -75 36.5 -119.5t109.5 -44.5q44 0 88 18t85.5 48.5t78.5 71t67 86t51 93.5t31 92l107 500h165zM1013 1473q-18 -60 -48.5 -107t-72 -80t-91.5 -50t-107 -17q-55 0 -100.5 16t-77 44.5t-49 68t-17.5 86.5q0 12 1.5 20t4.5 19
h105q-2 -7 -2 -13v-14q0 -60 38.5 -93.5t100.5 -33.5q77 0 128 37.5t77 116.5h110z" />
    <glyph glyph-name="Uogonek" unicode="&#x172;" horiz-adv-x="1411" 
d="M1247 563q-30 -140 -75.5 -249.5t-117 -184.5t-174.5 -115q-94 -35 -221 -39l-60 -58q-36 -36 -58 -65.5t-32 -54t-10 -47.5q0 -80 80 -80q23 0 48.5 8.5t41.5 16.5l-15 -103q-18 -9 -46 -15.5t-62 -6.5q-82 0 -122 41.5t-40 114.5q0 27 10 56.5t33 63t61 72.5
q29 29 70 62q-67 8 -123 30q-87 35 -146 96t-90 144t-31 180q0 43 5.5 97t14.5 102l174 805h173l-173 -795l-8.5 -50t-8 -54t-5.5 -51t-2 -42q0 -80 24 -139t66.5 -98t100 -58.5t124.5 -19.5q85 0 152 24t118 75t87.5 130t60.5 189l191 889h172z" />
    <glyph glyph-name="uogonek" unicode="&#x173;" horiz-adv-x="1143" 
d="M822 0q-52 -47 -88 -83t-58 -65.5t-32 -54t-10 -47.5q0 -80 80 -80q23 0 48.5 8.5t41.5 16.5l-15 -103q-18 -9 -46 -15.5t-62 -6.5q-82 0 -122 41.5t-40 114.5q0 27 10 56.5t33 63t61.5 72t96.5 82.5h-1q5 39 11.5 81.5l12.5 78.5q7 42 13 82h-4q-35 -55 -77.5 -103.5
t-92 -85t-105 -57.5t-115.5 -21q-66 0 -115.5 20.5t-82.5 57.5t-49.5 89t-16.5 116q0 13 4 39l9 56t11.5 59.5t10.5 50.5l119 561h166l-127 -600q-4 -16 -8 -37t-7.5 -42t-5.5 -38.5t-2 -27.5q0 -75 36.5 -119.5t109.5 -44.5q44 0 88 18t85.5 48.5t78.5 71t67 86t51 93.5
t31 92l107 500h165l-157 -733q-9 -39 -16.5 -81l-14.5 -81t-12 -73l-8 -56h-57z" />
    <glyph glyph-name="Wcircumflex" unicode="&#x174;" horiz-adv-x="1903" 
d="M1362 0h-178l-92 1063q-2 31 0.5 70t5.5 73h-4q-10 -32 -25 -72t-31 -69l-544 -1065h-183l-114 1434h178l74 -1092q2 -34 0 -73t-7 -70h4q5 14 12 32l15 37.5l16.5 38.5t16.5 35l557 1092h154l90 -1100q3 -28 2 -66t-4 -69h4q5 16 11.5 34.5t14 37l15 36t14.5 31.5
l526 1096h187zM1309 1567l-114 231l-213 -231h-121l283 331h133l145 -331h-113z" />
    <glyph glyph-name="wcircumflex" unicode="&#x175;" horiz-adv-x="1475" 
d="M1024 0h-162l-59 727q-1 9 -1 23t0.5 28t2 27.5t2.5 21.5h-4q-3 -10 -8 -23l-11 -27.5t-12.5 -28l-11.5 -23.5l-383 -725h-162l-90 1024h158l49 -766q2 -22 0.5 -47.5t-4.5 -48.5h6l18.5 51.5t20.5 48.5l399 762h146l57 -768q2 -23 -0.5 -49.5t-5.5 -46.5h8
q2 10 6.5 22.5l9.5 26t10.5 26.5t10.5 23l368 766h166zM1042 1219l-114 231l-213 -231h-121l283 331h133l145 -331h-113z" />
    <glyph glyph-name="Ycircumflex" unicode="&#x176;" horiz-adv-x="1135" 
d="M651 545l-114 -545h-172l114 541l-268 893h182l178 -660q7 -23 11.5 -46.5l7.5 -39.5h2q8 16 22 38.5l29 45.5l477 662h193zM919 1566l-114 231l-213 -231h-121l283 331h133l145 -331h-113z" />
    <glyph glyph-name="ycircumflex" unicode="&#x177;" horiz-adv-x="991" 
d="M367 -170q-46 -75 -93 -132.5t-98.5 -97.5t-110 -60.5t-128.5 -20.5q-23 0 -51.5 4.5t-45.5 9.5l31 145q15 -8 39 -13t47 -5q69 0 124.5 38t104.5 116l123 190l-186 1020h170l119 -786q3 -22 3.5 -42.5t-1.5 -35.5h6q5 12 15.5 34t23.5 42l454 788h181zM798 1219
l-114 231l-213 -231h-121l283 331h133l145 -331h-113z" />
    <glyph glyph-name="longs" unicode="&#x17f;" horiz-adv-x="600" 
d="M793 1374q-10 5 -24 9.5t-30 8.5t-33.5 6.5t-33.5 2.5q-82 0 -126.5 -53.5t-67.5 -159.5l-332 -1528h-166l336 1554q19 88 53 150t81 101t106.5 57t130.5 18q37 0 72.5 -6t60.5 -14z" />
    <glyph glyph-name="Aringacute" unicode="&#x1fa;" horiz-adv-x="1294" 
d="M999 0l-65 401h-608l-232 -401h-198l825 1384q-38 23 -62 63.5t-24 94.5q0 45 16.5 82t45 63t66.5 40t81 14q45 0 82 -14.5t64 -40t42 -61t15 -77.5q0 -59 -31 -104t-80 -68l240 -1376h-177zM954 1548q0 25 -9 45.5t-24.5 35t-36 22.5t-44.5 8q-51 0 -82 -31.5t-31 -79.5
q0 -55 31.5 -84.5t81.5 -29.5q49 0 81.5 32.5t32.5 81.5zM815 1163q-1 10 -1.5 23t-0.5 26v26v22h-4q-3 -9 -8 -21.5t-11 -26t-12.5 -26.5l-11.5 -23l-354 -610h495zM875 1802h-123l289 327h161z" />
    <glyph glyph-name="aringacute" unicode="&#x1fb;" horiz-adv-x="1110" 
d="M905 328q-8 -38 -15.5 -85.5t-13 -94t-9 -86.5t-3.5 -62h-170q1 20 3 48t5.5 58l7 59t7.5 50h-4q-31 -49 -63 -92.5t-71 -76.5t-87 -52t-113 -19q-67 0 -122.5 24t-95.5 71.5t-61.5 119t-21.5 166.5q0 58 12 132t40.5 151t76 150.5t118 131.5t166.5 93t222 35
q80 0 165 -12t169 -29zM858 889q-35 8 -82 14t-88 6q-87 0 -153.5 -27.5t-115.5 -72t-82.5 -102.5t-53.5 -118.5t-28.5 -119.5t-8.5 -107q0 -57 10 -102.5t31.5 -77.5t55 -49.5t79.5 -17.5q50 0 93.5 20.5t81.5 55.5t69 81t56 97.5t42.5 105t28.5 103.5zM934 1374
q0 -42 -16 -78t-44 -63t-66 -42t-81 -15t-80 13.5t-64.5 38.5t-43 60t-15.5 78q0 46 16.5 83t44.5 62.5t66.5 39.5t81.5 14q45 0 82 -14t63.5 -39.5t41 -60.5t14.5 -77zM842 1372q0 25 -9 45.5t-24.5 35t-36.5 22.5t-45 8q-49 0 -80.5 -31.5t-31.5 -79.5q0 -54 32 -84.5
t80 -30.5q25 0 46 9t36.5 25t24 36.5t8.5 44.5zM788 1660h-123l289 327h161z" />
    <glyph glyph-name="AEacute" unicode="&#x1fc;" horiz-adv-x="1751" 
d="M1800 1280h-555l-104 -487h514l-33 -152h-514l-104 -489h587l-30 -152h-760l86 401h-508l-293 -401h-207l1067 1434h887zM1016 1280l-522 -723h426l151 723h-55zM1271 1567h-123l289 327h161z" />
    <glyph glyph-name="aeacute" unicode="&#x1fd;" horiz-adv-x="1692" 
d="M1655 784q0 -81 -36 -147.5t-119 -114t-220 -73.5t-338 -27q0 -11 -1 -20.5t-1 -18.5q0 -54 14.5 -102.5t46 -85t81.5 -58.5t120 -22q69 0 151.5 26.5t157.5 75.5l-30 -162q-56 -32 -131.5 -56t-169.5 -24q-90 0 -159 25.5t-117 70.5t-75 107.5t-34 136.5h-4
q-36 -64 -80 -125t-97.5 -109t-116.5 -77t-137 -29q-76 0 -129.5 27.5t-87.5 76.5t-49.5 116.5t-15.5 146.5q0 71 16.5 151t51 158.5t88.5 150.5t129.5 127t174 87.5t220.5 32.5q96 0 172.5 -22.5t136.5 -51.5q56 35 122.5 54.5t147.5 19.5q64 0 121.5 -18t101 -52
t69.5 -83.5t26 -111.5zM1487 774q0 33 -13 58t-36.5 42.5t-55 26t-69.5 8.5q-61 0 -117.5 -24t-103.5 -69t-82 -109.5t-52 -145.5q144 0 245 15t164 42.5t91.5 67t28.5 88.5zM942 868q-17 8 -40 15.5t-49 13t-54 9t-54 3.5q-89 0 -161 -27t-128 -71.5t-96 -103t-65.5 -121
t-38 -125t-12.5 -115.5q0 -51 8.5 -93.5t25.5 -73t43.5 -47.5t63.5 -17q42 0 88 20.5t94.5 68t99 125.5t101.5 193l30 69l40 90t48.5 97t55.5 90zM1044 1219h-123l289 327h161z" />
    <glyph glyph-name="Oslashacute" unicode="&#x1fe;" horiz-adv-x="1544" 
d="M1384 1219q51 -79 77 -172.5t26 -198.5q0 -94 -17.5 -188t-52.5 -182.5t-87.5 -168.5t-121.5 -145q-94 -90 -215 -139.5t-280 -49.5q-68 0 -128 12.5t-112 34.5t-95 52t-77 65l-170 -168l-82 78l180 180q-43 76 -67.5 165t-24.5 192q0 208 69 372t187 283
q100 100 226.5 156.5t293.5 56.5q130 0 229.5 -41.5t168.5 -107.5l159 161l80 -80zM1190 1186q-51 52 -124 84.5t-163 32.5q-61 0 -117.5 -13t-106.5 -36t-94 -54.5t-79 -69.5q-46 -51 -82 -113.5t-60.5 -133t-37.5 -147.5t-13 -158q0 -62 12 -118t33 -106zM1309 850
q0 71 -14.5 132.5t-39.5 111.5l-833 -838q51 -63 127 -96t178 -33q106 0 198.5 37t164.5 108q52 51 93 117t69 141t42.5 156.5t14.5 163.5zM961 1567h-123l289 327h161z" />
    <glyph glyph-name="oslashacute" unicode="&#x1ff;" horiz-adv-x="1096" 
d="M979 838q19 -39 29 -88t10 -105q0 -142 -40.5 -264.5t-114 -212.5t-176.5 -141.5t-228 -51.5q-90 0 -161.5 29.5t-121.5 85.5l-156 -145l-75 82l170 157q-17 44 -27 91.5t-10 103.5q0 140 40.5 262t114 213t176.5 143t228 52q91 0 160.5 -30t120.5 -83l180 168l78 -82z
M799 823q-29 44 -73 65t-99 21q-88 0 -159 -45t-120 -118.5t-75.5 -168t-26.5 -194.5q0 -38 6 -70zM850 643q0 39 -6 70l-549 -512q26 -38 71.5 -62t102.5 -24q89 0 160 45t120 118.5t75 169t26 195.5zM695 1219h-123l289 327h161z" />
    <glyph glyph-name="anoteleia" unicode="&#x387;" horiz-adv-x="444" 
d="M336 623q0 -47 -33 -80t-80 -33q-46 0 -78 33t-32 80q0 46 32 79t78 33q47 0 80 -33t33 -79z" />
    <glyph glyph-name="Wgrave" unicode="&#x1e80;" horiz-adv-x="1903" 
d="M1362 0h-178l-92 1063q-2 31 0.5 70t5.5 73h-4q-10 -32 -25 -72t-31 -69l-544 -1065h-183l-114 1434h178l74 -1092q2 -34 0 -73t-7 -70h4q5 14 12 32l15 37.5l16.5 38.5t16.5 35l557 1092h154l90 -1100q3 -28 2 -66t-4 -69h4q5 16 11.5 34.5t14 37l15 36t14.5 31.5
l526 1096h187zM1200 1567l-239 327h153l207 -327h-121z" />
    <glyph glyph-name="wgrave" unicode="&#x1e81;" horiz-adv-x="1475" 
d="M1024 0h-162l-59 727q-1 9 -1 23t0.5 28t2 27.5t2.5 21.5h-4q-3 -10 -8 -23l-11 -27.5t-12.5 -28l-11.5 -23.5l-383 -725h-162l-90 1024h158l49 -766q2 -22 0.5 -47.5t-4.5 -48.5h6l18.5 51.5t20.5 48.5l399 762h146l57 -768q2 -23 -0.5 -49.5t-5.5 -46.5h8
q2 10 6.5 22.5l9.5 26t10.5 26.5t10.5 23l368 766h166zM904 1219l-239 327h153l207 -327h-121z" />
    <glyph glyph-name="Wacute" unicode="&#x1e82;" horiz-adv-x="1903" 
d="M1362 0h-178l-92 1063q-2 31 0.5 70t5.5 73h-4q-10 -32 -25 -72t-31 -69l-544 -1065h-183l-114 1434h178l74 -1092q2 -34 0 -73t-7 -70h4q5 14 12 32l15 37.5l16.5 38.5t16.5 35l557 1092h154l90 -1100q3 -28 2 -66t-4 -69h4q5 16 11.5 34.5t14 37l15 36t14.5 31.5
l526 1096h187zM1117 1567h-123l289 327h161z" />
    <glyph glyph-name="wacute" unicode="&#x1e83;" horiz-adv-x="1475" 
d="M1024 0h-162l-59 727q-1 9 -1 23t0.5 28t2 27.5t2.5 21.5h-4q-3 -10 -8 -23l-11 -27.5t-12.5 -28l-11.5 -23.5l-383 -725h-162l-90 1024h158l49 -766q2 -22 0.5 -47.5t-4.5 -48.5h6l18.5 51.5t20.5 48.5l399 762h146l57 -768q2 -23 -0.5 -49.5t-5.5 -46.5h8
q2 10 6.5 22.5l9.5 26t10.5 26.5t10.5 23l368 766h166zM907 1219h-123l289 327h161z" />
    <glyph glyph-name="Wdieresis" unicode="&#x1e84;" horiz-adv-x="1903" 
d="M1362 0h-178l-92 1063q-2 31 0.5 70t5.5 73h-4q-10 -32 -25 -72t-31 -69l-544 -1065h-183l-114 1434h178l74 -1092q2 -34 0 -73t-7 -70h4q5 14 12 32l15 37.5l16.5 38.5t16.5 35l557 1092h154l90 -1100q3 -28 2 -66t-4 -69h4q5 16 11.5 34.5t14 37l15 36t14.5 31.5
l526 1096h187zM1451 1665q0 -42 -29 -70t-70 -28q-40 0 -69 27.5t-29 70.5q0 21 8 39t21 31t30.5 20.5t36.5 7.5q21 0 39.5 -7.5t32 -21t21.5 -31t8 -38.5zM1066 1665q0 -21 -8 -38.5t-21.5 -31t-32 -21t-39.5 -7.5q-19 0 -37 7.5t-31.5 20.5t-21.5 31t-8 39t8 39t21.5 31
t31.5 20.5t37 7.5q21 0 39.5 -7.5t32 -21t21.5 -31t8 -38.5z" />
    <glyph glyph-name="wdieresis" unicode="&#x1e85;" horiz-adv-x="1475" 
d="M1024 0h-162l-59 727q-1 9 -1 23t0.5 28t2 27.5t2.5 21.5h-4q-3 -10 -8 -23l-11 -27.5t-12.5 -28l-11.5 -23.5l-383 -725h-162l-90 1024h158l49 -766q2 -22 0.5 -47.5t-4.5 -48.5h6l18.5 51.5t20.5 48.5l399 762h146l57 -768q2 -23 -0.5 -49.5t-5.5 -46.5h8
q2 10 6.5 22.5l9.5 26t10.5 26.5t10.5 23l368 766h166zM1180 1317q0 -42 -29 -70t-70 -28q-40 0 -69 27.5t-29 70.5q0 21 8 39t21 31t30.5 20.5t36.5 7.5q21 0 39.5 -7.5t32 -21t21.5 -31t8 -38.5zM795 1317q0 -21 -8 -38.5t-21.5 -31t-32 -21t-39.5 -7.5q-19 0 -37 7.5
t-31.5 20.5t-21.5 31t-8 39t8 39t21.5 31t31.5 20.5t37 7.5q21 0 39.5 -7.5t32 -21t21.5 -31t8 -38.5z" />
    <glyph glyph-name="Ygrave" unicode="&#x1ef2;" horiz-adv-x="1135" 
d="M651 545l-114 -545h-172l114 541l-268 893h182l178 -660q7 -23 11.5 -46.5l7.5 -39.5h2q8 16 22 38.5l29 45.5l477 662h193zM774 1567l-239 327h153l207 -327h-121z" />
    <glyph glyph-name="ygrave" unicode="&#x1ef3;" horiz-adv-x="991" 
d="M367 -170q-46 -75 -93 -132.5t-98.5 -97.5t-110 -60.5t-128.5 -20.5q-23 0 -51.5 4.5t-45.5 9.5l31 145q15 -8 39 -13t47 -5q69 0 124.5 38t104.5 116l123 190l-186 1020h170l119 -786q3 -22 3.5 -42.5t-1.5 -35.5h6q5 12 15.5 34t23.5 42l454 788h181zM686 1219
l-239 327h153l207 -327h-121z" />
    <glyph glyph-name="quotereversed" unicode="&#x201b;" horiz-adv-x="432" 
d="M246 1434h147l106 -447h-106z" />
    <glyph glyph-name="uni203E" unicode="&#x203e;" horiz-adv-x="850" 
d="M1024 1397h-850v119h850v-119z" />
    <glyph glyph-name="lira" unicode="&#x20a4;" horiz-adv-x="1104" 
d="M1100 1262q-42 27 -91.5 42t-103.5 15q-110 0 -186 -74.5t-111 -240.5l-21 -99h295l-31 -141h-295l-29 -136h297l-31 -141h-295l-9 -36q-23 -113 -83 -190.5t-154 -121.5h688l-29 -139h-901l31 135q119 34 189.5 115t95.5 199l7 38h-197l29 141h198l29 136h-198l29 141
h200l28 131q23 106 66.5 185.5t103 132t134 78.5t158.5 26q70 0 127 -12t93 -29z" />
    <glyph glyph-name="estimated" unicode="&#x212e;" horiz-adv-x="1229" 
d="M1144 530h-828l1 -370q120 -121 296 -121q255 0 396 246l71 -43q-96 -140 -196 -204q-115 -73 -270 -73q-237 0 -383 161t-146 404q0 245 139 402q146 164 387 164q244 0 387 -163q134 -152 146 -403zM912 604v297q-130 123 -303 123q-174 0 -293 -123v-297h596z" />
    <glyph glyph-name="oneeighth" unicode="&#x215b;" horiz-adv-x="1876" 
d="M174 584l25 112h182l127 592l-207 -55l27 125l348 96l-164 -758h190l-24 -112h-504zM1560 450q29 -14 53 -34t41.5 -44.5t27.5 -52.5t10 -58q0 -135 -87.5 -207.5t-246.5 -72.5q-63 0 -115 16t-90 45.5t-59 72t-21 96.5q0 49 17 88t47.5 70t73.5 54t94 39
q-48 29 -78 74.5t-30 99.5q0 65 26.5 110t69.5 72.5t97 40t108 12.5q59 0 106.5 -14t81 -39.5t51.5 -62t18 -81.5q0 -42 -15 -76.5t-41 -62t-62 -48.5t-77 -37zM1488 752q-74 0 -114.5 -32t-40.5 -83q0 -36 23.5 -66t84.5 -58q88 25 130 59.5t42 88.5q0 38 -32.5 64.5
t-92.5 26.5zM1415 401q-91 -26 -145.5 -69t-54.5 -114q0 -29 12 -51t32.5 -37t48.5 -22.5t60 -7.5q41 0 74.5 10.5t57 30t36.5 46t13 59.5q0 47 -32.5 88t-101.5 67zM457 0h-148l1164 1434h145z" />
    <glyph glyph-name="threeeighths" unicode="&#x215c;" horiz-adv-x="1876" 
d="M727 827q0 -44 -17 -91t-56 -85.5t-103 -63t-158 -24.5q-27 0 -61 3.5t-68 9.5t-63 15t-45 19l28 133q18 -12 43.5 -22.5t54.5 -19t60 -13t59 -4.5q53 0 89.5 12.5t59 33t32.5 46t10 51.5q0 30 -10.5 54t-34 41.5t-60 26.5t-88.5 9h-84l27 121h84q55 0 97 13t70 34.5
t42 49t14 55.5q0 43 -31 72.5t-100 29.5q-54 0 -102.5 -16t-93.5 -41l30 141q19 8 43 14.5t49.5 11.5t51.5 8t49 3q55 0 99.5 -14t76 -39.5t48.5 -62.5t17 -83q0 -86 -58 -144t-157 -83v-4q156 -41 156 -197zM1560 450q29 -14 53 -34t41.5 -44.5t27.5 -52.5t10 -58
q0 -135 -87.5 -207.5t-246.5 -72.5q-63 0 -115 16t-90 45.5t-59 72t-21 96.5q0 49 17 88t47.5 70t73.5 54t94 39q-48 29 -78 74.5t-30 99.5q0 65 26.5 110t69.5 72.5t97 40t108 12.5q59 0 106.5 -14t81 -39.5t51.5 -62t18 -81.5q0 -42 -15 -76.5t-41 -62t-62 -48.5t-77 -37z
M1488 752q-74 0 -114.5 -32t-40.5 -83q0 -36 23.5 -66t84.5 -58q88 25 130 59.5t42 88.5q0 38 -32.5 64.5t-92.5 26.5zM1415 401q-91 -26 -145.5 -69t-54.5 -114q0 -29 12 -51t32.5 -37t48.5 -22.5t60 -7.5q41 0 74.5 10.5t57 30t36.5 46t13 59.5q0 47 -32.5 88t-101.5 67z
M457 0h-148l1164 1434h145z" />
    <glyph glyph-name="fiveeighths" unicode="&#x215d;" horiz-adv-x="1876" 
d="M343 563q-30 0 -61 3t-60 8.5t-55.5 13.5t-46.5 18l28 132q45 -29 98.5 -42.5t96.5 -13.5q57 0 98.5 12.5t67.5 36t38.5 56t12.5 71.5q0 68 -43 102t-123 34q-18 0 -43.5 -1t-51 -2.5t-45.5 -2.5t-27 -2l96 452h457l-26 -124h-329l-42 -200q14 1 22 1h22
q59 0 109.5 -14.5t87.5 -44t57.5 -74.5t20.5 -105q0 -70 -23.5 -127.5t-69 -99t-112.5 -64.5t-154 -23zM1560 450q29 -14 53 -34t41.5 -44.5t27.5 -52.5t10 -58q0 -135 -87.5 -207.5t-246.5 -72.5q-63 0 -115 16t-90 45.5t-59 72t-21 96.5q0 49 17 88t47.5 70t73.5 54t94 39
q-48 29 -78 74.5t-30 99.5q0 65 26.5 110t69.5 72.5t97 40t108 12.5q59 0 106.5 -14t81 -39.5t51.5 -62t18 -81.5q0 -42 -15 -76.5t-41 -62t-62 -48.5t-77 -37zM1488 752q-74 0 -114.5 -32t-40.5 -83q0 -36 23.5 -66t84.5 -58q88 25 130 59.5t42 88.5q0 38 -32.5 64.5
t-92.5 26.5zM1415 401q-91 -26 -145.5 -69t-54.5 -114q0 -29 12 -51t32.5 -37t48.5 -22.5t60 -7.5q41 0 74.5 10.5t57 30t36.5 46t13 59.5q0 47 -32.5 88t-101.5 67zM457 0h-148l1164 1434h145z" />
    <glyph glyph-name="seveneighths" unicode="&#x215e;" horiz-adv-x="1734" 
d="M237 584h-160l489 742h-419l25 118h595l-11 -53zM1418 450q29 -14 53 -34t41.5 -44.5t27.5 -52.5t10 -58q0 -135 -87.5 -207.5t-246.5 -72.5q-63 0 -115 16t-90 45.5t-59 72t-21 96.5q0 49 17 88t47.5 70t73.5 54t94 39q-48 29 -78 74.5t-30 99.5q0 65 26.5 110
t69.5 72.5t97 40t108 12.5q59 0 106.5 -14t81 -39.5t51.5 -62t18 -81.5q0 -42 -15 -76.5t-41 -62t-62 -48.5t-77 -37zM1346 752q-74 0 -114.5 -32t-40.5 -83q0 -36 23.5 -66t84.5 -58q88 25 130 59.5t42 88.5q0 38 -32.5 64.5t-92.5 26.5zM1273 401q-91 -26 -145.5 -69
t-54.5 -114q0 -29 12 -51t32.5 -37t48.5 -22.5t60 -7.5q41 0 74.5 10.5t57 30t36.5 46t13 59.5q0 47 -32.5 88t-101.5 67zM317 0h-148l1164 1434h145z" />
    <glyph glyph-name="glyph412" horiz-adv-x="842" 
d="M592 1395l-221 -260h-123l172 260h172z" />
    <glyph glyph-name="glyph413" horiz-adv-x="798" 
d="M508 -119l-166 -260h-123l117 260h172z" />
    <glyph glyph-name="uni037E" unicode="&#x37e;" horiz-adv-x="446" 
d="M422 936q0 -23 -9 -43.5t-24 -35.5t-35 -23.5t-43 -8.5t-43 8.5t-35 23.5t-23.5 35.5t-8.5 43.5q0 22 8.5 42t23.5 35.5t35 24.5t43 9t43.5 -9t35.5 -24.5t23.5 -35.5t8.5 -42zM27 -264h-129l202 491h164z" />
    <glyph glyph-name="tonos" unicode="&#x384;" horiz-adv-x="559" 
d="M262 1179h-86l166 358h160z" />
    <glyph glyph-name="dieresistonos" unicode="&#x385;" horiz-adv-x="559" 
d="M645 1322q0 -41 -29 -69.5t-71 -28.5q-40 0 -68.5 28t-28.5 70t28.5 70t68.5 28q41 0 70.5 -28.5t29.5 -69.5zM160 1322q0 -41 -29 -69.5t-71 -28.5q-40 0 -69.5 28t-29.5 70t29.5 70t69.5 28q41 0 70.5 -28.5t29.5 -69.5zM262 1188h-86l166 358h160z" />
    <glyph glyph-name="Alphatonos" unicode="&#x386;" horiz-adv-x="1294" 
d="M999 0l-65 401h-608l-232 -401h-198l854 1434h176l250 -1434h-177zM815 1163q-1 10 -1.5 23t-0.5 26v26v22h-4q-3 -9 -8 -21.5t-11 -26t-12.5 -26.5l-11.5 -23l-354 -610h495zM221 1077h-86l166 358h160z" />
    <glyph glyph-name="Epsilontonos" unicode="&#x388;" horiz-adv-x="1147" 
d="M1196 1282h-553l-104 -489h512l-33 -152h-512l-105 -489h588l-30 -152h-760l303 1434h727zM153 1077h-86l166 358h160z" />
    <glyph glyph-name="Etatonos" unicode="&#x389;" horiz-adv-x="1575" 
d="M1276 0h-172l137 647h-733l-135 -647h-174l303 1434h174l-135 -629h733l135 629h172zM153 1077h-86l166 358h160z" />
    <glyph glyph-name="Iotatonos" unicode="&#x38a;" horiz-adv-x="670" 
d="M371 0h-172l303 1434h174zM153 1077h-86l166 358h160z" />
    <glyph glyph-name="Omicrontonos" unicode="&#x38c;" horiz-adv-x="1624" 
d="M1567 852q0 -93 -17 -184.5t-49 -176.5t-78.5 -161t-105.5 -137q-48 -50 -104 -90.5t-120 -69t-137 -43.5t-157 -15q-135 0 -243 46.5t-183.5 128t-115.5 193.5t-40 243q0 208 67.5 373t188.5 286q98 98 226.5 155.5t291.5 57.5q132 0 238.5 -45t181.5 -126t115.5 -192
t40.5 -243zM1389 846q0 107 -29 192t-83 145t-130 92t-170 32q-111 0 -212 -48t-179 -133q-44 -48 -79.5 -110t-61 -132t-39 -146t-13.5 -154q0 -100 27.5 -184t80 -144.5t129.5 -94.5t177 -34q111 0 212.5 44.5t178.5 131.5q48 54 83.5 120.5t59.5 138t36 144.5t12 140z
M153 1077h-86l166 358h160z" />
    <glyph glyph-name="Upsilontonos" unicode="&#x38e;" horiz-adv-x="1375" 
d="M891 545l-114 -545h-172l114 541l-268 893h182l178 -660q7 -23 11.5 -46.5l7.5 -39.5h2q8 16 22 38.5l29 45.5l477 662h193zM153 1077h-86l166 358h160z" />
    <glyph glyph-name="Omegatonos" unicode="&#x38f;" horiz-adv-x="1678" 
d="M1642 893q0 -136 -41 -251t-109 -209t-157.5 -165.5t-187.5 -120.5h339l-30 -147h-516l32 162q99 51 186.5 120t152 157.5t102 197.5t37.5 240q0 96 -29.5 175t-85 135.5t-135 88t-178.5 31.5q-130 0 -239.5 -49t-189 -137t-124 -210.5t-44.5 -269.5q0 -88 16 -157
t45 -126t69 -104t88 -92l-33 -162h-516l29 147h356q-42 35 -85.5 84t-78 113t-56.5 141.5t-22 169.5q0 181 61 329t168 253.5t251.5 163t312.5 57.5q146 0 259.5 -44t192 -120t119.5 -179t41 -222zM153 1077h-86l166 358h160z" />
    <glyph glyph-name="iotadieresistonos" unicode="&#x390;" horiz-adv-x="546" 
d="M429 4q-25 -8 -56.5 -13t-62.5 -5q-52 0 -90 13.5t-62.5 38.5t-36.5 59t-12 75q0 15 2 34t5 39t7 38.5l7 31.5l149 709h166l-150 -713q-3 -12 -6 -27t-5 -30t-3.5 -27.5t-1.5 -19.5q0 -27 9 -43.5t23 -25.5t30.5 -12t31.5 -3q26 0 45.5 3t36.5 9zM758 1322
q0 -41 -29 -69.5t-71 -28.5q-40 0 -68.5 28t-28.5 70t28.5 70t68.5 28q41 0 70.5 -28.5t29.5 -69.5zM273 1322q0 -41 -29 -69.5t-71 -28.5q-40 0 -69.5 28t-29.5 70t29.5 70t69.5 28q41 0 70.5 -28.5t29.5 -69.5zM375 1188h-86l166 358h160z" />
    <glyph glyph-name="Alpha" unicode="&#x391;" horiz-adv-x="1294" 
d="M999 0l-65 401h-608l-232 -401h-198l854 1434h176l250 -1434h-177zM815 1163q-1 10 -1.5 23t-0.5 26v26v22h-4q-3 -9 -8 -21.5t-11 -26t-12.5 -26.5l-11.5 -23l-354 -610h495z" />
    <glyph glyph-name="Beta" unicode="&#x392;" horiz-adv-x="1174" 
d="M1126 1124q0 -67 -19 -128.5t-58.5 -111.5t-101 -86.5t-146.5 -52.5v-4q62 -10 108.5 -36.5t77.5 -64.5t46.5 -85.5t15.5 -101.5q0 -111 -40.5 -195.5t-112.5 -141.5t-170.5 -86.5t-213.5 -29.5h-438l303 1434h395q86 0 152 -24t111 -66t68 -98.5t23 -121.5zM950 1092
q0 38 -12 72t-38.5 60.5t-69 42t-103.5 15.5h-209l-100 -463h188q86 0 150.5 20t107 56t63.5 86t21 111h2zM872 442q0 105 -73 165.5t-224 60.5h-190l-106 -516h231q94 0 162 20.5t112.5 58.5t66 91.5t21.5 119.5z" />
    <glyph glyph-name="Epsilon" unicode="&#x395;" horiz-adv-x="1022" 
d="M1071 1282h-553l-104 -489h512l-33 -152h-512l-105 -489h588l-30 -152h-760l303 1434h727z" />
    <glyph glyph-name="Zeta" unicode="&#x396;" horiz-adv-x="1167" 
d="M1309 1391l-1082 -1239h799l-33 -152h-1071l10 51l1074 1231h-744l31 152h1026z" />
    <glyph glyph-name="Eta" unicode="&#x397;" horiz-adv-x="1450" 
d="M1151 0h-172l137 647h-733l-135 -647h-174l303 1434h174l-135 -629h733l135 629h172z" />
    <glyph glyph-name="Iota" unicode="&#x399;" horiz-adv-x="545" 
d="M246 0h-172l303 1434h174z" />
    <glyph glyph-name="Kappa" unicode="&#x39a;" horiz-adv-x="1228" 
d="M573 723l498 -723h-209l-434 653l-15 27t-14 27h-4l-149 -707h-172l303 1434h174l-143 -674h4l23.5 25l23.5 24l659 625h228z" />
    <glyph glyph-name="Lambda" unicode="&#x39b;" horiz-adv-x="1343" 
d="M1001 0l-153 1149q-1 9 -2.5 24.5t-2.5 32.5l-2 32.5t-1 25.5h-6q-8 -20 -23.5 -52t-32.5 -61l-641 -1151h-196l829 1434h197l215 -1434h-181z" />
    <glyph glyph-name="Mu" unicode="&#x39c;" horiz-adv-x="1675" 
d="M1376 0h-167l204 962q12 57 31 129.5t44 155.5h-4q-12 -24 -30 -53.5t-37.5 -57l-35.5 -49.5t-23 -33l-513 -680h-82l-224 678q-2 12 -9.5 34.5t-14.5 50t-12.5 56.5t-5.5 54h-4q-6 -43 -19.5 -116t-33.5 -171l-204 -960h-162l304 1434h200l227 -682q15 -45 23.5 -84
t10.5 -68h6l39 70t59 86l515 678h222z" />
    <glyph glyph-name="Nu" unicode="&#x39d;" horiz-adv-x="1538" 
d="M1241 0h-186l-529 1149l-7 19.5t-8 24.5t-7 25t-4 19h-6l-2.5 -24.5t-3.5 -29.5t-4.5 -29.5l-4.5 -25.5l-239 -1128h-166l303 1434h201l507 -1125q5 -9 10 -21.5l10 -26l9.5 -26.5l7.5 -22h4q1 12 3 28l4 33.5t5 34.5l5 29l233 1096h170z" />
    <glyph glyph-name="Xi" unicode="&#x39e;" horiz-adv-x="1044" 
d="M1111 1275h-875l34 159h875zM839 648h-598l32 153h598zM867 0h-928l35 162h928z" />
    <glyph glyph-name="Omicron" unicode="&#x39f;" horiz-adv-x="1544" 
d="M1487 852q0 -93 -17 -184.5t-49 -176.5t-78.5 -161t-105.5 -137q-48 -50 -104 -90.5t-120 -69t-137 -43.5t-157 -15q-135 0 -243 46.5t-183.5 128t-115.5 193.5t-40 243q0 208 67.5 373t188.5 286q98 98 226.5 155.5t291.5 57.5q132 0 238.5 -45t181.5 -126t115.5 -192
t40.5 -243zM1309 846q0 107 -29 192t-83 145t-130 92t-170 32q-111 0 -212 -48t-179 -133q-44 -48 -79.5 -110t-61 -132t-39 -146t-13.5 -154q0 -100 27.5 -184t80 -144.5t129.5 -94.5t177 -34q111 0 212.5 44.5t178.5 131.5q48 54 83.5 120.5t59.5 138t36 144.5t12 140z
" />
    <glyph glyph-name="Pi" unicode="&#x3a0;" horiz-adv-x="1449" 
d="M1152 0h-172l271 1276h-736l-270 -1276h-171l303 1434h1078z" />
    <glyph glyph-name="Rho" unicode="&#x3a1;" horiz-adv-x="1178" 
d="M1176 1057q0 -106 -36 -199.5t-109.5 -163.5t-186.5 -110.5t-266 -40.5h-218l-114 -543h-172l303 1434h371q115 0 196.5 -31.5t133 -84t75 -120.5t23.5 -141zM999 1042q0 54 -18.5 98.5t-54.5 76t-89.5 48.5t-123.5 17h-195l-125 -588h201q106 0 182.5 26.5t126 73
t73 110t23.5 138.5z" />
    <glyph glyph-name="Sigma" unicode="&#x3a3;" horiz-adv-x="1057" 
d="M1155 1282h-663l303 -532l-608 -598h774l-31 -152h-1028l20 96l676 662l-340 600l15 76h913z" />
    <glyph glyph-name="Tau" unicode="&#x3a4;" horiz-adv-x="1077" 
d="M1190 1282h-408l-270 -1282h-172l272 1282h-417l32 152h996z" />
    <glyph glyph-name="Upsilon" unicode="&#x3a5;" horiz-adv-x="1135" 
d="M651 545l-114 -545h-172l114 541l-268 893h182l178 -660q7 -23 11.5 -46.5l7.5 -39.5h2q8 16 22 38.5l29 45.5l477 662h193z" />
    <glyph glyph-name="Chi" unicode="&#x3a7;" horiz-adv-x="1210" 
d="M1364 1434q-7 -9 -35 -42l-69 -82l-92 -108.5l-104 -121.5l-104.5 -122.5l-93.5 -109.5l-71 -83.5t-37 -45.5q3 -10 17 -44l35 -83.5l46.5 -110l52 -123l52 -122.5l46.5 -109.5l35.5 -83t18.5 -43.5h-195l-213 549q-2 5 -5 14.5t-6 20.5t-5 21.5t-4 17.5h-4l-8 -15.5
l-11.5 -21t-13.5 -22.5t-14 -19l-455 -545h-215l36 41.5l72 82.5l96 109.5l108 124l109 125l98.5 113l76.5 88l43 49.5q-5 15 -20.5 51.5l-37 86l-47 108l-52 118.5l-51.5 117l-45 103.5l-33.5 77.5t-16.5 39h198l203 -535q3 -7 6.5 -16.5t6.5 -20l6 -20.5t4 -17h4l8 15.5
t11.5 20l13.5 21.5t14 19l440 533h201z" />
    <glyph glyph-name="Psi" unicode="&#x3a8;" horiz-adv-x="1655" 
d="M1585 907q-26 -123 -73.5 -219t-121 -161.5t-174 -99.5t-233.5 -34h-105l-82 -393h-167l82 393h-74q-105 0 -185 28.5t-134 79.5t-81.5 122.5t-27.5 158.5q0 31 4 64.5t10 64.5l111 523h168l-109 -514q-6 -31 -10 -62t-4 -57q0 -121 70.5 -188.5t219.5 -67.5h73l190 889
h168l-190 -889h92q87 0 155 20t119.5 65t87 117t57.5 177l107 510h168z" />
    <glyph glyph-name="Omega" unicode="&#x3a9;" horiz-adv-x="1578" 
d="M1542 893q0 -136 -41 -251t-109 -209t-157.5 -165.5t-187.5 -120.5h339l-30 -147h-516l32 162q99 51 186.5 120t152 157.5t102 197.5t37.5 240q0 96 -29.5 175t-85 135.5t-135 88t-178.5 31.5q-130 0 -239.5 -49t-189 -137t-124 -210.5t-44.5 -269.5q0 -88 16 -157
t45 -126t69 -104t88 -92l-33 -162h-516l29 147h356q-42 35 -85.5 84t-78 113t-56.5 141.5t-22 169.5q0 181 61 329t168 253.5t251.5 163t312.5 57.5q146 0 259.5 -44t192 -120t119.5 -179t41 -222z" />
    <glyph glyph-name="Iotadieresis" unicode="&#x3aa;" horiz-adv-x="545" 
d="M246 0h-172l303 1434h174zM787 1665q0 -42 -29 -70t-70 -28q-40 0 -69 27.5t-29 70.5q0 21 8 39t21 31t30.5 20.5t36.5 7.5q21 0 39.5 -7.5t32 -21t21.5 -31t8 -38.5zM402 1665q0 -21 -8 -38.5t-21.5 -31t-32 -21t-39.5 -7.5q-19 0 -37 7.5t-31.5 20.5t-21.5 31t-8 39
t8 39t21.5 31t31.5 20.5t37 7.5q21 0 39.5 -7.5t32 -21t21.5 -31t8 -38.5z" />
    <glyph glyph-name="Upsilondieresis" unicode="&#x3ab;" horiz-adv-x="1135" 
d="M651 545l-114 -545h-172l114 541l-268 893h182l178 -660q7 -23 11.5 -46.5l7.5 -39.5h2q8 16 22 38.5l29 45.5l477 662h193zM1071 1665q0 -42 -29 -70t-70 -28q-40 0 -69 27.5t-29 70.5q0 21 8 39t21 31t30.5 20.5t36.5 7.5q21 0 39.5 -7.5t32 -21t21.5 -31t8 -38.5z
M686 1665q0 -21 -8 -38.5t-21.5 -31t-32 -21t-39.5 -7.5q-19 0 -37 7.5t-31.5 20.5t-21.5 31t-8 39t8 39t21.5 31t31.5 20.5t37 7.5q21 0 39.5 -7.5t32 -21t21.5 -31t8 -38.5z" />
    <glyph glyph-name="alphatonos" unicode="&#x3ac;" horiz-adv-x="1282" 
d="M1286 1024l-38 -69l-51 -89.5l-58 -100l-58.5 -100l-53.5 -90l-42 -70.5q6 -100 15.5 -169t23.5 -112t34 -62t48 -19q12 0 28.5 2t28.5 7l-43 -154q-15 -5 -33 -8.5t-43 -3.5q-41 0 -74 17.5t-56.5 56.5t-37.5 103t-18 157h-2q-95 -175 -206.5 -260.5t-252.5 -85.5
q-73 0 -132.5 25t-100.5 73.5t-63.5 119.5t-22.5 163q0 94 21 182t59 165.5t91 141t116.5 109.5t135.5 71t148 25q73 0 125 -27t87 -73t55.5 -106t29.5 -126h2l38 70l43 82l42.5 82.5l35.5 72.5h179v0zM649 915q-81 0 -153 -46.5t-127 -124t-87 -177.5t-32 -208
q0 -55 12 -99.5t33.5 -76.5t53 -49.5t70.5 -17.5q94 0 186.5 74.5t182.5 233.5l15 27.5l18 32.5q11 18 21 38q-4 76 -15.5 147t-33.5 125.5t-57 87.5t-87 33zM683 1179h-86l166 358h160z" />
    <glyph glyph-name="epsilontonos" unicode="&#x3ad;" horiz-adv-x="936" 
d="M887 834q-24 17 -57.5 30.5t-71 24t-75.5 16t-71 5.5q-51 0 -99.5 -8.5t-86 -27.5t-60 -49.5t-22.5 -74.5q0 -48 23 -78t59.5 -47.5t81 -24t86.5 -6.5h31.5t42.5 0.5t41.5 1.5t29.5 2l-24 -139q-7 2 -46.5 3t-95.5 1q-80 0 -147 -10t-115.5 -33t-75.5 -60t-27 -92
q0 -34 13.5 -62.5t42.5 -49t75 -31.5t111 -11q89 0 182 24.5t176 66.5l-37 -168q-62 -26 -150 -44t-191 -18q-102 0 -176 21t-122.5 58.5t-71.5 88.5t-23 111q0 72 31 122.5t79 84t105.5 51.5t111.5 25l2 4q-37 9 -71.5 27t-61 44.5t-42 62t-15.5 79.5q0 81 37.5 137.5
t99.5 91.5t141.5 50.5t163.5 15.5q97 0 175 -16t124 -42zM620 1179h-86l166 358h160z" />
    <glyph glyph-name="etatonos" unicode="&#x3ae;" horiz-adv-x="1175" 
d="M1070 779q0 -19 -3 -45t-8 -54l-10 -55t-10 -47l-223 -1059h-164l221 1065l7.5 39t8 46l6.5 44.5t3 34.5q0 36 -9 65.5t-28 51t-47.5 33.5t-67.5 12q-47 0 -93.5 -21t-89 -55t-79.5 -78.5t-66.5 -92t-49.5 -94t-29 -85.5l-103 -484h-166l146 678l10 55l9 49.5t6.5 39.5
t2.5 24q0 59 -61 59q-9 0 -21.5 -1.5t-23.5 -4.5l26 129q16 5 45.5 7.5t56.5 2.5q65 0 103 -29.5t38 -85.5q0 -12 -2.5 -35t-6.5 -47.5t-7 -46t-5 -29.5h4q42 63 90.5 115.5t102.5 90t113 58t122 20.5q62 0 109.5 -19.5t79 -54.5t47.5 -85t16 -111zM709 1179h-86l166 358
h160z" />
    <glyph glyph-name="iotatonos" unicode="&#x3af;" horiz-adv-x="546" 
d="M429 4q-25 -8 -56.5 -13t-62.5 -5q-52 0 -90 13.5t-62.5 38.5t-36.5 59t-12 75q0 15 2 34t5 39t7 38.5l7 31.5l149 709h166l-150 -713q-3 -12 -6 -27t-5 -30t-3.5 -27.5t-1.5 -19.5q0 -27 9 -43.5t23 -25.5t30.5 -12t31.5 -3q26 0 45.5 3t36.5 9zM394 1179h-86l166 358
h160z" />
    <glyph glyph-name="upsilondieresistonos" unicode="&#x3b0;" horiz-adv-x="1202" 
d="M1100 737q0 -92 -12.5 -184t-41 -177t-73.5 -158t-109.5 -127t-150 -85t-195.5 -31q-99 0 -172 23.5t-120.5 67.5t-71 106.5t-23.5 140.5q0 32 4.5 69t14.5 77l47 219q5 28 10.5 55l10 50t7.5 40t3 24q0 59 -63 59q-8 0 -20 -1t-23 -3l26 127q16 5 41 7.5t54 2.5
q85 0 123 -34t38 -93q0 -23 -8.5 -72.5t-22.5 -112.5l-58 -260q-6 -34 -11 -71t-5 -60q0 -113 60 -168t176 -55q73 0 130.5 25t100 69t72 104t48 129t26.5 144.5t8 150.5q0 152 -35 289h182q16 -63 24.5 -137t8.5 -150zM1026 1322q0 -41 -29 -69.5t-71 -28.5q-40 0 -68.5 28
t-28.5 70t28.5 70t68.5 28q41 0 70.5 -28.5t29.5 -69.5zM541 1322q0 -41 -29 -69.5t-71 -28.5q-40 0 -69.5 28t-29.5 70t29.5 70t69.5 28q41 0 70.5 -28.5t29.5 -69.5zM643 1188h-86l166 358h160z" />
    <glyph glyph-name="beta" unicode="&#x3b2;" horiz-adv-x="1149" 
d="M1117 1216q0 -87 -26 -153.5t-73.5 -115.5t-113.5 -82t-146 -52v-4q59 -16 110 -48t88.5 -77.5t59 -103.5t21.5 -126q0 -126 -41 -216.5t-111 -148t-162 -85t-194 -27.5q-47 0 -91 7.5t-83 19.5t-71.5 27t-55.5 30l-117 -542h-166l334 1570q48 220 165.5 333.5
t313.5 113.5q81 0 147 -23t113 -65t73 -101t26 -131zM941 1204q0 91 -52.5 142t-140.5 51q-120 0 -194 -76t-111 -246l-184 -871q25 -17 55 -33t64.5 -28.5t72.5 -20t79 -7.5q71 0 132 20t105.5 61.5t70 105.5t25.5 152q0 68 -23 118.5t-64.5 86t-99.5 57t-127 29.5l25 125
q92 13 161 38t115 64.5t68.5 96.5t22.5 135z" />
    <glyph glyph-name="gamma" unicode="&#x3b3;" horiz-adv-x="1063" 
d="M1085 1024q-5 -29 -11 -58l-12 -57q-34 -135 -93 -258t-140 -240.5t-183 -232t-221 -231.5q-12 -48 -24.5 -107l-25 -117.5l-24 -112t-20.5 -91.5h-172l27 106l30 127l29.5 131.5l26.5 120.5q0 133 -15.5 268t-42.5 265.5t-64 254t-81 232.5h184q76 -212 117 -435
t49 -446h4q149 164 262.5 331t175.5 341q19 53 30 104t17 105h177v0z" />
    <glyph glyph-name="zeta" unicode="&#x3b6;" horiz-adv-x="905" 
d="M1075 1391l-203 -150.5t-192.5 -149t-170 -150.5t-136.5 -157t-90.5 -167t-32.5 -181q0 -67 20.5 -113.5t56.5 -78.5t86 -52.5t109 -36.5t111.5 -37.5t92 -52.5t62.5 -73.5t23 -100.5q0 -32 -9 -61.5t-23.5 -55.5t-32 -47t-35.5 -36h-162q16 13 33.5 31.5t32.5 40.5
t24.5 45.5t9.5 47.5q0 33 -16 58t-50 44.5t-87 37t-127 35.5q-71 18 -126 48.5t-93 74.5t-58 104.5t-20 138.5q0 103 32.5 195.5t89.5 177.5t134.5 163.5t168.5 153t190.5 147l199.5 144.5v4h-451l29 134h639z" />
    <glyph glyph-name="eta" unicode="&#x3b7;" horiz-adv-x="1175" 
d="M1070 779q0 -19 -3 -45t-8 -54l-10 -55t-10 -47l-223 -1059h-164l221 1065l7.5 39t8 46l6.5 44.5t3 34.5q0 36 -9 65.5t-28 51t-47.5 33.5t-67.5 12q-47 0 -93.5 -21t-89 -55t-79.5 -78.5t-66.5 -92t-49.5 -94t-29 -85.5l-103 -484h-166l146 678l10 55l9 49.5t6.5 39.5
t2.5 24q0 59 -61 59q-9 0 -21.5 -1.5t-23.5 -4.5l26 129q16 5 45.5 7.5t56.5 2.5q65 0 103 -29.5t38 -85.5q0 -12 -2.5 -35t-6.5 -47.5t-7 -46t-5 -29.5h4q42 63 90.5 115.5t102.5 90t113 58t122 20.5q62 0 109.5 -19.5t79 -54.5t47.5 -85t16 -111z" />
    <glyph glyph-name="theta" unicode="&#x3b8;" horiz-adv-x="1171" 
d="M1155 1092q0 -31 -2.5 -71.5t-7 -85.5t-12 -92.5t-17.5 -94.5q-38 -184 -98 -327.5t-140 -242.5t-178.5 -151t-214.5 -52q-84 0 -152.5 28t-118 86t-76.5 147t-27 210q0 31 2 68t6.5 78t11 84.5t14.5 85.5q36 179 96.5 323t142.5 245t185 155.5t224 54.5q90 0 158 -31.5
t113.5 -90t68 -141t22.5 -185.5zM993 1087q0 69 -11.5 127t-37.5 100.5t-66.5 66.5t-99.5 24q-81 0 -150.5 -44.5t-126 -121.5t-98.5 -181t-67 -224h627q14 66 22 130.5t8 122.5zM307 702q-14 -72 -21 -134.5t-7 -116.5q0 -171 56 -255.5t163 -84.5q147 0 260 148t176 443
h-627z" />
    <glyph glyph-name="iota" unicode="&#x3b9;" horiz-adv-x="546" 
d="M429 4q-25 -8 -56.5 -13t-62.5 -5q-52 0 -90 13.5t-62.5 38.5t-36.5 59t-12 75q0 15 2 34t5 39t7 38.5l7 31.5l149 709h166l-150 -713q-3 -12 -6 -27t-5 -30t-3.5 -27.5t-1.5 -19.5q0 -27 9 -43.5t23 -25.5t30.5 -12t31.5 -3q26 0 45.5 3t36.5 9z" />
    <glyph glyph-name="kappa" unicode="&#x3ba;" horiz-adv-x="1046" 
d="M1048 893q-8 2 -19.5 3t-30.5 1q-22 0 -44 -6.5t-48 -22.5t-59 -43l-78 -67l-158 -141l323 -617h-187l-254 510l-210 -191l-68 -319h-166l217 1024h166l-108 -518l364 346q47 45 88.5 79t79.5 57.5t75 35.5t76 12q19 0 36.5 -1t33.5 -5z" />
    <glyph glyph-name="lambda" unicode="&#x3bb;" horiz-adv-x="1020" 
d="M733 0l-111 842l-524 -842h-189l678 1030l-26 170q-5 32 -14 64t-26.5 57.5t-46 41t-73.5 15.5q-28 0 -60 -6t-57 -14l29 145q35 8 71 11.5t64 3.5q70 0 118 -21t79.5 -60t49 -94.5t27.5 -125.5l177 -1217h-166z" />
    <glyph glyph-name="mu" unicode="&#x3bc;" horiz-adv-x="1175" 
d="M95 -481h-162l319 1505h166l-127 -600q-4 -16 -8 -37t-7.5 -42t-5.5 -38.5t-2 -27.5q0 -75 36.5 -119.5t109.5 -44.5q44 0 88 18t85.5 48.5t78 71t66.5 86t51.5 93.5t31.5 92l107 500h165l-153 -713q-7 -31 -12 -65t-5 -54q0 -22 8 -37t20 -24t27 -12.5t30 -3.5
q18 0 36.5 3t35.5 9l-26 -131q-25 -8 -57 -13t-63 -5q-96 0 -138 45.5t-42 120.5q0 9 0.5 22.5t2 27.5l3 27l2.5 21h-4q-31 -56 -70.5 -104.5t-86 -84.5t-100.5 -57t-114 -21t-105 27t-62 71z" />
    <glyph glyph-name="nu" unicode="&#x3bd;" horiz-adv-x="1037" 
d="M1039 979q0 -91 -28.5 -185t-76 -186t-108.5 -180t-126.5 -166.5t-130 -145t-118.5 -116.5h-168l-200 1024h170l159 -877q45 44 95.5 101t100.5 122.5t95.5 137.5t80.5 147t55.5 151.5t20.5 150.5q0 14 -1 32t-3 35h180q2 -10 2.5 -24t0.5 -21z" />
    <glyph glyph-name="xi" unicode="&#x3be;" horiz-adv-x="940" 
d="M1008 1389q-56 -10 -116 -23.5t-117 -33t-108 -44t-89.5 -57t-61 -72t-22.5 -88.5q0 -44 18 -78t49 -59.5t71 -42t83 -25.5q32 3 74 4.5t77 1.5l-28 -151q-23 2 -51 3t-54 1q-114 0 -205.5 -29t-156.5 -77.5t-100 -111t-35 -130.5q0 -52 18 -86.5t51.5 -58.5t82 -41.5
t108.5 -36.5q59 -18 114.5 -39t98.5 -50.5t69.5 -71t26.5 -102.5q0 -32 -8 -61.5t-21.5 -55.5t-31 -47t-36.5 -36h-163q16 13 33.5 31t32 38.5t24 43.5t9.5 47q0 34 -16.5 58.5t-51 43.5t-87.5 36t-127 36q-71 18 -127 45t-94.5 66t-59 92.5t-20.5 125.5q0 83 36.5 159.5
t101 139.5t151.5 109t189 69q-37 11 -73 31t-65 48.5t-47 66.5t-18 84q0 72 34.5 126t88 92t117.5 63t123 38v5q-57 0 -114 -1q-49 -1 -104 -1.5t-102 -0.5l29 134h628z" />
    <glyph glyph-name="omicron" unicode="&#x3bf;" horiz-adv-x="1096" 
d="M1018 645q0 -136 -38.5 -258t-111 -213.5t-176 -145t-233.5 -53.5q-88 0 -158.5 28t-120 80.5t-76 127t-26.5 168.5q0 141 40.5 263.5t114 213t176 142t226.5 51.5q87 0 157.5 -28t120.5 -80.5t77.5 -127t27.5 -168.5zM850 637q0 65 -16 115.5t-45 85t-70 53t-92 18.5
q-88 0 -159 -45t-120 -118.5t-75.5 -167t-26.5 -191.5q0 -62 15.5 -112.5t44 -86t70 -54.5t93.5 -19q89 0 160 44.5t120 118t75 167.5t26 192z" />
    <glyph glyph-name="rho" unicode="&#x3c1;" horiz-adv-x="1147" 
d="M1069 637q0 -144 -39 -265t-109.5 -209.5t-167.5 -138t-214 -49.5q-108 0 -186 41t-123 101h-4l-125 -597h-166l213 1006q57 261 187 392t349 131q96 0 168 -33.5t120.5 -90t72.5 -131t24 -157.5zM900 627q0 62 -14.5 113.5t-43.5 89.5t-72.5 59t-101.5 21
q-75 0 -132.5 -26t-100 -73.5t-71 -115t-46.5 -150.5l-60 -281q16 -28 41.5 -54.5t58.5 -47.5t74 -34t89 -13q81 0 150 38.5t120 107t80 162t29 204.5z" />
    <glyph glyph-name="sigma1" unicode="&#x3c2;" horiz-adv-x="932" 
d="M251 432q0 -67 21 -113t58 -77t88 -51t110 -36t111.5 -37.5t92 -52.5t62.5 -73.5t23 -100.5q0 -32 -9 -61.5t-23.5 -55.5t-32 -47t-35.5 -36h-162q16 13 33.5 31.5t32.5 40.5t24.5 45.5t9.5 47.5q0 33 -16 58t-50 44.5t-87 37t-127 35.5q-71 18 -126 48.5t-93 74.5
t-58 104.5t-20 138.5q0 126 39.5 243.5t113.5 208.5t182 145.5t244 54.5q43 0 82 -6t71 -16t57 -21.5t40 -22.5l-37 -162q-42 37 -101.5 62.5t-131.5 25.5q-69 0 -124.5 -24t-98.5 -63t-73.5 -89.5t-50.5 -103.5t-29.5 -104.5t-9.5 -92.5z" />
    <glyph glyph-name="upsilon" unicode="&#x3c5;" horiz-adv-x="1202" 
d="M1100 737q0 -92 -12.5 -184t-41 -177t-73.5 -158t-109.5 -127t-150 -85t-195.5 -31q-99 0 -172 23.5t-120.5 67.5t-71 106.5t-23.5 140.5q0 32 4.5 69t14.5 77l47 219q5 28 10.5 55l10 50t7.5 40t3 24q0 59 -63 59q-8 0 -20 -1t-23 -3l26 127q16 5 41 7.5t54 2.5
q85 0 123 -34t38 -93q0 -23 -8.5 -72.5t-22.5 -112.5l-58 -260q-6 -34 -11 -71t-5 -60q0 -113 60 -168t176 -55q73 0 130.5 25t100 69t72 104t48 129t26.5 144.5t8 150.5q0 152 -35 289h182q16 -63 24.5 -137t8.5 -150z" />
    <glyph glyph-name="chi" unicode="&#x3c7;" horiz-adv-x="1116" 
d="M610 334l115 -490q11 -45 23 -80.5t28.5 -59.5t38 -37t51.5 -13q16 0 32.5 3.5t29.5 8.5l-29 -135q-33 -12 -94 -12q-44 0 -78.5 15.5t-62.5 51.5t-50.5 95t-42.5 147l-82 367l-489 -662h-186l626 819l-88 387q-11 49 -23.5 82.5t-27 54.5t-32 30t-40.5 9
q-17 0 -32.5 -4.5t-26.5 -9.5l29 137q12 5 33 8t49 3q87 0 132.5 -48.5t67.5 -154.5l78 -357l389 535h189z" />
    <glyph glyph-name="psi" unicode="&#x3c8;" horiz-adv-x="1573" 
d="M1432 553q-32 -152 -88 -261.5t-133.5 -180t-177 -103.5t-218.5 -33h-76l-96 -456h-156l95 456h-41q-91 0 -169 26t-134.5 77.5t-88.5 128t-32 176.5q0 37 5.5 81.5t14.5 86.5l103 473h167l-100 -473q-8 -38 -13 -78.5t-5 -71.5q0 -76 21 -130.5t57.5 -88.5t87 -50
t109.5 -16h47l261 1215h156l-259 -1215h51q163 0 277.5 105.5t162.5 329.5l102 473h170z" />
    <glyph glyph-name="omega" unicode="&#x3c9;" horiz-adv-x="1647" 
d="M1552 696q0 -150 -27.5 -281t-86 -229t-150.5 -154.5t-221 -56.5q-67 0 -119 18t-89.5 48.5t-61 71.5t-34.5 86h-4q-27 -48 -60 -89t-76 -71t-96 -47t-121 -17q-80 0 -140.5 25.5t-101.5 72t-61.5 111.5t-20.5 144q0 96 21 188.5t57 180t84 170t102 157.5h188
q-57 -75 -107 -160t-87.5 -173.5t-59 -177.5t-21.5 -172q0 -52 9.5 -94t30 -72t52.5 -46t77 -16q51 0 97 20t84.5 63.5t69 112.5t51.5 166l56 273h167l-57 -273q-4 -17 -7.5 -37t-6 -40.5t-4 -38.5t-1.5 -31q0 -53 14 -93.5t39 -67.5t59.5 -40.5t75.5 -13.5q92 0 151 48.5
t94 129t48.5 183.5t13.5 212q0 94 -13.5 183.5t-30.5 154.5h185q8 -31 15 -70.5t12 -82.5t8.5 -88t3.5 -87z" />
    <glyph glyph-name="iotadieresis" unicode="&#x3ca;" horiz-adv-x="546" 
d="M429 4q-25 -8 -56.5 -13t-62.5 -5q-52 0 -90 13.5t-62.5 38.5t-36.5 59t-12 75q0 15 2 34t5 39t7 38.5l7 31.5l149 709h166l-150 -713q-3 -12 -6 -27t-5 -30t-3.5 -27.5t-1.5 -19.5q0 -27 9 -43.5t23 -25.5t30.5 -12t31.5 -3q26 0 45.5 3t36.5 9zM686 1300q0 -42 -29 -70
t-70 -28q-40 0 -69 27.5t-29 70.5q0 21 8 39t21 31t30.5 20.5t36.5 7.5q21 0 39.5 -7.5t32 -21t21.5 -31t8 -38.5zM301 1300q0 -21 -8 -38.5t-21.5 -31t-32 -21t-39.5 -7.5q-19 0 -37 7.5t-31.5 20.5t-21.5 31t-8 39t8 39t21.5 31t31.5 20.5t37 7.5q21 0 39.5 -7.5t32 -21
t21.5 -31t8 -38.5z" />
    <glyph glyph-name="upsilondieresis" unicode="&#x3cb;" horiz-adv-x="1202" 
d="M1100 737q0 -92 -12.5 -184t-41 -177t-73.5 -158t-109.5 -127t-150 -85t-195.5 -31q-99 0 -172 23.5t-120.5 67.5t-71 106.5t-23.5 140.5q0 32 4.5 69t14.5 77l47 219q5 28 10.5 55l10 50t7.5 40t3 24q0 59 -63 59q-8 0 -20 -1t-23 -3l26 127q16 5 41 7.5t54 2.5
q85 0 123 -34t38 -93q0 -23 -8.5 -72.5t-22.5 -112.5l-58 -260q-6 -34 -11 -71t-5 -60q0 -113 60 -168t176 -55q73 0 130.5 25t100 69t72 104t48 129t26.5 144.5t8 150.5q0 152 -35 289h182q16 -63 24.5 -137t8.5 -150zM969 1300q0 -42 -29 -70t-70 -28q-40 0 -69 27.5
t-29 70.5q0 21 8 39t21 31t30.5 20.5t36.5 7.5q21 0 39.5 -7.5t32 -21t21.5 -31t8 -38.5zM584 1300q0 -21 -8 -38.5t-21.5 -31t-32 -21t-39.5 -7.5q-19 0 -37 7.5t-31.5 20.5t-21.5 31t-8 39t8 39t21.5 31t31.5 20.5t37 7.5q21 0 39.5 -7.5t32 -21t21.5 -31t8 -38.5z" />
    <glyph glyph-name="omicrontonos" unicode="&#x3cc;" horiz-adv-x="1096" 
d="M1018 645q0 -136 -38.5 -258t-111 -213.5t-176 -145t-233.5 -53.5q-88 0 -158.5 28t-120 80.5t-76 127t-26.5 168.5q0 141 40.5 263.5t114 213t176 142t226.5 51.5q87 0 157.5 -28t120.5 -80.5t77.5 -127t27.5 -168.5zM850 637q0 65 -16 115.5t-45 85t-70 53t-92 18.5
q-88 0 -159 -45t-120 -118.5t-75.5 -167t-26.5 -191.5q0 -62 15.5 -112.5t44 -86t70 -54.5t93.5 -19q89 0 160 44.5t120 118t75 167.5t26 192zM633 1179h-86l166 358h160z" />
    <glyph glyph-name="upsilontonos" unicode="&#x3cd;" horiz-adv-x="1202" 
d="M1100 737q0 -92 -12.5 -184t-41 -177t-73.5 -158t-109.5 -127t-150 -85t-195.5 -31q-99 0 -172 23.5t-120.5 67.5t-71 106.5t-23.5 140.5q0 32 4.5 69t14.5 77l47 219q5 28 10.5 55l10 50t7.5 40t3 24q0 59 -63 59q-8 0 -20 -1t-23 -3l26 127q16 5 41 7.5t54 2.5
q85 0 123 -34t38 -93q0 -23 -8.5 -72.5t-22.5 -112.5l-58 -260q-6 -34 -11 -71t-5 -60q0 -113 60 -168t176 -55q73 0 130.5 25t100 69t72 104t48 129t26.5 144.5t8 150.5q0 152 -35 289h182q16 -63 24.5 -137t8.5 -150zM642 1179h-86l166 358h160z" />
    <glyph glyph-name="omegatonos" unicode="&#x3ce;" horiz-adv-x="1647" 
d="M1552 696q0 -150 -27.5 -281t-86 -229t-150.5 -154.5t-221 -56.5q-67 0 -119 18t-89.5 48.5t-61 71.5t-34.5 86h-4q-27 -48 -60 -89t-76 -71t-96 -47t-121 -17q-80 0 -140.5 25.5t-101.5 72t-61.5 111.5t-20.5 144q0 96 21 188.5t57 180t84 170t102 157.5h188
q-57 -75 -107 -160t-87.5 -173.5t-59 -177.5t-21.5 -172q0 -52 9.5 -94t30 -72t52.5 -46t77 -16q51 0 97 20t84.5 63.5t69 112.5t51.5 166l56 273h167l-57 -273q-4 -17 -7.5 -37t-6 -40.5t-4 -38.5t-1.5 -31q0 -53 14 -93.5t39 -67.5t59.5 -40.5t75.5 -13.5q92 0 151 48.5
t94 129t48.5 183.5t13.5 212q0 94 -13.5 183.5t-30.5 154.5h185q8 -31 15 -70.5t12 -82.5t8.5 -88t3.5 -87zM928 1179h-86l166 358h160z" />
    <glyph glyph-name="afii10023" unicode="&#x401;" horiz-adv-x="1022" 
d="M1071 1282h-553l-104 -489h512l-33 -152h-512l-105 -489h588l-30 -152h-760l303 1434h727zM1065 1665q0 -42 -29 -70t-70 -28q-40 0 -69 27.5t-29 70.5q0 21 8 39t21 31t30.5 20.5t36.5 7.5q21 0 39.5 -7.5t32 -21t21.5 -31t8 -38.5zM680 1665q0 -21 -8 -38.5t-21.5 -31
t-32 -21t-39.5 -7.5q-19 0 -37 7.5t-31.5 20.5t-21.5 31t-8 39t8 39t21.5 31t31.5 20.5t37 7.5q21 0 39.5 -7.5t32 -21t21.5 -31t8 -38.5z" />
    <glyph glyph-name="afii10051" unicode="&#x402;" horiz-adv-x="1515" 
d="M886 -18q-46 0 -94.5 7.5t-83.5 21.5l32 149q28 -14 68 -23.5t85 -9.5q63 0 114 17.5t87.5 53.5t56 91t19.5 130q0 58 -20 105.5t-57.5 81.5t-91 53t-121.5 19h-229l-144 -678h-168l273 1282h-358l32 152h995l-32 -152h-469l-98 -457h238q86 0 163.5 -26t136 -76
t92.5 -122.5t34 -164.5q0 -89 -27 -171t-83.5 -145t-143.5 -100.5t-206 -37.5z" />
    <glyph glyph-name="afii10052" unicode="&#x403;" horiz-adv-x="967" 
d="M1089 1278h-572l-272 -1278h-172l305 1434h744zM791 1567h-123l289 327h161z" />
    <glyph glyph-name="afii10053" unicode="&#x404;" horiz-adv-x="1276" 
d="M1305 1206q-62 45 -154 73t-211 28t-220.5 -39.5t-180.5 -108t-132 -162t-74 -201.5h654l-31 -151h-642q-1 -9 -1 -22.5v-34.5q0 -98 26.5 -182.5t81.5 -146.5t138 -97.5t197 -35.5q112 0 202 25.5t164 65.5l-35 -176q-34 -15 -71 -27t-80.5 -20.5t-95.5 -13.5t-117 -5
q-149 0 -259 46t-183 128.5t-108.5 196.5t-35.5 250q0 179 55 336t160.5 274t259 184.5t349.5 67.5q122 0 212.5 -22.5t165.5 -57.5z" />
    <glyph glyph-name="afii10054" unicode="&#x405;" horiz-adv-x="1018" 
d="M991 1219q-25 18 -59.5 34t-74 28t-82.5 19t-85 7q-80 0 -134.5 -22.5t-87.5 -57t-47.5 -75.5t-14.5 -77q0 -47 13 -85t39 -73t67 -70t96 -75q62 -45 110.5 -89t82.5 -90.5t51.5 -98t17.5 -111.5q0 -37 -7.5 -81.5t-27 -89.5t-53.5 -88t-86.5 -76t-126.5 -53t-174 -20
q-56 0 -110 8t-102.5 21t-89 29.5t-69.5 32.5l29 174q32 -23 73 -43.5t87 -36t95 -24.5t97 -9q76 0 130.5 18t90 49.5t52 74.5t16.5 93q0 45 -14 81t-43 70.5t-73.5 70t-105.5 78.5q-49 35 -93.5 75.5t-78 88.5t-53 104.5t-19.5 122.5q0 82 30.5 155.5t90.5 129t148.5 88
t205.5 32.5q45 0 89.5 -5.5t86.5 -15t79.5 -21t66.5 -23.5z" />
    <glyph glyph-name="afii10056" unicode="&#x407;" horiz-adv-x="545" 
d="M246 0h-172l303 1434h174zM787 1665q0 -42 -29 -70t-70 -28q-40 0 -69 27.5t-29 70.5q0 21 8 39t21 31t30.5 20.5t36.5 7.5q21 0 39.5 -7.5t32 -21t21.5 -31t8 -38.5zM402 1665q0 -21 -8 -38.5t-21.5 -31t-32 -21t-39.5 -7.5q-19 0 -37 7.5t-31.5 20.5t-21.5 31t-8 39
t8 39t21.5 31t31.5 20.5t37 7.5q21 0 39.5 -7.5t32 -21t21.5 -31t8 -38.5z" />
    <glyph glyph-name="afii10058" unicode="&#x409;" horiz-adv-x="1962" 
d="M901 0l270 1278h-408l-58.5 -170l-62.5 -179l-63.5 -177.5l-61.5 -167l-57.5 -146.5l-49.5 -116q-37 -83 -75.5 -146.5t-84 -106.5t-102 -65t-128.5 -22q-32 0 -66.5 4t-57.5 12l32 154q17 -10 39.5 -14.5t46.5 -4.5q39 0 71.5 13.5t62.5 43.5t59 78.5t61 118.5
q23 49 51 119.5l60.5 155.5l67 181.5l69.5 196.5l69.5 200.5l65.5 193.5h727l-130 -609h178q101 0 182 -27t137.5 -76.5t86.5 -119.5t30 -156q0 -105 -35.5 -188t-105 -140t-173.5 -87.5t-241 -30.5h-406zM1682 433q0 113 -73.5 177t-225.5 64h-168l-109 -522h198
q182 0 280 68t98 213z" />
    <glyph glyph-name="afii10059" unicode="&#x40a;" horiz-adv-x="1984" 
d="M1269 825h178q101 0 182 -27t137.5 -76.5t87 -119.5t30.5 -156q0 -105 -35.5 -188t-105 -140t-173.5 -87.5t-241 -30.5h-406l140 665h-676l-139 -665h-174l303 1434h174l-131 -611h677l129 611h174zM1704 433q0 114 -73.5 177.5t-226.5 63.5h-168l-108 -522h198
q182 0 280 68t98 213z" />
    <glyph glyph-name="afii10060" unicode="&#x40b;" horiz-adv-x="1522" 
d="M1190 1282h-408l-95 -448h289q177 0 275 -74.5t98 -224.5q0 -18 -2 -39.5t-5 -43t-6.5 -42.5t-7.5 -39l-78 -371h-172l78 373l5 24.5t5 30.5t3.5 32t1.5 28q0 46 -14 82t-43.5 61t-75 38t-109.5 13h-273l-144 -682h-172l272 1282h-417l32 152h996z" />
    <glyph glyph-name="afii10061" unicode="&#x40c;" horiz-adv-x="1228" 
d="M573 723l498 -723h-209l-434 653l-15 27t-14 27h-4l-149 -707h-172l303 1434h174l-143 -674h4l23.5 25l23.5 24l659 625h228zM853 1567h-123l289 327h161z" />
    <glyph glyph-name="afii10062" unicode="&#x40e;" horiz-adv-x="1133" 
d="M664 391q-68 -105 -124.5 -183t-114 -130t-121.5 -77.5t-146 -25.5q-25 0 -51 3t-49.5 8.5t-43 12t-32.5 13.5l32 158q29 -19 69.5 -31t74.5 -12q48 0 88 17t79 51.5t80 87t89 123.5l-256 1028h182l164 -727l6.5 -32.5t6.5 -36.5l6 -36.5t5 -32.5h4l38 68.5t34 56.5
l459 740h192zM1193 1871q-21 -58 -54.5 -113t-81.5 -97.5t-112 -68t-145 -25.5t-140 25t-98 67t-58.5 97t-22.5 115h163q2 -40 10.5 -74t27 -59.5t49 -40t75.5 -14.5h2q43 0 77.5 15t61.5 40.5t46.5 59.5t32.5 73h167v0z" />
    <glyph glyph-name="afii10145" unicode="&#x40f;" horiz-adv-x="1463" 
d="M73 0l303 1434h172l-273 -1282h750l272 1282h172l-304 -1434h-445l-79 -379h-160l82 379h-490z" />
    <glyph glyph-name="afii10017" unicode="&#x410;" horiz-adv-x="1294" 
d="M999 0l-65 401h-608l-232 -401h-198l854 1434h176l250 -1434h-177zM815 1163q-1 10 -1.5 23t-0.5 26v26v22h-4q-3 -9 -8 -21.5t-11 -26t-12.5 -26.5l-11.5 -23l-354 -610h495z" />
    <glyph glyph-name="afii10018" unicode="&#x411;" horiz-adv-x="1171" 
d="M1118 1278h-601l-97 -454h228q101 0 182 -26.5t137.5 -76t87 -119.5t30.5 -156q0 -105 -35.5 -188t-105 -140t-173.5 -87.5t-241 -30.5h-456l303 1434h774zM905 433q0 114 -73.5 177t-226.5 63h-218l-108 -521h248q182 0 280 68t98 213z" />
    <glyph glyph-name="afii10019" unicode="&#x412;" horiz-adv-x="1174" 
d="M1126 1124q0 -67 -19 -128.5t-58.5 -111.5t-101 -86.5t-146.5 -52.5v-4q62 -10 108.5 -36.5t77.5 -64.5t46.5 -85.5t15.5 -101.5q0 -111 -40.5 -195.5t-112.5 -141.5t-170.5 -86.5t-213.5 -29.5h-438l303 1434h395q86 0 152 -24t111 -66t68 -98.5t23 -121.5zM950 1092
q0 38 -12 72t-38.5 60.5t-69 42t-103.5 15.5h-209l-100 -463h188q86 0 150.5 20t107 56t63.5 86t21 111h2zM872 442q0 105 -73 165.5t-224 60.5h-190l-106 -516h231q94 0 162 20.5t112.5 58.5t66 91.5t21.5 119.5z" />
    <glyph glyph-name="afii10020" unicode="&#x413;" horiz-adv-x="967" 
d="M1089 1278h-572l-272 -1278h-172l305 1434h744z" />
    <glyph glyph-name="afii10021" unicode="&#x414;" horiz-adv-x="1429" 
d="M1106 152h213l-114 -531h-160l82 379h-1038l-80 -379h-160l113 531h114q120 106 210 237t160.5 290t126.5 347t108 408h696zM801 1278l-44.5 -169.5t-58.5 -197.5t-74.5 -210.5t-92.5 -207.5t-112 -188t-133 -153h648l238 1126h-371z" />
    <glyph glyph-name="afii10022" unicode="&#x415;" horiz-adv-x="1022" 
d="M1071 1282h-553l-104 -489h512l-33 -152h-512l-105 -489h588l-30 -152h-760l303 1434h727z" />
    </font>
</defs>
</svg>
