<?xml version="1.0" encoding="UTF-8" standalone="no"?>
<!DOCTYPE svg PUBLIC "-//W3C//DTD SVG 1.1//EN" "http://www.w3.org/Graphics/SVG/1.1/DTD/svg11.dtd">
<svg xmlns="http://www.w3.org/2000/svg" width="100%" height="100%">
<metadata>
Created by FontXChange 20110222 at Fri Jul 27 17:13:22 2012
 By Ted Hoot
(c) 2008 Microsoft Corporation. All Rights Reserved.
</metadata>
<defs>
<font id="SegoeUI-Bold" horiz-adv-x="0">
  <font-face font-family="Segoe UI" font-weight="700" font-stretch="normal" units-per-em="2048" panose-1="2 11 8 2 4 2 4 2 2 3" ascent="1638" descent="-410" x-height="1024" cap-height="1434" bbox="-980 -514 3646 2188" underline-thickness="119" underline-position="-119" unicode-range="U+000D-FFFD"/>
<missing-glyph horiz-adv-x="1322" d="M166 0v1398h990v-1398h-990zM314 148h694v1102h-694v-1102z"/>
    <glyph glyph-name="uniFEFB" unicode="ﻟﺎ" horiz-adv-x="1339" arabic-form="isolated" d="M1184 0h-837v188q321 192 509 514q-222 334 -842 779h330q377 -308 592 -613q91 228 91 480v208h157v-208q0 -333 -152 -633q152 -276 152 -563v-152zM1027 188q0 181 -89 367q-153 -228 -361 -367h450z"/>
    <glyph glyph-name="uniFEFC" unicode="ﻠﺎ" horiz-adv-x="1463" arabic-form="final" d="M1463 0q-172 0 -266.5 87.5t-94.5 244.5v282q-59 -59 -87 -100q-25 -93 -157.5 -256t-262.5 -258h-297q205 121 386 307.5t181 276.5q0 149 -219.5 397t-581.5 500h339q545 -503 612 -846q87 83 87 129v792h157v-1212q0 -85 46 -120.5t152 -35.5h6v-188z"/>
    <glyph glyph-name="uniFEF7" unicode="ﻟﺄ" horiz-adv-x="1339" arabic-form="isolated" d="M1184 0h-837v188q321 192 509 514q-222 334 -842 779h330q377 -308 592 -613q91 228 91 480v208h157v-208q0 -333 -152 -633q152 -276 152 -563v-152zM1027 188q0 181 -89 367q-153 -228 -361 -367h450zM337 1610h-302v70h67q-52 24 -52 77q0 51 44 86t114 35 q66 0 103 -12v-74q-43 17 -101 17q-79 0 -79 -52q0 -32 40.5 -54.5t99.5 -22.5h66v-70z"/>
    <glyph glyph-name="uniFEF8" unicode="ﻠﺄ" horiz-adv-x="1463" arabic-form="final" d="M1463 0q-172 0 -266.5 87.5t-94.5 244.5v282q-59 -59 -87 -100q-25 -93 -157.5 -256t-262.5 -258h-297q205 121 386 307.5t181 276.5q0 149 -219.5 397t-581.5 500h339q545 -503 612 -846q87 83 87 129v792h157v-1212q0 -85 46 -120.5t152 -35.5h6v-188zM386 1610h-302 v70h67q-52 24 -52 77q0 51 44 86t114 35q66 0 103 -12v-74q-43 17 -101 17q-79 0 -79 -52q0 -32 40.5 -54.5t99.5 -22.5h66v-70z"/>
    <glyph glyph-name="uniFEF5" unicode="ﻟﺂ" horiz-adv-x="1339" arabic-form="isolated" d="M1184 0h-837v188q321 192 509 514q-222 334 -842 779h330q377 -308 592 -613q91 228 91 480v208h157v-208q0 -333 -152 -633q152 -276 152 -563v-152zM1027 188q0 181 -89 367q-153 -228 -361 -367h450zM460 1636q-61 -39 -133 -39q-30 0 -103 22.5t-104 22.5 q-43 0 -132 -45v74q72 41 132 41q31 0 104 -22.5t103 -22.5q61 0 133 43v-74z"/>
    <glyph glyph-name="uniFEF6" unicode="ﻠﺂ" horiz-adv-x="1463" arabic-form="final" d="M1463 0q-172 0 -266.5 87.5t-94.5 244.5v282q-59 -59 -87 -100q-25 -93 -157.5 -256t-262.5 -258h-297q205 121 386 307.5t181 276.5q0 149 -219.5 397t-581.5 500h339q545 -503 612 -846q87 83 87 129v792h157v-1212q0 -85 46 -120.5t152 -35.5h6v-188zM509 1636 q-61 -39 -133 -39q-30 0 -103 22.5t-104 22.5q-43 0 -132 -45v74q72 41 132 41q31 0 104 -22.5t103 -22.5q61 0 133 43v-74z"/>
    <glyph glyph-name="uniFEF9" unicode="ﻟﺈ" horiz-adv-x="1339" arabic-form="isolated" d="M1184 0h-837v188q321 192 509 514q-222 334 -842 779h330q377 -308 592 -613q91 228 91 480v208h157v-208q0 -333 -152 -633q152 -276 152 -563v-152zM1027 188q0 181 -89 367q-153 -228 -361 -367h450zM386 -362h-302v70h67q-52 24 -52 77q0 51 44 86t114 35 q66 0 103 -12v-74q-43 17 -101 17q-79 0 -79 -52q0 -32 40.5 -54.5t99.5 -22.5h66v-70z"/>
    <glyph glyph-name="uniFEFA" unicode="ﻠﺈ" horiz-adv-x="1463" arabic-form="final" d="M1463 0q-172 0 -266.5 87.5t-94.5 244.5v282q-59 -59 -87 -100q-25 -93 -157.5 -256t-262.5 -258h-297q205 121 386 307.5t181 276.5q0 149 -219.5 397t-581.5 500h339q545 -503 612 -846q87 83 87 129v792h157v-1212q0 -85 46 -120.5t152 -35.5h6v-188zM386 -362h-302 v70h67q-52 24 -52 77q0 51 44 86t114 35q66 0 103 -12v-74q-43 17 -101 17q-79 0 -79 -52q0 -32 40.5 -54.5t99.5 -22.5h66v-70z"/>
    <glyph glyph-name="allah" unicode="ﻟﻠہ" horiz-adv-x="1984" d="M1531 1590q0 -67 -41 -108q-43 -45 -121 -45q-77 0 -105 43q-35 -80 -136 -80q-150 0 -150 125q0 29 5 78h84q-5 -34 -5 -74q0 -59 66 -59q84 0 84 114v52h83v-43q0 -87 74 -87q78 0 78 84q0 54 -7 76h86q5 -30 5 -76zM1885 300q0 -144 -96.5 -230t-253.5 -86 q-177 0 -275 105q-98 -105 -276 -105q-182 0 -266 139q-64 104 -64 270q-41 -55 -119 -92t-155 -37q-142 0 -222 88q-72 79 -72 201q0 174 186 301q159 108 382 143v72h157v-695q0 -85 40 -141q45 -65 133 -65q92 0 148 64q49 58 49 142v910h157v-910q0 -84 48 -142 q53 -64 145 -64q93 0 148 64q49 58 49 142v910h157v-984zM654 569v293q-162 -28 -274 -98q-136 -86 -136 -209q0 -119 136 -119q173 0 274 133zM1212 1724v164h83v-164h-83z"/>
    <glyph glyph-name="uni06440671.isol" unicode="ﻟﭑ" horiz-adv-x="1339" d="M1184 0h-837v188q321 192 509 514q-222 334 -842 779h330q377 -308 592 -613q91 228 91 480v208h157v-208q0 -333 -152 -633q152 -276 152 -563v-152zM1027 188q0 181 -89 367q-153 -228 -361 -367h450zM443 1732q0 -69 -71 -113q-64 -39 -140 -39q-38 0 -101 20.5 t-96 20.5q-36 0 -101 -42v70q64 42 102 42q31 0 72 -10q18 74 72.5 120.5t125.5 46.5q137 0 137 -116zM359 1732q0 46 -53 46q-43 0 -78 -40q-31 -36 -41 -82q24 -6 45 -6q54 0 90.5 25.5t36.5 56.5z"/>
    <glyph glyph-name="uni06440671.fina" unicode="ﻠﭑ" horiz-adv-x="1463" d="M1463 0q-172 0 -266.5 87.5t-94.5 244.5v282q-59 -59 -87 -100q-25 -93 -157.5 -256t-262.5 -258h-297q205 121 386 307.5t181 276.5q0 149 -219.5 397t-581.5 500h339q545 -503 612 -846q87 83 87 129v792h157v-1212q0 -85 46 -120.5t152 -35.5h6v-188zM491 1732 q0 -69 -71 -113q-64 -39 -140 -39q-38 0 -101 20.5t-96 20.5q-36 0 -101 -42v70q64 42 102 42q31 0 72 -10q18 74 72.5 120.5t125.5 46.5q137 0 137 -116zM407 1732q0 46 -53 46q-43 0 -78 -40q-31 -36 -41 -82q24 -6 45 -6q54 0 90.5 25.5t36.5 56.5z"/>
    <glyph glyph-name="uniFDF2" unicode="اﻟﻠﻪ" horiz-adv-x="2555" arabic-form="isolated" d="M1531 1590q0 -67 -41 -108q-43 -45 -121 -45q-77 0 -105 43q-35 -80 -136 -80q-150 0 -150 125q0 29 5 78h84q-5 -34 -5 -74q0 -59 66 -59q84 0 84 114v52h83v-43q0 -87 74 -87q78 0 78 84q0 54 -7 76h86q5 -30 5 -76zM1885 300q0 -144 -96.5 -230t-253.5 -86 q-177 0 -275 105q-98 -105 -276 -105q-182 0 -266 139q-64 104 -64 270q-41 -55 -119 -92t-155 -37q-142 0 -222 88q-72 79 -72 201q0 174 186 301q159 108 382 143v72h157v-695q0 -85 40 -141q45 -65 133 -65q92 0 148 64q49 58 49 142v910h157v-910q0 -84 48 -142 q53 -64 145 -64q93 0 148 64q49 58 49 142v910h157v-984zM654 569v293q-162 -28 -274 -98q-136 -86 -136 -209q0 -119 136 -119q173 0 274 133zM1212 1724v164h83v-164h-83zM2346 0h-157v1556h157v-1556z"/>
    <glyph glyph-name="uniFDFC" unicode="رﻳﺎل" horiz-adv-x="2992" arabic-form="isolated" d="M1156 248q0 -453 -546 -453q-294 0 -427.5 106.5t-133.5 336.5q0 123 24 251h166v-10q-33 -113 -33 -239q0 -144 92 -200t314 -56q385 0 385 276v1296h159v-1308zM1775 0q-171 0 -266 87.5t-95 244.5v1224h157v-1212q0 -85 46 -120.5t153 -35.5h5v-188zM2242 270 q0 -123 -106 -196.5t-288 -73.5h-108q-59 0 -103.5 51t-44.5 137h246q246 0 246 156v373h158v-447zM1761 -292h-176v147h176v-147zM1437 -292h-177v147h177v-147zM2743 516q126 -164 126 -330q0 -299 -272.5 -454.5t-698.5 -155.5v188q366 0 590 100t224 290q0 164 -199 350 v12h230z"/>
    <glyph glyph-name="uniFE8E" unicode="ا" horiz-adv-x="575" arabic-form="final" d="M575 0q-171 0 -266 87.5t-95 244.5v1224h157v-1212q0 -85 46 -120.5t153 -35.5h5v-188z"/>
    <glyph glyph-name="uniFE84" unicode="أ" horiz-adv-x="575" arabic-form="final" d="M575 0q-171 0 -266 87.5t-95 244.5v1224h157v-1212q0 -85 46 -120.5t153 -35.5h5v-188zM443 1610h-302v70h67q-52 24 -52 77q0 51 44 86t114 35q66 0 103 -12v-74q-43 17 -101 17q-79 0 -79 -52q0 -32 40.5 -54.5t99.5 -22.5h66v-70z"/>
    <glyph glyph-name="uniFE82" unicode="آ" horiz-adv-x="575" arabic-form="final" d="M575 0q-171 0 -266 87.5t-95 244.5v1224h157v-1212q0 -85 46 -120.5t153 -35.5h5v-188zM523 1676q-61 -39 -133 -39q-30 0 -103 22.5t-104 22.5q-43 0 -132 -45v74q72 41 132 41q31 0 104 -22.5t103 -22.5q61 0 133 43v-74z"/>
    <glyph glyph-name="uniFE88" unicode="إ" horiz-adv-x="575" arabic-form="final" d="M575 0q-171 0 -266 87.5t-95 244.5v1224h157v-1212q0 -85 46 -120.5t153 -35.5h5v-188zM443 -362h-302v70h67q-52 24 -52 77q0 51 44 86t114 35q66 0 103 -12v-74q-43 17 -101 17q-79 0 -79 -52q0 -32 40.5 -54.5t99.5 -22.5h66v-70z"/>
    <glyph glyph-name="uniFE91" unicode="ب" horiz-adv-x="600" arabic-form="initial" d="M502 270q0 -123 -106 -196.5t-288 -73.5h-108q-59 0 -103.5 51t-44.5 137h246q246 0 246 156v373h158v-447zM335 -293h-177v147h177v-147z"/>
    <glyph glyph-name="uniFE97" unicode="ت" horiz-adv-x="600" arabic-form="initial" d="M502 270q0 -123 -106 -196.5t-288 -73.5h-108q-59 0 -103.5 51t-44.5 137h246q246 0 246 156v373h158v-447zM500 891h-176v147h176v-147zM176 891h-177v147h177v-147z"/>
    <glyph glyph-name="uniFE9B" unicode="ث" horiz-adv-x="600" arabic-form="initial" d="M502 270q0 -123 -106 -196.5t-288 -73.5h-108q-59 0 -103.5 51t-44.5 137h246q246 0 246 156v373h158v-447zM422 1100h-177v147h177v-147zM599 891h-177v147h177v-147zM245 891h-177v147h177v-147z"/>
    <glyph glyph-name="uniFE9F" unicode="ج" horiz-adv-x="1334" arabic-form="initial" d="M1236 184q-214 0 -628.5 -92t-607.5 -92q-59 0 -103.5 51t-44.5 137h155q172 0 527.5 80.5t487.5 87.5q-363 273 -783 273h-114v186h126q97 0 188 -16q90 -16 179 -48q88 -31 179 -80q86 -47 183 -113q90 -61 198 -145l52 -41h2l4 1v-189zM843 -244h-177v147h177v-147z "/>
    <glyph glyph-name="uniFE9E" unicode="ج" horiz-adv-x="1334" arabic-form="final" d="M1334 0h-39q-408 0 -408 319v211q-294 -26 -460.5 -134t-166.5 -277q0 -171 148 -265t376 -94q322 0 516 111h13v-199q-192 -96 -527 -96q-298 0 -490.5 146t-192.5 393q0 248 261 396t654 148q-315 113 -755 113h-94v186h106q225 0 487 -77t491 -211v-131 q-173 0 -209 -2v-162q0 -102 60 -144.5t186 -42.5h44v-188zM703 12h-177v147h177v-147z"/>
    <glyph glyph-name="uniFEA3" unicode="ح" horiz-adv-x="1334" arabic-form="initial" d="M1236 184q-214 0 -628.5 -92t-607.5 -92q-59 0 -103.5 51t-44.5 137h155q172 0 527.5 80.5t487.5 87.5q-363 273 -783 273h-114v186h126q97 0 188 -16q90 -16 179 -48q88 -31 179 -80q86 -47 183 -113q90 -61 198 -145l52 -41h2l4 1v-189z"/>
    <glyph glyph-name="uniFEA2" unicode="ح" horiz-adv-x="1334" arabic-form="final" d="M1334 0h-39q-408 0 -408 319v211q-294 -26 -460.5 -134t-166.5 -277q0 -171 148 -265t376 -94q322 0 516 111h13v-199q-192 -96 -527 -96q-298 0 -490.5 146t-192.5 393q0 248 261 396t654 148q-315 113 -755 113h-94v186h106q225 0 487 -77t491 -211v-131 q-173 0 -209 -2v-162q0 -102 60 -144.5t186 -42.5h44v-188z"/>
    <glyph glyph-name="uniFEA7" unicode="خ" horiz-adv-x="1334" arabic-form="initial" d="M1236 184q-214 0 -628.5 -92t-607.5 -92q-59 0 -103.5 51t-44.5 137h155q172 0 527.5 80.5t487.5 87.5q-363 273 -783 273h-114v186h126q97 0 188 -16q90 -16 179 -48q88 -31 179 -80q86 -47 183 -113q90 -61 198 -145l52 -41h2l4 1v-189zM855 936h-177v147h177v-147z "/>
    <glyph glyph-name="uniFEA6" unicode="خ" horiz-adv-x="1334" arabic-form="final" d="M1334 0h-39q-408 0 -408 319v211q-294 -26 -460.5 -134t-166.5 -277q0 -171 148 -265t376 -94q322 0 516 111h13v-199q-192 -96 -527 -96q-298 0 -490.5 146t-192.5 393q0 248 261 396t654 148q-315 113 -755 113h-94v186h106q225 0 487 -77t491 -211v-131 q-173 0 -209 -2v-162q0 -102 60 -144.5t186 -42.5h44v-188zM923 1120h-177v147h177v-147z"/>
    <glyph glyph-name="uniFEB3" unicode="س" horiz-adv-x="1487" arabic-form="initial" d="M1388 188q0 -188 -218 -188h-98q-176 0 -239 72q-63 -72 -238 -72t-239 72q-66 -72 -258 -72h-98q-59 0 -103.5 51t-44.5 137h246q179 0 179 134v100h157v-100q0 -134 161 -134q160 0 160 134v100h157v-100q0 -134 160 -134q159 0 159 80v367h157v-447z"/>
    <glyph glyph-name="uniFEB7" unicode="ش" horiz-adv-x="1487" arabic-form="initial" d="M1388 188q0 -188 -218 -188h-98q-176 0 -239 72q-63 -72 -238 -72t-239 72q-66 -72 -258 -72h-98q-59 0 -103.5 51t-44.5 137h246q179 0 179 134v100h157v-100q0 -134 161 -134q160 0 160 134v100h157v-100q0 -134 160 -134q159 0 159 80v367h157v-447zM848 926h-177v147 h177v-147zM1025 717h-177v147h177v-147zM671 717h-177v147h177v-147z"/>
    <glyph glyph-name="uniFEBB" unicode="ص" horiz-adv-x="2077" arabic-form="initial" d="M661 188q280 327 492.5 477t410.5 150q178 0 321 -162t143 -352q0 -138 -153 -219.5t-415 -81.5h-909q-181 0 -276 82q-90 -82 -275 -82q-59 0 -103.5 51t-44.5 137h153q192 0 192 191v10h157v-10q0 -191 192 -191h115zM858 188h580q195 0 314 34.5t119 88.5 q0 132 -101.5 225t-209.5 93q-167 0 -332.5 -104t-369.5 -337z"/>
    <glyph glyph-name="uniFEBF" unicode="ض" horiz-adv-x="2077" arabic-form="initial" d="M661 188q280 327 492.5 477t410.5 150q178 0 321 -162t143 -352q0 -138 -153 -219.5t-415 -81.5h-909q-181 0 -276 82q-90 -82 -275 -82q-59 0 -103.5 51t-44.5 137h153q192 0 192 191v10h157v-10q0 -191 192 -191h115zM858 188h580q195 0 314 34.5t119 88.5 q0 132 -101.5 225t-209.5 93q-167 0 -332.5 -104t-369.5 -337zM1610 958h-177v147h177v-147z"/>
    <glyph glyph-name="uniFECB" unicode="ع" horiz-adv-x="1334" arabic-form="initial" d="M1214 184q-590 -184 -921 -184h-293q-59 0 -103.5 51t-44.5 137h488q-108 49 -171 142t-63 186q0 197 134 309.5t353 112.5q287 0 481 -82v-213h-12q-192 113 -460 113q-164 0 -251.5 -71t-87.5 -171q0 -147 119.5 -224t175.5 -77q35 0 237 46.5t419 113.5v-189z"/>
    <glyph glyph-name="uniFECC" unicode="ع" horiz-adv-x="964" arabic-form="medial" d="M964 0h-99q-174 0 -384 115q-209 -115 -383 -115h-98q-59 0 -103.5 51t-44.5 137h246q125 0 228 33q-253 200 -253 371q0 116 112.5 179t295.5 63q185 0 296.5 -63t111.5 -179q0 -171 -253 -371q104 -33 229 -33h99v-188zM481 289q114 68 182.5 143.5t68.5 126.5 q0 84 -251 84q-249 0 -249 -84q0 -51 68 -126.5t181 -143.5z"/>
    <glyph glyph-name="uniFECA" unicode="ع" horiz-adv-x="1114" arabic-form="final" d="M1114 0h-26q-231 0 -574 295q-130 -81 -192 -145t-62 -148q0 -106 115 -173t267 -67q223 0 434 129h12v-213q-196 -102 -444 -102q-222 0 -381.5 123t-159.5 303q0 117 73.5 199.5t238.5 181.5q-144 131 -199.5 203t-55.5 153q0 108 117 173t291 65q176 0 292 -64.5 t116 -177.5q0 -96 -62 -170t-276 -196q138 -115 230 -148t201 -33h45v-188zM541 455q144 81 207 133t63 104q0 40 -69 67t-174 27q-102 0 -166.5 -26.5t-64.5 -65.5q0 -36 46.5 -87.5t157.5 -151.5z"/>
    <glyph glyph-name="uniFECF" unicode="غ" horiz-adv-x="1334" arabic-form="initial" d="M1214 184q-590 -184 -921 -184h-293q-59 0 -103.5 51t-44.5 137h488q-108 49 -171 142t-63 186q0 197 134 309.5t353 112.5q287 0 481 -82v-213h-12q-192 113 -460 113q-164 0 -251.5 -71t-87.5 -171q0 -147 119.5 -224t175.5 -77q35 0 237 46.5t419 113.5v-189z M691 1112h-177v147h177v-147z"/>
    <glyph glyph-name="uniFED0" unicode="غ" horiz-adv-x="964" arabic-form="medial" d="M964 0h-99q-174 0 -384 115q-209 -115 -383 -115h-98q-59 0 -103.5 51t-44.5 137h246q125 0 228 33q-253 200 -253 371q0 116 112.5 179t295.5 63q185 0 296.5 -63t111.5 -179q0 -171 -253 -371q104 -33 229 -33h99v-188zM481 289q114 68 182.5 143.5t68.5 126.5 q0 84 -251 84q-249 0 -249 -84q0 -51 68 -126.5t181 -143.5zM571 1008h-177v147h177v-147z"/>
    <glyph glyph-name="uniFECE" unicode="غ" horiz-adv-x="1114" arabic-form="final" d="M1114 0h-26q-231 0 -574 295q-130 -81 -192 -145t-62 -148q0 -106 115 -173t267 -67q223 0 434 129h12v-213q-196 -102 -444 -102q-222 0 -381.5 123t-159.5 303q0 117 73.5 199.5t238.5 181.5q-144 131 -199.5 203t-55.5 153q0 108 117 173t291 65q176 0 292 -64.5 t116 -177.5q0 -96 -62 -170t-276 -196q138 -115 230 -148t201 -33h45v-188zM541 455q144 81 207 133t63 104q0 40 -69 67t-174 27q-102 0 -166.5 -26.5t-64.5 -65.5q0 -36 46.5 -87.5t157.5 -151.5zM656 1151h-177v147h177v-147z"/>
    <glyph glyph-name="uniFED3" unicode="ف" horiz-adv-x="713" arabic-form="initial" d="M546 467q-49 -41 -152 -41q-134 0 -232 85.5t-98 231.5q0 151 99 263t201 112q135 0 232.5 -163.5t97.5 -444.5q0 -249 -127 -379.5t-363 -130.5h-204q-59 0 -103.5 51t-44.5 137h354q143 0 241.5 76.5t98.5 202.5zM530 647q0 112 -57 199.5t-112 87.5q-48 0 -97.5 -54 t-49.5 -130q0 -140 184 -140q81 0 132 37zM414 1292h-177v147h177v-147z"/>
    <glyph glyph-name="uniFED4" unicode="ف" horiz-adv-x="727" arabic-form="medial" d="M727 0h-49q-144 0 -314 100q-171 -100 -315 -100h-49q-59 0 -103.5 51t-44.5 137h246q65 0 134 17q-164 167 -164 311q0 143 83 230.5t213 87.5q129 0 212 -87.5t83 -230.5q0 -144 -162 -311q67 -17 132 -17h98v-188zM364 266q138 109 138 240q0 59 -37.5 98t-100.5 39 q-64 0 -101 -39t-37 -98q0 -131 138 -240zM452 1008h-177v147h177v-147z"/>
    <glyph glyph-name="uniFED7" unicode="ق" horiz-adv-x="713" arabic-form="initial" d="M546 467q-49 -41 -152 -41q-134 0 -232 85.5t-98 231.5q0 151 99 263t201 112q135 0 232.5 -163.5t97.5 -444.5q0 -249 -127 -379.5t-363 -130.5h-204q-59 0 -103.5 51t-44.5 137h354q143 0 241.5 76.5t98.5 202.5zM530 647q0 112 -57 199.5t-112 87.5q-48 0 -97.5 -54 t-49.5 -130q0 -140 184 -140q81 0 132 37zM600 1292h-176v147h176v-147zM276 1292h-177v147h177v-147z"/>
    <glyph glyph-name="uniFED8" unicode="ق" horiz-adv-x="727" arabic-form="medial" d="M727 0h-49q-144 0 -314 100q-171 -100 -315 -100h-49q-59 0 -103.5 51t-44.5 137h246q65 0 134 17q-164 167 -164 311q0 143 83 230.5t213 87.5q129 0 212 -87.5t83 -230.5q0 -144 -162 -311q67 -17 132 -17h98v-188zM364 266q138 109 138 240q0 59 -37.5 98t-100.5 39 q-64 0 -101 -39t-37 -98q0 -131 138 -240zM614 1008h-176v147h176v-147zM290 1008h-177v147h177v-147z"/>
    <glyph glyph-name="uniFEDB" unicode="ك" horiz-adv-x="968" arabic-form="initial" d="M870 1333l-506 -250q-50 -20 -90 -53t-40 -55q0 -56 110 -144l339 -268q152 -120 194 -180.5t42 -118.5q0 -264 -425 -264h-494q-59 0 -103.5 51t-44.5 137h640q128 0 178 25t50 84q0 38 -46 81.5t-195 160.5l-348 274q-126 101 -126 197q0 52 49 95t211 124l605 301 v-197z"/>
    <glyph glyph-name="uniFEDF" unicode="ل" horiz-adv-x="530" arabic-form="initial" d="M432 270q0 -123 -105 -196.5t-287 -73.5h-40q-59 0 -103.5 51t-44.5 137h178q245 0 245 156v1212h157v-1286z"/>
    <glyph glyph-name="uniFEE3" unicode="م" horiz-adv-x="964" arabic-form="initial" d="M-148 188h104q112 0 144.5 54t42.5 174q25 356 331 356q192 0 316 -119.5t124 -314.5q0 -161 -93.5 -257.5t-255.5 -96.5q-199 0 -321 157q-53 -91 -97 -116t-125 -25h-22q-59 0 -103.5 51t-44.5 137zM551 168q95 0 150.5 48.5t55.5 115.5q0 97 -69.5 173.5t-185.5 76.5 q-202 0 -202 -193q0 -87 69 -154t182 -67z"/>
    <glyph glyph-name="uniFEE7" unicode="ن" horiz-adv-x="600" arabic-form="initial" d="M502 270q0 -123 -106 -196.5t-288 -73.5h-108q-59 0 -103.5 51t-44.5 137h246q246 0 246 156v373h158v-447zM428 891h-177v147h177v-147z"/>
    <glyph glyph-name="uni06BE" unicode="ه" horiz-adv-x="1106" arabic-form="initial" d="M138 1104h49q298 0 585.5 -270.5t287.5 -528.5q0 -305 -431 -305h-629q-59 0 -103.5 51t-44.5 137h293q-79 105 -79 215q0 170 81.5 269.5t216.5 99.5q158 0 262 -133t104 -301q0 -85 -45 -150h37q180 0 180 129q0 183 -207.5 390.5t-504.5 207.5h-52v189zM420 168 q74 0 113 45.5t39 118.5q0 101 -55.5 175.5t-152.5 74.5q-66 0 -103.5 -55t-37.5 -138q0 -89 54.5 -155t142.5 -66z"/>
    <glyph glyph-name="uniFBAB" unicode="ھ" horiz-adv-x="964" arabic-form="final" d="M964 0h-288q98 -59 98 -172q0 -109 -71.5 -180.5t-181.5 -71.5q-101 0 -199.5 118.5t-98.5 305.5h-223q-59 0 -103.5 51t-44.5 137h371q0 183 100.5 293.5t206.5 110.5q110 0 177 -65t67 -167q0 -118 -120 -172h310v-188zM373 188h119q53 0 89 40t36 96q0 32 -23 55.5 t-61 23.5q-57 0 -108.5 -60.5t-51.5 -154.5zM373 0q0 -97 48.5 -166.5t101.5 -69.5q94 0 94 89q0 58 -36 102.5t-89 44.5h-119z"/>
    <glyph glyph-name="uniFEEA" unicode="ه" horiz-adv-x="938" arabic-form="final" d="M938 0q-142 0 -213 79.5t-71 313.5q-41 -55 -119 -92t-155 -37q-129 0 -211.5 77.5t-82.5 211.5q0 148 152 275.5t416 168.5v72h157v-676q0 -111 30 -158t97 -47v-188zM654 569v293q-194 -33 -302 -118t-108 -189q0 -57 39 -88t97 -31q173 0 274 133z"/>
    <glyph glyph-name="uniFEF3" unicode="ي" horiz-adv-x="600" arabic-form="initial" d="M502 270q0 -123 -106 -196.5t-288 -73.5h-108q-59 0 -103.5 51t-44.5 137h246q246 0 246 156v373h158v-447zM501 -293h-176v147h176v-147zM177 -293h-177v147h177v-147z"/>
    <glyph glyph-name="uniFEF2" unicode="ي" horiz-adv-x="1454" arabic-form="final" d="M1454 0q-114 0 -183 44.5t-109 119t-87 197t-87 157.5t-101 35q-111 0 -111 -88q0 -55 87 -141q115 -115 115 -228q0 -264 -450 -264q-221 0 -356 122t-135 337q0 65 17 170h160v-10q-20 -66 -20 -158q0 -146 83 -209.5t253 -63.5q286 0 286 117q0 52 -89 142 q-113 111 -113 221q0 109 70 175t203 66q95 0 167 -44t135.5 -229t121.5 -232.5t143 -47.5v-188zM804 -424h-176v147h176v-147zM480 -424h-178v147h178v-147z"/>
    <glyph glyph-name="uniFE94" unicode="ة" horiz-adv-x="938" arabic-form="final" d="M938 0q-142 0 -213 79.5t-71 313.5q-41 -55 -119 -92t-155 -37q-129 0 -211.5 77.5t-82.5 211.5q0 148 152 275.5t416 168.5v72h157v-676q0 -111 30 -158t97 -47v-188zM654 569v293q-194 -33 -302 -118t-108 -189q0 -57 39 -88t97 -31q173 0 274 133zM747 1204h-176v147 h176v-147zM423 1204h-177v147h177v-147z"/>
    <glyph glyph-name="uniFEF0" unicode="ى" horiz-adv-x="1454" arabic-form="final" d="M1454 0q-114 0 -183 44.5t-109 119t-87 197t-87 157.5t-101 35q-111 0 -111 -88q0 -55 87 -141q115 -115 115 -228q0 -264 -450 -264q-221 0 -356 122t-135 337q0 65 17 170h160v-10q-20 -66 -20 -158q0 -146 83 -209.5t253 -63.5q286 0 286 117q0 52 -89 142 q-113 111 -113 221q0 109 70 175t203 66q95 0 167 -44t135.5 -229t121.5 -232.5t143 -47.5v-188z"/>
    <glyph glyph-name="uniFE8B" unicode="ئ" horiz-adv-x="600" arabic-form="initial" d="M502 270q0 -123 -106 -196.5t-288 -73.5h-108q-59 0 -103.5 51t-44.5 137h246q246 0 246 156v373h158v-447zM551 891h-302v70h67q-52 24 -52 77q0 51 44 86t114 35q66 0 103 -12v-74q-43 17 -101 17q-79 0 -79 -52q0 -32 40.5 -54.5t99.5 -22.5h66v-70z"/>
    <glyph glyph-name="uniFE8A" unicode="ئ" horiz-adv-x="1454" arabic-form="final" d="M1454 0q-114 0 -183 44.5t-109 119t-87 197t-87 157.5t-101 35q-111 0 -111 -88q0 -55 87 -141q115 -115 115 -228q0 -264 -450 -264q-221 0 -356 122t-135 337q0 65 17 170h160v-10q-20 -66 -20 -158q0 -146 83 -209.5t253 -63.5q286 0 286 117q0 52 -89 142 q-113 111 -113 221q0 109 70 175t203 66q95 0 167 -44t135.5 -229t121.5 -232.5t143 -47.5v-188zM476 715h-302v70h67q-52 24 -52 77q0 51 44 86t114 35q66 0 103 -12v-74q-43 17 -101 17q-79 0 -79 -52q0 -32 40.5 -54.5t99.5 -22.5h66v-70z"/>
    <glyph glyph-name="uni0621" unicode="ء" horiz-adv-x="1013" arabic-form="isolated" d="M872 174l-654 -168v187l188 47q-106 21 -174 85.5t-68 143.5q0 139 103 221t263 82q143 0 251 -18v-187h-14q-108 23 -226 23q-219 0 -219 -139q0 -91 126 -129.5t171 -26.5l253 65v-186z"/>
    <glyph glyph-name="uni0622" unicode="آ" horiz-adv-x="575" arabic-form="isolated" d="M366 0h-157v1556h157v-1556zM519 1676q-61 -39 -133 -39q-30 0 -103 22.5t-104 22.5q-43 0 -132 -45v74q72 41 132 41q31 0 104 -22.5t103 -22.5q61 0 133 43v-74z"/>
    <glyph glyph-name="uni0623" unicode="أ" horiz-adv-x="575" arabic-form="isolated" d="M366 0h-157v1556h157v-1556zM438 1610h-302v70h67q-52 24 -52 77q0 51 44 86t114 35q66 0 103 -12v-74q-43 17 -101 17q-79 0 -79 -52q0 -32 40.5 -54.5t99.5 -22.5h66v-70z"/>
    <glyph glyph-name="uni0624" unicode="ؤ" horiz-adv-x="1042" arabic-form="final" d="M788 154q-49 -41 -132 -41q-132 0 -226.5 85t-94.5 232q0 151 95.5 263t195.5 112q126 0 221.5 -164.5t95.5 -443.5q0 -304 -240.5 -462.5t-702.5 -158.5v188q390 0 589 101t199 289zM774 340q0 93 -50.5 184.5t-99.5 91.5q-47 0 -89.5 -57.5t-42.5 -122.5 q0 -59 47.5 -97t121.5 -38q78 0 113 39zM757 979h-302v70h67q-52 24 -52 77q0 51 44 86t114 35q66 0 103 -12v-74q-43 17 -101 17q-79 0 -79 -52q0 -32 40.5 -54.5t99.5 -22.5h66v-70z"/>
    <glyph glyph-name="uni0625" unicode="إ" horiz-adv-x="575" arabic-form="isolated" d="M366 0h-157v1556h157v-1556zM438 -362h-302v70h67q-52 24 -52 77q0 51 44 86t114 35q66 0 103 -12v-74q-43 17 -101 17q-79 0 -79 -52q0 -32 40.5 -54.5t99.5 -22.5h66v-70z"/>
    <glyph glyph-name="uni0626" unicode="ئ" horiz-adv-x="1573" arabic-form="isolated" d="M1487 866h-12q-180 88 -384 88q-99 0 -163.5 -36t-64.5 -87q0 -44 45.5 -83.5t240.5 -122t261.5 -144.5t66.5 -147q0 -161 -213 -247.5t-630 -86.5q-597 0 -597 442q0 99 24 252h160v-10q-27 -135 -27 -240q0 -133 105 -194.5t337 -61.5q332 0 508 42t176 108 q0 42 -56.5 81.5t-234.5 111.5t-250.5 143.5t-72.5 159.5q0 122 112.5 213.5t295.5 91.5q200 0 373 -60v-213zM492 866h-302v70h67q-52 24 -52 77q0 51 44 86t114 35q66 0 103 -12v-74q-43 17 -101 17q-79 0 -79 -52q0 -32 40.5 -54.5t99.5 -22.5h66v-70z"/>
    <glyph glyph-name="uni0627" unicode="ا" horiz-adv-x="575" arabic-form="isolated" d="M366 0h-157v1556h157v-1556z"/>
    <glyph glyph-name="uni0628" unicode="ب" horiz-adv-x="1757" arabic-form="final" d="M1658 291q0 -140 -144.5 -215.5t-425.5 -75.5h-392q-600 0 -600 477q0 114 37 240h157v-10q-37 -111 -37 -218q0 -160 104.5 -230.5t340.5 -70.5h381q204 0 313 39t109 138v352h157v-426zM1052 -293h-177v147h177v-147z"/>
    <glyph glyph-name="uni0629" unicode="ة" horiz-adv-x="762" arabic-form="isolated" d="M136 930q259 -13 418 -176.5t159 -360.5q0 -184 -90.5 -294.5t-228.5 -110.5q-148 0 -234.5 100t-86.5 285q0 198 161 377q-44 10 -98 10v170zM556 393q0 203 -197 314q-127 -137 -127 -334q0 -95 44 -146t118 -51q162 0 162 217zM632 1104h-176v147h176v-147zM308 1104 h-177v147h177v-147z"/>
    <glyph glyph-name="uni062A" unicode="ت" horiz-adv-x="1757" arabic-form="final" d="M1658 291q0 -140 -144.5 -215.5t-425.5 -75.5h-392q-600 0 -600 477q0 114 37 240h157v-10q-37 -111 -37 -218q0 -160 104.5 -230.5t340.5 -70.5h381q204 0 313 39t109 138v352h157v-426zM1165 815h-176v147h176v-147zM841 815h-177v147h177v-147z"/>
    <glyph glyph-name="uni062B" unicode="ث" horiz-adv-x="1757" arabic-form="final" d="M1658 291q0 -140 -144.5 -215.5t-425.5 -75.5h-392q-600 0 -600 477q0 114 37 240h157v-10q-37 -111 -37 -218q0 -160 104.5 -230.5t340.5 -70.5h381q204 0 313 39t109 138v352h157v-426zM1003 1024h-177v147h177v-147zM1180 815h-177v147h177v-147zM826 815h-177v147 h177v-147z"/>
    <glyph glyph-name="uni062C" unicode="ج" horiz-adv-x="1334" arabic-form="isolated" d="M1313 -328q-192 -96 -527 -96q-298 0 -490.5 146t-192.5 393q0 248 261 396t654 148q-315 113 -755 113h-94v186h106q225 0 487 -77t491 -211v-131h-177q-382 0 -599 -114.5t-217 -305.5q0 -171 148 -265t376 -94q322 0 516 111h13v-199zM873 66h-177v147h177v-147z"/>
    <glyph glyph-name="uni062D" unicode="ح" horiz-adv-x="1334" arabic-form="isolated" d="M1313 -328q-192 -96 -527 -96q-298 0 -490.5 146t-192.5 393q0 248 261 396t654 148q-315 113 -755 113h-94v186h106q225 0 487 -77t491 -211v-131h-177q-382 0 -599 -114.5t-217 -305.5q0 -171 148 -265t376 -94q322 0 516 111h13v-199z"/>
    <glyph glyph-name="uni062E" unicode="خ" horiz-adv-x="1334" arabic-form="isolated" d="M1313 -328q-192 -96 -527 -96q-298 0 -490.5 146t-192.5 393q0 248 261 396t654 148q-315 113 -755 113h-94v186h106q225 0 487 -77t491 -211v-131h-177q-382 0 -599 -114.5t-217 -305.5q0 -171 148 -265t376 -94q322 0 516 111h13v-199zM923 1120h-177v147h177v-147z "/>
    <glyph glyph-name="uni062F" unicode="د" horiz-adv-x="835" arabic-form="final" d="M228 956q558 -341 558 -632q0 -148 -113.5 -236t-325.5 -88h-335v188h332q134 0 209.5 39t75.5 95q0 183 -413 399v235h12z"/>
    <glyph glyph-name="uni0630" unicode="ذ" horiz-adv-x="835" arabic-form="final" d="M228 956q558 -341 558 -632q0 -148 -113.5 -236t-325.5 -88h-335v188h332q134 0 209.5 39t75.5 95q0 183 -413 399v235h12zM246 1130h-177v147h177v-147z"/>
    <glyph glyph-name="uni0631" unicode="ر" horiz-adv-x="1192" arabic-form="isolated" d="M943 516q126 -164 126 -330q0 -299 -272.5 -454.5t-698.5 -155.5v188q366 0 590 100t224 290q0 164 -199 350v12h230z"/>
    <glyph glyph-name="uni0632" unicode="ز" horiz-adv-x="1192" arabic-form="isolated" d="M943 516q126 -164 126 -330q0 -299 -272.5 -454.5t-698.5 -155.5v188q366 0 590 100t224 290q0 164 -199 350v12h230zM890 690h-177v147h177v-147z"/>
    <glyph glyph-name="uni0633" unicode="س" horiz-adv-x="2026" arabic-form="final" d="M1927 188q0 -188 -219 -188h-99q-175 0 -237 72q-64 -72 -239 -72q-127 0 -190 68q-87 -492 -493 -492q-191 0 -314.5 135t-123.5 381q0 169 32 309h158v-16q-33 -133 -33 -295q0 -154 74.5 -240t206.5 -86q366 0 366 558v100h157v-100q0 -134 160 -134q159 0 159 134 v100h158v-100q0 -134 159 -134q161 0 161 80v367h157v-447z"/>
    <glyph glyph-name="uni0634" unicode="ش" horiz-adv-x="2026" arabic-form="final" d="M1927 188q0 -188 -219 -188h-99q-175 0 -237 72q-64 -72 -239 -72q-127 0 -190 68q-87 -492 -493 -492q-191 0 -314.5 135t-123.5 381q0 169 32 309h158v-16q-33 -133 -33 -295q0 -154 74.5 -240t206.5 -86q366 0 366 558v100h157v-100q0 -134 160 -134q159 0 159 134 v100h158v-100q0 -134 159 -134q161 0 161 80v367h157v-447zM1393 926h-177v147h177v-147zM1570 717h-177v147h177v-147zM1216 717h-177v147h177v-147z"/>
    <glyph glyph-name="uni0635" unicode="ص" horiz-adv-x="2678" arabic-form="final" d="M1264 188q278 327 491 477t410 150q180 0 322 -162t142 -352q0 -138 -152.5 -219.5t-414.5 -81.5h-892q-138 0 -229 49q-95 -473 -491 -473q-191 0 -314.5 135t-123.5 381q0 169 32 309h158v-16q-33 -133 -33 -295q0 -154 74.5 -240t206.5 -86q366 0 366 558v100h157v-43 q0 -191 192 -191h99zM1445 188h595q194 0 313 34.5t119 88.5q0 132 -101 225t-209 93q-330 0 -717 -441z"/>
    <glyph glyph-name="uni0636" unicode="ض" horiz-adv-x="2678" arabic-form="final" d="M1264 188q278 327 491 477t410 150q180 0 322 -162t142 -352q0 -138 -152.5 -219.5t-414.5 -81.5h-892q-138 0 -229 49q-95 -473 -491 -473q-191 0 -314.5 135t-123.5 381q0 169 32 309h158v-16q-33 -133 -33 -295q0 -154 74.5 -240t206.5 -86q366 0 366 558v100h157v-43 q0 -191 192 -191h99zM1445 188h595q194 0 313 34.5t119 88.5q0 132 -101 225t-209 93q-330 0 -717 -441zM2213 958h-177v147h177v-147z"/>
    <glyph glyph-name="uni0637" unicode="ط" horiz-adv-x="1426" arabic-form="medial" d="M364 397q307 418 597 418q167 0 291 -159.5t124 -354.5q0 -138 -153 -219.5t-414 -81.5h-809q-59 0 -103.5 51t-44.5 137h342l12 27v1341h158v-1159zM364 188h422q196 0 314.5 34.5t118.5 88.5q0 133 -85.5 225.5t-174.5 92.5q-147 0 -274 -96t-321 -345z"/>
    <glyph glyph-name="uni0638" unicode="ظ" horiz-adv-x="1426" arabic-form="medial" d="M364 397q307 418 597 418q167 0 291 -159.5t124 -354.5q0 -138 -153 -219.5t-414 -81.5h-809q-59 0 -103.5 51t-44.5 137h342l12 27v1341h158v-1159zM364 188h422q196 0 314.5 34.5t118.5 88.5q0 133 -85.5 225.5t-174.5 92.5q-147 0 -274 -96t-321 -345zM954 958h-177 v147h177v-147z"/>
    <glyph glyph-name="uni0639" unicode="ع" horiz-adv-x="1339" arabic-form="isolated" d="M1283 -319q-211 -105 -511 -105q-320 0 -497 127t-177 350q0 230 239 363q-165 107 -165 241q0 182 132.5 290t339.5 108q114 0 256 -27v-188h-13q-130 30 -233 30q-148 0 -236.5 -58t-88.5 -159q0 -109 131 -184l604 186v-174l-499 -151q-144 -42 -226.5 -115.5 t-82.5 -159.5q0 -133 139 -214t374 -81q119 0 262 38.5t240 95.5h12v-213z"/>
    <glyph glyph-name="uni063A" unicode="غ" horiz-adv-x="1339" arabic-form="isolated" d="M1283 -319q-211 -105 -511 -105q-320 0 -497 127t-177 350q0 230 239 363q-165 107 -165 241q0 182 132.5 290t339.5 108q114 0 256 -27v-188h-13q-130 30 -233 30q-148 0 -236.5 -58t-88.5 -159q0 -109 131 -184l604 186v-174l-499 -151q-144 -42 -226.5 -115.5 t-82.5 -159.5q0 -133 139 -214t374 -81q119 0 262 38.5t240 95.5h12v-213zM698 1229h-177v147h177v-147z"/>
    <glyph glyph-name="uni0641" unicode="ف" horiz-adv-x="1942" arabic-form="final" d="M1607 1292h-177v148h177v-148zM1873 291q0 -140 -145 -215.5t-426 -75.5h-606q-600 0 -600 477q0 114 37 240h157v-10q-37 -111 -37 -218q0 -160 104.5 -230.5t340.5 -70.5h594q204 0 314 39t110 138v102q-47 -41 -133 -41q-132 0 -231 85.5t-99 231.5q0 151 99.5 263 t200.5 112q135 0 227.5 -162.5t92.5 -445.5v-219zM1703 653q0 93 -51 185t-102 92q-43 0 -91 -59t-48 -121q0 -58 50.5 -97t126.5 -39q66 0 115 39z"/>
    <glyph glyph-name="uni0642" unicode="ق" horiz-adv-x="1430" arabic-form="final" d="M1264 1090h-178v147h178v-147zM938 1090h-176v147h176v-147zM1194 264q-46 -41 -132 -41q-133 0 -231.5 85.5t-98.5 232.5q0 150 99 262t201 112q134 0 226.5 -162.5t92.5 -445.5q0 -336 -192.5 -533.5t-524.5 -197.5q-263 0 -425 142.5t-162 375.5q0 85 32 199h157v-10 q-32 -96 -32 -177q0 -160 111 -251t321 -91q250 0 398 132t160 368zM1182 451q0 92 -51.5 184t-100.5 92q-44 0 -92.5 -59t-48.5 -121q0 -58 51 -96.5t127 -38.5q66 0 115 39z"/>
    <glyph glyph-name="uni0643" unicode="ك" horiz-adv-x="1475" arabic-form="final" d="M1376 270q0 -123 -105.5 -196.5t-287.5 -73.5h-511q-198 0 -304.5 79t-106.5 230q0 40 10 121h161v-10q-14 -57 -14 -109q0 -123 254 -123h501q246 0 246 156v1212h157v-1286zM774 879q-164 0 -164 -48q0 -28 68 -40l77 -15q101 -18 101 -92q0 -67 -92.5 -104t-235.5 -37 v69q244 0 244 66q0 17 -23.5 25t-121 25t-97.5 99q0 58 65.5 89.5t178.5 31.5v-69z"/>
    <glyph glyph-name="uni0644" unicode="ل" horiz-adv-x="1253" arabic-form="isolated" d="M1156 248q0 -453 -546 -453q-294 0 -427.5 106.5t-133.5 336.5q0 123 24 251h166v-10q-33 -113 -33 -239q0 -144 92 -200t314 -56q385 0 385 276v1296h159v-1308z"/>
    <glyph glyph-name="uni0645" unicode="م" horiz-adv-x="835" arabic-form="final" d="M835 0h-486q-180 0 -180 -113v-311h-132v313q0 299 327 299h248q-89 84 -148.5 124t-114.5 40q-103 0 -103 -114h-133q0 114 63.5 179.5t172.5 65.5q130 0 238 -74t248 -221v-188z"/>
    <glyph glyph-name="uni0646" unicode="ن" horiz-adv-x="1302" arabic-form="final" d="M752 500h-177v147h177v-147zM1234 401q32 -120 32 -229q0 -277 -156 -436.5t-446 -159.5q-291 0 -447 159.5t-156 436.5q0 109 33 229h157v-10q-33 -96 -33 -207q0 -420 446 -420q445 0 445 420q0 57 -17 137l-16 70v10h158z"/>
    <glyph glyph-name="uni0647" unicode="ه" horiz-adv-x="762" arabic-form="isolated" d="M136 930q259 -13 418 -176.5t159 -360.5q0 -184 -90.5 -294.5t-228.5 -110.5q-148 0 -234.5 100t-86.5 285q0 198 161 377q-44 10 -98 10v170zM556 393q0 203 -197 314q-127 -137 -127 -334q0 -95 44 -146t118 -51q162 0 162 217z"/>
    <glyph glyph-name="uni0648" unicode="و" horiz-adv-x="1042" arabic-form="final" d="M788 154q-49 -41 -132 -41q-132 0 -226.5 85t-94.5 232q0 151 95.5 263t195.5 112q126 0 221.5 -164.5t95.5 -443.5q0 -304 -240.5 -462.5t-702.5 -158.5v188q390 0 589 101t199 289zM774 340q0 93 -50.5 184.5t-99.5 91.5q-47 0 -89.5 -57.5t-42.5 -122.5 q0 -59 47.5 -97t121.5 -38q78 0 113 39z"/>
    <glyph glyph-name="uni0649" unicode="ى" horiz-adv-x="1573" arabic-form="isolated" d="M1487 866h-12q-180 88 -384 88q-99 0 -163.5 -36t-64.5 -87q0 -44 45.5 -83.5t240.5 -122t261.5 -144.5t66.5 -147q0 -161 -213 -247.5t-630 -86.5q-597 0 -597 442q0 99 24 252h160v-10q-27 -135 -27 -240q0 -133 105 -194.5t337 -61.5q332 0 508 42t176 108 q0 42 -56.5 81.5t-234.5 111.5t-250.5 143.5t-72.5 159.5q0 122 112.5 213.5t295.5 91.5q200 0 373 -60v-213z"/>
    <glyph glyph-name="uni064A" unicode="ي" horiz-adv-x="1573" arabic-form="isolated" d="M1487 866h-12q-180 88 -384 88q-99 0 -163.5 -36t-64.5 -87q0 -44 45.5 -83.5t240.5 -122t261.5 -144.5t66.5 -147q0 -161 -213 -247.5t-630 -86.5q-597 0 -597 442q0 99 24 252h160v-10q-27 -135 -27 -240q0 -133 105 -194.5t337 -61.5q332 0 508 42t176 108 q0 42 -56.5 81.5t-234.5 111.5t-250.5 143.5t-72.5 159.5q0 122 112.5 213.5t295.5 91.5q200 0 373 -60v-213zM908 -293h-176v147h176v-147zM584 -293h-177v147h177v-147z"/>
    <glyph glyph-name="uni066E.medi" unicode="ى" horiz-adv-x="600" arabic-form="initial" d="M502 270q0 -123 -106 -196.5t-288 -73.5h-108q-59 0 -103.5 51t-44.5 137h246q246 0 246 156v373h158v-447z"/>
    <glyph glyph-name="uniFEE0" unicode="ل" horiz-adv-x="530" arabic-form="medial" d="M432 270q0 -123 -105 -196.5t-287 -73.5h-40q-59 0 -103.5 51t-44.5 137h178q245 0 245 156v1212h157v-1286z"/>
    <glyph glyph-name="uni067E" unicode="پ" horiz-adv-x="1757" arabic-form="final" d="M1658 291q0 -140 -144.5 -215.5t-425.5 -75.5h-392q-600 0 -600 477q0 114 37 240h157v-10q-37 -111 -37 -218q0 -160 104.5 -230.5t340.5 -70.5h381q204 0 313 39t109 138v352h157v-426zM1229 -221h-177v147h177v-147zM875 -221h-177v147h177v-147zM1052 -430h-177v147 h177v-147z"/>
    <glyph glyph-name="uniFB58" unicode="پ" horiz-adv-x="600" arabic-form="initial" d="M502 270q0 -123 -106 -196.5t-288 -73.5h-108q-59 0 -103.5 51t-44.5 137h246q246 0 246 156v373h158v-447zM511 -221h-176v147h176v-147zM157 -221h-176v147h176v-147zM335 -430h-178v147h178v-147z"/>
    <glyph glyph-name="uni0686" unicode="چ" horiz-adv-x="1334" arabic-form="isolated" d="M1313 -328q-192 -96 -527 -96q-298 0 -490.5 146t-192.5 393q0 248 261 396t654 148q-315 113 -755 113h-94v186h106q225 0 487 -77t491 -211v-131h-177q-382 0 -599 -114.5t-217 -305.5q0 -171 148 -265t376 -94q322 0 516 111h13v-199zM1049 147h-177v148h177v-148z M696 147h-178v148h178v-148zM872 -61h-176v147h176v-147z"/>
    <glyph glyph-name="uniFB7B" unicode="چ" horiz-adv-x="1334" arabic-form="final" d="M1334 0h-39q-162 0 -236 76t-74 243v218q-341 -14 -533 -126t-192 -292q0 -171 148 -265t376 -94q322 0 516 111h13v-199q-192 -96 -527 -96q-298 0 -490.5 146t-192.5 393q0 248 261 396t654 148q-315 113 -755 113h-94v186h106q225 0 487 -77t491 -211v-131h-111v-164 q0 -118 37.5 -152.5t110.5 -34.5h44v-188zM887 111h-177v147h177v-147zM533 111h-177v147h177v-147zM710 -98h-177v147h177v-147z"/>
    <glyph glyph-name="uniFB7C" unicode="چ" horiz-adv-x="1334" arabic-form="initial" d="M1236 184q-214 0 -628.5 -92t-607.5 -92q-59 0 -103.5 51t-44.5 137h155q172 0 527.5 80.5t487.5 87.5q-363 273 -783 273h-114v186h126q97 0 188 -16q90 -16 179 -48q88 -31 179 -80q86 -47 183 -113q90 -61 198 -145l52 -41h2l4 1v-189zM1020 -221h-178v147h178v-147z M666 -221h-176v147h176v-147zM842 -430h-176v147h176v-147z"/>
    <glyph glyph-name="uni0698" unicode="ژ" horiz-adv-x="1192" arabic-form="isolated" d="M943 516q126 -164 126 -330q0 -299 -272.5 -454.5t-698.5 -155.5v188q366 0 590 100t224 290q0 164 -199 350v12h230zM889 899h-177v147h177v-147zM1066 690h-177v147h177v-147zM712 690h-177v147h177v-147z"/>
    <glyph glyph-name="uni06A9" unicode="ک" horiz-adv-x="1460" arabic-form="final" d="M983 188q128 0 178.5 25t50.5 84q0 38 -47 81.5t-194 160.5l-349 274q-125 101 -125 197q0 52 48.5 95t211.5 124l605 301v-197l-506 -250q-50 -20 -90.5 -53t-40.5 -55q0 -56 110 -144l340 -268q152 -120 194 -180.5t42 -118.5q0 -264 -426 -264h-513q-198 0 -304.5 79 t-106.5 230q0 40 10 121h161v-10q-14 -57 -14 -109q0 -123 254 -123h511z"/>
    <glyph glyph-name="uniFB90" unicode="ک" horiz-adv-x="968" arabic-form="initial" d="M870 1333l-506 -250q-50 -20 -90 -53t-40 -55q0 -56 110 -144l339 -268q152 -120 194 -180.5t42 -118.5q0 -264 -425 -264h-494q-59 0 -103.5 51t-44.5 137h640q128 0 178 25t50 84q0 38 -46 81.5t-195 160.5l-348 274q-126 101 -126 197q0 52 49 95t211 124l605 301 v-197z"/>
    <glyph glyph-name="uni06AF" unicode="گ" horiz-adv-x="1460" arabic-form="final" d="M983 188q128 0 178.5 25t50.5 84q0 38 -47 81.5t-194 160.5l-349 274q-125 101 -125 197q0 52 48.5 95t211.5 124l605 301v-197l-506 -250q-50 -20 -90.5 -53t-40.5 -55q0 -56 110 -144l340 -268q152 -120 194 -180.5t42 -118.5q0 -264 -426 -264h-513q-198 0 -304.5 79 t-106.5 230q0 40 10 121h161v-10q-14 -57 -14 -109q0 -123 254 -123h511zM1332 1649l-806 -402v101l806 401v-100z"/>
    <glyph glyph-name="uniFB94" unicode="گ" horiz-adv-x="968" arabic-form="initial" d="M870 1333l-506 -250q-50 -20 -90 -53t-40 -55q0 -56 110 -144l339 -268q152 -120 194 -180.5t42 -118.5q0 -264 -425 -264h-494q-59 0 -103.5 51t-44.5 137h640q128 0 178 25t50 84q0 38 -46 81.5t-195 160.5l-348 274q-126 101 -126 197q0 52 49 95t211 124l605 301 v-197zM840 1649l-805 -402v101l805 401v-100z"/>
    <glyph glyph-name="uni06CC" unicode="ی" horiz-adv-x="1573" arabic-form="isolated" d="M1487 866h-12q-180 88 -384 88q-99 0 -163.5 -36t-64.5 -87q0 -44 45.5 -83.5t240.5 -122t261.5 -144.5t66.5 -147q0 -161 -213 -247.5t-630 -86.5q-597 0 -597 442q0 99 24 252h160v-10q-27 -135 -27 -240q0 -133 105 -194.5t337 -61.5q332 0 508 42t176 108 q0 42 -56.5 81.5t-234.5 111.5t-250.5 143.5t-72.5 159.5q0 122 112.5 213.5t295.5 91.5q200 0 373 -60v-213z"/>
    <glyph glyph-name="uniFBFD" unicode="ی" horiz-adv-x="1454" arabic-form="final" d="M1454 0q-114 0 -183 44.5t-109 119t-87 197t-87 157.5t-101 35q-111 0 -111 -88q0 -55 87 -141q115 -115 115 -228q0 -264 -450 -264q-221 0 -356 122t-135 337q0 65 17 170h160v-10q-20 -66 -20 -158q0 -146 83 -209.5t253 -63.5q286 0 286 117q0 52 -89 142 q-113 111 -113 221q0 109 70 175t203 66q95 0 167 -44t135.5 -229t121.5 -232.5t143 -47.5v-188z"/>
    <glyph glyph-name="uniFBFE" unicode="ی" horiz-adv-x="600" arabic-form="initial" d="M502 270q0 -123 -106 -196.5t-288 -73.5h-108q-59 0 -103.5 51t-44.5 137h246q246 0 246 156v373h158v-447zM501 -293h-176v147h176v-147zM177 -293h-177v147h177v-147z"/>
    <glyph glyph-name="uniFBA5" unicode="ۀ" horiz-adv-x="938" arabic-form="final" d="M938 0q-142 0 -213 79.5t-71 313.5q-41 -55 -119 -92t-155 -37q-129 0 -211.5 77.5t-82.5 211.5q0 148 152 275.5t416 168.5v72h157v-676q0 -111 30 -158t97 -47v-188zM654 569v293q-194 -33 -302 -118t-108 -189q0 -57 39 -88t97 -31q173 0 274 133zM555 1204h-302v70 h67q-52 24 -52 77q0 51 44 86t114 35q66 0 103 -12v-74q-43 17 -101 17q-79 0 -79 -52q0 -32 40.5 -54.5t99.5 -22.5h66v-70z"/>
    <glyph glyph-name="uni06C0" unicode="ۀ" horiz-adv-x="762" arabic-form="isolated" d="M136 930q259 -13 418 -176.5t159 -360.5q0 -184 -90.5 -294.5t-228.5 -110.5q-148 0 -234.5 100t-86.5 285q0 198 161 377q-44 10 -98 10v170zM556 393q0 203 -197 314q-127 -137 -127 -334q0 -95 44 -146t118 -51q162 0 162 217zM440 1104h-302v70h67q-52 24 -52 77 q0 51 44 86t114 35q66 0 103 -12v-74q-43 17 -101 17q-79 0 -79 -52q0 -32 40.5 -54.5t99.5 -22.5h66v-70z"/>
    <glyph glyph-name="uniFEDE" unicode="ل" horiz-adv-x="1253" arabic-form="final" d="M1156 248q0 -453 -546 -453q-294 0 -427.5 106.5t-133.5 336.5q0 123 24 251h166v-10q-33 -113 -33 -239q0 -144 92 -200t314 -56q385 0 385 276v1296h159v-1308z"/>
    <glyph glyph-name="uni0679" unicode="ٹ" horiz-adv-x="1757" arabic-form="final" d="M1658 291q0 -140 -144.5 -215.5t-425.5 -75.5h-392q-600 0 -600 477q0 114 37 240h157v-10q-37 -111 -37 -218q0 -160 104.5 -230.5t340.5 -70.5h381q204 0 313 39t109 138v352h157v-426zM1124 908q0 -108 -192 -108h-272v67h79v413h69v-328q70 141 168 141q68 0 111 -67 q37 -56 37 -118zM1058 912q0 35 -18 69q-24 45 -66 45q-70 0 -166 -159h116q134 0 134 45z"/>
    <glyph glyph-name="uniFB68" unicode="ٹ" horiz-adv-x="600" arabic-form="initial" d="M502 270q0 -123 -106 -196.5t-288 -73.5h-108q-59 0 -103.5 51t-44.5 137h246q246 0 246 156v373h158v-447zM524 908q0 -108 -192 -108h-272v67h79v413h69v-328q70 141 168 141q68 0 111 -67q37 -56 37 -118zM458 912q0 35 -18 69q-24 45 -66 45q-70 0 -166 -159h116 q134 0 134 45z"/>
    <glyph glyph-name="uni0688" unicode="ڈ" horiz-adv-x="835" arabic-form="final" d="M228 956q558 -341 558 -632q0 -148 -113.5 -236t-325.5 -88h-335v188h332q134 0 209.5 39t75.5 95q0 183 -413 399v235h12zM584 1208q0 -108 -192 -108h-272v67h79v413h69v-328q70 141 168 141q68 0 111 -67q37 -56 37 -118zM518 1212q0 35 -18 69q-24 45 -66 45 q-70 0 -166 -159h116q134 0 134 45z"/>
    <glyph glyph-name="uni0691" unicode="ڑ" horiz-adv-x="1192" arabic-form="isolated" d="M943 516q126 -164 126 -330q0 -299 -272.5 -454.5t-698.5 -155.5v188q366 0 590 100t224 290q0 164 -199 350v12h230zM932 808q0 -108 -192 -108h-272v67h79v413h69v-328q70 141 168 141q68 0 111 -67q37 -56 37 -118zM866 812q0 35 -18 69q-24 45 -66 45 q-70 0 -166 -159h116q134 0 134 45z"/>
    <glyph glyph-name="uni06BA" unicode="ں" horiz-adv-x="1302" arabic-form="final" d="M1234 401q32 -120 32 -229q0 -277 -156 -436.5t-446 -159.5q-291 0 -447 159.5t-156 436.5q0 109 33 229h157v-10q-33 -96 -33 -207q0 -420 446 -420q445 0 445 420q0 57 -17 137l-16 70v10h158z"/>
    <glyph glyph-name="uni06C1" unicode="ہ" horiz-adv-x="1306" arabic-form="final" d="M1306 0q-302 0 -363 206q-24 80 -48 114q-39 55 -110 55q-124 0 -255 -183q-104 -148 -200 -368h-210v10q196 363 289 482q178 223 373 223q233 0 324 -242q26 -67 53 -88t147 -21v-188z"/>
    <glyph glyph-name="uniFBA8" unicode="ہ" horiz-adv-x="600" arabic-form="initial" d="M502 270q0 -133 -120 -206q-107 -64 -274 -64h-108q-73 0 -115 67q-33 54 -33 121h246q246 0 246 156v373h158v-447zM326 -231h-150v125q0 39 39 70q43 36 111 36v-49q-86 0 -86 -57h86v-125z"/>
    <glyph glyph-name="uniFBA9" unicode="ہ" horiz-adv-x="1225" arabic-form="medial" d="M1224 0q-82 0 -196.5 94t-168.5 94q-113 0 -189 -60q-96 -73 -170 -258h-174q-27 118 -30 231q-12 -13 -32 -27q-66 -45 -89 -55q-47 -19 -103 -19h-72q-74 0 -115 67q-33 53 -33 121h246q113 0 160 41q31 27 62 115l132 373h182q-27 -67 -78 -201q-15 -39 -66 -216 q-29 -101 -34 -246q64 129 181 221q99 77 232 77q97 0 211.5 -82t143.5 -82v-188zM482 -380h-150v125q0 46 48 72q44 24 102 24v-49q-86 0 -86 -47h86v-125z"/>
    <glyph glyph-name="uni06D2" unicode="ے" horiz-adv-x="2104" arabic-form="isolated" d="M2260 -112q0 -68 -33 -121q-41 -67 -115 -67h-1560q-529 0 -529 189q0 91 93 147q60 36 232 88q196 60 293 105q90 42 228 205q115 136 205 136q118 0 239 -182v-188l-94 122q-78 91 -123 91q-24 0 -120 -115q-110 -133 -197 -178q-119 -62 -341 -119q-168 -43 -168 -67 q0 -46 208 -46h1782z"/>
    <glyph glyph-name="uniFBAF" unicode="ے" horiz-adv-x="2104" arabic-form="final" d="M2260 -242q0 -68 -33 -121q-41 -67 -115 -67h-1560q-256 0 -397 63q-132 59 -132 157q0 111 133 186q391 158 841 185t774 27h333v-188h-340q-314 0 -652.5 -8.5t-618.5 -64.5q-223 -53 -223 -107q0 -52 208 -62h1782z"/>
    <glyph glyph-name="uni06D3" unicode="ۓ" horiz-adv-x="2104" arabic-form="isolated" d="M2260 -112q0 -68 -33 -121q-41 -67 -115 -67h-1560q-529 0 -529 189q0 91 93 147q60 36 232 88q196 60 293 105q90 42 228 205q115 136 205 136q118 0 239 -182v-188l-94 122q-78 91 -123 91q-24 0 -120 -115q-110 -133 -197 -178q-119 -62 -341 -119q-168 -43 -168 -67 q0 -46 208 -46h1782zM1195 725h-302v70h67q-52 24 -52 77q0 51 44 86t114 35q66 0 103 -12v-74q-43 17 -101 17q-79 0 -79 -52q0 -32 40.5 -54.5t99.5 -22.5h66v-70z"/>
    <glyph glyph-name="uniFBB1" unicode="ۓ" horiz-adv-x="2104" arabic-form="final" d="M2260 -242q0 -68 -33 -121q-41 -67 -115 -67h-1560q-256 0 -397 63q-132 59 -132 157q0 111 133 186q391 158 841 185t774 27h333v-188h-340q-314 0 -652.5 -8.5t-618.5 -64.5q-223 -53 -223 -107q0 -52 208 -62h1782zM1483 660h-302v70h67q-52 24 -52 77q0 51 44 86 t114 35q66 0 103 -12v-74q-43 17 -101 17q-79 0 -79 -52q0 -32 40.5 -54.5t99.5 -22.5h66v-70z"/>
    <glyph glyph-name="uni06A4" unicode="ڤ" horiz-adv-x="1942" arabic-form="final" d="M1799 1292h-177v147h177v-147zM1873 291q0 -140 -145 -215.5t-426 -75.5h-606q-600 0 -600 477q0 114 37 240h157v-10q-37 -111 -37 -218q0 -160 104.5 -230.5t340.5 -70.5h594q204 0 314 39t110 138v102q-47 -41 -133 -41q-132 0 -231 85.5t-99 231.5q0 151 99.5 263 t200.5 112q135 0 227.5 -162.5t92.5 -445.5v-219zM1703 653q0 93 -51 185t-102 92q-43 0 -91 -59t-48 -121q0 -58 50.5 -97t126.5 -39q66 0 115 39zM1268 1292v147h177v-147h-177zM1445 1501v147h177v-147h-177z"/>
    <glyph glyph-name="uniFB6C" unicode="ڤ" horiz-adv-x="713" arabic-form="initial" d="M546 467q-49 -41 -152 -41q-134 0 -232 85.5t-98 231.5q0 151 99 263t201 112q135 0 232.5 -163.5t97.5 -444.5q0 -249 -127 -379.5t-363 -130.5h-204q-59 0 -103.5 51t-44.5 137h354q143 0 241.5 76.5t98.5 202.5zM530 647q0 112 -57 199.5t-112 87.5q-48 0 -97.5 -54 t-49.5 -130q0 -140 184 -140q81 0 132 37zM457 1501h-177v147h177v-147zM634 1292h-177v147h177v-147zM280 1292h-177v147h177v-147z"/>
    <glyph glyph-name="uniFB6D" unicode="ڤ" horiz-adv-x="727" arabic-form="medial" d="M727 0h-49q-144 0 -314 100q-171 -100 -315 -100h-49q-59 0 -103.5 51t-44.5 137h246q65 0 134 17q-164 167 -164 311q0 143 83 230.5t213 87.5q129 0 212 -87.5t83 -230.5q0 -144 -162 -311q67 -17 132 -17h98v-188zM364 266q138 109 138 240q0 59 -37.5 98t-100.5 39 q-64 0 -101 -39t-37 -98q0 -131 138 -240zM457 1217h-177v147h177v-147zM634 1008h-177v147h177v-147zM280 1008h-177v147h177v-147z"/>
    <glyph glyph-name="uniFBA6" unicode="ہ" horiz-adv-x="762" arabic-form="isolated" d="M136 930q259 -13 418 -176.5t159 -360.5q0 -184 -90.5 -294.5t-228.5 -110.5q-148 0 -234.5 100t-86.5 285q0 198 161 377q-44 10 -98 10v170zM556 393q0 203 -197 314q-127 -137 -127 -334q0 -95 44 -146t118 -51q162 0 162 217z"/>
    <glyph glyph-name="uni06A1.init" unicode="ٯ" horiz-adv-x="713" d="M546 467q-49 -41 -152 -41q-134 0 -232 85.5t-98 231.5q0 151 99 263t201 112q135 0 232.5 -163.5t97.5 -444.5q0 -249 -127 -379.5t-363 -130.5h-204q-59 0 -103.5 51t-44.5 137h354q143 0 241.5 76.5t98.5 202.5zM530 647q0 112 -57 199.5t-112 87.5q-48 0 -97.5 -54 t-49.5 -130q0 -140 184 -140q81 0 132 37z"/>
    <glyph glyph-name="uni06A1.medi" unicode="ٯ" horiz-adv-x="727" d="M727 0h-49q-144 0 -314 100q-171 -100 -315 -100h-49q-59 0 -103.5 51t-44.5 137h246q65 0 134 17q-164 167 -164 311q0 143 83 230.5t213 87.5q129 0 212 -87.5t83 -230.5q0 -144 -162 -311q67 -17 132 -17h98v-188zM364 266q138 109 138 240q0 59 -37.5 98t-100.5 39 q-64 0 -101 -39t-37 -98q0 -131 138 -240z"/>
    <glyph glyph-name="uni0671" unicode="ٱ" horiz-adv-x="575" arabic-form="isolated" d="M366 0h-157v1556h157v-1556zM515 1763q0 -69 -71 -113q-64 -39 -140 -39q-38 0 -101 20.5t-96 20.5q-36 0 -101 -42v70q64 42 102 42q31 0 72 -10q18 74 72.5 120.5t125.5 46.5q137 0 137 -116zM431 1763q0 46 -53 46q-43 0 -78 -40q-31 -36 -41 -82q24 -6 45 -6 q54 0 90.5 25.5t36.5 56.5z"/>
    <glyph glyph-name="uniFB51" unicode="ٱ" horiz-adv-x="575" arabic-form="final" d="M575 0q-171 0 -266 87.5t-95 244.5v1224h157v-1212q0 -85 46 -120.5t153 -35.5h5v-188zM515 1763q0 -69 -71 -113q-64 -39 -140 -39q-38 0 -101 20.5t-96 20.5q-36 0 -101 -42v70q64 42 102 42q31 0 72 -10q18 74 72.5 120.5t125.5 46.5q137 0 137 -116zM431 1763 q0 46 -53 46q-43 0 -78 -40q-31 -36 -41 -82q24 -6 45 -6q54 0 90.5 25.5t36.5 56.5z"/>
    <glyph glyph-name="uni0672.fina" unicode="ٲ" horiz-adv-x="575" d="M575 0q-171 0 -266 87.5t-95 244.5v1224h157v-1212q0 -85 46 -120.5t153 -35.5h5v-188zM472 1620h-212q-28 0 -60 7t-42 7q-38 0 -108 -45v74q64 41 108 41q15 0 41.5 -8.5t39.5 -8.5q-54 25 -54 80q0 54 45.5 87.5t111.5 33.5t103 -12v-74q-43 17 -101 17q-79 0 -79 -52 q0 -37 51 -59q42 -18 90 -18h66v-70z"/>
    <glyph glyph-name="uni0673.fina" unicode="ٳ" horiz-adv-x="575" d="M575 0q-171 0 -266 87.5t-95 244.5v1224h157v-1212q0 -85 46 -120.5t153 -35.5h5v-188zM472 -362h-212q-28 0 -60 7t-42 7q-38 0 -108 -45v74q64 41 108 41q15 0 41.5 -8.5t39.5 -8.5q-54 25 -54 80q0 54 45.5 87.5t111.5 33.5t103 -12v-74q-43 17 -101 17q-79 0 -79 -52 q0 -37 51 -59q42 -18 90 -18h66v-70z"/>
    <glyph glyph-name="uni0675.fina" unicode="ٵ" horiz-adv-x="768" d="M768 1310h-302v70h67q-52 24 -52 77q0 54 45.5 87.5t111.5 33.5t104 -12v-74q-44 17 -101 17q-79 0 -79 -52q0 -37 50 -59q42 -18 90 -18h66v-70zM768 0h-200q-162 0 -258 88t-96 244v1224h157v-1212q0 -156 199 -156h198v-188z"/>
    <glyph glyph-name="uni0677" unicode="ٷ" horiz-adv-x="1042" arabic-form="isolated" d="M788 154q-49 -41 -132 -41q-132 0 -226.5 85t-94.5 232q0 151 95.5 263t195.5 112q126 0 221.5 -164.5t95.5 -443.5q0 -304 -240.5 -462.5t-702.5 -158.5v188q390 0 589 101t199 289zM774 340q0 93 -50.5 184.5t-99.5 91.5q-47 0 -89.5 -57.5t-42.5 -122.5 q0 -59 47.5 -97t121.5 -38q78 0 113 39zM997 979h-302v70h67q-52 24 -52 77q0 51 44 86t114 35q66 0 103 -12v-74q-43 17 -101 17q-79 0 -79 -52q0 -32 40.5 -54.5t99.5 -22.5h66v-70zM524 979l-112 23q-153 -77 -332 -86v70q120 2 240 45q-112 37 -112 114q0 55 42 88 t110 33q65 0 110 -35t45 -88q0 -43 -47 -88l56 -10v-66zM392 1070q39 33 39 73q0 22 -20.5 38t-48.5 16q-70 0 -70 -54q0 -51 100 -73z"/>
    <glyph glyph-name="uni0678.fina" unicode="ٸ" horiz-adv-x="1454" d="M1454 0q-114 0 -183 44.5t-109 119t-87 197t-87 157.5t-101 35q-111 0 -111 -88q0 -55 87 -141q115 -115 115 -228q0 -264 -450 -264q-221 0 -356 122t-135 337q0 65 17 170h160v-10q-20 -66 -20 -158q0 -146 83 -209.5t253 -63.5q286 0 286 117q0 52 -89 142 q-113 111 -113 221q0 109 70 175t203 66q95 0 167 -44t135.5 -229t121.5 -232.5t143 -47.5v-188zM1267 915h-302v70h67q-52 24 -52 77q0 51 44 86t114 35q66 0 103 -12v-74q-43 17 -101 17q-79 0 -79 -52q0 -32 40.5 -54.5t99.5 -22.5h66v-70z"/>
    <glyph glyph-name="uni067A" unicode="ٺ" horiz-adv-x="1757" arabic-form="final" d="M1658 291q0 -140 -144.5 -215.5t-425.5 -75.5h-392q-600 0 -600 477q0 114 37 240h157v-10q-37 -111 -37 -218q0 -160 104.5 -230.5t340.5 -70.5h381q204 0 313 39t109 138v352h157v-426zM1003 1024h-176v147h176v-147zM1003 815h-176v148h176v-148z"/>
    <glyph glyph-name="uniFB60" unicode="ٺ" horiz-adv-x="600" arabic-form="initial" d="M502 270q0 -123 -106 -196.5t-288 -73.5h-108q-59 0 -103.5 51t-44.5 137h246q246 0 246 156v373h158v-447zM428 1100h-176v147h176v-147zM428 891h-176v148h176v-148z"/>
    <glyph glyph-name="uni067B" unicode="ٻ" horiz-adv-x="1757" arabic-form="final" d="M1658 291q0 -140 -144.5 -215.5t-425.5 -75.5h-392q-600 0 -600 477q0 114 37 240h157v-10q-37 -111 -37 -218q0 -160 104.5 -230.5t340.5 -70.5h381q204 0 313 39t109 138v352h157v-426zM1003 -221h-176v147h176v-147zM1003 -430h-176v148h176v-148z"/>
    <glyph glyph-name="uniFB54" unicode="ٻ" horiz-adv-x="600" arabic-form="initial" d="M502 270q0 -123 -106 -196.5t-288 -73.5h-108q-59 0 -103.5 51t-44.5 137h246q246 0 246 156v373h158v-447zM335 -221h-176v147h176v-147zM335 -430h-176v148h176v-148z"/>
    <glyph glyph-name="uni067C.init" unicode="ټ" horiz-adv-x="600" d="M502 270q0 -123 -106 -196.5t-288 -73.5h-108q-59 0 -103.5 51t-44.5 137h246q246 0 246 156v373h158v-447zM600 891h-176v147h176v-147zM276 891h-177v147h177v-147zM257 79q71 0 121 -42t50 -102q0 -59 -50 -101t-121 -42q-72 0 -122.5 42t-50.5 101q0 60 50.5 102 t122.5 42zM257 -142q38 0 65 22.5t27 54.5t-27 55t-65 23q-39 0 -66.5 -23t-27.5 -55t27.5 -54.5t66.5 -22.5z"/>
    <glyph glyph-name="uni067D.init" unicode="ٽ" horiz-adv-x="600" d="M502 270q0 -123 -106 -196.5t-288 -73.5h-108q-59 0 -103.5 51t-44.5 137h246q246 0 246 156v373h158v-447zM428 891h-177v147h177v-147zM605 1100h-177v147h177v-147zM251 1100h-177v147h177v-147z"/>
    <glyph glyph-name="uni067F" unicode="ٿ" horiz-adv-x="1757" arabic-form="final" d="M1658 291q0 -140 -144.5 -215.5t-425.5 -75.5h-392q-600 0 -600 477q0 114 37 240h157v-10q-37 -111 -37 -218q0 -160 104.5 -230.5t340.5 -70.5h381q204 0 313 39t109 138v352h157v-426zM1165 1024h-176v147h176v-147zM841 1024h-177v147h177v-147zM1165 815h-176v147 h176v-147zM841 815h-177v147h177v-147z"/>
    <glyph glyph-name="uniFB64" unicode="ٿ" horiz-adv-x="600" arabic-form="initial" d="M502 270q0 -123 -106 -196.5t-288 -73.5h-108q-59 0 -103.5 51t-44.5 137h246q246 0 246 156v373h158v-447zM590 1100h-176v147h176v-147zM266 1100h-177v147h177v-147zM590 891h-176v147h176v-147zM266 891h-177v147h177v-147z"/>
    <glyph glyph-name="uni0680" unicode="ڀ" horiz-adv-x="1757" arabic-form="final" d="M1658 291q0 -140 -144.5 -215.5t-425.5 -75.5h-392q-600 0 -600 477q0 114 37 240h157v-10q-37 -111 -37 -218q0 -160 104.5 -230.5t340.5 -70.5h381q204 0 313 39t109 138v352h157v-426zM1165 -221h-176v147h176v-147zM841 -221h-177v147h177v-147zM1165 -430h-176v147 h176v-147zM841 -430h-177v147h177v-147z"/>
    <glyph glyph-name="uniFB5C" unicode="ڀ" horiz-adv-x="600" arabic-form="initial" d="M502 270q0 -123 -106 -196.5t-288 -73.5h-108q-59 0 -103.5 51t-44.5 137h246q246 0 246 156v373h158v-447zM501 -221h-176v147h176v-147zM177 -221h-177v147h177v-147zM501 -430h-176v147h176v-147zM177 -430h-177v147h177v-147z"/>
    <glyph glyph-name="uni0681.init" unicode="ځ" horiz-adv-x="1334" d="M1236 184q-214 0 -628.5 -92t-607.5 -92q-59 0 -103.5 51t-44.5 137h155q172 0 527.5 80.5t487.5 87.5q-363 273 -783 273h-114v186h126q97 0 188 -16q90 -16 179 -48q88 -31 179 -80q86 -47 183 -113q90 -61 198 -145l52 -41h2l4 1v-189zM907 936h-302v70h67 q-52 24 -52 77q0 51 44 86t114 35q66 0 103 -12v-74q-43 17 -101 17q-79 0 -79 -52q0 -32 40.5 -54.5t99.5 -22.5h66v-70z"/>
    <glyph glyph-name="uni0681.fina" unicode="ځ" horiz-adv-x="1334" d="M1334 0h-39q-408 0 -408 319v211q-294 -26 -460.5 -134t-166.5 -277q0 -171 148 -265t376 -94q322 0 516 111h13v-199q-192 -96 -527 -96q-298 0 -490.5 146t-192.5 393q0 248 261 396t654 148q-315 113 -755 113h-94v186h106q225 0 487 -77t491 -211v-131 q-173 0 -209 -2v-162q0 -102 60 -144.5t186 -42.5h44v-188zM907 1120h-302v70h67q-52 24 -52 77q0 51 44 86t114 35q66 0 103 -12v-74q-43 17 -101 17q-79 0 -79 -52q0 -32 40.5 -54.5t99.5 -22.5h66v-70z"/>
    <glyph glyph-name="uni0682.init" unicode="ڂ" horiz-adv-x="1334" d="M1236 184q-214 0 -628.5 -92t-607.5 -92q-59 0 -103.5 51t-44.5 137h155q172 0 527.5 80.5t487.5 87.5q-363 273 -783 273h-114v186h126q97 0 188 -16q90 -16 179 -48q88 -31 179 -80q86 -47 183 -113q90 -61 198 -145l52 -41h2l4 1v-189zM855 1145h-176v147h176v-147z M855 936h-176v148h176v-148z"/>
    <glyph glyph-name="uni0682.fina" unicode="ڂ" horiz-adv-x="1334" d="M1334 0h-39q-408 0 -408 319v211q-294 -26 -460.5 -134t-166.5 -277q0 -171 148 -265t376 -94q322 0 516 111h13v-199q-192 -96 -527 -96q-298 0 -490.5 146t-192.5 393q0 248 261 396t654 148q-315 113 -755 113h-94v186h106q225 0 487 -77t491 -211v-131 q-173 0 -209 -2v-162q0 -102 60 -144.5t186 -42.5h44v-188zM923 1329h-176v147h176v-147zM923 1120h-176v148h176v-148z"/>
    <glyph glyph-name="uni0683" unicode="ڃ" horiz-adv-x="1334" arabic-form="isolated" d="M1313 -328q-192 -96 -527 -96q-298 0 -490.5 146t-192.5 393q0 248 261 396t654 148q-315 113 -755 113h-94v186h106q225 0 487 -77t491 -211v-131h-177q-382 0 -599 -114.5t-217 -305.5q0 -171 148 -265t376 -94q322 0 516 111h13v-199zM1035 66h-176v147h176v-147z M711 66h-177v147h177v-147z"/>
    <glyph glyph-name="uniFB77" unicode="ڃ" horiz-adv-x="1334" arabic-form="final" d="M1334 0h-39q-408 0 -408 319v211q-294 -26 -460.5 -134t-166.5 -277q0 -171 148 -265t376 -94q322 0 516 111h13v-199q-192 -96 -527 -96q-298 0 -490.5 146t-192.5 393q0 248 261 396t654 148q-315 113 -755 113h-94v186h106q225 0 487 -77t491 -211v-131 q-173 0 -209 -2v-162q0 -102 60 -144.5t186 -42.5h44v-188zM859 12h-176v147h176v-147zM535 12h-177v147h177v-147z"/>
    <glyph glyph-name="uniFB78" unicode="ڃ" horiz-adv-x="1334" arabic-form="initial" d="M1236 184q-214 0 -628.5 -92t-607.5 -92q-59 0 -103.5 51t-44.5 137h155q172 0 527.5 80.5t487.5 87.5q-363 273 -783 273h-114v186h126q97 0 188 -16q90 -16 179 -48q88 -31 179 -80q86 -47 183 -113q90 -61 198 -145l52 -41h2l4 1v-189zM1005 -244h-176v147h176v-147z M681 -244h-177v147h177v-147z"/>
    <glyph glyph-name="uni0684" unicode="ڄ" horiz-adv-x="1334" arabic-form="isolated" d="M1313 -328q-192 -96 -527 -96q-298 0 -490.5 146t-192.5 393q0 248 261 396t654 148q-315 113 -755 113h-94v186h106q225 0 487 -77t491 -211v-131h-177q-382 0 -599 -114.5t-217 -305.5q0 -171 148 -265t376 -94q322 0 516 111h13v-199zM873 149h-176v147h176v-147z M873 -60h-176v148h176v-148z"/>
    <glyph glyph-name="uniFB73" unicode="ڄ" horiz-adv-x="1334" arabic-form="final" d="M1334 0h-39q-408 0 -408 319v211q-294 -26 -460.5 -134t-166.5 -277q0 -171 148 -265t376 -94q322 0 516 111h13v-199q-192 -96 -527 -96q-298 0 -490.5 146t-192.5 393q0 248 261 396t654 148q-315 113 -755 113h-94v186h106q225 0 487 -77t491 -211v-131 q-173 0 -209 -2v-162q0 -102 60 -144.5t186 -42.5h44v-188zM721 111h-176v147h176v-147zM721 -98h-176v148h176v-148z"/>
    <glyph glyph-name="uniFB74" unicode="ڄ" horiz-adv-x="1334" arabic-form="initial" d="M1236 184q-214 0 -628.5 -92t-607.5 -92q-59 0 -103.5 51t-44.5 137h155q172 0 527.5 80.5t487.5 87.5q-363 273 -783 273h-114v186h126q97 0 188 -16q90 -16 179 -48q88 -31 179 -80q86 -47 183 -113q90 -61 198 -145l52 -41h2l4 1v-189zM843 -221h-176v147h176v-147z M843 -430h-176v148h176v-148z"/>
    <glyph glyph-name="uni0685.init" unicode="څ" horiz-adv-x="1334" d="M1236 184q-214 0 -628.5 -92t-607.5 -92q-59 0 -103.5 51t-44.5 137h155q172 0 527.5 80.5t487.5 87.5q-363 273 -783 273h-114v186h126q97 0 188 -16q90 -16 179 -48q88 -31 179 -80q86 -47 183 -113q90 -61 198 -145l52 -41h2l4 1v-189zM855 1145h-177v147h177v-147z M1032 936h-177v147h177v-147zM678 936h-177v147h177v-147z"/>
    <glyph glyph-name="uni0685.fina" unicode="څ" horiz-adv-x="1334" d="M1334 0h-39q-408 0 -408 319v211q-294 -26 -460.5 -134t-166.5 -277q0 -171 148 -265t376 -94q322 0 516 111h13v-199q-192 -96 -527 -96q-298 0 -490.5 146t-192.5 393q0 248 261 396t654 148q-315 113 -755 113h-94v186h106q225 0 487 -77t491 -211v-131 q-173 0 -209 -2v-162q0 -102 60 -144.5t186 -42.5h44v-188zM923 1329h-177v147h177v-147zM1100 1120h-177v147h177v-147zM746 1120h-177v147h177v-147z"/>
    <glyph glyph-name="uni0687" unicode="ڇ" horiz-adv-x="1334" arabic-form="isolated" d="M1313 -328q-192 -96 -527 -96q-298 0 -490.5 146t-192.5 393q0 248 261 396t654 148q-315 113 -755 113h-94v186h106q225 0 487 -77t491 -211v-131h-177q-382 0 -599 -114.5t-217 -305.5q0 -171 148 -265t376 -94q322 0 516 111h13v-199zM1027 149h-176v147h176v-147z M703 149h-177v147h177v-147zM1027 -60h-176v147h176v-147zM703 -60h-177v147h177v-147z"/>
    <glyph glyph-name="uniFB7F" unicode="ڇ" horiz-adv-x="1334" arabic-form="final" d="M1334 0h-39q-174 0 -249 90q-61 75 -61 229v218q-284 -12 -475 -97q-250 -111 -250 -321q0 -177 161 -274q142 -85 363 -85q322 0 516 111h13v-199q-192 -96 -527 -96q-300 0 -488 143q-195 149 -195 396q0 273 307 421q255 123 608 123q-315 113 -755 113h-94v186h106 q240 0 513 -85q248 -76 465 -203v-131h-111v-164q0 -92 21 -130q32 -57 127 -57h44v-188zM929 111h-177v147h177v-147zM605 111h-178v147h178v-147zM929 -98h-177v147h177v-147zM605 -98h-178v147h178v-147z"/>
    <glyph glyph-name="uniFB80" unicode="ڇ" horiz-adv-x="1334" arabic-form="initial" d="M1236 184q-214 0 -628.5 -92t-607.5 -92q-59 0 -103.5 51t-44.5 137h155q172 0 527.5 80.5t487.5 87.5q-363 273 -783 273h-114v186h126q97 0 188 -16q90 -16 179 -48q88 -31 179 -80q86 -47 183 -113q90 -61 198 -145l52 -41h2l4 1v-189zM1005 -221h-176v147h176v-147z M681 -221h-177v147h177v-147zM1005 -430h-176v147h176v-147zM681 -430h-177v147h177v-147z"/>
    <glyph glyph-name="uni068C" unicode="ڌ" horiz-adv-x="835" arabic-form="final" d="M228 956q558 -341 558 -632q0 -148 -113.5 -236t-325.5 -88h-335v188h332q134 0 209.5 39t75.5 95q0 183 -413 399v235h12zM501 1130h-176v147h176v-147zM177 1130h-177v147h177v-147z"/>
    <glyph glyph-name="uni068D" unicode="ڍ" horiz-adv-x="835" arabic-form="final" d="M228 956q558 -341 558 -632q0 -148 -113.5 -236t-325.5 -88h-335v188h332q134 0 209.5 39t75.5 95q0 183 -413 399v235h12zM619 -293h-176v147h176v-147zM295 -293h-177v147h177v-147z"/>
    <glyph glyph-name="uni068E" unicode="ڎ" horiz-adv-x="835" arabic-form="final" d="M228 956q558 -341 558 -632q0 -148 -113.5 -236t-325.5 -88h-335v188h332q134 0 209.5 39t75.5 95q0 183 -413 399v235h12zM349 1339h-177v147h177v-147zM526 1130h-177v147h177v-147zM172 1130h-177v147h177v-147z"/>
    <glyph glyph-name="uni069A.init" unicode="ښ" horiz-adv-x="1487" d="M1388 188q0 -188 -218 -188h-98q-176 0 -239 72q-63 -72 -238 -72t-239 72q-66 -72 -258 -72h-98q-59 0 -103.5 51t-44.5 137h246q179 0 179 134v100h157v-100q0 -134 161 -134q160 0 160 134v100h157v-100q0 -134 160 -134q159 0 159 80v367h157v-447zM920 717h-177v147 h177v-147zM920 -293h-177v147h177v-147z"/>
    <glyph glyph-name="uni069B.init" unicode="ڛ" horiz-adv-x="1487" d="M1388 188q0 -188 -218 -188h-98q-176 0 -239 72q-63 -72 -238 -72t-239 72q-66 -72 -258 -72h-98q-59 0 -103.5 51t-44.5 137h246q179 0 179 134v100h157v-100q0 -134 161 -134q160 0 160 134v100h157v-100q0 -134 160 -134q159 0 159 80v367h157v-447zM920 -430h-177 v147h177v-147zM1097 -221h-177v147h177v-147zM743 -221h-177v147h177v-147z"/>
    <glyph glyph-name="uni069C.init" unicode="ڜ" horiz-adv-x="1487" d="M1388 188q0 -188 -218 -188h-98q-176 0 -239 72q-63 -72 -238 -72t-239 72q-66 -72 -258 -72h-98q-59 0 -103.5 51t-44.5 137h246q179 0 179 134v100h157v-100q0 -134 161 -134q160 0 160 134v100h157v-100q0 -134 160 -134q159 0 159 80v367h157v-447zM920 -430h-177 v147h177v-147zM1097 -221h-177v147h177v-147zM743 -221h-177v147h177v-147zM848 926h-177v147h177v-147zM1025 717h-177v147h177v-147zM671 717h-177v147h177v-147z"/>
    <glyph glyph-name="uni069D.init" unicode="ڝ" horiz-adv-x="2077" d="M661 188q280 327 492.5 477t410.5 150q178 0 321 -162t143 -352q0 -138 -153 -219.5t-415 -81.5h-909q-181 0 -276 82q-90 -82 -275 -82q-59 0 -103.5 51t-44.5 137h153q192 0 192 191v10h157v-10q0 -191 192 -191h115zM858 188h580q195 0 314 34.5t119 88.5 q0 132 -101.5 225t-209.5 93q-167 0 -332.5 -104t-369.5 -337zM1701 -293h-176v147h176v-147zM1377 -293h-177v147h177v-147z"/>
    <glyph glyph-name="uni069E.init" unicode="ڞ" horiz-adv-x="2077" d="M661 188q280 327 492.5 477t410.5 150q178 0 321 -162t143 -352q0 -138 -153 -219.5t-415 -81.5h-909q-181 0 -276 82q-90 -82 -275 -82q-59 0 -103.5 51t-44.5 137h153q192 0 192 191v10h157v-10q0 -191 192 -191h115zM858 188h580q195 0 314 34.5t119 88.5 q0 132 -101.5 225t-209.5 93q-167 0 -332.5 -104t-369.5 -337zM1610 1167h-177v147h177v-147zM1787 958h-177v147h177v-147zM1433 958h-177v147h177v-147z"/>
    <glyph glyph-name="uni06A0.init" unicode="ڠ" horiz-adv-x="1334" d="M1214 184q-590 -184 -921 -184h-293q-59 0 -103.5 51t-44.5 137h488q-108 49 -171 142t-63 186q0 197 134 309.5t353 112.5q287 0 481 -82v-213h-12q-192 113 -460 113q-164 0 -251.5 -71t-87.5 -171q0 -147 119.5 -224t175.5 -77q35 0 237 46.5t419 113.5v-189z M691 1321h-177v147h177v-147zM868 1112h-177v147h177v-147zM514 1112h-177v147h177v-147z"/>
    <glyph glyph-name="uni06A0.medi" unicode="ڠ" horiz-adv-x="964" d="M964 0h-99q-174 0 -384 115q-209 -115 -383 -115h-98q-59 0 -103.5 51t-44.5 137h246q125 0 228 33q-253 200 -253 371q0 116 112.5 179t295.5 63q185 0 296.5 -63t111.5 -179q0 -171 -253 -371q104 -33 229 -33h99v-188zM481 289q114 68 182.5 143.5t68.5 126.5 q0 84 -251 84q-249 0 -249 -84q0 -51 68 -126.5t181 -143.5zM571 1217h-177v147h177v-147zM748 1008h-177v147h177v-147zM394 1008h-177v147h177v-147z"/>
    <glyph glyph-name="uni06A0.fina" unicode="ڠ" horiz-adv-x="1114" d="M1114 0h-26q-231 0 -574 295q-130 -81 -192 -145t-62 -148q0 -106 115 -173t267 -67q223 0 434 129h12v-213q-196 -102 -444 -102q-222 0 -381.5 123t-159.5 303q0 117 73.5 199.5t238.5 181.5q-144 131 -199.5 203t-55.5 153q0 108 117 173t291 65q176 0 292 -64.5 t116 -177.5q0 -96 -62 -170t-276 -196q138 -115 230 -148t201 -33h45v-188zM541 455q144 81 207 133t63 104q0 40 -69 67t-174 27q-102 0 -166.5 -26.5t-64.5 -65.5q0 -36 46.5 -87.5t157.5 -151.5zM656 1360h-177v147h177v-147zM833 1151h-177v147h177v-147zM479 1151h-177 v147h177v-147z"/>
    <glyph glyph-name="uni06A2.init" unicode="ڢ" horiz-adv-x="713" d="M546 467q-49 -41 -152 -41q-134 0 -232 85.5t-98 231.5q0 151 99 263t201 112q135 0 232.5 -163.5t97.5 -444.5q0 -249 -127 -379.5t-363 -130.5h-204q-59 0 -103.5 51t-44.5 137h354q143 0 241.5 76.5t98.5 202.5zM530 647q0 112 -57 199.5t-112 87.5q-48 0 -97.5 -54 t-49.5 -130q0 -140 184 -140q81 0 132 37zM457 -293h-177v147h177v-147z"/>
    <glyph glyph-name="uni06A2.medi" unicode="ڢ" horiz-adv-x="727" d="M727 0h-49q-144 0 -314 100q-171 -100 -315 -100h-49q-59 0 -103.5 51t-44.5 137h246q65 0 134 17q-164 167 -164 311q0 143 83 230.5t213 87.5q129 0 212 -87.5t83 -230.5q0 -144 -162 -311q67 -17 132 -17h98v-188zM364 266q138 109 138 240q0 59 -37.5 98t-100.5 39 q-64 0 -101 -39t-37 -98q0 -131 138 -240zM457 -293h-177v147h177v-147z"/>
    <glyph glyph-name="uni06A3.init" unicode="ڣ" horiz-adv-x="713" d="M546 467q-49 -41 -152 -41q-134 0 -232 85.5t-98 231.5q0 151 99 263t201 112q135 0 232.5 -163.5t97.5 -444.5q0 -249 -127 -379.5t-363 -130.5h-204q-59 0 -103.5 51t-44.5 137h354q143 0 241.5 76.5t98.5 202.5zM530 647q0 112 -57 199.5t-112 87.5q-48 0 -97.5 -54 t-49.5 -130q0 -140 184 -140q81 0 132 37zM457 -293h-177v147h177v-147zM414 1292h-177v147h177v-147z"/>
    <glyph glyph-name="uni06A3.medi" unicode="ڣ" horiz-adv-x="727" d="M727 0h-49q-144 0 -314 100q-171 -100 -315 -100h-49q-59 0 -103.5 51t-44.5 137h246q65 0 134 17q-164 167 -164 311q0 143 83 230.5t213 87.5q129 0 212 -87.5t83 -230.5q0 -144 -162 -311q67 -17 132 -17h98v-188zM364 266q138 109 138 240q0 59 -37.5 98t-100.5 39 q-64 0 -101 -39t-37 -98q0 -131 138 -240zM457 -293h-177v147h177v-147zM452 1008h-177v147h177v-147z"/>
    <glyph glyph-name="uni06A5.init" unicode="ڥ" horiz-adv-x="713" d="M546 467q-49 -41 -152 -41q-134 0 -232 85.5t-98 231.5q0 151 99 263t201 112q135 0 232.5 -163.5t97.5 -444.5q0 -249 -127 -379.5t-363 -130.5h-204q-59 0 -103.5 51t-44.5 137h354q143 0 241.5 76.5t98.5 202.5zM530 647q0 112 -57 199.5t-112 87.5q-48 0 -97.5 -54 t-49.5 -130q0 -140 184 -140q81 0 132 37zM457 -430h-177v147h177v-147zM634 -221h-177v147h177v-147zM280 -221h-177v147h177v-147z"/>
    <glyph glyph-name="uni06A5.medi" unicode="ڥ" horiz-adv-x="727" d="M727 0h-49q-144 0 -314 100q-171 -100 -315 -100h-49q-59 0 -103.5 51t-44.5 137h246q65 0 134 17q-164 167 -164 311q0 143 83 230.5t213 87.5q129 0 212 -87.5t83 -230.5q0 -144 -162 -311q67 -17 132 -17h98v-188zM364 266q138 109 138 240q0 59 -37.5 98t-100.5 39 q-64 0 -101 -39t-37 -98q0 -131 138 -240zM457 -430h-177v147h177v-147zM634 -221h-177v147h177v-147zM280 -221h-177v147h177v-147z"/>
    <glyph glyph-name="uni06A6" unicode="ڦ" horiz-adv-x="1942" arabic-form="final" d="M1873 291q0 -291 -571 -291h-606q-600 0 -600 477q0 114 37 240h157v-10q-37 -111 -37 -218q0 -171 125 -242q103 -59 320 -59h594q424 0 424 177v102q-47 -41 -133 -41q-131 0 -230.5 86t-99.5 231q0 117 78 236q92 139 222 139q180 0 264 -246q56 -164 56 -362v-219z M1703 653q0 68 -40 161q-48 116 -113 116q-54 0 -99 -70q-40 -61 -40 -110q0 -60 51.5 -98t125.5 -38q66 0 115 39zM1784 1501h-176v147h176v-147zM1460 1501h-177v147h177v-147zM1784 1292h-176v147h176v-147zM1460 1292h-177v147h177v-147z"/>
    <glyph glyph-name="uniFB70" unicode="ڦ" horiz-adv-x="713" arabic-form="initial" d="M546 467q-49 -41 -152 -41q-134 0 -232 85.5t-98 231.5q0 151 99 263t201 112q135 0 232.5 -163.5t97.5 -444.5q0 -249 -127 -379.5t-363 -130.5h-204q-59 0 -103.5 51t-44.5 137h354q143 0 241.5 76.5t98.5 202.5zM530 647q0 112 -57 199.5t-112 87.5q-48 0 -97.5 -54 t-49.5 -130q0 -140 184 -140q81 0 132 37zM600 1501h-176v147h176v-147zM276 1501h-177v147h177v-147zM600 1292h-176v147h176v-147zM276 1292h-177v147h177v-147z"/>
    <glyph glyph-name="uniFB71" unicode="ڦ" horiz-adv-x="727" arabic-form="medial" d="M727 0h-49q-144 0 -314 100q-171 -100 -315 -100h-49q-59 0 -103.5 51t-44.5 137h246q65 0 134 17q-164 167 -164 311q0 143 83 230.5t213 87.5q129 0 212 -87.5t83 -230.5q0 -144 -162 -311q67 -17 132 -17h98v-188zM364 266q138 109 138 240q0 59 -37.5 98t-100.5 39 q-64 0 -101 -39t-37 -98q0 -131 138 -240zM614 1217h-176v147h176v-147zM290 1217h-177v147h177v-147zM614 1008h-176v147h176v-147zM290 1008h-177v147h177v-147z"/>
    <glyph glyph-name="uni06AA.init" unicode="ڪ" horiz-adv-x="2404" d="M2375 341q0 -230 -511 -297q-335 -44 -1374 -44h-504q-75 0 -116 67q-32 53 -32 121h654q1636 0 1636 159q0 70 -129 70q-182 0 -708.5 -32.5t-787.5 -32.5q-137 0 -217.5 53t-80.5 151q0 176 349 361q128 67 420 179v-197q-537 -191 -537 -308q0 -54 126 -54 q255 0 728 31.5t715 31.5q189 0 285 -77q84 -68 84 -182z"/>
    <glyph glyph-name="uni06AB.init" unicode="ګ" horiz-adv-x="968" d="M870 1333l-506 -250q-50 -20 -90 -53t-40 -55q0 -56 110 -144l339 -268q152 -120 194 -180.5t42 -118.5q0 -264 -425 -264h-494q-59 0 -103.5 51t-44.5 137h640q128 0 178 25t50 84q0 38 -46 81.5t-195 160.5l-348 274q-126 101 -126 197q0 52 49 95t211 124l605 301 v-197zM617 1261q71 0 121 -42t50 -102q0 -59 -50 -101t-121 -42q-72 0 -122.5 42t-50.5 101q0 60 50.5 102t122.5 42zM617 1040q38 0 65 22.5t27 54.5t-27 55t-65 23q-39 0 -66.5 -23t-27.5 -55t27.5 -54.5t66.5 -22.5z"/>
    <glyph glyph-name="uni06AC.init" unicode="ڬ" horiz-adv-x="968" d="M870 1333l-506 -250q-50 -20 -90 -53t-40 -55q0 -56 110 -144l339 -268q152 -120 194 -180.5t42 -118.5q0 -264 -425 -264h-494q-59 0 -103.5 51t-44.5 137h640q128 0 178 25t50 84q0 38 -46 81.5t-195 160.5l-348 274q-126 101 -126 197q0 52 49 95t211 124l605 301 v-197zM337 1383h-177v147h177v-147z"/>
    <glyph glyph-name="uni06AD" unicode="ڭ" horiz-adv-x="1475" arabic-form="final" d="M1376 270q0 -123 -105.5 -196.5t-287.5 -73.5h-511q-198 0 -304.5 79t-106.5 230q0 40 10 121h161v-10q-14 -57 -14 -109q0 -123 254 -123h501q246 0 246 156v1212h157v-1286zM774 879q-164 0 -164 -48q0 -28 68 -40l77 -15q101 -18 101 -92q0 -67 -92.5 -104t-235.5 -37 v69q244 0 244 66q0 17 -23.5 25t-121 25t-97.5 99q0 58 65.5 89.5t178.5 31.5v-69zM877 1409h-177v147h177v-147zM1054 1200h-177v147h177v-147zM700 1200h-177v147h177v-147z"/>
    <glyph glyph-name="uniFBD5" unicode="ڭ" horiz-adv-x="968" arabic-form="initial" d="M870 1333l-506 -250q-50 -20 -90 -53t-40 -55q0 -56 110 -144l339 -268q152 -120 194 -180.5t42 -118.5q0 -264 -425 -264h-494q-59 0 -103.5 51t-44.5 137h640q128 0 178 25t50 84q0 38 -46 81.5t-195 160.5l-348 274q-126 101 -126 197q0 52 49 95t211 124l605 301 v-197zM361 1669h-177v147h177v-147zM538 1460h-177v147h177v-147zM184 1460h-177v147h177v-147z"/>
    <glyph glyph-name="uni06AE.init" unicode="ڮ" horiz-adv-x="968" d="M870 1333l-506 -250q-50 -20 -90 -53t-40 -55q0 -56 110 -144l339 -268q152 -120 194 -180.5t42 -118.5q0 -264 -425 -264h-494q-59 0 -103.5 51t-44.5 137h640q128 0 178 25t50 84q0 38 -46 81.5t-195 160.5l-348 274q-126 101 -126 197q0 52 49 95t211 124l605 301 v-197zM457 -430h-177v147h177v-147zM634 -221h-177v147h177v-147zM280 -221h-177v147h177v-147z"/>
    <glyph glyph-name="uni06B0.init" unicode="ڰ" horiz-adv-x="968" d="M870 1333l-506 -250q-50 -20 -90 -53t-40 -55q0 -56 110 -144l339 -268q152 -120 194 -180.5t42 -118.5q0 -264 -425 -264h-494q-59 0 -103.5 51t-44.5 137h640q128 0 178 25t50 84q0 38 -46 81.5t-195 160.5l-348 274q-126 101 -126 197q0 52 49 95t211 124l605 301 v-197zM840 1649l-805 -402v101l805 401v-100zM617 1261q71 0 121 -42t50 -102q0 -59 -50 -101t-121 -42q-72 0 -122.5 42t-50.5 101q0 60 50.5 102t122.5 42zM617 1040q38 0 65 22.5t27 54.5t-27 55t-65 23q-39 0 -66.5 -23t-27.5 -55t27.5 -54.5t66.5 -22.5z"/>
    <glyph glyph-name="uni06B1" unicode="ڱ" horiz-adv-x="1460" arabic-form="final" d="M983 188q128 0 178.5 25t50.5 84q0 38 -47 81.5t-194 160.5l-349 274q-125 101 -125 197q0 52 48.5 95t211.5 124l605 301v-197l-506 -250q-50 -20 -90.5 -53t-40.5 -55q0 -56 110 -144l340 -268q152 -120 194 -180.5t42 -118.5q0 -264 -426 -264h-513q-198 0 -304.5 79 t-106.5 230q0 40 10 121h161v-10q-14 -57 -14 -109q0 -123 254 -123h511zM1332 1649l-806 -402v101l806 401v-100zM992 1670h-176v147h176v-147zM668 1670h-177v147h177v-147z"/>
    <glyph glyph-name="uniFB9C" unicode="ڱ" horiz-adv-x="968" arabic-form="initial" d="M870 1333l-506 -250q-50 -20 -90 -53t-40 -55q0 -56 110 -144l339 -268q152 -120 194 -180.5t42 -118.5q0 -264 -425 -264h-494q-59 0 -103.5 51t-44.5 137h640q128 0 178 25t50 84q0 38 -46 81.5t-195 160.5l-348 274q-126 101 -126 197q0 52 49 95t211 124l605 301 v-197zM840 1649l-805 -402v101l805 401v-100zM501 1670h-176v147h176v-147zM177 1670h-177v147h177v-147z"/>
    <glyph glyph-name="uni06B2.init" unicode="ڲ" horiz-adv-x="968" d="M870 1333l-506 -250q-50 -20 -90 -53t-40 -55q0 -56 110 -144l339 -268q152 -120 194 -180.5t42 -118.5q0 -264 -425 -264h-494q-59 0 -103.5 51t-44.5 137h640q128 0 178 25t50 84q0 38 -46 81.5t-195 160.5l-348 274q-126 101 -126 197q0 52 49 95t211 124l605 301 v-197zM840 1649l-805 -402v101l805 401v-100zM619 -293h-176v147h176v-147zM295 -293h-177v147h177v-147z"/>
    <glyph glyph-name="uni06B3" unicode="ڳ" horiz-adv-x="1460" arabic-form="final" d="M983 188q128 0 178.5 25t50.5 84q0 38 -47 81.5t-194 160.5l-349 274q-125 101 -125 197q0 52 48.5 95t211.5 124l605 301v-197l-506 -250q-50 -20 -90.5 -53t-40.5 -55q0 -56 110 -144l340 -268q152 -120 194 -180.5t42 -118.5q0 -264 -426 -264h-513q-198 0 -304.5 79 t-106.5 230q0 40 10 121h161v-10q-14 -57 -14 -109q0 -123 254 -123h511zM1332 1649l-806 -402v101l806 401v-100zM817 -221h-176v147h176v-147zM817 -430h-176v148h176v-148z"/>
    <glyph glyph-name="uniFB98" unicode="ڳ" horiz-adv-x="968" arabic-form="initial" d="M870 1333l-506 -250q-50 -20 -90 -53t-40 -55q0 -56 110 -144l339 -268q152 -120 194 -180.5t42 -118.5q0 -264 -425 -264h-494q-59 0 -103.5 51t-44.5 137h640q128 0 178 25t50 84q0 38 -46 81.5t-195 160.5l-348 274q-126 101 -126 197q0 52 49 95t211 124l605 301 v-197zM840 1649l-805 -402v101l805 401v-100zM457 -221h-176v147h176v-147zM457 -430h-176v148h176v-148z"/>
    <glyph glyph-name="uni06B4.init" unicode="ڴ" horiz-adv-x="968" d="M870 1333l-506 -250q-50 -20 -90 -53t-40 -55q0 -56 110 -144l339 -268q152 -120 194 -180.5t42 -118.5q0 -264 -425 -264h-494q-59 0 -103.5 51t-44.5 137h640q128 0 178 25t50 84q0 38 -46 81.5t-195 160.5l-348 274q-126 101 -126 197q0 52 49 95t211 124l605 301 v-197zM840 1649l-805 -402v101l805 401v-100zM169 1741h-177v147h177v-147zM346 1532h-177v147h177v-147zM-8 1532h-177v147h177v-147z"/>
    <glyph glyph-name="uni06B5.init" unicode="ڵ" horiz-adv-x="530" d="M432 270q0 -123 -105 -196.5t-287 -73.5h-40q-59 0 -103.5 51t-44.5 137h178q245 0 245 156v1212h157v-1286zM479 1880l-159 -270h-89l-160 270h88l116 -202l117 202h87z"/>
    <glyph glyph-name="uni06B5.medi" unicode="ڵ" horiz-adv-x="530" d="M432 270q0 -123 -105 -196.5t-287 -73.5h-40q-59 0 -103.5 51t-44.5 137h178q245 0 245 156v1212h157v-1286zM479 1880l-159 -270h-89l-160 270h88l116 -202l117 202h87z"/>
    <glyph glyph-name="uni06B6.init" unicode="ڶ" horiz-adv-x="530" d="M432 270q0 -123 -105 -196.5t-287 -73.5h-40q-59 0 -103.5 51t-44.5 137h178q245 0 245 156v1212h157v-1286zM359 1662h-177v147h177v-147z"/>
    <glyph glyph-name="uni06B6.medi" unicode="ڶ" horiz-adv-x="530" d="M432 270q0 -123 -105 -196.5t-287 -73.5h-40q-59 0 -103.5 51t-44.5 137h178q245 0 245 156v1212h157v-1286zM359 1662h-177v147h177v-147z"/>
    <glyph glyph-name="uni06B7.init" unicode="ڷ" horiz-adv-x="530" d="M353 1741h-178v147h178v-147zM529 1532h-176v147h176v-147zM175 1532h-176v147h176v-147zM432 270q0 -134 -120 -206q-106 -64 -272 -64h-40q-73 0 -115 67q-33 54 -33 121h178q245 0 245 156v1129h157v-1203z"/>
    <glyph glyph-name="uni06B7.medi" unicode="ڷ" horiz-adv-x="530" d="M353 1741h-178v147h178v-147zM529 1532h-176v147h176v-147zM175 1532h-176v147h176v-147zM432 270q0 -134 -120 -206q-106 -64 -272 -64h-40q-73 0 -115 67q-33 54 -33 121h178q245 0 245 156v1129h157v-1203z"/>
    <glyph glyph-name="uni06B8.init" unicode="ڸ" horiz-adv-x="530" d="M432 270q0 -123 -105 -196.5t-287 -73.5h-40q-59 0 -103.5 51t-44.5 137h178q245 0 245 156v1212h157v-1286zM354 -430h-177v147h177v-147zM531 -221h-177v147h177v-147zM177 -221h-177v147h177v-147z"/>
    <glyph glyph-name="uni06B8.medi" unicode="ڸ" horiz-adv-x="530" d="M432 270q0 -123 -105 -196.5t-287 -73.5h-40q-59 0 -103.5 51t-44.5 137h178q245 0 245 156v1212h157v-1286zM354 -430h-177v147h177v-147zM531 -221h-177v147h177v-147zM177 -221h-177v147h177v-147z"/>
    <glyph glyph-name="uni06B9.init" unicode="ڹ" horiz-adv-x="600" d="M502 270q0 -123 -106 -196.5t-288 -73.5h-108q-59 0 -103.5 51t-44.5 137h246q246 0 246 156v373h158v-447zM428 891h-177v147h177v-147zM335 -293h-177v147h177v-147z"/>
    <glyph glyph-name="uni06BB" unicode="ڻ" horiz-adv-x="1302" arabic-form="final" d="M1234 401q32 -120 32 -229q0 -277 -156 -436.5t-446 -159.5q-291 0 -447 159.5t-156 436.5q0 109 33 229h157v-10q-33 -96 -33 -207q0 -420 446 -420q445 0 445 420q0 57 -17 137l-16 70v10h158zM896 608q0 -108 -192 -108h-272v67h79v413h69v-328q70 141 168 141 q68 0 111 -67q37 -56 37 -118zM830 612q0 35 -18 69q-24 45 -66 45q-70 0 -166 -159h116q134 0 134 45z"/>
    <glyph glyph-name="uni06BC.init" unicode="ڼ" horiz-adv-x="600" d="M502 270q0 -123 -106 -196.5t-288 -73.5h-108q-59 0 -103.5 51t-44.5 137h246q246 0 246 156v373h158v-447zM428 891h-177v147h177v-147zM257 79q71 0 121 -42t50 -102q0 -59 -50 -101t-121 -42q-72 0 -122.5 42t-50.5 101q0 60 50.5 102t122.5 42zM257 -142 q38 0 65 22.5t27 54.5t-27 55t-65 23q-39 0 -66.5 -23t-27.5 -55t27.5 -54.5t66.5 -22.5z"/>
    <glyph glyph-name="uni06BD.init" unicode="ڽ" horiz-adv-x="600" d="M502 270q0 -123 -106 -196.5t-288 -73.5h-108q-59 0 -103.5 51t-44.5 137h246q246 0 246 156v373h158v-447zM511 -221h-176v147h176v-147zM157 -221h-176v147h176v-147zM335 -430h-178v147h178v-147z"/>
    <glyph glyph-name="uni06BF.init" unicode="ڿ" horiz-adv-x="1334" d="M1236 184q-214 0 -628.5 -92t-607.5 -92q-59 0 -103.5 51t-44.5 137h155q172 0 527.5 80.5t487.5 87.5q-363 273 -783 273h-114v186h126q97 0 188 -16q90 -16 179 -48q88 -31 179 -80q86 -47 183 -113q90 -61 198 -145l52 -41h2l4 1v-189zM1020 -221h-178v147h178v-147z M666 -221h-176v147h176v-147zM842 -430h-176v147h176v-147zM855 936h-177v147h177v-147z"/>
    <glyph glyph-name="uni06BF.fina" unicode="ڿ" horiz-adv-x="1334" d="M1334 0h-39q-162 0 -236 76t-74 243v218q-341 -14 -533 -126t-192 -292q0 -171 148 -265t376 -94q322 0 516 111h13v-199q-192 -96 -527 -96q-298 0 -490.5 146t-192.5 393q0 248 261 396t654 148q-315 113 -755 113h-94v186h106q225 0 487 -77t491 -211v-131h-111v-164 q0 -118 37.5 -152.5t110.5 -34.5h44v-188zM887 111h-177v147h177v-147zM533 111h-177v147h177v-147zM710 -98h-177v147h177v-147zM923 1120h-177v147h177v-147z"/>
    <glyph glyph-name="uni06C5" unicode="ۅ" horiz-adv-x="1042" arabic-form="final" d="M943 197q0 -331 -283 -489q-240 -132 -660 -132v188q500 0 688 167h-483v108h562q21 52 21 115q-49 -41 -132 -41q-151 0 -240 98q-81 89 -81 219q0 116 75 235q89 140 216 140q173 0 258 -249q59 -170 59 -359zM774 340q0 67 -38 160q-48 116 -112 116q-56 0 -97 -69 q-35 -59 -35 -111q0 -60 48 -97.5t121 -37.5q78 0 113 39z"/>
    <glyph glyph-name="uni06C6" unicode="ۆ" horiz-adv-x="1042" arabic-form="final" d="M788 154q-49 -41 -132 -41q-132 0 -226.5 85t-94.5 232q0 151 95.5 263t195.5 112q126 0 221.5 -164.5t95.5 -443.5q0 -304 -240.5 -462.5t-702.5 -158.5v188q390 0 589 101t199 289zM774 340q0 93 -50.5 184.5t-99.5 91.5q-47 0 -89.5 -57.5t-42.5 -122.5 q0 -59 47.5 -97t121.5 -38q78 0 113 39zM775 1249l-159 -270h-89l-160 270h88l116 -202l117 202h87z"/>
    <glyph glyph-name="uni06C7" unicode="ۇ" horiz-adv-x="1042" arabic-form="final" d="M788 154q-49 -41 -132 -41q-132 0 -226.5 85t-94.5 232q0 151 95.5 263t195.5 112q126 0 221.5 -164.5t95.5 -443.5q0 -304 -240.5 -462.5t-702.5 -158.5v188q390 0 589 101t199 289zM774 340q0 93 -50.5 184.5t-99.5 91.5q-47 0 -89.5 -57.5t-42.5 -122.5 q0 -59 47.5 -97t121.5 -38q78 0 113 39zM752 1169q0 -78 -54.5 -151.5t-156.5 -148.5l-60 50q46 32 92 78t74 97q-17 -7 -38 -9t-38 -2q-31 0 -56 10t-42 25.5t-26 35.5t-9 41q0 59 42 91t108 32q83 0 123.5 -40t40.5 -109z"/>
    <glyph glyph-name="uni06C8" unicode="ۈ" horiz-adv-x="1042" arabic-form="final" d="M788 154q-49 -41 -132 -41q-132 0 -226.5 85t-94.5 232q0 151 95.5 263t195.5 112q126 0 221.5 -164.5t95.5 -443.5q0 -304 -240.5 -462.5t-702.5 -158.5v188q390 0 589 101t199 289zM774 340q0 93 -50.5 184.5t-99.5 91.5q-47 0 -89.5 -57.5t-42.5 -122.5 q0 -59 47.5 -97t121.5 -38q78 0 113 39zM626 979h-84v513h84v-513z"/>
    <glyph glyph-name="uni06C9" unicode="ۉ" horiz-adv-x="1042" arabic-form="final" d="M788 154q-49 -41 -132 -41q-132 0 -226.5 85t-94.5 232q0 151 95.5 263t195.5 112q126 0 221.5 -164.5t95.5 -443.5q0 -304 -240.5 -462.5t-702.5 -158.5v188q390 0 589 101t199 289zM774 340q0 93 -50.5 184.5t-99.5 91.5q-47 0 -89.5 -57.5t-42.5 -122.5 q0 -59 47.5 -97t121.5 -38q78 0 113 39zM748 979l-153 202l-152 -202h-88l196 270h89l195 -270h-87z"/>
    <glyph glyph-name="uni06CB" unicode="ۋ" horiz-adv-x="1042" arabic-form="final" d="M788 154q-49 -41 -132 -41q-132 0 -226.5 85t-94.5 232q0 151 95.5 263t195.5 112q126 0 221.5 -164.5t95.5 -443.5q0 -304 -240.5 -462.5t-702.5 -158.5v188q390 0 589 101t199 289zM774 340q0 93 -50.5 184.5t-99.5 91.5q-47 0 -89.5 -57.5t-42.5 -122.5 q0 -59 47.5 -97t121.5 -38q78 0 113 39zM701 1188h-177v147h177v-147zM878 979h-177v147h177v-147zM524 979h-177v147h177v-147z"/>
    <glyph glyph-name="uni06CD.fina" unicode="ۍ" horiz-adv-x="1709" d="M1709 0q-203 0 -292 164q-6 11 -81 189q-58 135 -93 165q-39 35 -102 35q-110 0 -110 -88q0 -55 86 -141q115 -115 115 -228q0 -264 -450 -264q-236 0 -368 134q-122 124 -122 325q0 40 7 102l-293 -78v96l469 131v-10q-26 -135 -26 -240q0 -272 336 -272q285 0 285 117 q0 53 -88 142q-113 112 -113 221q0 111 70 176t202 65q136 0 209 -84q47 -53 93 -188t81 -184q68 -97 185 -97v-188z"/>
    <glyph glyph-name="uni06CE.init" unicode="ێ" horiz-adv-x="600" d="M502 270q0 -123 -106 -196.5t-288 -73.5h-108q-59 0 -103.5 51t-44.5 137h246q246 0 246 156v373h158v-447zM501 -293h-176v147h176v-147zM177 -293h-177v147h177v-147zM548 1161l-159 -270h-89l-160 270h88l116 -202l117 202h87z"/>
    <glyph glyph-name="uni06CE.fina" unicode="ێ" horiz-adv-x="1454" d="M1454 0q-114 0 -183 44.5t-109 119t-87 197t-87 157.5t-101 35q-111 0 -111 -88q0 -55 87 -141q115 -115 115 -228q0 -264 -450 -264q-221 0 -356 122t-135 337q0 65 17 170h160v-10q-20 -66 -20 -158q0 -146 83 -209.5t253 -63.5q286 0 286 117q0 52 -89 142 q-113 111 -113 221q0 109 70 175t203 66q95 0 167 -44t135.5 -229t121.5 -232.5t143 -47.5v-188zM559 985l-159 -270h-89l-160 270h88l116 -202l117 202h87z"/>
    <glyph glyph-name="uni06D0" unicode="ې" horiz-adv-x="1573" arabic-form="isolated" d="M1487 866h-12q-180 88 -384 88q-99 0 -163.5 -36t-64.5 -87q0 -44 45.5 -83.5t240.5 -122t261.5 -144.5t66.5 -147q0 -161 -213 -247.5t-630 -86.5q-597 0 -597 442q0 99 24 252h160v-10q-27 -135 -27 -240q0 -133 105 -194.5t337 -61.5q332 0 508 42t176 108 q0 42 -56.5 81.5t-234.5 111.5t-250.5 143.5t-72.5 159.5q0 122 112.5 213.5t295.5 91.5q200 0 373 -60v-213zM745 -221h-176v147h176v-147zM745 -430h-176v148h176v-148z"/>
    <glyph glyph-name="uniFBE5" unicode="ې" horiz-adv-x="1454" arabic-form="final" d="M1454 0q-188 0 -282 163q-56 151 -114 303q-61 163 -171 163q-111 0 -111 -88q0 -47 82.5 -137t82.5 -178q0 -125 -94 -183q-99 -61 -319 -61q-240 0 -368 104q-123 100 -123 275q0 65 17 170h160v-10q-20 -66 -20 -158q0 -104 83 -150q78 -43 253 -43q142 0 195.5 22.5 t53.5 81.5q0 46 -82.5 133.5t-82.5 168.5q0 111 70.5 176t202.5 65q173 0 249 -163q52 -151 104 -303q67 -163 214 -163v-188zM613 -221h-176v147h176v-147zM613 -430h-176v148h176v-148z"/>
    <glyph glyph-name="uni06D1.fina" unicode="ۑ" horiz-adv-x="1454" d="M1454 0q-188 0 -282 163q-56 151 -114 303q-61 163 -171 163q-111 0 -111 -88q0 -47 82.5 -137t82.5 -178q0 -125 -94 -183q-99 -61 -319 -61q-240 0 -368 104q-123 100 -123 275q0 65 17 170h160v-10q-20 -66 -20 -158q0 -104 83 -150q78 -43 253 -43q142 0 195.5 22.5 t53.5 81.5q0 46 -82.5 133.5t-82.5 168.5q0 111 70.5 176t202.5 65q173 0 249 -163q52 -151 104 -303q67 -163 214 -163v-188zM826 -221h-177v147h177v-147zM472 -221h-177v147h177v-147zM649 -430h-177v147h177v-147z"/>
    <glyph glyph-name="uni06FA.init" unicode="ۺ" horiz-adv-x="1487" d="M1388 188q0 -188 -218 -188h-98q-176 0 -239 72q-63 -72 -238 -72t-239 72q-66 -72 -258 -72h-98q-59 0 -103.5 51t-44.5 137h246q179 0 179 134v100h157v-100q0 -134 161 -134q160 0 160 134v100h157v-100q0 -134 160 -134q159 0 159 80v367h157v-447zM920 -293h-177 v147h177v-147zM848 926h-177v147h177v-147zM1025 717h-177v147h177v-147zM671 717h-177v147h177v-147z"/>
    <glyph glyph-name="uni06FB.init" unicode="ۻ" horiz-adv-x="2077" d="M661 188q280 327 492.5 477t410.5 150q178 0 321 -162t143 -352q0 -138 -153 -219.5t-415 -81.5h-909q-181 0 -276 82q-90 -82 -275 -82q-59 0 -103.5 51t-44.5 137h153q192 0 192 191v10h157v-10q0 -191 192 -191h115zM858 188h580q195 0 314 34.5t119 88.5 q0 132 -101.5 225t-209.5 93q-167 0 -332.5 -104t-369.5 -337zM1610 958h-177v147h177v-147zM1539 -293h-177v147h177v-147z"/>
    <glyph glyph-name="uni06FC.init" unicode="ۼ" horiz-adv-x="1334" d="M1214 184q-590 -184 -921 -184h-293q-59 0 -103.5 51t-44.5 137h488q-108 49 -171 142t-63 186q0 197 134 309.5t353 112.5q287 0 481 -82v-213h-12q-192 113 -460 113q-164 0 -251.5 -71t-87.5 -171q0 -147 119.5 -224t175.5 -77q35 0 237 46.5t419 113.5v-189z M691 1112h-177v147h177v-147zM691 400h-177v147h177v-147z"/>
    <glyph glyph-name="uni06FC.medi" unicode="ۼ" horiz-adv-x="964" d="M964 0h-99q-174 0 -384 115q-209 -115 -383 -115h-98q-59 0 -103.5 51t-44.5 137h246q125 0 228 33q-253 200 -253 371q0 116 112.5 179t295.5 63q185 0 296.5 -63t111.5 -179q0 -171 -253 -371q104 -33 229 -33h99v-188zM481 289q114 68 182.5 143.5t68.5 126.5 q0 84 -251 84q-249 0 -249 -84q0 -51 68 -126.5t181 -143.5zM571 1008h-177v147h177v-147zM571 -293h-177v147h177v-147z"/>
    <glyph glyph-name="uni06FC.fina" unicode="ۼ" horiz-adv-x="1114" d="M1114 0h-26q-231 0 -574 295q-130 -81 -192 -145t-62 -148q0 -106 115 -173t267 -67q223 0 434 129h12v-213q-196 -102 -444 -102q-222 0 -381.5 123t-159.5 303q0 117 73.5 199.5t238.5 181.5q-144 131 -199.5 203t-55.5 153q0 108 117 173t291 65q176 0 292 -64.5 t116 -177.5q0 -96 -62 -170t-276 -196q138 -115 230 -148t201 -33h45v-188zM541 455q144 81 207 133t63 104q0 40 -69 67t-174 27q-102 0 -166.5 -26.5t-64.5 -65.5q0 -36 46.5 -87.5t157.5 -151.5zM656 1151h-177v147h177v-147zM625 -80h-177v147h177v-147z"/>
    <glyph glyph-name="uni06EE.fina" unicode="ۮ" horiz-adv-x="835" d="M228 956q558 -341 558 -632q0 -148 -113.5 -236t-325.5 -88h-335v188h332q134 0 209.5 39t75.5 95q0 183 -413 399v235h12zM436 1100l-153 202l-152 -202h-88l196 270h89l195 -270h-87z"/>
    <glyph glyph-name="uni06EF.fina" unicode="ۯ" horiz-adv-x="1192" d="M943 516q125 -164 126 -328h123v-188q-59 0 -104 51q-18 20 -26 41q-38 -231 -265 -360q-273 -156 -699 -156v188q368 0 590 100q224 100 224 290q0 165 -199 350v12h230zM904 690l-153 202l-152 -202h-88l196 270h89l195 -270h-87z"/>
    <glyph glyph-name="uni06FF.isol" unicode="ۿ" horiz-adv-x="1106" d="M138 1104h49q298 0 585.5 -270.5t287.5 -528.5q0 -305 -431 -305h-629q-59 0 -103.5 51t-44.5 137h293q-79 105 -79 215q0 170 81.5 269.5t216.5 99.5q158 0 262 -133t104 -301q0 -85 -45 -150h37q180 0 180 129q0 183 -207.5 390.5t-504.5 207.5h-52v189zM420 168 q74 0 113 45.5t39 118.5q0 101 -55.5 175.5t-152.5 74.5q-66 0 -103.5 -55t-37.5 -138q0 -89 54.5 -155t142.5 -66zM652 1220l-153 202l-152 -202h-88l196 270h89l195 -270h-87z"/>
    <glyph glyph-name="uni06FF.medi" unicode="ۿ" horiz-adv-x="964" d="M964 0h-288q98 -59 98 -172q0 -109 -71.5 -180.5t-181.5 -71.5q-101 0 -199.5 118.5t-98.5 305.5h-223q-59 0 -103.5 51t-44.5 137h371q0 183 100.5 293.5t206.5 110.5q110 0 177 -65t67 -167q0 -118 -120 -172h310v-188zM373 188h119q53 0 89 40t36 96q0 32 -23 55.5 t-61 23.5q-57 0 -108.5 -60.5t-51.5 -154.5zM373 0q0 -97 48.5 -166.5t101.5 -69.5q94 0 94 89q0 58 -36 102.5t-89 44.5h-119zM652 800l-153 202l-152 -202h-88l196 270h89l195 -270h-87z"/>
    <glyph glyph-name="uni06FF.fina" unicode="ۿ" horiz-adv-x="964" d="M964 0h-288q98 -59 98 -172q0 -109 -71.5 -180.5t-181.5 -71.5q-101 0 -199.5 118.5t-98.5 305.5h-223q-59 0 -103.5 51t-44.5 137h371q0 183 100.5 293.5t206.5 110.5q110 0 177 -65t67 -167q0 -118 -120 -172h310v-188zM373 188h119q53 0 89 40t36 96q0 32 -23 55.5 t-61 23.5q-57 0 -108.5 -60.5t-51.5 -154.5zM373 0q0 -97 48.5 -166.5t101.5 -69.5q94 0 94 89q0 58 -36 102.5t-89 44.5h-119zM652 800l-153 202l-152 -202h-88l196 270h89l195 -270h-87z"/>
    <glyph glyph-name="uniFC60" unicode="ﱠ" arabic-form="isolated" d="M548 1546q5 -30 5 -76q0 -71 -44.5 -112t-117.5 -41q-77 0 -105 43q-35 -80 -136 -80q-150 0 -150 125q0 29 5 78h84q-5 -34 -5 -74q0 -59 66 -59q84 0 84 114v52h83v-43q0 -87 74 -87q78 0 78 84q0 54 -7 76h86zM535 1614l-516 -74v74l516 74v-74z"/>
    <glyph glyph-name="uniFC61" unicode="ﱡ" arabic-form="isolated" d="M548 1546q5 -30 5 -76q0 -71 -44.5 -112t-117.5 -41q-77 0 -105 43q-35 -80 -136 -80q-150 0 -150 125q0 29 5 78h84q-5 -34 -5 -74q0 -59 66 -59q84 0 84 114v52h83v-43q0 -87 74 -87q78 0 78 84q0 54 -7 76h86zM502 1602l-113 22q-154 -77 -333 -86v70q120 2 242 45 q-113 37 -113 114q0 55 41.5 88t110.5 33q65 0 110 -34.5t45 -88.5q0 -43 -47 -88l57 -10v-65zM368 1692q40 33 40 73q0 22 -21 38t-47 16q-72 0 -72 -54q0 -51 100 -73z"/>
    <glyph glyph-name="uniFC62" unicode="ﱢ" arabic-form="isolated" d="M548 1686q5 -30 5 -76q0 -72 -44.5 -113t-117.5 -41q-77 0 -105 43q-35 -80 -136 -80q-150 0 -150 125q0 29 5 78h84q-5 -33 -5 -74q0 -59 66 -59q84 0 84 115v51h83v-43q0 -86 74 -86q78 0 78 84q0 53 -7 76h86zM535 1354l-516 -74v74l516 73v-73z"/>
    <glyph glyph-name="uniFC5E" unicode="ﱞ" arabic-form="isolated" d="M551 1600l-117 24q-135 -71 -358 -90l18 188q1 12 -6.5 18.5t-21.5 6.5l-66 -2v70l98 2q28 1 49 -15t20 -39l-12 -157q103 11 194 45q-115 30 -115 116q0 121 155 121q66 0 109 -33t43 -88q0 -49 -49 -94l59 -6v-67zM553 1470q0 -67 -41 -108q-43 -45 -121 -45 q-77 0 -105 43q-35 -80 -136 -80q-150 0 -150 125q0 29 5 78h84q-5 -34 -5 -74q0 -59 66 -59q84 0 84 114v52h83v-43q0 -87 74 -87q78 0 78 84q0 54 -7 76h86q5 -30 5 -76zM457 1765q0 54 -66 54q-74 0 -74 -54q0 -53 101 -73q39 33 39 73z"/>
    <glyph glyph-name="uniFC5F" unicode="ﱟ" arabic-form="isolated" d="M596 1836q5 -30 5 -76q0 -72 -44.5 -113t-117.5 -41q-77 0 -105 43q-35 -80 -136 -80q-150 0 -150 125q0 29 5 78h84q-5 -33 -5 -74q0 -59 66 -59q84 0 84 115v51h83v-43q0 -86 74 -86q78 0 78 84q0 53 -7 76h86zM583 1504l-516 -74v74l516 73v-73zM583 1354l-516 -74v74 l516 74v-74z"/>
    <glyph glyph-name="uniFEAE" unicode="ر" horiz-adv-x="1192" arabic-form="final" d="M943 516q125 -164 126 -328h123v-188q-59 0 -104 51q-18 20 -26 41q-38 -231 -265 -360q-273 -156 -699 -156v188q368 0 590 100q224 100 224 290q0 165 -199 350v12h230z"/>
    <glyph glyph-name="uniFEB0" unicode="ز" horiz-adv-x="1192" arabic-form="final" d="M943 516q125 -164 126 -328h123v-188q-59 0 -104 51q-18 20 -26 41q-38 -231 -265 -360q-273 -156 -699 -156v188q368 0 590 100q224 100 224 290q0 165 -199 350v12h230zM890 690h-177v147h177v-147z"/>
    <glyph glyph-name="uniFB8B" unicode="ژ" horiz-adv-x="1192" arabic-form="final" d="M943 516q125 -164 126 -328h123v-188q-59 0 -104 51q-18 20 -26 41q-38 -231 -265 -360q-273 -156 -699 -156v188q368 0 590 100q224 100 224 290q0 165 -199 350v12h230zM889 899h-177v147h177v-147zM1066 690h-177v147h177v-147zM712 690h-177v147h177v-147z"/>
    <glyph glyph-name="uniFB8D" unicode="ڑ" horiz-adv-x="1192" arabic-form="final" d="M943 516q125 -164 126 -328h123v-188q-59 0 -104 51q-18 20 -26 41q-38 -231 -265 -360q-273 -156 -699 -156v188q368 0 590 100q224 100 224 290q0 165 -199 350v12h230zM932 808q0 -108 -192 -108h-272v67h79v413h69v-328q70 141 168 141q68 0 111 -67q37 -56 37 -118z M866 812q0 35 -18 69q-24 45 -66 45q-70 0 -166 -159h116q134 0 134 45z"/>
    <glyph glyph-name="uni06D5.fina" unicode="ە" horiz-adv-x="938" d="M938 0q-142 0 -213 79.5t-71 313.5q-41 -55 -119 -92t-155 -37q-129 0 -211.5 77.5t-82.5 211.5q0 148 152 275.5t416 168.5v72h157v-676q0 -111 30 -158t97 -47v-188zM654 569v293q-194 -33 -302 -118t-108 -189q0 -57 39 -88t97 -31q173 0 274 133z"/>
    <glyph glyph-name=".notdef" horiz-adv-x="1322" d="M166 0v1398h990v-1398h-990zM314 148h694v1102h-694v-1102z"/>
    <glyph glyph-name="null" unicode=""/>
    <glyph glyph-name="nonmarkingreturn" horiz-adv-x="100"/>
    <glyph glyph-name="space" unicode=" " horiz-adv-x="565"/>
    <glyph glyph-name="exclam" unicode="!" horiz-adv-x="670" d="M500 1434l-39 -988h-256l-37 988h332zM336 -23q-80 0 -132 48.5t-52 117.5q0 72 52.5 118t131.5 46q80 0 131 -46.5t51 -117.5q0 -72 -50.5 -119t-131.5 -47z"/>
    <glyph glyph-name="quotedbl" unicode="&quot;" horiz-adv-x="1010" d="M834 1452l-31 -444h-201l-31 444h263zM438 1452l-30 -442h-203l-29 442h262z"/>
    <glyph glyph-name="numbersign" unicode="#" horiz-adv-x="1213" d="M1176 1069l-39 -180h-185l-55 -248h207l-45 -180h-199l-78 -346h-200l73 346h-229l-74 -346h-200l71 346h-186l37 180h188l53 248h-202l34 180h205l74 356h205l-74 -356h229l76 356h203l-74 -356h185zM750 889h-232l-55 -248h231z"/>
    <glyph glyph-name="dollar" unicode="$" horiz-adv-x="1178" d="M674 8v-217h-146v211q-203 1 -378 92v277q58 -47 173 -87t205 -46v364q-234 87 -319.5 188.5t-85.5 247.5q0 157 111 267.5t294 128.5v186h146v-182q211 -10 315 -68v-270q-140 85 -315 104v-379q219 -79 314 -180.5t95 -245.5q0 -166 -106 -267.5t-303 -123.5zM528 883 v317q-139 -25 -139 -145q0 -103 139 -172zM674 545v-303q143 22 143 143q0 98 -143 160z"/>
    <glyph glyph-name="percent" unicode="%" horiz-adv-x="1776" d="M430 707q-153 0 -246.5 97t-93.5 261q0 179 99.5 284t265.5 105q159 0 248.5 -95t89.5 -267q0 -177 -99 -281t-264 -104zM449 1278q-146 0 -146 -203q0 -192 139 -192q142 0 142 200q0 195 -135 195zM1477 1434l-934 -1434h-244l932 1434h246zM1323 -20q-153 0 -246.5 97 t-93.5 261q0 179 99.5 284t265.5 105q160 0 249 -94t89 -266q0 -177 -99 -282t-264 -105zM1339 551q-145 0 -145 -203q0 -192 141 -192q142 0 142 200q0 93 -38 144t-100 51z"/>
    <glyph glyph-name="ampersand" unicode="&amp;" horiz-adv-x="1740" d="M1479 -23q-53 0 -100.5 14t-90 38t-80.5 56.5t-72 69.5q-37 -30 -89 -62t-117.5 -57.5t-144.5 -42t-169 -16.5q-117 0 -216.5 28t-171.5 83.5t-112.5 137.5t-40.5 190q0 85 30.5 151.5t79.5 116.5t111 86t126 60q-31 24 -62.5 55.5t-56.5 69t-40.5 81.5t-15.5 93 q0 79 32 140t89.5 103t137.5 64t176 22q92 0 168.5 -23t131.5 -64t85 -98.5t30 -126.5q0 -111 -66.5 -192.5t-187.5 -132.5q48 -22 92 -50t86 -64t82 -81.5t79 -104.5q82 103 117.5 219.5t35.5 242.5q0 38 -4.5 73t-14.5 65h269q11 -32 16 -62t5 -71q0 -97 -20.5 -189 t-57.5 -176t-89.5 -159t-115.5 -140q49 -51 101 -78.5t98 -27.5q48 0 98 10.5t87 29.5v-238q-55 -22 -108.5 -32.5t-119.5 -10.5zM632 216q59 0 111 11.5t98 30.5t85.5 44t72.5 52q-51 80 -101 135.5t-99 95t-97.5 66.5t-97.5 49q-41 -20 -78.5 -44.5t-66.5 -57t-46.5 -74 t-17.5 -95.5q0 -48 17 -87t48.5 -67t75 -43.5t96.5 -15.5zM817 1124q0 29 -11 52t-30 38.5t-43 24t-51 8.5q-33 0 -60.5 -10t-48 -27t-31.5 -40.5t-11 -50.5q0 -56 35 -103t87 -76q33 12 62.5 28t52 38t36 51t13.5 67z"/>
    <glyph glyph-name="quotesingle" unicode="'" horiz-adv-x="600" d="M430 1452l-31 -442h-200l-29 442h260z"/>
    <glyph glyph-name="parenleft" unicode="(" horiz-adv-x="756" d="M739 -326h-258q-323 356 -323 875q0 501 323 885h256q-303 -402 -303 -885t305 -875z"/>
    <glyph glyph-name="parenleft" unicode="﴾" horiz-adv-x="756" d="M739 -326h-258q-323 356 -323 875q0 501 323 885h256q-303 -402 -303 -885t305 -875z"/>
    <glyph glyph-name="parenright" unicode=")" horiz-adv-x="756" d="M274 -326h-256q306 390 306 875q0 481 -306 885h258q324 -385 324 -885q0 -515 -326 -875z"/>
    <glyph glyph-name="parenright" unicode="﴿" horiz-adv-x="756" d="M274 -326h-256q306 390 306 875q0 481 -306 885h258q324 -385 324 -885q0 -515 -326 -875z"/>
    <glyph glyph-name="asterisk" unicode="*" horiz-adv-x="932" d="M864 1053l-274 -37l196 -211l-182 -125l-137 254l-137 -254l-183 125l197 211l-274 37l71 202l252 -108l-43 287h234l-43 -287l250 108z"/>
    <glyph glyph-name="plus" unicode="+" horiz-adv-x="1448" d="M1212 485h-385v-385h-202v385h-387v203h387v387h202v-387h385v-203z"/>
    <glyph glyph-name="comma" unicode="," horiz-adv-x="555" d="M432 252l-147 -506h-246l102 506h291z"/>
    <glyph glyph-name="hyphen" unicode="-" horiz-adv-x="828" d="M690 436h-547v221h547v-221z"/>
    <glyph glyph-name="hyphen" unicode="‐" horiz-adv-x="828" d="M690 436h-547v221h547v-221z"/>
    <glyph glyph-name="period" unicode="." horiz-adv-x="555" d="M274 -25q-78 0 -130 48t-52 118q0 72 53.5 118t133.5 46q81 0 132.5 -46.5t51.5 -117.5q0 -73 -52.5 -119.5t-136.5 -46.5z"/>
    <glyph glyph-name="slash" unicode="/" horiz-adv-x="908" d="M932 1434l-699 -1672h-282l696 1672h285z"/>
    <glyph glyph-name="zero" unicode="0" horiz-adv-x="1178" d="M582 -25q-512 0 -512 719q0 373 138.5 568.5t401.5 195.5q500 0 500 -731q0 -364 -136.5 -558t-391.5 -194zM596 1217q-205 0 -205 -515q0 -485 201 -485q196 0 196 500t-192 500z"/>
    <glyph glyph-name="one" unicode="1" horiz-adv-x="1178" d="M1077 0h-907v250h297v893l-305 -66v256l620 125v-1208h295v-250z"/>
    <glyph glyph-name="two" unicode="2" horiz-adv-x="1178" d="M471 268v-6h582v-262h-944v246l411 393q124 119 174.5 199.5t50.5 169.5q0 198 -213 198q-185 0 -354 -147v278q187 121 422 121q220 0 343.5 -110.5t123.5 -298.5q0 -251 -301 -519z"/>
    <glyph glyph-name="three" unicode="3" horiz-adv-x="1178" d="M147 47v275q144 -105 336 -105q121 0 188.5 52t67.5 145q0 96 -83.5 148t-229.5 52h-129v242h119q280 0 280 186q0 175 -215 175q-144 0 -280 -93v258q151 76 352 76q220 0 342.5 -99t122.5 -257q0 -281 -285 -352v-5q152 -19 240 -110.5t88 -224.5q0 -201 -147 -318 t-406 -117q-222 0 -361 72z"/>
    <glyph glyph-name="four" unicode="4" horiz-adv-x="1178" d="M1124 305h-172v-305h-288v305h-625v201l602 928h311v-904h172v-225zM668 1118h-6q-14 -36 -54 -112l-307 -476h363v451q0 60 4 137z"/>
    <glyph glyph-name="five" unicode="5" horiz-adv-x="1178" d="M164 37v270q147 -90 313 -90q125 0 195.5 59.5t70.5 161.5q0 213 -301 213q-98 0 -237 -18v801h794v-258h-524v-287q63 6 119 6q221 0 346 -116t125 -312q0 -217 -149 -354.5t-404 -137.5q-207 0 -348 62z"/>
    <glyph glyph-name="six" unicode="6" horiz-adv-x="1178" d="M1008 1419v-264q-109 62 -238 62q-159 0 -256.5 -121.5t-101.5 -325.5h6q103 152 301 152q180 0 285.5 -122t105.5 -323q0 -216 -140 -359t-356 -143q-242 0 -378 175t-136 491q0 372 175 594.5t475 222.5q166 0 258 -39zM612 688q-87 0 -138.5 -61t-51.5 -156 q0 -105 52.5 -179.5t139.5 -74.5q85 0 136 66.5t51 173.5q0 231 -189 231z"/>
    <glyph glyph-name="seven" unicode="7" horiz-adv-x="1178" d="M1094 1288l-506 -1288h-334l510 1176h-668v258h998v-146z"/>
    <glyph glyph-name="eight" unicode="8" horiz-adv-x="1178" d="M371 745v5q-246 101 -246 327q0 166 132 273.5t341 107.5q213 0 340 -100.5t127 -259.5q0 -235 -272 -346v-4q146 -43 226.5 -141.5t80.5 -221.5q0 -190 -140.5 -300t-392.5 -110q-218 0 -351.5 107.5t-133.5 284.5q0 257 289 378zM768 1071q0 73 -46.5 116.5 t-123.5 43.5q-75 0 -124.5 -45.5t-49.5 -116.5q0 -134 172 -203q172 71 172 205zM582 625q-201 -79 -201 -242q0 -78 61.5 -129t149.5 -51q95 0 153 50t58 132q0 164 -221 240z"/>
    <glyph glyph-name="nine" unicode="9" horiz-adv-x="1178" d="M160 31v260q113 -74 272 -74q166 0 256.5 112.5t91.5 319.5l-6 2q-95 -141 -289 -141q-176 0 -291.5 123t-115.5 319q0 229 141 367.5t365 138.5q230 0 366.5 -174t136.5 -498q0 -384 -164.5 -597.5t-459.5 -213.5q-175 0 -303 56zM575 1217q-82 0 -135 -66.5t-53 -171.5 q0 -109 52.5 -171.5t142.5 -62.5q82 0 134 59.5t52 149.5q0 113 -54.5 188t-138.5 75z"/>
    <glyph glyph-name="colon" unicode=":" horiz-adv-x="555" d="M274 707q-78 0 -130 47.5t-52 117.5q0 72 53.5 118t133.5 46q81 0 132.5 -46.5t51.5 -117.5q0 -73 -52.5 -119t-136.5 -46zM274 -25q-78 0 -130 48t-52 118q0 72 53.5 118t133.5 46q81 0 132.5 -46.5t51.5 -117.5q0 -73 -52.5 -119.5t-136.5 -46.5z"/>
    <glyph glyph-name="semicolon" unicode=";" horiz-adv-x="555" d="M281 707q-79 0 -131 48t-52 117q0 73 52.5 118.5t132.5 45.5q81 0 132.5 -46.5t51.5 -117.5q0 -73 -51 -119t-135 -46zM432 252l-147 -506h-246l102 506h291z"/>
    <glyph glyph-name="less" unicode="&lt;" horiz-adv-x="1448" d="M1192 63l-934 426v162l934 447v-238l-666 -285v-6l666 -268v-238z"/>
    <glyph glyph-name="equal" unicode="=" horiz-adv-x="1448" d="M1212 700h-974v205h974v-205zM1212 266h-974v203h974v-203z"/>
    <glyph glyph-name="greater" unicode="&gt;" horiz-adv-x="1448" d="M1192 502l-934 -426v237l668 267v4l-668 286v238l934 -444v-162z"/>
    <glyph glyph-name="question" unicode="?" horiz-adv-x="897" d="M263 415q-10 26 -15.5 58.5t-5.5 61.5q0 46 9 84t27 71.5t45 64t63 60.5q38 32 66.5 59.5t48.5 55t30 57t10 65.5q0 31 -11 57.5t-31.5 45.5t-50 30t-65.5 11q-78 0 -162 -32.5t-159 -98.5v301q77 46 168 69t188 23q93 0 173 -20.5t139.5 -64.5t93 -112.5t33.5 -164.5 q0 -61 -14 -110.5t-41 -93.5t-67 -84.5t-92 -83.5q-35 -29 -61.5 -54t-44 -49.5t-26.5 -52t-9 -62.5q0 -24 6.5 -49t17.5 -42h-263zM409 -23q-80 0 -133 48q-53 50 -53 118q0 70 53 117t133 47q79 0 131 -47q52 -46 52 -117q0 -72 -51 -119q-52 -47 -132 -47z"/>
    <glyph glyph-name="at" unicode="@" horiz-adv-x="1954" d="M1122 371h-6q-70 -191 -254 -191q-138 0 -222.5 100t-84.5 277q0 229 117 372.5t282 143.5q149 0 187 -117h4l10 99h225q-45 -426 -45 -557q0 -140 76 -140q80 0 132 106t52 277q0 234 -149 383.5t-416 149.5q-286 0 -475.5 -199.5t-189.5 -486.5q0 -278 167.5 -438 t462.5 -160q225 0 412 86v-191q-171 -73 -440 -73q-369 0 -600.5 211.5t-231.5 568.5q0 364 247 612t636 248q360 0 582.5 -192.5t222.5 -507.5q0 -259 -136 -415.5t-337 -156.5q-99 0 -161 53t-67 138zM989 899q-90 0 -146.5 -102.5t-56.5 -237.5q0 -96 38.5 -149.5 t99.5 -53.5q94 0 148 101t54 270q0 80 -37.5 126t-99.5 46z"/>
    <glyph glyph-name="A" unicode="A" horiz-adv-x="1440" d="M1425 0h-352l-102 319h-510l-101 -319h-350l522 1434h383zM897 567l-154 482q-17 54 -24 129h-8q-5 -63 -25 -125l-156 -486h367z"/>
    <glyph glyph-name="B" unicode="B" horiz-adv-x="1313" d="M164 0v1434h522q240 0 369 -88t129 -248q0 -116 -78.5 -203t-200.5 -121v-4q153 -19 244.5 -113t91.5 -229q0 -197 -141 -312.5t-385 -115.5h-551zM487 1196v-340h142q100 0 157.5 48.5t57.5 133.5q0 158 -236 158h-121zM487 616v-378h175q112 0 175.5 52t63.5 142 q0 86 -62.5 135t-174.5 49h-177z"/>
    <glyph glyph-name="C" unicode="C" horiz-adv-x="1278" d="M1192 51q-157 -76 -410 -76q-330 0 -519 194t-189 517q0 344 212.5 558t551.5 214q210 0 354 -53v-311q-144 86 -328 86q-202 0 -326 -127t-124 -344q0 -208 117 -331.5t315 -123.5q189 0 346 92v-295z"/>
    <glyph glyph-name="D" unicode="D" horiz-adv-x="1510" d="M164 0v1434h508q764 0 764 -699q0 -335 -208.5 -535t-555.5 -200h-508zM487 1171v-909h160q210 0 329.5 126t119.5 343q0 205 -118.5 322.5t-332.5 117.5h-158z"/>
    <glyph glyph-name="E" unicode="E" horiz-adv-x="1090" d="M1024 0h-860v1434h827v-263h-504v-319h469v-262h-469v-328h537v-262z"/>
    <glyph glyph-name="F" unicode="F" horiz-adv-x="1065" d="M993 1171h-506v-352h465v-262h-465v-557h-323v1434h829v-263z"/>
    <glyph glyph-name="G" unicode="G" horiz-adv-x="1456" d="M1341 96q-210 -121 -522 -121q-346 0 -545.5 191.5t-199.5 527.5q0 338 218 551t580 213q228 0 402 -63v-303q-166 96 -406 96q-201 0 -327.5 -130.5t-126.5 -348.5q0 -221 113.5 -342t306.5 -121q116 0 184 33v280h-287v258h610v-721z"/>
    <glyph glyph-name="H" unicode="H" horiz-adv-x="1569" d="M1405 0h-324v584h-594v-584h-323v1434h323v-572h594v572h324v-1434z"/>
    <glyph glyph-name="I" unicode="I" horiz-adv-x="649" d="M607 1434v-250h-120v-934h120v-250h-563v250h120v934h-120v250h563z"/>
    <glyph glyph-name="J" unicode="J" horiz-adv-x="912" d="M762 569q0 -288 -133.5 -441t-386.5 -153q-113 0 -209 39v303q83 -63 186 -63q221 0 221 328v852h322v-865z"/>
    <glyph glyph-name="K" unicode="K" horiz-adv-x="1329" d="M1356 0h-408l-418 623q-12 18 -38 79h-5v-702h-323v1434h323v-678h5q12 28 40 80l396 598h385l-500 -684z"/>
    <glyph glyph-name="L" unicode="L" horiz-adv-x="1047" d="M1018 0h-854v1434h323v-1172h531v-262z"/>
    <glyph glyph-name="M" unicode="M" horiz-adv-x="1960" d="M1798 0h-319v858q0 139 12 307h-8q-25 -132 -45 -190l-336 -975h-264l-342 965q-14 39 -45 200h-9q13 -212 13 -372v-793h-291v1434h473l293 -850q35 -102 51 -205h6q27 119 57 207l293 848h461v-1434z"/>
    <glyph glyph-name="N" unicode="N" horiz-adv-x="1618" d="M1454 0h-326l-591 901q-52 79 -72 119h-4q8 -76 8 -232v-788h-305v1434h348l569 -873q39 -59 72 -117h4q-8 50 -8 197v793h305v-1434z"/>
    <glyph glyph-name="O" unicode="O" horiz-adv-x="1553" d="M770 -25q-308 0 -502 200.5t-194 522.5q0 340 197 550t522 210q307 0 496.5 -201t189.5 -530q0 -338 -196.5 -545t-512.5 -207zM784 1180q-170 0 -270 -127.5t-100 -337.5q0 -213 100 -337t262 -124q167 0 265 120.5t98 334.5q0 223 -95 347t-260 124z"/>
    <glyph glyph-name="P" unicode="P" horiz-adv-x="1258" d="M487 494v-494h-323v1434h506q542 0 542 -457q0 -216 -155.5 -349.5t-415.5 -133.5h-154zM487 1186v-447h127q258 0 258 226q0 221 -258 221h-127z"/>
    <glyph glyph-name="Q" unicode="Q" horiz-adv-x="1553" d="M784 1180q-169 0 -270 -128q-100 -127 -100 -337q0 -212 99 -337q100 -124 263 -124q168 0 265 120q98 122 98 335q0 221 -94 345q-94 126 -261 126zM1040 27q52 -56 99 -92t94.5 -57t97.5 -29t109 -8q16 0 35 1.5t38.5 5t37.5 8t33 10.5v-272q-32 -9 -88.5 -18 t-137.5 -9q-98 0 -180.5 32t-158 87.5t-147 130.5t-148.5 161q-147 4 -267 61t-205 153.5t-131.5 226.5t-46.5 279q0 341 196 550q197 210 525 210q305 0 494 -202q190 -200 190 -529q0 -257 -116 -442q-116 -183 -323 -258z"/>
    <glyph glyph-name="R" unicode="R" horiz-adv-x="1337" d="M1367 0h-371l-223 369q-25 42 -48 75t-46.5 56.5t-49 36t-55.5 12.5h-87v-549h-323v1434h512q522 0 522 -390q0 -75 -23 -138.5t-65 -114.5t-101.5 -88t-132.5 -58v-4q32 -10 62 -32.5t58 -52.5t53.5 -64.5t46.5 -67.5zM487 1192v-399h140q104 0 167 60q64 61 64 151 q0 188 -225 188h-146z"/>
    <glyph glyph-name="S" unicode="S" horiz-adv-x="1148" d="M98 55v320q87 -73 189 -109.5t206 -36.5q61 0 106.5 11t76 30.5t45.5 46t15 57.5q0 42 -24 75t-65.5 61t-98.5 54t-123 53q-168 70 -250.5 171t-82.5 244q0 112 45 192.5t122.5 132.5t179.5 76.5t216 24.5q112 0 198.5 -13.5t159.5 -41.5v-299q-36 25 -78.5 44 t-87.5 31.5t-89.5 18.5t-84.5 6q-55 0 -100 -10.5t-76 -29.5t-48 -45.5t-17 -59.5q0 -36 19 -64.5t54 -54t85 -50t113 -50.5q86 -36 154.5 -76.5t117.5 -91.5t75 -116.5t26 -152.5q0 -120 -45.5 -201.5t-123.5 -132t-181.5 -72.5t-218.5 -22q-118 0 -224.5 20t-184.5 60z "/>
    <glyph glyph-name="T" unicode="T" horiz-adv-x="1200" d="M1171 1171h-409v-1171h-324v1171h-407v263h1140v-263z"/>
    <glyph glyph-name="U" unicode="U" horiz-adv-x="1481" d="M1333 621q0 -646 -602 -646q-584 0 -584 631v828h324v-832q0 -348 272 -348q267 0 267 336v844h323v-813z"/>
    <glyph glyph-name="V" unicode="V" horiz-adv-x="1366" d="M1358 1434l-494 -1434h-366l-488 1434h348l299 -998q24 -81 29 -143h6q7 67 31 147l297 994h338z"/>
    <glyph glyph-name="W" unicode="W" horiz-adv-x="2058" d="M2040 1434l-379 -1434h-358l-238 920q-19 72 -23 161h-4q-9 -98 -26 -161l-244 -920h-373l-377 1434h353l202 -955q13 -61 19 -164h6q4 77 29 168l260 951h346l235 -963q13 -53 23 -154h4q4 79 21 160l198 957h326z"/>
    <glyph glyph-name="X" unicode="X" horiz-adv-x="1342" d="M1335 0h-383l-247 467q-14 26 -29 96h-4q-7 -33 -33 -100l-248 -463h-385l457 717l-418 717h393l205 -430q24 -51 43 -121h4q12 42 45 125l228 426h360l-430 -711z"/>
    <glyph glyph-name="Y" unicode="Y" horiz-adv-x="1243" d="M1245 1434l-467 -924v-510h-323v504l-455 930h369l231 -535q6 -15 33 -117h4q13 72 31 113l235 539h342z"/>
    <glyph glyph-name="Z" unicode="Z" horiz-adv-x="1243" d="M1196 0h-1155v186l735 985h-682v263h1100v-181l-719 -991h721v-262z"/>
    <glyph glyph-name="bracketleft" unicode="[" horiz-adv-x="756" d="M686 -326h-469v1760h469v-201h-209v-1358h209v-201z"/>
    <glyph glyph-name="backslash" unicode="\" horiz-adv-x="893" d="M961 -238h-279l-682 1672h281z"/>
    <glyph glyph-name="bracketright" unicode="]" horiz-adv-x="756" d="M541 -326h-471v201h211v1358h-211v201h471v-1760z"/>
    <glyph glyph-name="asciicircum" unicode="^" horiz-adv-x="1448" d="M1249 610h-243l-287 586h-4l-271 -586h-241l430 848h162z"/>
    <glyph glyph-name="underscore" unicode="_" horiz-adv-x="850" d="M850 -297h-850v119h850v-119z"/>
    <glyph glyph-name="grave" unicode="`" horiz-adv-x="643" d="M596 1186h-227l-314 323h281z"/>
    <glyph glyph-name="a" unicode="a" horiz-adv-x="1102" d="M985 0h-299v147h-4q-103 -172 -305 -172q-149 0 -234.5 84.5t-85.5 225.5q0 298 353 344l278 37q0 168 -182 168q-183 0 -348 -109v238q66 34 180.5 60t208.5 26q438 0 438 -437v-612zM688 416v69l-186 -24q-154 -20 -154 -139q0 -54 37.5 -88.5t101.5 -34.5 q89 0 145 61.5t56 155.5z"/>
    <glyph glyph-name="b" unicode="b" horiz-adv-x="1270" d="M453 119h-4v-119h-316v1516h316v-646h4q117 179 333 179q198 0 305 -136t107 -372q0 -256 -125 -411t-334 -155q-189 0 -286 144zM444 551v-105q0 -99 57 -164t146 -65q108 0 167.5 83.5t59.5 236.5q0 127 -54.5 198.5t-155.5 71.5q-95 0 -157.5 -71t-62.5 -185z"/>
    <glyph glyph-name="c" unicode="c" horiz-adv-x="983" d="M909 37q-107 -62 -309 -62q-236 0 -382 143t-146 369q0 261 156.5 411.5t418.5 150.5q181 0 262 -48v-268q-99 74 -221 74q-136 0 -215.5 -79.5t-79.5 -219.5q0 -136 76 -213.5t209 -77.5q118 0 231 74v-254z"/>
    <glyph glyph-name="d" unicode="d" horiz-adv-x="1268" d="M1135 0h-316v141h-4q-108 -166 -317 -166q-192 0 -309 135.5t-117 378.5q0 254 129 407t338 153q198 0 276 -142h4v609h316v-1516zM825 498v77q0 100 -58 166t-151 66q-105 0 -164 -82.5t-59 -226.5q0 -135 57 -208t158 -73q96 0 156.5 77t60.5 204z"/>
    <glyph glyph-name="e" unicode="e" horiz-adv-x="1108" d="M1053 422h-668q16 -223 281 -223q169 0 297 80v-228q-142 -76 -369 -76q-248 0 -385 137.5t-137 383.5q0 255 148 404t364 149q224 0 346.5 -133t122.5 -361v-133zM760 616q0 220 -178 220q-76 0 -131.5 -63t-67.5 -157h377z"/>
    <glyph glyph-name="f" unicode="f" horiz-adv-x="785" d="M801 1274q-61 24 -117 24q-152 0 -152 -165v-109h234v-233h-234v-791h-315v791h-172v233h172v127q0 175 114 282t310 107q96 0 160 -20v-246z"/>
    <glyph glyph-name="g" unicode="g" horiz-adv-x="1268" d="M1137 117q0 -285 -165 -441.5t-478 -156.5q-207 0 -328 59v266q158 -92 319 -92q160 0 248 84.5t88 229.5v81h-4q-108 -172 -319 -172q-196 0 -311 138t-115 370q0 260 128 413t337 153q187 0 280 -144h4v119h316v-907zM825 492v81q0 97 -57.5 165.5t-149.5 68.5 q-105 0 -165 -82t-60 -231q0 -128 57 -202.5t156 -74.5q98 0 158.5 75.5t60.5 199.5z"/>
    <glyph glyph-name="h" unicode="h" horiz-adv-x="1233" d="M1116 0h-315v582q0 225 -164 225q-84 0 -136 -63t-52 -160v-584h-316v1516h316v-644h4q116 177 315 177q348 0 348 -420v-629z"/>
    <glyph glyph-name="i" unicode="i" horiz-adv-x="582" d="M293 1186q-80 0 -131 47.5t-51 116.5q0 71 51 116t131 45q81 0 131.5 -45t50.5 -116q0 -72 -50.5 -118t-131.5 -46zM449 0h-316v1024h316v-1024z"/>
    <glyph glyph-name="j" unicode="j" horiz-adv-x="582" d="M293 1186q-80 0 -131 47.5t-51 116.5q0 71 51 116t131 45q81 0 131.5 -45t50.5 -116q0 -72 -50.5 -118t-131.5 -46zM449 18q0 -227 -111 -363t-320 -136q-69 0 -151 30v248q66 -37 117 -37q149 0 149 234v1030h316v-1006z"/>
    <glyph glyph-name="k" unicode="k" horiz-adv-x="1145" d="M1159 0h-379l-327 508h-4v-508h-316v1516h316v-965h4l305 473h375l-367 -481z"/>
    <glyph glyph-name="l" unicode="l" horiz-adv-x="582" d="M449 0h-316v1516h316v-1516z"/>
    <glyph glyph-name="m" unicode="m" horiz-adv-x="1876" d="M1759 0h-315v584q0 223 -164 223q-78 0 -127 -67t-49 -167v-573h-316v590q0 217 -161 217q-81 0 -129.5 -64t-48.5 -174v-569h-316v1024h316v-160h4q49 82 137.5 133.5t193.5 51.5q217 0 297 -191q117 191 344 191q334 0 334 -412v-637z"/>
    <glyph glyph-name="n" unicode="n" horiz-adv-x="1239" d="M1122 0h-315v569q0 238 -170 238q-82 0 -135 -63t-53 -160v-584h-316v1024h316v-162h4q113 187 329 187q340 0 340 -422v-627z"/>
    <glyph glyph-name="o" unicode="o" horiz-adv-x="1252" d="M621 -25q-256 0 -402.5 143.5t-146.5 389.5q0 254 152 397.5t411 143.5q255 0 400 -143.5t145 -379.5q0 -255 -149.5 -403t-409.5 -148zM629 807q-112 0 -174 -77t-62 -218q0 -295 238 -295q227 0 227 303q0 287 -229 287z"/>
    <glyph glyph-name="p" unicode="p" horiz-adv-x="1270" d="M453 119h-4v-590h-316v1495h316v-154h4q117 179 329 179q199 0 307.5 -136.5t108.5 -371.5q0 -256 -126.5 -411t-336.5 -155q-185 0 -282 144zM444 539v-82q0 -106 56 -173t147 -67q108 0 167.5 83.5t59.5 236.5q0 270 -210 270q-97 0 -158.5 -73.5t-61.5 -194.5z"/>
    <glyph glyph-name="q" unicode="q" horiz-adv-x="1268" d="M1135 -471h-316v612h-4q-107 -166 -315 -166q-193 0 -310.5 134.5t-117.5 377.5q0 256 129 409t336 153q188 0 278 -144h4v119h316v-1495zM825 489v82q0 100 -58 168t-149 68q-105 0 -165 -82.5t-60 -228.5q0 -131 58.5 -205t152.5 -74q100 0 160.5 75t60.5 197z"/>
    <glyph glyph-name="r" unicode="r" horiz-adv-x="815" d="M801 739q-57 31 -133 31q-103 0 -161 -75.5t-58 -205.5v-489h-316v1024h316v-190h4q75 208 270 208q50 0 78 -12v-291z"/>
    <glyph glyph-name="s" unicode="s" horiz-adv-x="901" d="M66 27v256q78 -47 155.5 -70t146.5 -23q84 0 132.5 23t48.5 70q0 30 -22 50t-56.5 35t-75.5 27t-79 27q-61 23 -107.5 49.5t-78 61.5t-48 81t-16.5 109q0 86 37.5 148t100 101.5t143 58t167.5 18.5q68 0 138 -10.5t138 -30.5v-244q-60 35 -128.5 52.5t-134.5 17.5 q-31 0 -58.5 -5.5t-48.5 -16t-33 -27t-12 -37.5q0 -28 18 -48t47 -34.5t64.5 -26t70.5 -23.5q63 -22 114 -48t87.5 -61t56 -82t19.5 -112q0 -91 -39.5 -155.5t-105 -105t-151 -59t-177.5 -18.5q-169 0 -313 52z"/>
    <glyph glyph-name="t" unicode="t" horiz-adv-x="797" d="M752 12q-70 -37 -211 -37q-334 0 -334 347v469h-166v233h166v221l315 90v-311h230v-233h-230v-414q0 -160 127 -160q50 0 103 29v-234z"/>
    <glyph glyph-name="u" unicode="u" horiz-adv-x="1239" d="M1106 0h-315v156h-5q-117 -181 -313 -181q-356 0 -356 431v618h315v-590q0 -217 172 -217q85 0 136 59.5t51 161.5v586h315v-1024z"/>
    <glyph glyph-name="v" unicode="v" horiz-adv-x="1110" d="M1108 1024l-381 -1024h-360l-363 1024h338l178 -631q30 -107 35 -182h4q7 71 37 176l182 637h330z"/>
    <glyph glyph-name="w" unicode="w" horiz-adv-x="1633" d="M1616 1024l-295 -1024h-332l-151 600q-15 60 -17 131h-6q-7 -78 -20 -127l-162 -604h-328l-289 1024h322l141 -668q10 -47 15 -114h6q5 70 18 118l176 664h301l158 -668q6 -25 14 -116h7q5 58 16 116l133 668h293z"/>
    <glyph glyph-name="x" unicode="x" horiz-adv-x="1131" d="M1122 1024l-338 -496l336 -528h-364l-148 276q-18 33 -43 93h-4q-15 -42 -41 -90l-149 -279h-363l346 510l-325 514h366l146 -287q29 -57 41 -96h4q16 47 43 98l149 285h344z"/>
    <glyph glyph-name="y" unicode="y" horiz-adv-x="1102" d="M1108 1024l-416 -1106q-150 -399 -452 -399q-115 0 -189 26v252q63 -37 137 -37q122 0 170 115l54 127l-416 1022h350l191 -623q18 -58 28 -137h4q9 58 33 135l193 625h313z"/>
    <glyph glyph-name="z" unicode="z" horiz-adv-x="981" d="M944 0h-919v131l514 660h-463v233h864v-156l-487 -635h491v-233z"/>
    <glyph glyph-name="braceleft" unicode="{" horiz-adv-x="756" d="M674 -326q-218 0 -317 80t-99 285v240q0 184 -152 184v184q152 0 152 191v223q0 206 98 289.5t318 83.5v-187q-160 0 -160 -174v-213q0 -240 -154 -303v-4q154 -62 154 -307v-205q0 -98 37.5 -139t122.5 -41v-187z"/>
    <glyph glyph-name="bar" unicode="|" horiz-adv-x="668" d="M461 -481h-252v2048h252v-2048z"/>
    <glyph glyph-name="braceright" unicode="}" horiz-adv-x="756" d="M651 463q-153 0 -153 -187v-231q0 -211 -97.5 -291t-316.5 -80v187q84 0 122 40.5t38 137.5v213q0 239 153 299v4q-153 63 -153 313v205q0 174 -160 174v187q218 0 316 -83.5t98 -285.5v-229q0 -189 153 -189v-184z"/>
    <glyph glyph-name="asciitilde" unicode="~" horiz-adv-x="1448" d="M1255 772q-6 -168 -89.5 -266t-223.5 -98q-106 0 -258 88q-109 63 -156 63q-123 0 -129 -160h-204q6 169 89.5 267t227.5 98q112 0 238 -76q130 -78 180 -78q52 0 85.5 44.5t35.5 117.5h204z"/>
    <glyph glyph-name="Adieresis" unicode="Ä" horiz-adv-x="1440" d="M1425 0h-352l-102 319h-510l-101 -319h-350l522 1434h383zM897 567l-154 482q-17 54 -24 129h-8q-5 -63 -25 -125l-156 -486h367zM945 1567q-67 0 -110 39t-43 98q0 61 43 99t110 38t110.5 -38.5t43.5 -98.5t-43 -98.5t-111 -38.5zM487 1567q-68 0 -111 39.5t-43 97.5 q0 60 44 98.5t110 38.5q68 0 110.5 -38.5t42.5 -98.5q0 -61 -42.5 -99t-110.5 -38z"/>
    <glyph glyph-name="Aring" unicode="Å" horiz-adv-x="1440" d="M1425 0h-352l-102 319h-510l-101 -319h-350l512 1407q-53 54 -53 137q0 106 73.5 169t180.5 63q114 0 184 -63.5t70 -164.5q0 -80 -53 -137zM719 1645q-47 0 -75 -28.5t-28 -70.5q0 -98 103 -98q48 0 77 28.5t29 69.5q0 43 -29.5 71t-76.5 28zM893 584l-152 465 q-13 40 -22 120h-8q-7 -68 -23 -116l-153 -469h358z"/>
    <glyph glyph-name="Ccedilla" unicode="Ç" horiz-adv-x="1278" d="M1192 51q-157 -76 -410 -76q-330 0 -519 194t-189 517q0 344 212.5 558t551.5 214q210 0 354 -53v-311q-144 86 -328 86q-202 0 -326 -127t-124 -344q0 -208 117 -331.5t315 -123.5q189 0 346 92v-295zM610 -451v138q35 -6 72 -6q123 0 123 73q0 66 -111 66q-13 0 -37 -2 v182h172v-82q187 -8 187 -166q0 -207 -318 -207q-46 0 -88 4z"/>
    <glyph glyph-name="Eacute" unicode="É" horiz-adv-x="1090" d="M1024 0h-860v1434h827v-263h-504v-319h469v-262h-469v-328h537v-262zM934 1890l-313 -323h-228l260 323h281z"/>
    <glyph glyph-name="Ntilde" unicode="Ñ" horiz-adv-x="1618" d="M1454 0h-326l-591 901q-52 79 -72 119h-4q8 -76 8 -232v-788h-305v1434h348l569 -873q39 -59 72 -117h4q-8 50 -8 197v793h305v-1434zM1206 1878q0 -140 -55.5 -216.5t-151.5 -76.5q-86 0 -168 43q-89 47 -123 47q-80 0 -80 -108h-141q0 139 55 216t154 77q81 0 168 -49 q79 -44 120 -44q78 0 78 111h144z"/>
    <glyph glyph-name="Odieresis" unicode="Ö" horiz-adv-x="1552" d="M770 -25q-308 0 -502 200.5t-194 522.5q0 340 197 550t522 210q307 0 496.5 -201t189.5 -530q0 -338 -196.5 -545t-512.5 -207zM784 1180q-170 0 -270 -127.5t-100 -337.5q0 -213 100 -337t262 -124q167 0 265 120.5t98 334.5q0 223 -95 347t-260 124zM1004 1567 q-67 0 -110 39t-43 98q0 61 43 99t110 38t110.5 -38.5t43.5 -98.5t-43 -98.5t-111 -38.5zM546 1567q-68 0 -111 39.5t-43 97.5q0 60 44 98.5t110 38.5q68 0 110.5 -38.5t42.5 -98.5q0 -61 -42.5 -99t-110.5 -38z"/>
    <glyph glyph-name="Udieresis" unicode="Ü" horiz-adv-x="1481" d="M1333 621q0 -646 -602 -646q-584 0 -584 631v828h324v-832q0 -348 272 -348q267 0 267 336v844h323v-813zM969 1567q-67 0 -110 39t-43 98q0 61 43 99t110 38t110.5 -38.5t43.5 -98.5t-43 -98.5t-111 -38.5zM511 1567q-68 0 -111 39.5t-43 97.5q0 60 44 98.5t110 38.5 q68 0 110.5 -38.5t42.5 -98.5q0 -61 -42.5 -99t-110.5 -38z"/>
    <glyph glyph-name="aacute" unicode="á" horiz-adv-x="1102" d="M985 0h-299v147h-4q-103 -172 -305 -172q-149 0 -234.5 84.5t-85.5 225.5q0 298 353 344l278 37q0 168 -182 168q-183 0 -348 -109v238q66 34 180.5 60t208.5 26q438 0 438 -437v-612zM688 416v69l-186 -24q-154 -20 -154 -139q0 -54 37.5 -88.5t101.5 -34.5 q89 0 145 61.5t56 155.5zM891 1509l-313 -323h-228l260 323h281z"/>
    <glyph glyph-name="agrave" unicode="à" horiz-adv-x="1102" d="M985 0h-299v147h-4q-103 -172 -305 -172q-149 0 -234.5 84.5t-85.5 225.5q0 298 353 344l278 37q0 168 -182 168q-183 0 -348 -109v238q66 34 180.5 60t208.5 26q438 0 438 -437v-612zM688 416v69l-186 -24q-154 -20 -154 -139q0 -54 37.5 -88.5t101.5 -34.5 q89 0 145 61.5t56 155.5zM775 1186h-227l-314 323h281z"/>
    <glyph glyph-name="acircumflex" unicode="â" horiz-adv-x="1102" d="M985 0h-299v147h-4q-103 -172 -305 -172q-149 0 -234.5 84.5t-85.5 225.5q0 298 353 344l278 37q0 168 -182 168q-183 0 -348 -109v238q66 34 180.5 60t208.5 26q438 0 438 -437v-612zM688 416v69l-186 -24q-154 -20 -154 -139q0 -54 37.5 -88.5t101.5 -34.5 q89 0 145 61.5t56 155.5zM914 1186h-207l-158 188l-147 -188h-207l235 325h248z"/>
    <glyph glyph-name="adieresis" unicode="ä" horiz-adv-x="1102" d="M985 0h-299v147h-4q-103 -172 -305 -172q-149 0 -234.5 84.5t-85.5 225.5q0 298 353 344l278 37q0 168 -182 168q-183 0 -348 -109v238q66 34 180.5 60t208.5 26q438 0 438 -437v-612zM688 416v69l-186 -24q-154 -20 -154 -139q0 -54 37.5 -88.5t101.5 -34.5 q89 0 145 61.5t56 155.5zM787 1186q-67 0 -110 39t-43 98q0 61 43 99t110 38t110.5 -38.5t43.5 -98.5t-43 -98.5t-111 -38.5zM329 1186q-68 0 -111 39.5t-43 97.5q0 60 44 98.5t110 38.5q68 0 110.5 -38.5t42.5 -98.5q0 -61 -42.5 -99t-110.5 -38z"/>
    <glyph glyph-name="atilde" unicode="ã" horiz-adv-x="1102" d="M985 0h-299v147h-4q-103 -172 -305 -172q-149 0 -234.5 84.5t-85.5 225.5q0 298 353 344l278 37q0 168 -182 168q-183 0 -348 -109v238q66 34 180.5 60t208.5 26q438 0 438 -437v-612zM688 416v69l-186 -24q-154 -20 -154 -139q0 -54 37.5 -88.5t101.5 -34.5 q89 0 145 61.5t56 155.5zM907 1497q0 -140 -55.5 -216.5t-151.5 -76.5q-86 0 -168 43q-89 47 -123 47q-80 0 -80 -108h-141q0 139 55 216t154 77q81 0 168 -49q79 -44 120 -44q78 0 78 111h144z"/>
    <glyph glyph-name="aring" unicode="å" horiz-adv-x="1102" d="M985 0h-299v147h-4q-103 -172 -305 -172q-149 0 -234.5 84.5t-85.5 225.5q0 298 353 344l278 37q0 168 -182 168q-183 0 -348 -109v238q66 34 180.5 60t208.5 26q438 0 438 -437v-612zM688 416v69l-186 -24q-154 -20 -154 -139q0 -54 37.5 -88.5t101.5 -34.5 q89 0 145 61.5t56 155.5zM573 1186q-102 0 -168.5 59.5t-66.5 155.5q0 101 69.5 161t170.5 60q107 0 173 -59.5t66 -155.5q0 -98 -71.5 -159.5t-172.5 -61.5zM573 1499q-96 0 -96 -94t96 -94q45 0 74 27.5t29 66.5q0 41 -28.5 67.5t-74.5 26.5z"/>
    <glyph glyph-name="ccedilla" unicode="ç" horiz-adv-x="983" d="M909 37q-107 -62 -309 -62q-236 0 -382 143t-146 369q0 261 156.5 411.5t418.5 150.5q181 0 262 -48v-268q-99 74 -221 74q-136 0 -215.5 -79.5t-79.5 -219.5q0 -136 76 -213.5t209 -77.5q118 0 231 74v-254zM426 -451v138q35 -6 72 -6q123 0 123 73q0 66 -111 66 q-13 0 -37 -2v182h172v-82q187 -8 187 -166q0 -207 -318 -207q-46 0 -88 4z"/>
    <glyph glyph-name="eacute" unicode="é" horiz-adv-x="1108" d="M1053 422h-668q16 -223 281 -223q169 0 297 80v-228q-142 -76 -369 -76q-248 0 -385 137.5t-137 383.5q0 255 148 404t364 149q224 0 346.5 -133t122.5 -361v-133zM760 616q0 220 -178 220q-76 0 -131.5 -63t-67.5 -157h377zM921 1509l-313 -323h-228l260 323h281z"/>
    <glyph glyph-name="egrave" unicode="è" horiz-adv-x="1108" d="M1053 422h-668q16 -223 281 -223q169 0 297 80v-228q-142 -76 -369 -76q-248 0 -385 137.5t-137 383.5q0 255 148 404t364 149q224 0 346.5 -133t122.5 -361v-133zM760 616q0 220 -178 220q-76 0 -131.5 -63t-67.5 -157h377zM795 1186h-227l-314 323h281z"/>
    <glyph glyph-name="ecircumflex" unicode="ê" horiz-adv-x="1108" d="M1053 422h-668q16 -223 281 -223q169 0 297 80v-228q-142 -76 -369 -76q-248 0 -385 137.5t-137 383.5q0 255 148 404t364 149q224 0 346.5 -133t122.5 -361v-133zM760 616q0 220 -178 220q-76 0 -131.5 -63t-67.5 -157h377zM949 1186h-207l-158 188l-147 -188h-207 l235 325h248z"/>
    <glyph glyph-name="edieresis" unicode="ë" horiz-adv-x="1108" d="M1053 422h-668q16 -223 281 -223q169 0 297 80v-228q-142 -76 -369 -76q-248 0 -385 137.5t-137 383.5q0 255 148 404t364 149q224 0 346.5 -133t122.5 -361v-133zM760 616q0 220 -178 220q-76 0 -131.5 -63t-67.5 -157h377zM808 1186q-67 0 -110 39t-43 98q0 61 43 99 t110 38t110.5 -38.5t43.5 -98.5t-43 -98.5t-111 -38.5zM350 1186q-68 0 -111 39.5t-43 97.5q0 60 44 98.5t110 38.5q68 0 110.5 -38.5t42.5 -98.5q0 -61 -42.5 -99t-110.5 -38z"/>
    <glyph glyph-name="iacute" unicode="í" horiz-adv-x="582" d="M449 0h-316v1024h316v-1024zM612 1509l-313 -323h-228l260 323h281z"/>
    <glyph glyph-name="igrave" unicode="ì" horiz-adv-x="582" d="M449 0h-316v1024h316v-1024zM514 1186h-227l-314 323h281z"/>
    <glyph glyph-name="icircumflex" unicode="î" horiz-adv-x="582" d="M449 0h-316v1024h316v-1024zM657 1186h-207l-158 188l-147 -188h-207l235 325h248z"/>
    <glyph glyph-name="idieresis" unicode="ï" horiz-adv-x="582" d="M449 0h-316v1024h316v-1024zM526 1186q-67 0 -110 39t-43 98q0 61 43 99t110 38t110.5 -38.5t43.5 -98.5t-43 -98.5t-111 -38.5zM68 1186q-68 0 -111 39.5t-43 97.5q0 60 44 98.5t110 38.5q68 0 110.5 -38.5t42.5 -98.5q0 -61 -42.5 -99t-110.5 -38z"/>
    <glyph glyph-name="ntilde" unicode="ñ" horiz-adv-x="1239" d="M1122 0h-315v569q0 238 -170 238q-82 0 -135 -63t-53 -160v-584h-316v1024h316v-162h4q113 187 329 187q340 0 340 -422v-627zM982 1497q0 -140 -55.5 -216.5t-151.5 -76.5q-86 0 -168 43q-89 47 -123 47q-80 0 -80 -108h-141q0 139 55 216t154 77q81 0 168 -49 q79 -44 120 -44q78 0 78 111h144z"/>
    <glyph glyph-name="oacute" unicode="ó" horiz-adv-x="1251" d="M621 -25q-256 0 -402.5 143.5t-146.5 389.5q0 254 152 397.5t411 143.5q255 0 400 -143.5t145 -379.5q0 -255 -149.5 -403t-409.5 -148zM629 807q-112 0 -174 -77t-62 -218q0 -295 238 -295q227 0 227 303q0 287 -229 287zM968 1509l-313 -323h-228l260 323h281z"/>
    <glyph glyph-name="ograve" unicode="ò" horiz-adv-x="1251" d="M621 -25q-256 0 -402.5 143.5t-146.5 389.5q0 254 152 397.5t411 143.5q255 0 400 -143.5t145 -379.5q0 -255 -149.5 -403t-409.5 -148zM629 807q-112 0 -174 -77t-62 -218q0 -295 238 -295q227 0 227 303q0 287 -229 287zM852 1186h-227l-314 323h281z"/>
    <glyph glyph-name="ocircumflex" unicode="ô" horiz-adv-x="1251" d="M621 -25q-256 0 -402.5 143.5t-146.5 389.5q0 254 152 397.5t411 143.5q255 0 400 -143.5t145 -379.5q0 -255 -149.5 -403t-409.5 -148zM629 807q-112 0 -174 -77t-62 -218q0 -295 238 -295q227 0 227 303q0 287 -229 287zM988 1186h-207l-158 188l-147 -188h-207 l235 325h248z"/>
    <glyph glyph-name="odieresis" unicode="ö" horiz-adv-x="1251" d="M621 -25q-256 0 -402.5 143.5t-146.5 389.5q0 254 152 397.5t411 143.5q255 0 400 -143.5t145 -379.5q0 -255 -149.5 -403t-409.5 -148zM629 807q-112 0 -174 -77t-62 -218q0 -295 238 -295q227 0 227 303q0 287 -229 287zM859 1186q-67 0 -110 39t-43 98q0 61 43 99 t110 38t110.5 -38.5t43.5 -98.5t-43 -98.5t-111 -38.5zM401 1186q-68 0 -111 39.5t-43 97.5q0 60 44 98.5t110 38.5q68 0 110.5 -38.5t42.5 -98.5q0 -61 -42.5 -99t-110.5 -38z"/>
    <glyph glyph-name="otilde" unicode="õ" horiz-adv-x="1251" d="M621 -25q-256 0 -402.5 143.5t-146.5 389.5q0 254 152 397.5t411 143.5q255 0 400 -143.5t145 -379.5q0 -255 -149.5 -403t-409.5 -148zM629 807q-112 0 -174 -77t-62 -218q0 -295 238 -295q227 0 227 303q0 287 -229 287zM985 1497q0 -140 -55.5 -216.5t-151.5 -76.5 q-86 0 -168 43q-89 47 -123 47q-80 0 -80 -108h-141q0 139 55 216t154 77q81 0 168 -49q79 -44 120 -44q78 0 78 111h144z"/>
    <glyph glyph-name="uacute" unicode="ú" horiz-adv-x="1239" d="M1106 0h-315v156h-5q-117 -181 -313 -181q-356 0 -356 431v618h315v-590q0 -217 172 -217q85 0 136 59.5t51 161.5v586h315v-1024zM977 1509l-313 -323h-228l260 323h281z"/>
    <glyph glyph-name="ugrave" unicode="ù" horiz-adv-x="1239" d="M1106 0h-315v156h-5q-117 -181 -313 -181q-356 0 -356 431v618h315v-590q0 -217 172 -217q85 0 136 59.5t51 161.5v586h315v-1024zM784 1186h-227l-314 323h281z"/>
    <glyph glyph-name="ucircumflex" unicode="û" horiz-adv-x="1239" d="M1106 0h-315v156h-5q-117 -181 -313 -181q-356 0 -356 431v618h315v-590q0 -217 172 -217q85 0 136 59.5t51 161.5v586h315v-1024zM970 1186h-207l-158 188l-147 -188h-207l235 325h248z"/>
    <glyph glyph-name="udieresis" unicode="ü" horiz-adv-x="1239" d="M1106 0h-315v156h-5q-117 -181 -313 -181q-356 0 -356 431v618h315v-590q0 -217 172 -217q85 0 136 59.5t51 161.5v586h315v-1024zM844 1186q-67 0 -110 39t-43 98q0 61 43 99t110 38t110.5 -38.5t43.5 -98.5t-43 -98.5t-111 -38.5zM386 1186q-68 0 -111 39.5t-43 97.5 q0 60 44 98.5t110 38.5q68 0 110.5 -38.5t42.5 -98.5q0 -61 -42.5 -99t-110.5 -38z"/>
    <glyph glyph-name="dagger" unicode="†" horiz-adv-x="832" d="M798 868l-273 30l-45 -696h-129l-45 696l-273 -30v226l293 -30l-30 370h239l-30 -370l293 30v-226z"/>
    <glyph glyph-name="degree" unicode="°" horiz-adv-x="778" d="M399 895q-119 0 -201.5 82.5t-82.5 200.5t82.5 199t201.5 81q118 0 201.5 -81t83.5 -199t-83.5 -200.5t-201.5 -82.5zM399 1307q-54 0 -91.5 -37.5t-37.5 -91.5t37.5 -92.5t91.5 -38.5q53 0 91 38.5t38 92.5t-37.5 91.5t-91.5 37.5z"/>
    <glyph glyph-name="cent" unicode="¢" horiz-adv-x="1178" d="M1004 207q-73 -42 -181 -55v-189h-161v184q-216 12 -354 151.5t-138 358.5q0 234 134 381.5t358 171.5v211h161v-207q110 -6 181 -45v-272q-76 58 -181 70v-574q108 17 181 68v-254zM662 399v559q-195 -59 -195 -280q0 -222 195 -279z"/>
    <glyph glyph-name="sterling" unicode="£" horiz-adv-x="1178" d="M1114 0h-971v227q193 52 193 269v116h-172v217h172v187q0 198 122 320t330 122q127 0 234 -49v-258q-98 66 -209 66q-184 0 -184 -230v-158h268v-217h-268v-86q0 -184 -152 -284h637v-242z"/>
    <glyph glyph-name="section" unicode="§" horiz-adv-x="994" d="M752 434q82 -75 82 -174q0 -149 -108.5 -237.5t-285.5 -88.5q-163 0 -290 68v248q180 -105 311 -105q127 0 127 99q0 61 -96 108q-141 65 -210 112.5t-110 116.5t-41 150q0 143 125 234q-88 88 -88 215q0 140 102.5 225.5t274.5 85.5q139 0 260 -55v-250q-139 96 -260 96 q-123 0 -123 -94q0 -45 40.5 -77.5t184.5 -96.5q254 -112 254 -309q0 -167 -149 -271zM432 864q-65 -38 -65 -110q0 -57 51 -102t178 -99q66 44 66 123q0 62 -53.5 100.5t-176.5 87.5z"/>
    <glyph glyph-name="bullet" unicode="•" horiz-adv-x="865" d="M434 281q-113 0 -193.5 81t-80.5 195t80 194t194 80t195.5 -80.5t81.5 -193.5t-81.5 -194.5t-195.5 -81.5z"/>
    <glyph glyph-name="paragraph" unicode="¶" horiz-adv-x="1043" d="M946 1272h-117v-1272h-174v1272h-118v-1272h-177v836q-115 7 -191.5 92t-76.5 211q0 129 85.5 212t211.5 83h557v-162z"/>
    <glyph glyph-name="germandbls" unicode="ß" horiz-adv-x="1286" d="M545 8v262q83 -53 176 -53q83 0 132.5 52.5t49.5 144.5q0 116 -89 183.5t-251 72.5v221q111 8 172.5 68t61.5 159q0 84 -44.5 132t-119.5 48q-184 0 -184 -245v-1053h-316v1049q0 223 137 357t381 134q217 0 343 -109.5t126 -281.5q0 -122 -71.5 -214t-184.5 -126v-4 q363 -69 363 -399q0 -180 -126.5 -305.5t-342.5 -125.5q-105 0 -213 33z"/>
    <glyph glyph-name="sfthyphen" unicode="­" horiz-adv-x="828" d="M690 436h-547v221h547v-221z"/>
    <glyph glyph-name="registered" unicode="®" horiz-adv-x="1790" d="M893 -25q-333 0 -547.5 207t-214.5 531q0 317 220.5 531t549.5 214q328 0 544 -208.5t216 -532.5q0 -317 -221.5 -529.5t-546.5 -212.5zM897 1346q-275 0 -454 -180t-179 -449q0 -272 181.5 -450.5t451.5 -178.5q265 0 448 179.5t183 447.5q0 272 -180 451.5t-451 179.5z M1288 264h-254l-76 232q-40 122 -110 122h-74v-354h-211v922h320q370 0 370 -262q0 -189 -217 -244v-4q90 -20 142 -146zM774 1010v-230h111q139 0 139 119q0 111 -160 111h-90z"/>
    <glyph glyph-name="copyright" unicode="©" horiz-adv-x="1790" d="M893 -25q-333 0 -547.5 207t-214.5 531q0 317 220.5 531t549.5 214q328 0 544 -208.5t216 -532.5q0 -317 -221.5 -529.5t-546.5 -212.5zM897 1346q-275 0 -454 -180t-179 -449q0 -272 181.5 -450.5t451.5 -178.5q265 0 448 179.5t183 447.5q0 272 -180 451.5t-451 179.5z M1204 295q-125 -68 -274 -68q-209 0 -346.5 134t-137.5 335q0 231 143.5 370.5t373.5 139.5q125 0 239 -55v-236q-98 76 -244 76q-115 0 -192.5 -76.5t-77.5 -205.5q0 -122 78.5 -197.5t198.5 -75.5q141 0 239 76v-217z"/>
    <glyph glyph-name="trademark" unicode="™" horiz-adv-x="1579" d="M1395 772h-150v445h-4l-160 -445h-135l-145 445h-6v-445h-148v662h217l156 -453h4l168 453h203v-662zM582 1311h-179v-539h-155v539h-172v123h506v-123z"/>
    <glyph glyph-name="acute" unicode="´" horiz-adv-x="621" d="M596 1509l-313 -323h-228l260 323h281z"/>
    <glyph glyph-name="dieresis" unicode="¨" horiz-adv-x="946" d="M698 1186q-67 0 -110 39t-43 98q0 61 43 99t110 38t110.5 -38.5t43.5 -98.5t-43 -98.5t-111 -38.5zM240 1186q-68 0 -111 39.5t-43 97.5q0 60 44 98.5t110 38.5q68 0 110.5 -38.5t42.5 -98.5q0 -61 -42.5 -99t-110.5 -38z"/>
    <glyph glyph-name="notequal" unicode="≠" horiz-adv-x="1450" d="M1212 266h-536l-139 -266h-244l139 266h-194v203h301l120 231h-421v205h528l145 283h244l-145 -283h202v-205h-309l-121 -231h430v-203z"/>
    <glyph glyph-name="AE" unicode="Æ" horiz-adv-x="1915" d="M1849 0h-858v319h-471l-147 -319h-375l725 1434h1094v-263h-504v-319h469v-262h-469v-328h536v-262zM991 567v604h-78l-282 -604h360z"/>
    <glyph glyph-name="Oslash" unicode="Ø" horiz-adv-x="1553" d="M348 109l-143 -170l-125 104l149 176q-155 192 -155 479q0 340 196.5 550t522.5 210q234 0 401 -119l129 150l125 -103l-135 -157q166 -196 166 -502q0 -338 -196.5 -545t-512.5 -207q-240 0 -422 134zM1016 1130q-97 76 -232 76q-181 0 -287 -136.5t-106 -360.5 q0 -146 47 -252zM1110 995l-578 -676q101 -92 244 -92q175 0 281 128.5t106 351.5q0 164 -53 288z"/>
    <glyph glyph-name="infinity" unicode="∞" horiz-adv-x="1664" d="M834 438q-153 -243 -379 -243q-170 0 -277.5 111.5t-107.5 291.5q0 165 111 281t274 116q236 0 379 -252q152 242 380 242q171 0 278 -111t107 -290q0 -165 -112 -281.5t-275 -116.5q-231 0 -378 252zM729 596q-108 192 -246 192q-81 0 -132.5 -54.5t-51.5 -137.5 t51.5 -136.5t134.5 -53.5q136 0 244 190zM940 586q108 -191 246 -191q80 0 131 54t51 137q0 84 -51.5 138t-132.5 54q-134 0 -244 -192z"/>
    <glyph glyph-name="plusminus" unicode="±" horiz-adv-x="1448" d="M1212 694h-385v-387h-202v387h-383v203h383v391h202v-391h385v-203zM1210 0h-972v203h972v-203z"/>
    <glyph glyph-name="lessequal" unicode="≤" horiz-adv-x="1450" d="M1194 248l-936 399v174l936 418v-238l-668 -264v-4l668 -248v-237zM1210 0h-972v203h972v-203z"/>
    <glyph glyph-name="greaterequal" unicode="≥" horiz-adv-x="1450" d="M1194 647l-936 -399v237l668 246v4l-668 266v238l936 -418v-174zM1210 0h-972v203h972v-203z"/>
    <glyph glyph-name="yen" unicode="¥" horiz-adv-x="1178" d="M1157 1434l-354 -641h252v-189h-305v-153h305v-189h-305v-262h-308v262h-315v189h315v153h-315v189h256l-342 641h321l246 -570h4q4 11 37 90l203 480h305z"/>
    <glyph glyph-name="mu1" unicode="µ" horiz-adv-x="1255" d="M1161 0h-324q-25 70 -25 154h-4q-57 -177 -216 -177q-97 0 -140 64h-3v-436h-316v1419h316v-589q0 -207 170 -207q184 0 184 254v542h319v-710q0 -236 39 -314z"/>
    <glyph glyph-name="partialdiff" unicode="∂" horiz-adv-x="1183" d="M819 879h4q2 31 2 39q0 342 -243 342q-134 0 -269 -70l64 250q137 61 285 61q487 0 487 -579q0 -217 -74 -452t-228.5 -365t-371.5 -130q-201 0 -315.5 113t-114.5 309q0 253 145 438t373 185q169 0 256 -141zM786 645q-38 154 -157 154q-109 0 -185.5 -121t-76.5 -270 q0 -191 143 -191q102 0 178 119.5t98 308.5z"/>
    <glyph glyph-name="summation" unicode="∑" horiz-adv-x="1316" d="M1270 -469h-1217v176l604 785l-579 757v185h1159v-263h-707l500 -671l-528 -707h768v-262z"/>
    <glyph glyph-name="product" unicode="∏" horiz-adv-x="1620" d="M1475 -471h-324v1626h-664v-1626h-323v1905h1311v-1905z"/>
    <glyph glyph-name="integral" unicode="∫" horiz-adv-x="1180" d="M1016 1274q-61 24 -117 24q-151 0 -151 -165v-1231q0 -176 -113.5 -283.5t-308.5 -107.5q-95 0 -160 20v246q65 -25 115 -25q151 0 151 166v1233q0 175 114 282t310 107q96 0 160 -20v-246z"/>
    <glyph glyph-name="ordfeminine" unicode="ª" horiz-adv-x="840" d="M739 717h-213v86h-4q-87 -107 -219 -107q-101 0 -166 61t-65 158q0 211 262 244l192 25q0 114 -139 114q-118 0 -246 -77v176q124 57 287 57q311 0 311 -299v-438zM526 985v70l-123 -17q-116 -16 -116 -96q0 -88 104 -88q54 0 94.5 38.5t40.5 92.5z"/>
    <glyph glyph-name="ordmasculine" unicode="º" horiz-adv-x="934" d="M459 696q-185 0 -287 99.5t-102 277.5q0 179 108.5 280t292.5 101q181 0 284 -101.5t103 -265.5q0 -184 -106.5 -287.5t-292.5 -103.5zM465 1280q-164 0 -164 -203q0 -207 164 -207q160 0 160 209q0 201 -160 201z"/>
    <glyph glyph-name="Ohm" unicode="Ω" horiz-adv-x="1568" d="M1137 260h347v-260h-601v260q263 227 263 525q0 180 -102 288t-255 108q-159 0 -262 -107.5t-103 -298.5q0 -280 259 -515v-260h-601v260h340q-338 196 -338 569q0 285 195.5 457t503.5 172q316 0 509 -173.5t193 -451.5q0 -379 -348 -573z"/>
    <glyph glyph-name="ae" unicode="æ" horiz-adv-x="1696" d="M1640 422h-667q20 -223 282 -223q160 0 297 80v-226q-156 -78 -378 -78q-269 0 -398 179h-4q-141 -179 -362 -179q-166 0 -259.5 82.5t-93.5 229.5q0 146 96.5 234t276.5 102l256 20q0 191 -184 191q-174 0 -344 -107v236q187 86 370 86q234 0 324 -134h4 q132 134 326 134q214 0 336 -133t122 -365v-129zM1348 616q0 220 -177 220q-75 0 -131.5 -62t-66.5 -158h375zM686 414v45l-156 -13q-184 -15 -184 -131q0 -50 39 -83t102 -33q86 0 142.5 59.5t56.5 155.5z"/>
    <glyph glyph-name="oslash" unicode="ø" horiz-adv-x="1252" d="M1206 1010l-139 -146q113 -143 113 -338q0 -259 -148 -404t-411 -145q-198 0 -328 86l-135 -141l-119 107l137 143q-104 141 -104 338q0 253 152.5 397t412.5 144q179 0 311 -82l139 147zM772 791q-56 40 -141 40q-258 0 -258 -317q0 -73 18 -121zM862 651l-393 -409 q61 -45 160 -45q252 0 252 323q0 74 -19 131z"/>
    <glyph glyph-name="questiondown" unicode="¿" horiz-adv-x="897" d="M647 611q10 -26 15.5 -58.5t5.5 -61.5q0 -46 -9 -84t-27 -71.5t-45 -64t-63 -60.5q-37 -32 -66 -59.5t-49 -55t-30 -57t-10 -65.5q0 -31 11 -57.5t31.5 -45.5t50 -30t65.5 -11q78 0 162 32.5t159 98.5v-301q-77 -46 -168 -69t-188 -23q-93 0 -173 20.5t-139.5 64.5 t-93 112.5t-33.5 164.5q0 61 14 110.5t41 93.5t67 84.5t92 83.5q35 29 61.5 54t44 49.5t26.5 52t9 62.5q0 24 -6.5 49t-17.5 42h263zM501 1049q81 0 133 -48q53 -50 53 -118q0 -70 -53 -117t-133 -47q-79 0 -131 47q-52 46 -52 117q0 73 51 119q52 47 132 47z"/>
    <glyph glyph-name="nonbreakingspace" unicode=" " horiz-adv-x="565"/>
    <glyph glyph-name="exclamdown" unicode="¡" horiz-adv-x="670" d="M336 721q-81 0 -132.5 46t-51.5 116q0 72 51.5 119t132.5 47q79 0 130.5 -48t51.5 -118q0 -72 -51.5 -117t-130.5 -45zM504 -408h-332l37 990h256z"/>
    <glyph glyph-name="logicalnot" unicode="¬" horiz-adv-x="1448" d="M1212 266h-202v389h-772v203h974v-592z"/>
    <glyph glyph-name="radical" unicode="√" horiz-adv-x="1331" d="M1196 1516l-408 -1516h-196l-320 729h-182v168h350l242 -567l317 1186h197z"/>
    <glyph glyph-name="florin" unicode="ƒ" horiz-adv-x="1178" d="M1044 1174q-64 30 -133 30q-124 0 -147 -137l-23 -137h158v-215h-192l-91 -594q-30 -196 -140 -311t-277 -115q-50 0 -121 20v242q39 -20 92 -20q123 0 154 202l88 576h-105v215h142l22 149q25 167 135 267t279 100q82 0 159 -23v-249z"/>
    <glyph glyph-name="approxequal" unicode="≈" horiz-adv-x="1450" d="M1255 997q-6 -168 -89.5 -266t-223.5 -98q-105 0 -258 88q-109 63 -156 63q-123 0 -129 -157h-204q6 169 88.5 265.5t226.5 96.5q114 0 240 -76q125 -75 180 -75q53 0 86 43.5t35 115.5h204zM1255 549q-6 -168 -89.5 -266.5t-223.5 -98.5q-102 0 -258 90q-110 64 -156 64 q-123 0 -129 -162h-204q6 170 88.5 268.5t226.5 98.5q114 0 240 -76q130 -78 180 -78q53 0 86 44t35 116h204z"/>
    <glyph glyph-name="Delta" unicode="Δ" horiz-adv-x="1440" d="M1379 0h-1343v125l486 1309h382l475 -1309v-125zM994 262l-253 764q-28 85 -34 143h-8q-7 -65 -32 -141l-255 -766h582z"/>
    <glyph glyph-name="guillemotleft" unicode="«" horiz-adv-x="1190" d="M1137 201h-269l-327 336l327 344h269l-334 -344zM651 201h-268l-330 336l330 344h266l-334 -344z"/>
    <glyph glyph-name="guillemotright" unicode="»" horiz-adv-x="1190" d="M1137 537l-328 -336h-268l333 336l-331 344h266zM651 537l-329 -336h-269l336 336l-334 344h267z"/>
    <glyph glyph-name="ellipsis" unicode="…" horiz-adv-x="1868" d="M1554 -23q-78 0 -130 48t-52 118q0 72 52.5 118t131.5 46q81 0 133 -46.5t52 -117.5q0 -73 -51.5 -119.5t-135.5 -46.5zM932 -23q-78 0 -129 48t-51 118q0 72 51.5 118t130.5 46q81 0 132.5 -46.5t51.5 -117.5q0 -73 -51.5 -119.5t-134.5 -46.5zM309 -23q-78 0 -129 48 t-51 118q0 72 51.5 118t130.5 46q81 0 133 -46.5t52 -117.5q0 -73 -51.5 -119.5t-135.5 -46.5z"/>
    <glyph glyph-name="Agrave" unicode="À" horiz-adv-x="1440" d="M1425 0h-352l-102 319h-510l-101 -319h-350l522 1434h383zM897 567l-154 482q-17 54 -24 129h-8q-5 -63 -25 -125l-156 -486h367zM916 1567h-227l-314 323h281z"/>
    <glyph glyph-name="Atilde" unicode="Ã" horiz-adv-x="1440" d="M1425 0h-352l-102 319h-510l-101 -319h-350l522 1434h383zM897 567l-154 482q-17 54 -24 129h-8q-5 -63 -25 -125l-156 -486h367zM1077 1878q0 -140 -55.5 -216.5t-151.5 -76.5q-86 0 -168 43q-89 47 -123 47q-80 0 -80 -108h-141q0 139 55 216t154 77q81 0 168 -49 q79 -44 120 -44q78 0 78 111h144z"/>
    <glyph glyph-name="Otilde" unicode="Õ" horiz-adv-x="1552" d="M770 -25q-308 0 -502 200.5t-194 522.5q0 340 197 550t522 210q307 0 496.5 -201t189.5 -530q0 -338 -196.5 -545t-512.5 -207zM784 1180q-170 0 -270 -127.5t-100 -337.5q0 -213 100 -337t262 -124q167 0 265 120.5t98 334.5q0 223 -95 347t-260 124zM1147 1878 q0 -140 -55.5 -216.5t-151.5 -76.5q-86 0 -168 43q-89 47 -123 47q-80 0 -80 -108h-141q0 139 55 216t154 77q81 0 168 -49q79 -44 120 -44q78 0 78 111h144z"/>
    <glyph glyph-name="OE" unicode="Œ" horiz-adv-x="1925" d="M1860 0h-828q-26 0 -117 -12q-90 -13 -157 -13q-307 0 -495.5 203t-188.5 520q0 342 194 551t516 209q63 0 151 -12q89 -12 109 -12h783v-263h-504v-323h469v-264h-469v-322h537v-262zM991 305v823q-86 52 -209 52q-168 0 -267 -129.5t-99 -339.5q0 -208 101 -332.5 t261 -124.5q116 0 213 51z"/>
    <glyph glyph-name="oe" unicode="œ" horiz-adv-x="1893" d="M1837 422h-670q14 -223 283 -223q167 0 295 80v-228q-142 -76 -346 -76q-252 0 -391 189h-4q-137 -187 -408 -187q-234 0 -379 143t-145 388q0 251 147 397t389 146q134 0 238.5 -49.5t154.5 -127.5h5q118 175 376 175q213 0 334 -134t121 -358v-135zM1542 616 q0 220 -174 220q-80 0 -135 -63.5t-66 -156.5h375zM631 807q-113 0 -175.5 -77.5t-62.5 -217.5q0 -293 236 -293q229 0 229 297q0 138 -59.5 214.5t-167.5 76.5z"/>
    <glyph glyph-name="endash" unicode="–" horiz-adv-x="1024" d="M1024 436h-1024v221h1024v-221z"/>
    <glyph glyph-name="emdash" unicode="—" horiz-adv-x="2048" d="M2048 436h-2048v221h2048v-221z"/>
    <glyph glyph-name="quotedblleft" unicode="“" horiz-adv-x="1010" d="M897 1468l-113 -444h-272l190 444h195zM481 1468l-110 -444h-275l189 444h196z"/>
    <glyph glyph-name="quotedblright" unicode="”" horiz-adv-x="1010" d="M915 1468l-190 -444h-197l113 444h274zM500 1468l-193 -444h-194l114 444h273z"/>
    <glyph glyph-name="quoteleft" unicode="‘" horiz-adv-x="594" d="M481 1468l-110 -444h-275l189 444h196z"/>
    <glyph glyph-name="quoteright" unicode="’" horiz-adv-x="594" d="M500 1468l-193 -444h-194l114 444h273z"/>
    <glyph glyph-name="divide" unicode="÷" horiz-adv-x="1448" d="M731 846q-59 0 -100 40t-41 97q0 62 39.5 103.5t101.5 41.5t99.5 -40t37.5 -103q0 -61 -40.5 -100t-96.5 -39zM1212 485h-974v203h974v-203zM727 47q-59 0 -100 39t-41 96q0 62 39.5 104t101.5 42t99.5 -40.5t37.5 -103.5q0 -61 -40 -99t-97 -38z"/>
    <glyph glyph-name="lozenge" unicode="◊" horiz-adv-x="1203" d="M1128 717l-473 -717h-114l-469 715l469 719h114zM899 717l-299 471l-299 -471l299 -471z"/>
    <glyph glyph-name="ydieresis" unicode="ÿ" horiz-adv-x="1102" d="M1108 1024l-416 -1106q-150 -399 -452 -399q-115 0 -189 26v252q63 -37 137 -37q122 0 170 115l54 127l-416 1022h350l191 -623q18 -58 28 -137h4q9 58 33 135l193 625h313zM793 1186q-67 0 -110 39t-43 98q0 61 43 99t110 38t110.5 -38.5t43.5 -98.5t-43 -98.5 t-111 -38.5zM335 1186q-68 0 -111 39.5t-43 97.5q0 60 44 98.5t110 38.5q68 0 110.5 -38.5t42.5 -98.5q0 -61 -42.5 -99t-110.5 -38z"/>
    <glyph glyph-name="Ydieresis" unicode="Ÿ" horiz-adv-x="1243" d="M1245 1434l-467 -924v-510h-323v504l-455 930h369l231 -535q6 -15 33 -117h4q13 72 31 113l235 539h342zM858 1567q-67 0 -110 39t-43 98q0 61 43 99t110 38t110.5 -38.5t43.5 -98.5t-43 -98.5t-111 -38.5zM400 1567q-68 0 -111 39.5t-43 97.5q0 60 44 98.5t110 38.5 q68 0 110.5 -38.5t42.5 -98.5q0 -61 -42.5 -99t-110.5 -38z"/>
    <glyph glyph-name="fraction" unicode="⁄" horiz-adv-x="719" d="M932 1434l-891 -1434h-244l891 1434h244z"/>
    <glyph glyph-name="fraction" unicode="∕" horiz-adv-x="719" d="M932 1434l-891 -1434h-244l891 1434h244z"/>
    <glyph glyph-name="Euro" unicode="€" horiz-adv-x="1178" d="M1094 45q-118 -72 -308 -72q-225 0 -367 124.5t-188 355.5h-122v190h96q-2 25 -2 59q0 18 4 82h-98v187h127q55 231 208 359t381 128q167 0 269 -55v-260q-112 88 -254 88q-110 0 -193.5 -71t-118.5 -189h426v-187h-456q-4 -59 -4 -82q0 -27 2 -59h458v-190h-428 q75 -252 299 -252q141 0 269 90v-246z"/>
    <glyph glyph-name="guilsinglleft" unicode="‹" horiz-adv-x="705" d="M651 201h-268l-330 336l330 344h268l-334 -344z"/>
    <glyph glyph-name="guilsinglright" unicode="›" horiz-adv-x="705" d="M651 537l-329 -336h-269l334 336l-332 344h267z"/>
    <glyph glyph-name="fi" unicode="ﬁ" horiz-adv-x="1366" d="M786 1272q-57 28 -114 28q-142 0 -142 -165v-111h232v-229h-232v-795h-317v795h-172v229h172v127q0 175 112.5 282t305.5 107q93 0 155 -20v-248zM1077 1186q-80 0 -131 47.5t-51 116.5q0 71 51 116t131 45q81 0 132 -45t51 -116t-50.5 -117.5t-132.5 -46.5zM1233 0h-315 v1024h315v-1024z"/>
    <glyph glyph-name="fl" unicode="ﬂ" horiz-adv-x="1366" d="M786 1272q-57 28 -114 28q-142 0 -142 -165v-111h232v-229h-232v-795h-317v795h-172v229h172v127q0 175 112.5 282t305.5 107q93 0 155 -20v-248zM1233 0h-315v1516h315v-1516z"/>
    <glyph glyph-name="daggerdbl" unicode="‡" horiz-adv-x="832" d="M798 482l-298 30l35 -310h-239l35 310l-298 -30v226l268 -30l33 140l-33 140l-268 -30v226l298 -30l-35 310h239l-35 -310l298 30v-226l-268 30l-33 -140l33 -140l268 30v-226z"/>
    <glyph glyph-name="periodcentered" unicode="·" horiz-adv-x="555" d="M274 487q-78 0 -130 48t-52 118q0 72 53.5 118t133.5 46q81 0 132.5 -46.5t51.5 -117.5q0 -73 -52.5 -119.5t-136.5 -46.5z"/>
    <glyph glyph-name="quotesinglbase" unicode="‚" horiz-adv-x="594" d="M477 219l-192 -444h-195l115 444h272z"/>
    <glyph glyph-name="quotedblbase" unicode="„" horiz-adv-x="1010" d="M893 219l-193 -444h-194l112 444h275zM477 219l-192 -444h-195l115 444h272z"/>
    <glyph glyph-name="perthousand" unicode="‰" horiz-adv-x="2573" d="M430 707q-153 0 -246.5 97t-93.5 261q0 179 99.5 284t265.5 105q159 0 248.5 -95t89.5 -267q0 -177 -99 -281t-264 -104zM449 1278q-146 0 -146 -203q0 -192 139 -192q142 0 142 200q0 195 -135 195zM1477 1434l-934 -1434h-244l934 1434h244zM2118 -20q-153 0 -246.5 97 t-93.5 261q0 179 99.5 284t264.5 105q161 0 250.5 -94t89.5 -266q0 -177 -99.5 -282t-264.5 -105zM2136 551q-145 0 -145 -203q0 -192 139 -192q143 0 143 200q0 93 -38 144t-99 51zM1323 -20q-153 0 -246.5 97t-93.5 261q0 179 99.5 284t265.5 105q160 0 249 -94t89 -266 q0 -177 -99 -282t-264 -105zM1339 551q-145 0 -145 -203q0 -192 141 -192q142 0 142 200q0 93 -38 144t-100 51z"/>
    <glyph glyph-name="Acircumflex" unicode="Â" horiz-adv-x="1440" d="M1425 0h-352l-102 319h-510l-101 -319h-350l522 1434h383zM897 567l-154 482q-17 54 -24 129h-8q-5 -63 -25 -125l-156 -486h367zM1078 1567h-207l-158 188l-147 -188h-207l235 325h248z"/>
    <glyph glyph-name="Ecircumflex" unicode="Ê" horiz-adv-x="1090" d="M1024 0h-860v1434h827v-263h-504v-319h469v-262h-469v-328h537v-262zM932 1567h-207l-158 188l-147 -188h-207l235 325h248z"/>
    <glyph glyph-name="Aacute" unicode="Á" horiz-adv-x="1440" d="M1425 0h-352l-102 319h-510l-101 -319h-350l522 1434h383zM897 567l-154 482q-17 54 -24 129h-8q-5 -63 -25 -125l-156 -486h367zM1036 1890l-313 -323h-228l260 323h281z"/>
    <glyph glyph-name="Edieresis" unicode="Ë" horiz-adv-x="1090" d="M1024 0h-860v1434h827v-263h-504v-319h469v-262h-469v-328h537v-262zM812 1567q-67 0 -110 39t-43 98q0 61 43 99t110 38t110.5 -38.5t43.5 -98.5t-43 -98.5t-111 -38.5zM354 1567q-68 0 -111 39.5t-43 97.5q0 60 44 98.5t110 38.5q68 0 110.5 -38.5t42.5 -98.5 q0 -61 -42.5 -99t-110.5 -38z"/>
    <glyph glyph-name="Egrave" unicode="È" horiz-adv-x="1090" d="M1024 0h-860v1434h827v-263h-504v-319h469v-262h-469v-328h537v-262zM766 1567h-227l-314 323h281z"/>
    <glyph glyph-name="Iacute" unicode="Í" horiz-adv-x="649" d="M607 1434v-250h-120v-934h120v-250h-563v250h120v934h-120v250h563zM651 1890l-313 -323h-228l260 323h281z"/>
    <glyph glyph-name="Icircumflex" unicode="Î" horiz-adv-x="649" d="M607 1434v-250h-120v-934h120v-250h-563v250h120v934h-120v250h563zM691 1567h-207l-158 188l-147 -188h-207l235 325h248z"/>
    <glyph glyph-name="Idieresis" unicode="Ï" horiz-adv-x="649" d="M607 1434v-250h-120v-934h120v-250h-563v250h120v934h-120v250h563zM559 1567q-67 0 -110 39t-43 98q0 61 43 99t110 38t110.5 -38.5t43.5 -98.5t-43 -98.5t-111 -38.5zM101 1567q-68 0 -111 39.5t-43 97.5q0 60 44 98.5t110 38.5q68 0 110.5 -38.5t42.5 -98.5 q0 -61 -42.5 -99t-110.5 -38z"/>
    <glyph glyph-name="Igrave" unicode="Ì" horiz-adv-x="649" d="M607 1434v-250h-120v-934h120v-250h-563v250h120v934h-120v250h563zM532 1567h-227l-314 323h281z"/>
    <glyph glyph-name="Oacute" unicode="Ó" horiz-adv-x="1552" d="M770 -25q-308 0 -502 200.5t-194 522.5q0 340 197 550t522 210q307 0 496.5 -201t189.5 -530q0 -338 -196.5 -545t-512.5 -207zM784 1180q-170 0 -270 -127.5t-100 -337.5q0 -213 100 -337t262 -124q167 0 265 120.5t98 334.5q0 223 -95 347t-260 124zM1110 1890 l-313 -323h-228l260 323h281z"/>
    <glyph glyph-name="Ocircumflex" unicode="Ô" horiz-adv-x="1552" d="M770 -25q-308 0 -502 200.5t-194 522.5q0 340 197 550t522 210q307 0 496.5 -201t189.5 -530q0 -338 -196.5 -545t-512.5 -207zM784 1180q-170 0 -270 -127.5t-100 -337.5q0 -213 100 -337t262 -124q167 0 265 120.5t98 334.5q0 223 -95 347t-260 124zM1149 1567h-207 l-158 188l-147 -188h-207l235 325h248z"/>
    <glyph glyph-name="Ograve" unicode="Ò" horiz-adv-x="1552" d="M770 -25q-308 0 -502 200.5t-194 522.5q0 340 197 550t522 210q307 0 496.5 -201t189.5 -530q0 -338 -196.5 -545t-512.5 -207zM784 1180q-170 0 -270 -127.5t-100 -337.5q0 -213 100 -337t262 -124q167 0 265 120.5t98 334.5q0 223 -95 347t-260 124zM971 1567h-227 l-314 323h281z"/>
    <glyph glyph-name="Uacute" unicode="Ú" horiz-adv-x="1481" d="M1333 621q0 -646 -602 -646q-584 0 -584 631v828h324v-832q0 -348 272 -348q267 0 267 336v844h323v-813zM1088 1890l-313 -323h-228l260 323h281z"/>
    <glyph glyph-name="Ucircumflex" unicode="Û" horiz-adv-x="1481" d="M1333 621q0 -646 -602 -646q-584 0 -584 631v828h324v-832q0 -348 272 -348q267 0 267 336v844h323v-813zM1099 1567h-207l-158 188l-147 -188h-207l235 325h248z"/>
    <glyph glyph-name="Ugrave" unicode="Ù" horiz-adv-x="1481" d="M1333 621q0 -646 -602 -646q-584 0 -584 631v828h324v-832q0 -348 272 -348q267 0 267 336v844h323v-813zM920 1567h-227l-314 323h281z"/>
    <glyph glyph-name="dotlessi" unicode="ı" horiz-adv-x="582" d="M449 0h-316v1024h316v-1024z"/>
    <glyph glyph-name="circumflex" unicode="ˆ" horiz-adv-x="785" d="M750 1186h-207l-158 188l-147 -188h-207l235 325h248z"/>
    <glyph glyph-name="tilde" unicode="˜" horiz-adv-x="785" d="M754 1497q0 -140 -55.5 -216.5t-151.5 -76.5q-86 0 -168 43q-89 47 -123 47q-80 0 -80 -108h-141q0 139 55 216t154 77q81 0 168 -49q79 -44 120 -44q78 0 78 111h144z"/>
    <glyph glyph-name="macron" unicode="ˉ" horiz-adv-x="690" d="M637 1186h-586v172h586v-172z"/>
    <glyph glyph-name="breve" unicode="˘" horiz-adv-x="709" d="M692 1493q-12 -141 -102.5 -224t-237.5 -83q-146 0 -238 85.5t-96 221.5h179q17 -135 159 -135q137 0 156 135h180z"/>
    <glyph glyph-name="dotaccent" unicode="˙" horiz-adv-x="518" d="M260 1186q-67 0 -110.5 40t-43.5 97q0 60 44 97.5t110 37.5q67 0 109.5 -38t42.5 -97t-42.5 -98t-109.5 -39z"/>
    <glyph glyph-name="ring" unicode="˚" horiz-adv-x="555" d="M274 1186q-102 0 -168.5 59.5t-66.5 155.5q0 101 69.5 161t170.5 60q107 0 173 -59.5t66 -155.5q0 -98 -71.5 -159.5t-172.5 -61.5zM274 1499q-96 0 -96 -94t96 -94q45 0 74 27.5t29 66.5q0 41 -28.5 67.5t-74.5 26.5z"/>
    <glyph glyph-name="cedilla" unicode="¸" horiz-adv-x="441" d="M51 -451v138q35 -6 72 -6q123 0 123 73q0 66 -111 66q-13 0 -37 -2v182h172v-82q187 -8 187 -166q0 -207 -318 -207q-46 0 -88 4z"/>
    <glyph glyph-name="hungarumlaut" unicode="˝" horiz-adv-x="832" d="M870 1505l-252 -319h-210l213 319h249zM492 1505l-248 -319h-211l211 319h248z"/>
    <glyph glyph-name="ogonek" unicode="˛" horiz-adv-x="545" d="M411 -400q-24 -8 -57.5 -13.5t-68.5 -5.5q-85 0 -136 44.5t-51 129.5q0 31 11 64.5t32 66t52 61.5t71 53h155q-78 -57 -115.5 -111.5t-37.5 -96.5q0 -33 17 -49.5t46 -16.5q19 0 40 3t41 9z"/>
    <glyph glyph-name="caron" unicode="ˇ" horiz-adv-x="785" d="M754 1511l-238 -325h-248l-235 325h205l155 -188l156 188h205z"/>
    <glyph glyph-name="Lslash" unicode="Ł" horiz-adv-x="1047" d="M1018 0h-854v467l-162 -86v264l162 84v705h323v-549l283 149v-262l-283 -149v-361h531v-262z"/>
    <glyph glyph-name="lslash" unicode="ł" horiz-adv-x="643" d="M610 754l-135 -86v-668h-315v473l-131 -84v258l131 82v787h315v-592l135 86v-256z"/>
    <glyph glyph-name="Scaron" unicode="Š" horiz-adv-x="1148" d="M98 55v320q87 -73 189 -109.5t206 -36.5q61 0 106.5 11t76 30.5t45.5 46t15 57.5q0 42 -24 75t-65.5 61t-98.5 54t-123 53q-168 70 -250.5 171t-82.5 244q0 112 45 192.5t122.5 132.5t179.5 76.5t216 24.5q112 0 198.5 -13.5t159.5 -41.5v-299q-36 25 -78.5 44 t-87.5 31.5t-89.5 18.5t-84.5 6q-55 0 -100 -10.5t-76 -29.5t-48 -45.5t-17 -59.5q0 -36 19 -64.5t54 -54t85 -50t113 -50.5q86 -36 154.5 -76.5t117.5 -91.5t75 -116.5t26 -152.5q0 -120 -45.5 -201.5t-123.5 -132t-181.5 -72.5t-218.5 -22q-118 0 -224.5 20t-184.5 60z M973 1861l-238 -325h-248l-235 325h205l155 -188l156 188h205z"/>
    <glyph glyph-name="scaron" unicode="š" horiz-adv-x="901" d="M66 27v256q78 -47 155.5 -70t146.5 -23q84 0 132.5 23t48.5 70q0 30 -22 50t-56.5 35t-75.5 27t-79 27q-61 23 -107.5 49.5t-78 61.5t-48 81t-16.5 109q0 86 37.5 148t100 101.5t143 58t167.5 18.5q68 0 138 -10.5t138 -30.5v-244q-60 35 -128.5 52.5t-134.5 17.5 q-31 0 -58.5 -5.5t-48.5 -16t-33 -27t-12 -37.5q0 -28 18 -48t47 -34.5t64.5 -26t70.5 -23.5q63 -22 114 -48t87.5 -61t56 -82t19.5 -112q0 -91 -39.5 -155.5t-105 -105t-151 -59t-177.5 -18.5q-169 0 -313 52zM811 1511l-238 -325h-248l-235 325h205l155 -188l156 188h205z "/>
    <glyph glyph-name="Zcaron" unicode="Ž" horiz-adv-x="1243" d="M1196 0h-1155v186l735 985h-682v263h1100v-181l-719 -991h721v-262zM990 1858l-238 -325h-248l-235 325h205l155 -188l156 188h205z"/>
    <glyph glyph-name="zcaron" unicode="ž" horiz-adv-x="981" d="M944 0h-919v131l514 660h-463v233h864v-156l-487 -635h491v-233zM872 1511l-238 -325h-248l-235 325h205l155 -188l156 188h205z"/>
    <glyph glyph-name="brokenbar" unicode="¦" horiz-adv-x="668" d="M461 684h-252v883h252v-883zM461 -481h-252v895h252v-895z"/>
    <glyph glyph-name="Eth" unicode="Ð" horiz-adv-x="1510" d="M164 0v586h-164v266h164v582h508q764 0 764 -699q0 -335 -208.5 -535t-555.5 -200h-508zM487 1171v-319h271v-266h-271v-324h160q210 0 329.5 126t119.5 343q0 205 -118.5 322.5t-332.5 117.5h-158z"/>
    <glyph glyph-name="eth" unicode="ð" horiz-adv-x="1215" d="M756 965l4 2q-84 147 -195 237l-291 -143l-81 141l241 115q-157 125 -270 199h352q11 -6 131 -97l273 133l77 -137l-215 -104q361 -291 361 -748q0 -260 -150 -424t-395 -164q-248 0 -387 144.5t-139 394.5q0 231 132.5 378.5t346.5 147.5q117 0 205 -75zM612 807 q-103 0 -161 -78.5t-58 -214.5q0 -140 57 -218.5t158 -78.5q98 0 155.5 81.5t57.5 221.5q0 287 -209 287z"/>
    <glyph glyph-name="Yacute" unicode="Ý" horiz-adv-x="1243" d="M1245 1434l-467 -924v-510h-323v504l-455 930h369l231 -535q6 -15 33 -117h4q13 72 31 113l235 539h342zM903 1857l-313 -323h-228l260 323h281z"/>
    <glyph glyph-name="yacute" unicode="ý" horiz-adv-x="1102" d="M1108 1024l-416 -1106q-150 -399 -452 -399q-115 0 -189 26v252q63 -37 137 -37q122 0 170 115l54 127l-416 1022h350l191 -623q18 -58 28 -137h4q9 58 33 135l193 625h313zM834 1509l-313 -323h-228l260 323h281z"/>
    <glyph glyph-name="Thorn" unicode="Þ" horiz-adv-x="1258" d="M487 281v-281h-323v1434h323v-211h183q542 0 542 -457q0 -216 -155.5 -350.5t-415.5 -134.5h-154zM487 975v-447h127q258 0 258 226q0 221 -258 221h-127z"/>
    <glyph glyph-name="thorn" unicode="þ" horiz-adv-x="1270" d="M453 119h-4v-590h-316v1987h316v-646h4q117 179 329 179q199 0 307.5 -136.5t108.5 -371.5q0 -256 -126.5 -411t-336.5 -155q-185 0 -282 144zM444 539v-82q0 -106 56 -173t147 -67q108 0 167.5 83.5t59.5 236.5q0 270 -210 270q-97 0 -158.5 -73.5t-61.5 -194.5z"/>
    <glyph glyph-name="minus" unicode="−" horiz-adv-x="1448" d="M1212 485h-974v203h974v-203z"/>
    <glyph glyph-name="multiply" unicode="×" horiz-adv-x="1448" d="M1210 248l-145 -144l-338 340l-340 -340l-145 146l340 336l-340 340l141 145l344 -340l342 340l139 -151l-338 -334z"/>
    <glyph glyph-name="onenumerator" horiz-adv-x="807" d="M721 584h-563v172h176v477l-191 -41v180l406 82v-698h172v-172z"/>
    <glyph glyph-name="twonumerator" horiz-adv-x="828" d="M721 584h-604v157l248 234q77 73 95.5 110t18.5 82q0 42 -28.5 69.5t-75.5 27.5q-98 0 -211 -103v215q118 78 250 78q136 0 215.5 -68.5t79.5 -189.5q0 -70 -37.5 -141t-179.5 -197l-105 -92v-4h334v-178z"/>
    <glyph glyph-name="threenumerator" horiz-adv-x="828" d="M131 616v181q107 -68 221 -68q150 0 150 102q0 103 -172 103h-117v166h113q149 0 149 96q0 90 -119 90q-107 0 -198 -65v176q99 57 239 57q134 0 211.5 -60.5t77.5 -160.5q0 -147 -143 -195v-4q172 -41 172 -198q0 -123 -98 -198t-257 -75q-133 0 -229 53z"/>
    <glyph glyph-name="onehalf" unicode="½" horiz-adv-x="1977" d="M676 584h-563v172h176v477l-191 -41v180l406 82v-698h172v-172zM1506 1434l-891 -1434h-244l891 1434h244zM1843 0h-604v157l248 234q77 73 95.5 110t18.5 82q0 42 -28.5 69.5t-75.5 27.5q-98 0 -211 -103v215q118 78 250 78q136 0 215.5 -68.5t79.5 -189.5 q0 -70 -37.5 -141t-179.5 -197l-105 -92v-4h334v-178z"/>
    <glyph glyph-name="onequarter" unicode="¼" horiz-adv-x="1950" d="M676 584h-563v172h176v477l-191 -41v180l406 82v-698h172v-172zM1505 1434l-891 -1434h-244l891 1434h244zM1845 176h-110v-176h-213v176h-395v141l350 533h258v-519h110v-155zM1526 678h-8q-14 -36 -39 -76l-168 -271h211v263q0 47 4 84z"/>
    <glyph glyph-name="threequarters" unicode="¾" horiz-adv-x="2005" d="M131 616v181q107 -68 221 -68q150 0 150 102q0 103 -172 103h-117v166h113q149 0 149 96q0 90 -119 90q-107 0 -198 -65v176q99 57 239 57q134 0 211.5 -60.5t77.5 -160.5q0 -147 -143 -195v-4q172 -41 172 -198q0 -123 -98 -198t-257 -75q-133 0 -229 53zM1565 1434 l-891 -1434h-244l891 1434h244zM1892 176h-110v-176h-213v176h-395v141l350 533h258v-519h110v-155zM1573 678h-8q-14 -36 -39 -76l-168 -271h211v263q0 47 4 84z"/>
    <glyph glyph-name="franc" unicode="₣" horiz-adv-x="1065" d="M993 1171h-506v-352h465v-262h-465v-164h271v-205h-271v-188h-323v188h-164v205h164v1041h829v-263z"/>
    <glyph glyph-name="Gbreve" unicode="Ğ" horiz-adv-x="1456" d="M1341 96q-210 -121 -522 -121q-346 0 -545.5 191.5t-199.5 527.5q0 338 218 551t580 213q228 0 402 -63v-303q-166 96 -406 96q-201 0 -327.5 -130.5t-126.5 -348.5q0 -221 113.5 -342t306.5 -121q116 0 184 33v280h-287v258h610v-721zM1143 1874q-12 -141 -102.5 -224 t-237.5 -83q-146 0 -238 85.5t-96 221.5h179q17 -135 159 -135q137 0 156 135h180z"/>
    <glyph glyph-name="gbreve" unicode="ğ" horiz-adv-x="1268" d="M1137 117q0 -285 -165 -441.5t-478 -156.5q-207 0 -328 59v266q158 -92 319 -92q160 0 248 84.5t88 229.5v81h-4q-108 -172 -319 -172q-196 0 -311 138t-115 370q0 260 128 413t337 153q187 0 280 -144h4v119h316v-907zM825 492v81q0 97 -57.5 165.5t-149.5 68.5 q-105 0 -165 -82t-60 -231q0 -128 57 -202.5t156 -74.5q98 0 158.5 75.5t60.5 199.5zM971 1493q-12 -141 -102.5 -224t-237.5 -83q-146 0 -238 85.5t-96 221.5h179q17 -135 159 -135q137 0 156 135h180z"/>
    <glyph glyph-name="Idotaccent" unicode="İ" horiz-adv-x="649" d="M607 1434v-250h-120v-934h120v-250h-563v250h120v934h-120v250h563zM325 1567q-67 0 -110.5 40t-43.5 97q0 60 44 97.5t110 37.5q67 0 109.5 -38t42.5 -97t-42.5 -98t-109.5 -39z"/>
    <glyph glyph-name="Scedilla" unicode="Ş" horiz-adv-x="1148" d="M98 55v320q87 -73 189 -109.5t206 -36.5q61 0 106.5 11t76 30.5t45.5 46t15 57.5q0 42 -24 75t-65.5 61t-98.5 54t-123 53q-168 70 -250.5 171t-82.5 244q0 112 45 192.5t122.5 132.5t179.5 76.5t216 24.5q112 0 198.5 -13.5t159.5 -41.5v-299q-36 25 -78.5 44 t-87.5 31.5t-89.5 18.5t-84.5 6q-55 0 -100 -10.5t-76 -29.5t-48 -45.5t-17 -59.5q0 -36 19 -64.5t54 -54t85 -50t113 -50.5q86 -36 154.5 -76.5t117.5 -91.5t75 -116.5t26 -152.5q0 -120 -45.5 -201.5t-123.5 -132t-181.5 -72.5t-218.5 -22q-118 0 -224.5 20t-184.5 60z M417 -451v138q35 -6 72 -6q123 0 123 73q0 66 -111 66q-13 0 -37 -2v182h172v-82q187 -8 187 -166q0 -207 -318 -207q-46 0 -88 4z"/>
    <glyph glyph-name="scedilla" unicode="ş" horiz-adv-x="901" d="M66 27v256q78 -47 155.5 -70t146.5 -23q84 0 132.5 23t48.5 70q0 30 -22 50t-56.5 35t-75.5 27t-79 27q-61 23 -107.5 49.5t-78 61.5t-48 81t-16.5 109q0 86 37.5 148t100 101.5t143 58t167.5 18.5q68 0 138 -10.5t138 -30.5v-244q-60 35 -128.5 52.5t-134.5 17.5 q-31 0 -58.5 -5.5t-48.5 -16t-33 -27t-12 -37.5q0 -28 18 -48t47 -34.5t64.5 -26t70.5 -23.5q63 -22 114 -48t87.5 -61t56 -82t19.5 -112q0 -91 -39.5 -155.5t-105 -105t-151 -59t-177.5 -18.5q-169 0 -313 52zM279 -451v138q35 -6 72 -6q123 0 123 73q0 66 -111 66 q-13 0 -37 -2v182h172v-82q187 -8 187 -166q0 -207 -318 -207q-46 0 -88 4z"/>
    <glyph glyph-name="Cacute" unicode="Ć" horiz-adv-x="1278" d="M1192 51q-157 -76 -410 -76q-330 0 -519 194t-189 517q0 344 212.5 558t551.5 214q210 0 354 -53v-311q-144 86 -328 86q-202 0 -326 -127t-124 -344q0 -208 117 -331.5t315 -123.5q189 0 346 92v-295zM1159 1890l-313 -323h-228l260 323h281z"/>
    <glyph glyph-name="cacute" unicode="ć" horiz-adv-x="983" d="M909 37q-107 -62 -309 -62q-236 0 -382 143t-146 369q0 261 156.5 411.5t418.5 150.5q181 0 262 -48v-268q-99 74 -221 74q-136 0 -215.5 -79.5t-79.5 -219.5q0 -136 76 -213.5t209 -77.5q118 0 231 74v-254zM926 1509l-313 -323h-228l260 323h281z"/>
    <glyph glyph-name="Ccaron" unicode="Č" horiz-adv-x="1278" d="M1192 51q-157 -76 -410 -76q-330 0 -519 194t-189 517q0 344 212.5 558t551.5 214q210 0 354 -53v-311q-144 86 -328 86q-202 0 -326 -127t-124 -344q0 -208 117 -331.5t315 -123.5q189 0 346 92v-295zM1163 1892l-238 -325h-248l-235 325h205l155 -188l156 188h205z"/>
    <glyph glyph-name="ccaron" unicode="č" horiz-adv-x="983" d="M909 37q-107 -62 -309 -62q-236 0 -382 143t-146 369q0 261 156.5 411.5t418.5 150.5q181 0 262 -48v-268q-99 74 -221 74q-136 0 -215.5 -79.5t-79.5 -219.5q0 -136 76 -213.5t209 -77.5q118 0 231 74v-254zM950 1511l-238 -325h-248l-235 325h205l155 -188l156 188h205 z"/>
    <glyph glyph-name="dcroat" unicode="đ" horiz-adv-x="1295" d="M1278 1171h-143v-1171h-316v141h-4q-108 -166 -317 -166q-192 0 -309 135.5t-117 378.5q0 254 129 407t338 153q198 0 276 -142h4v264h-330v205h330v140h316v-140h143v-205zM825 498v77q0 100 -58 166t-151 66q-105 0 -164 -82.5t-59 -226.5q0 -135 57 -208t158 -73 q96 0 156.5 77t60.5 204z"/>
    <glyph glyph-name="uni00AF" unicode="¯" horiz-adv-x="850" d="M850 1396h-850v120h850v-120z"/>
    <glyph glyph-name="uni2219" unicode="∙" horiz-adv-x="555" d="M274 487q-78 0 -130 48t-52 118q0 72 53.5 118t133.5 46q81 0 132.5 -46.5t51.5 -117.5q0 -73 -52.5 -119.5t-136.5 -46.5z"/>
    <glyph glyph-name="Abreve" unicode="Ă" horiz-adv-x="1440" d="M1425 0h-352l-102 319h-510l-101 -319h-350l522 1434h383zM897 567l-154 482q-17 54 -24 129h-8q-5 -63 -25 -125l-156 -486h367zM1057 1874q-12 -141 -102.5 -224t-237.5 -83q-146 0 -238 85.5t-96 221.5h179q17 -135 159 -135q137 0 156 135h180z"/>
    <glyph glyph-name="abreve" unicode="ă" horiz-adv-x="1102" d="M985 0h-299v147h-4q-103 -172 -305 -172q-149 0 -234.5 84.5t-85.5 225.5q0 298 353 344l278 37q0 168 -182 168q-183 0 -348 -109v238q66 34 180.5 60t208.5 26q438 0 438 -437v-612zM688 416v69l-186 -24q-154 -20 -154 -139q0 -54 37.5 -88.5t101.5 -34.5 q89 0 145 61.5t56 155.5zM908 1493q-12 -141 -102.5 -224t-237.5 -83q-146 0 -238 85.5t-96 221.5h179q17 -135 159 -135q137 0 156 135h180z"/>
    <glyph glyph-name="Aogonek" unicode="Ą" horiz-adv-x="1440" d="M1425 0h-352l-102 319h-510l-101 -319h-350l522 1434h383zM897 567l-154 482q-17 54 -24 129h-8q-5 -63 -25 -125l-156 -486h367zM1221 -400q-24 -8 -57.5 -13.5t-68.5 -5.5q-85 0 -136 44.5t-51 129.5q0 31 11 64.5t32 66t52 61.5t71 53h155q-78 -57 -115.5 -111.5 t-37.5 -96.5q0 -33 17 -49.5t46 -16.5q19 0 40 3t41 9z"/>
    <glyph glyph-name="aogonek" unicode="ą" horiz-adv-x="1102" d="M985 0h-299v147h-4q-103 -172 -305 -172q-149 0 -234.5 84.5t-85.5 225.5q0 298 353 344l278 37q0 168 -182 168q-183 0 -348 -109v238q66 34 180.5 60t208.5 26q438 0 438 -437v-612zM688 416v69l-186 -24q-154 -20 -154 -139q0 -54 37.5 -88.5t101.5 -34.5 q89 0 145 61.5t56 155.5zM834 -400q-24 -8 -57.5 -13.5t-68.5 -5.5q-85 0 -136 44.5t-51 129.5q0 31 11 64.5t32 66t52 61.5t71 53h155q-78 -57 -115.5 -111.5t-37.5 -96.5q0 -33 17 -49.5t46 -16.5q19 0 40 3t41 9z"/>
    <glyph glyph-name="Dcaron" unicode="Ď" horiz-adv-x="1510" d="M164 0v1434h508q764 0 764 -699q0 -335 -208.5 -535t-555.5 -200h-508zM487 1171v-909h160q210 0 329.5 126t119.5 343q0 205 -118.5 322.5t-332.5 117.5h-158zM1077 1892l-238 -325h-248l-235 325h205l155 -188l156 188h205z"/>
    <glyph glyph-name="dcaron" unicode="ď" horiz-adv-x="1517" d="M1135 0h-316v141h-4q-108 -166 -317 -166q-192 0 -309 135.5t-117 378.5q0 254 129 407t338 153q198 0 276 -142h4v609h316v-1516zM825 498v77q0 100 -58 166t-151 66q-105 0 -164 -82.5t-59 -226.5q0 -135 57 -208t158 -73q96 0 156.5 77t60.5 204zM1580 1516l-168 -352 h-194l90 352h272z"/>
    <glyph glyph-name="Dcroat" unicode="Đ" horiz-adv-x="1510" d="M164 0v586h-164v266h164v582h508q764 0 764 -699q0 -335 -208.5 -535t-555.5 -200h-508zM487 1171v-319h271v-266h-271v-324h160q210 0 329.5 126t119.5 343q0 205 -118.5 322.5t-332.5 117.5h-158z"/>
    <glyph glyph-name="Eogonek" unicode="Ę" horiz-adv-x="1090" d="M1024 0h-860v1434h827v-263h-504v-319h469v-262h-469v-328h537v-262zM920 -400q-24 -8 -57.5 -13.5t-68.5 -5.5q-85 0 -136 44.5t-51 129.5q0 31 11 64.5t32 66t52 61.5t71 53h155q-78 -57 -115.5 -111.5t-37.5 -96.5q0 -33 17 -49.5t46 -16.5q19 0 40 3t41 9z"/>
    <glyph glyph-name="eogonek" unicode="ę" horiz-adv-x="1108" d="M1053 422h-668q16 -223 281 -223q169 0 297 80v-228q-142 -76 -369 -76q-248 0 -385 137.5t-137 383.5q0 255 148 404t364 149q224 0 346.5 -133t122.5 -361v-133zM760 616q0 220 -178 220q-76 0 -131.5 -63t-67.5 -157h377zM808 -400q-24 -8 -57.5 -13.5t-68.5 -5.5 q-85 0 -136 44.5t-51 129.5q0 31 11 64.5t32 66t52 61.5t71 53h155q-78 -57 -115.5 -111.5t-37.5 -96.5q0 -33 17 -49.5t46 -16.5q19 0 40 3t41 9z"/>
    <glyph glyph-name="Ecaron" unicode="Ě" horiz-adv-x="1090" d="M1024 0h-860v1434h827v-263h-504v-319h469v-262h-469v-328h537v-262zM954 1892l-238 -325h-248l-235 325h205l155 -188l156 188h205z"/>
    <glyph glyph-name="ecaron" unicode="ě" horiz-adv-x="1108" d="M1053 422h-668q16 -223 281 -223q169 0 297 80v-228q-142 -76 -369 -76q-248 0 -385 137.5t-137 383.5q0 255 148 404t364 149q224 0 346.5 -133t122.5 -361v-133zM760 616q0 220 -178 220q-76 0 -131.5 -63t-67.5 -157h377zM935 1511l-238 -325h-248l-235 325h205 l155 -188l156 188h205z"/>
    <glyph glyph-name="Lacute" unicode="Ĺ" horiz-adv-x="1047" d="M1018 0h-854v1434h323v-1172h531v-262zM903 1890l-313 -323h-228l260 323h281z"/>
    <glyph glyph-name="lacute" unicode="ĺ" horiz-adv-x="582" d="M449 0h-316v1516h316v-1516zM652 1972l-313 -323h-228l260 323h281z"/>
    <glyph glyph-name="Lcaron" unicode="Ľ" horiz-adv-x="1047" d="M1018 0h-854v1434h323v-1172h531v-262zM1054 1436l-168 -352h-194l90 352h272z"/>
    <glyph glyph-name="lcaron" unicode="ľ" horiz-adv-x="746" d="M449 0h-316v1516h316v-1516zM917 1516l-168 -352h-194l90 352h272z"/>
    <glyph glyph-name="Ldot" unicode="Ŀ" horiz-adv-x="1047" d="M1018 0h-854v1434h323v-1172h531v-262zM827 651q-67 0 -110.5 40t-43.5 97q0 60 44 97.5t110 37.5q67 0 109.5 -38t42.5 -97t-42.5 -98t-109.5 -39z"/>
    <glyph glyph-name="ldot" unicode="ŀ" horiz-adv-x="887" d="M449 0h-316v1516h316v-1516zM735 590q-67 0 -110.5 40t-43.5 97q0 60 44 97.5t110 37.5q67 0 109.5 -38t42.5 -97t-42.5 -98t-109.5 -39z"/>
    <glyph glyph-name="Nacute" unicode="Ń" horiz-adv-x="1618" d="M1454 0h-326l-591 901q-52 79 -72 119h-4q8 -76 8 -232v-788h-305v1434h348l569 -873q39 -59 72 -117h4q-8 50 -8 197v793h305v-1434zM1143 1890l-313 -323h-228l260 323h281z"/>
    <glyph glyph-name="nacute" unicode="ń" horiz-adv-x="1239" d="M1122 0h-315v569q0 238 -170 238q-82 0 -135 -63t-53 -160v-584h-316v1024h316v-162h4q113 187 329 187q340 0 340 -422v-627zM972 1509l-313 -323h-228l260 323h281z"/>
    <glyph glyph-name="Ncaron" unicode="Ň" horiz-adv-x="1618" d="M1454 0h-326l-591 901q-52 79 -72 119h-4q8 -76 8 -232v-788h-305v1434h348l569 -873q39 -59 72 -117h4q-8 50 -8 197v793h305v-1434zM1170 1892l-238 -325h-248l-235 325h205l155 -188l156 188h205z"/>
    <glyph glyph-name="ncaron" unicode="ň" horiz-adv-x="1239" d="M1122 0h-315v569q0 238 -170 238q-82 0 -135 -63t-53 -160v-584h-316v1024h316v-162h4q113 187 329 187q340 0 340 -422v-627zM1001 1511l-238 -325h-248l-235 325h205l155 -188l156 188h205z"/>
    <glyph glyph-name="Ohungarumlaut" unicode="Ő" horiz-adv-x="1553" d="M770 -25q-308 0 -502 200.5t-194 522.5q0 340 197 550t522 210q307 0 496.5 -201t189.5 -530q0 -338 -196.5 -545t-512.5 -207zM784 1180q-170 0 -270 -127.5t-100 -337.5q0 -213 100 -337t262 -124q167 0 265 120.5t98 334.5q0 223 -95 347t-260 124zM1277 1886 l-252 -319h-210l213 319h249zM899 1886l-248 -319h-211l211 319h248z"/>
    <glyph glyph-name="ohungarumlaut" unicode="ő" horiz-adv-x="1252" d="M621 -25q-256 0 -402.5 143.5t-146.5 389.5q0 254 152 397.5t411 143.5q255 0 400 -143.5t145 -379.5q0 -255 -149.5 -403t-409.5 -148zM629 807q-112 0 -174 -77t-62 -218q0 -295 238 -295q227 0 227 303q0 287 -229 287zM1106 1505l-252 -319h-210l213 319h249z M728 1505l-248 -319h-211l211 319h248z"/>
    <glyph glyph-name="Racute" unicode="Ŕ" horiz-adv-x="1337" d="M1367 0h-371l-223 369q-25 42 -48 75t-46.5 56.5t-49 36t-55.5 12.5h-87v-549h-323v1434h512q522 0 522 -390q0 -75 -23 -138.5t-65 -114.5t-101.5 -88t-132.5 -58v-4q32 -10 62 -32.5t58 -52.5t53.5 -64.5t46.5 -67.5zM487 1192v-399h140q104 0 167 60q64 61 64 151 q0 188 -225 188h-146zM979 1890l-313 -323h-228l260 323h281z"/>
    <glyph glyph-name="racute" unicode="ŕ" horiz-adv-x="815" d="M801 739q-57 31 -133 31q-103 0 -161 -75.5t-58 -205.5v-489h-316v1024h316v-190h4q75 208 270 208q50 0 78 -12v-291zM772 1509l-313 -323h-228l260 323h281z"/>
    <glyph glyph-name="Rcaron" unicode="Ř" horiz-adv-x="1337" d="M1367 0h-371l-223 369q-25 42 -48 75t-46.5 56.5t-49 36t-55.5 12.5h-87v-549h-323v1434h512q522 0 522 -390q0 -75 -23 -138.5t-65 -114.5t-101.5 -88t-132.5 -58v-4q32 -10 62 -32.5t58 -52.5t53.5 -64.5t46.5 -67.5zM487 1192v-399h140q104 0 167 60q64 61 64 151 q0 188 -225 188h-146zM997 1892l-238 -325h-248l-235 325h205l155 -188l156 188h205z"/>
    <glyph glyph-name="rcaron" unicode="ř" horiz-adv-x="815" d="M801 739q-57 31 -133 31q-103 0 -161 -75.5t-58 -205.5v-489h-316v1024h316v-190h4q75 208 270 208q50 0 78 -12v-291zM789 1511l-238 -325h-248l-235 325h205l155 -188l156 188h205z"/>
    <glyph glyph-name="Sacute" unicode="Ś" horiz-adv-x="1148" d="M98 55v320q87 -73 189 -109.5t206 -36.5q61 0 106.5 11t76 30.5t45.5 46t15 57.5q0 42 -24 75t-65.5 61t-98.5 54t-123 53q-168 70 -250.5 171t-82.5 244q0 112 45 192.5t122.5 132.5t179.5 76.5t216 24.5q112 0 198.5 -13.5t159.5 -41.5v-299q-36 25 -78.5 44 t-87.5 31.5t-89.5 18.5t-84.5 6q-55 0 -100 -10.5t-76 -29.5t-48 -45.5t-17 -59.5q0 -36 19 -64.5t54 -54t85 -50t113 -50.5q86 -36 154.5 -76.5t117.5 -91.5t75 -116.5t26 -152.5q0 -120 -45.5 -201.5t-123.5 -132t-181.5 -72.5t-218.5 -22q-118 0 -224.5 20t-184.5 60z M879 1890l-313 -323h-228l260 323h281z"/>
    <glyph glyph-name="sacute" unicode="ś" horiz-adv-x="901" d="M66 27v256q78 -47 155.5 -70t146.5 -23q84 0 132.5 23t48.5 70q0 30 -22 50t-56.5 35t-75.5 27t-79 27q-61 23 -107.5 49.5t-78 61.5t-48 81t-16.5 109q0 86 37.5 148t100 101.5t143 58t167.5 18.5q68 0 138 -10.5t138 -30.5v-244q-60 35 -128.5 52.5t-134.5 17.5 q-31 0 -58.5 -5.5t-48.5 -16t-33 -27t-12 -37.5q0 -28 18 -48t47 -34.5t64.5 -26t70.5 -23.5q63 -22 114 -48t87.5 -61t56 -82t19.5 -112q0 -91 -39.5 -155.5t-105 -105t-151 -59t-177.5 -18.5q-169 0 -313 52zM793 1509l-313 -323h-228l260 323h281z"/>
    <glyph glyph-name="Tcedilla" unicode="Ţ" horiz-adv-x="1200" d="M1171 1171h-409v-1171h-324v1171h-407v263h1140v-263zM426 -451v138q35 -6 72 -6q123 0 123 73q0 66 -111 66q-13 0 -37 -2v182h172v-82q187 -8 187 -166q0 -207 -318 -207q-46 0 -88 4z"/>
    <glyph glyph-name="tcedilla" unicode="ţ" horiz-adv-x="797" d="M752 12q-70 -37 -211 -37q-334 0 -334 347v469h-166v233h166v221l315 90v-311h230v-233h-230v-414q0 -160 127 -160q50 0 103 29v-234zM338 -451v138q35 -6 72 -6q123 0 123 73q0 66 -111 66q-13 0 -37 -2v182h172v-82q187 -8 187 -166q0 -207 -318 -207q-46 0 -88 4z "/>
    <glyph glyph-name="Tcaron" unicode="Ť" horiz-adv-x="1200" d="M1171 1171h-409v-1171h-324v1171h-407v263h1140v-263zM961 1892l-238 -325h-248l-235 325h205l155 -188l156 188h205z"/>
    <glyph glyph-name="tcaron" unicode="ť" horiz-adv-x="1050" d="M752 12q-70 -37 -211 -37q-334 0 -334 347v469h-166v233h166v221l315 90v-311h230v-233h-230v-414q0 -160 127 -160q50 0 103 29v-234zM1113 1516l-168 -352h-194l90 352h272z"/>
    <glyph glyph-name="Uring" unicode="Ů" horiz-adv-x="1481" d="M1333 621q0 -646 -602 -646q-584 0 -584 631v828h324v-832q0 -348 272 -348q267 0 267 336v844h323v-813zM736 1567q-102 0 -168.5 59.5t-66.5 155.5q0 101 69.5 161t170.5 60q107 0 173 -59.5t66 -155.5q0 -98 -71.5 -159.5t-172.5 -61.5zM736 1880q-96 0 -96 -94 t96 -94q45 0 74 27.5t29 66.5q0 41 -28.5 67.5t-74.5 26.5z"/>
    <glyph glyph-name="uring" unicode="ů" horiz-adv-x="1239" d="M1106 0h-315v156h-5q-117 -181 -313 -181q-356 0 -356 431v618h315v-590q0 -217 172 -217q85 0 136 59.5t51 161.5v586h315v-1024zM615 1186q-102 0 -168.5 59.5t-66.5 155.5q0 101 69.5 161t170.5 60q107 0 173 -59.5t66 -155.5q0 -98 -71.5 -159.5t-172.5 -61.5z M615 1499q-96 0 -96 -94t96 -94q45 0 74 27.5t29 66.5q0 41 -28.5 67.5t-74.5 26.5z"/>
    <glyph glyph-name="Uhungarumlaut" unicode="Ű" horiz-adv-x="1481" d="M1333 621q0 -646 -602 -646q-584 0 -584 631v828h324v-832q0 -348 272 -348q267 0 267 336v844h323v-813zM1221 1886l-252 -319h-210l213 319h249zM843 1886l-248 -319h-211l211 319h248z"/>
    <glyph glyph-name="uhungarumlaut" unicode="ű" horiz-adv-x="1239" d="M1106 0h-315v156h-5q-117 -181 -313 -181q-356 0 -356 431v618h315v-590q0 -217 172 -217q85 0 136 59.5t51 161.5v586h315v-1024zM1090 1505l-252 -319h-210l213 319h249zM712 1505l-248 -319h-211l211 319h248z"/>
    <glyph glyph-name="Zacute" unicode="Ź" horiz-adv-x="1243" d="M1196 0h-1155v186l735 985h-682v263h1100v-181l-719 -991h721v-262zM967 1890l-313 -323h-228l260 323h281z"/>
    <glyph glyph-name="zacute" unicode="ź" horiz-adv-x="981" d="M944 0h-919v131l514 660h-463v233h864v-156l-487 -635h491v-233zM836 1509l-313 -323h-228l260 323h281z"/>
    <glyph glyph-name="Zdotaccent" unicode="Ż" horiz-adv-x="1243" d="M1196 0h-1155v186l735 985h-682v263h1100v-181l-719 -991h721v-262zM641 1567q-67 0 -110.5 40t-43.5 97q0 60 44 97.5t110 37.5q67 0 109.5 -38t42.5 -97t-42.5 -98t-109.5 -39z"/>
    <glyph glyph-name="zdotaccent" unicode="ż" horiz-adv-x="981" d="M944 0h-919v131l514 660h-463v233h864v-156l-487 -635h491v-233zM512 1186q-67 0 -110.5 40t-43.5 97q0 60 44 97.5t110 37.5q67 0 109.5 -38t42.5 -97t-42.5 -98t-109.5 -39z"/>
    <glyph glyph-name="Gamma" unicode="Γ" horiz-adv-x="1048" d="M1019 1168h-532v-1168h-323v1434h855v-266z"/>
    <glyph glyph-name="Theta" unicode="Θ" horiz-adv-x="1553" d="M771 -25q-308 0 -502.5 200.5t-194.5 522.5q0 340 196.5 550t521.5 210q307 0 497 -201t190 -530q0 -338 -196.5 -545t-511.5 -207zM784 1179q-170 0 -269.5 -126.5t-99.5 -336.5q0 -213 99.5 -337t261.5 -124q166 0 264 120t98 334q0 223 -94.5 346.5t-259.5 123.5z M1004 594h-453v244h453v-244z"/>
    <glyph glyph-name="Phi" unicode="Φ" horiz-adv-x="1670" d="M985 178v-198h-300v198h-23q-259 0 -423 161.5t-164 410.5q0 243 167 398t421 155h22v149h300v-150h23q257 0 421.5 -153t164.5 -393q0 -250 -166 -414t-421 -164h-22zM985 1061v-637h19q126 0 201.5 87.5t75.5 235.5q0 141 -75.5 227.5t-201.5 86.5h-19zM687 424v637 h-18q-127 0 -203 -88t-76 -228q0 -148 75.5 -234.5t202.5 -86.5h19z"/>
    <glyph glyph-name="alpha" unicode="α" horiz-adv-x="1304" d="M863 214q-123 -239 -371 -239q-195 0 -307 141t-112 367q0 245 130 405.5t349 160.5q247 0 334 -211h5l56 186h319l-221 -519q38 -142 78.5 -204.5t93.5 -62.5q47 0 79 16l-4 -242q-66 -27 -151 -27q-110 0 -174.5 53.5t-97.5 175.5h-6zM795 526q-58 283 -203 283 q-95 0 -149 -88t-54 -219q0 -125 43.5 -203.5t126.5 -78.5q142 0 221 259z"/>
    <glyph glyph-name="delta" unicode="δ" horiz-adv-x="1253" d="M425 932q-204 125 -204 308q0 136 120 216t316 80q169 0 375 -77v-298q-196 133 -351 133q-138 0 -138 -86q0 -41 48 -80.5t220 -132.5q369 -198 369 -501q0 -236 -149.5 -377.5t-413.5 -141.5q-248 0 -396.5 139t-148.5 345q0 341 353 473zM623 791 q-101 -34 -165.5 -117t-64.5 -191q0 -120 63.5 -193t171.5 -73q107 0 168.5 73t61.5 192q0 183 -235 309z"/>
    <glyph glyph-name="epsilon" unicode="ε" horiz-adv-x="948" d="M883 254v-233q-155 -46 -366 -46q-213 0 -331.5 78t-118.5 219q0 198 230 253v5q-82 21 -137.5 84t-55.5 147q0 137 112.5 212.5t320.5 75.5q167 0 302 -41v-232q-145 60 -259 60q-154 0 -154 -100q0 -117 205 -117q68 0 117 7v-208q-54 6 -146 6q-214 0 -214 -120 q0 -116 199 -116q143 0 296 66z"/>
    <glyph glyph-name="sigma" unicode="σ" horiz-adv-x="1256" d="M1238 796h-225q108 -137 108 -318q0 -231 -137.5 -367t-377.5 -136q-246 0 -390 144.5t-144 390.5q0 250 140.5 382t408.5 132h617v-228zM722 796h-72q-255 0 -255 -299q0 -130 57 -205t151 -75q93 0 144.5 78t51.5 216q0 161 -77 285z"/>
    <glyph glyph-name="tau" unicode="τ" horiz-adv-x="1125" d="M1076 796h-359v-433q0 -130 106 -130q53 0 106 22v-241q-76 -33 -206 -33q-323 0 -323 335v480h-86q-149 0 -280 -102v251q93 79 307 79h735v-228z"/>
    <glyph glyph-name="phi" unicode="φ" horiz-adv-x="1538" d="M908 -25v-456h-285v456h-20q-244 0 -387.5 145.5t-143.5 389.5q0 304 171 514h328q-83 -79 -141.5 -222t-58.5 -279q0 -143 64.5 -225t169.5 -82h18v455q0 182 97.5 280t277.5 98q220 0 344 -145t124 -408q0 -235 -145.5 -378t-391.5 -143h-21zM908 216h25q104 0 168 79 t64 220q0 136 -45 214.5t-117 78.5q-95 0 -95 -118v-474z"/>
    <glyph glyph-name="underscoredbl" unicode="‗" horiz-adv-x="850" d="M0 -277v119h850v-119h-850zM0 -514v119h850v-119h-850z"/>
    <glyph glyph-name="exclamdbl" unicode="‼" horiz-adv-x="1188" d="M500 1434l-39 -988h-256l-37 988h332zM336 -23q-80 0 -132 48.5t-52 117.5q0 72 52.5 118t131.5 46q80 0 131 -46.5t51 -117.5q0 -72 -50.5 -119t-131.5 -47zM1018 1434l-39 -988h-256l-37 988h332zM854 -23q-80 0 -132 48.5t-52 117.5q0 72 52.5 118t131.5 46 q80 0 131 -46.5t51 -117.5q0 -72 -50.5 -119t-131.5 -47z"/>
    <glyph glyph-name="nsuperior" unicode="ⁿ" horiz-adv-x="912" d="M803 717h-213v442q0 139 -113 139q-61 0 -108 -47t-47 -106v-428h-213v719h208v-99q74 117 228 117q258 0 258 -283v-454z"/>
    <glyph glyph-name="peseta" unicode="₧" horiz-adv-x="2681" d="M487 494v-494h-323v1434h424q542 0 542 -457q0 -216 -155.5 -349.5t-415.5 -133.5h-72zM487 1186v-447h45q259 0 259 226q0 221 -259 221h-45zM1812 12q-70 -37 -210 -37q-162 0 -238 78.5t-76 247.5v387h-145v213h145v221l295 90v-311h229v-213h-229v-332 q0 -159 127 -159q51 0 102 28v-213zM1872 27v235q154 -92 293 -92q129 0 129 92q0 45 -109 84q-159 56 -209 89t-77 81.5t-27 110.5q0 141 101 220t276 79q139 0 266 -41v-223q-117 69 -250 69q-104 0 -104 -74q0 -39 108 -79q151 -56 202 -91t78 -84t27 -110 q0 -318 -407 -318q-159 0 -297 52z"/>
    <glyph glyph-name="IJ" unicode="Ĳ" horiz-adv-x="1561" d="M607 1434v-250h-120v-934h120v-250h-563v250h120v934h-120v250h563zM1412 569q0 -288 -133.5 -441t-386.5 -153q-113 0 -209 39v303q83 -63 186 -63q221 0 221 328v852h322v-865z"/>
    <glyph glyph-name="ij" unicode="ĳ" horiz-adv-x="1238" d="M293 1186q-80 0 -131 47.5t-51 116.5q0 71 51 116t131 45q81 0 131.5 -45t50.5 -116q0 -72 -50.5 -118t-131.5 -46zM449 0h-316v1024h316v-1024zM949 1186q-80 0 -131 47.5t-51 116.5q0 71 51 116t131 45q81 0 131.5 -45t50.5 -116q0 -72 -50.5 -118t-131.5 -46zM1105 18 q0 -227 -111 -363t-320 -136q-69 0 -151 30v248q66 -37 117 -37q149 0 149 234v1030h316v-1006z"/>
    <glyph glyph-name="napostrophe" unicode="ŉ" horiz-adv-x="1403" d="M326 1468l-193 -444h-194l114 444h273zM1286 0h-315v569q0 238 -170 238q-84 0 -136.5 -63.5t-52.5 -159.5v-584h-315v1024h315v-162h4q113 187 330 187q340 0 340 -422v-627z"/>
    <glyph glyph-name="minute" unicode="′" horiz-adv-x="600" d="M477 1452l-125 -442h-200l65 442h260z"/>
    <glyph glyph-name="second" unicode="″" horiz-adv-x="1010" d="M881 1452l-125 -444h-201l64 444h262zM486 1452l-125 -442h-203l65 442h263z"/>
    <glyph glyph-name="uni2105" unicode="℅" horiz-adv-x="1779" d="M800 1413l-40 -173q-59 45 -144 45q-94 0 -158 -80t-64 -182q0 -151 135 -151q83 0 169 52l-35 -169q-98 -52 -209 -52q-133 0 -207.5 79t-74.5 216q0 193 123.5 324.5t318.5 131.5q116 0 186 -41zM1598 1434l-1238 -1434h-245l1239 1434h244zM1218 -20q-154 0 -239 87 t-85 222q0 176 109.5 306.5t298.5 130.5q148 0 231.5 -81.5t83.5 -223.5q0 -179 -107.5 -310t-291.5 -131zM1294 553q-82 0 -133 -81t-51 -183q0 -136 114 -136q78 0 128 79t50 183q0 138 -108 138z"/>
    <glyph glyph-name="uni2113" unicode="ℓ" horiz-adv-x="662" d="M360 666v-416q0 -90 14.5 -110.5t43.5 -20.5q21 0 55 14t143 92v-162q-112 -88 -225 -88q-198 0 -198 242v225l-80 -98l-99 78l179 235v455q0 223 60 301t173 78q94 0 156.5 -64.5t62.5 -175.5q0 -104 -68.5 -242.5t-216.5 -342.5zM360 899q92 159 119 224t27 128 q0 52 -20.5 85.5t-55.5 33.5q-27 0 -41.5 -18.5t-21.5 -74.5t-7 -151v-227z"/>
    <glyph glyph-name="uni25A1" unicode="□" horiz-adv-x="1237" d="M1090 0h-945v944h945v-944zM1014 76v792h-793v-792h793z"/>
    <glyph glyph-name="uni25AA" unicode="▪" horiz-adv-x="725" d="M594 444h-463v463h463v-463z"/>
    <glyph glyph-name="uni25AB" unicode="▫" horiz-adv-x="725" d="M594 444h-463v463h463v-463zM518 520v311h-311v-311h311z"/>
    <glyph glyph-name="uni25CF" unicode="●" horiz-adv-x="1237" d="M621 137q-182 0 -312.5 127.5t-130.5 313.5q0 112 58.5 218t163 164t218.5 58q117 0 224.5 -62t162 -167.5t54.5 -210.5q0 -180 -127.5 -310.5t-310.5 -130.5z"/>
    <glyph glyph-name="openbullet" unicode="◦" horiz-adv-x="725" d="M362 426q-104 0 -176.5 73.5t-72.5 178.5q0 102 73 176t176 74q105 0 178.5 -73.5t73.5 -176.5q0 -105 -73.5 -178.5t-178.5 -73.5zM362 852q-73 0 -123.5 -52.5t-50.5 -121.5q0 -74 51.5 -125t125.5 -51q71 0 122.5 51.5t51.5 124.5q0 67 -49.5 120.5t-127.5 53.5z"/>
    <glyph glyph-name="Amacron" unicode="Ā" horiz-adv-x="1440" d="M1425 0h-352l-102 319h-510l-101 -319h-350l522 1434h383zM897 567l-154 482q-17 54 -24 129h-8q-5 -63 -25 -125l-156 -486h367zM1013 1567h-586v172h586v-172z"/>
    <glyph glyph-name="amacron" unicode="ā" horiz-adv-x="1102" d="M985 0h-299v147h-4q-103 -172 -305 -172q-149 0 -234.5 84.5t-85.5 225.5q0 298 353 344l278 37q0 168 -182 168q-183 0 -348 -109v238q66 34 180.5 60t208.5 26q438 0 438 -437v-612zM688 416v69l-186 -24q-154 -20 -154 -139q0 -54 37.5 -88.5t101.5 -34.5 q89 0 145 61.5t56 155.5zM864 1186h-586v172h586v-172z"/>
    <glyph glyph-name="Ccircumflex" unicode="Ĉ" horiz-adv-x="1278" d="M1192 51q-157 -76 -410 -76q-330 0 -519 194t-189 517q0 344 212.5 558t551.5 214q210 0 354 -53v-311q-144 86 -328 86q-202 0 -326 -127t-124 -344q0 -208 117 -331.5t315 -123.5q189 0 346 92v-295zM1159 1567h-207l-158 188l-147 -188h-207l235 325h248z"/>
    <glyph glyph-name="ccircumflex" unicode="ĉ" horiz-adv-x="983" d="M909 37q-107 -62 -309 -62q-236 0 -382 143t-146 369q0 261 156.5 411.5t418.5 150.5q181 0 262 -48v-268q-99 74 -221 74q-136 0 -215.5 -79.5t-79.5 -219.5q0 -136 76 -213.5t209 -77.5q118 0 231 74v-254zM953 1186h-207l-158 188l-147 -188h-207l235 325h248z"/>
    <glyph glyph-name="Cdotaccent" unicode="Ċ" horiz-adv-x="1278" d="M1192 51q-157 -76 -410 -76q-330 0 -519 194t-189 517q0 344 212.5 558t551.5 214q210 0 354 -53v-311q-144 86 -328 86q-202 0 -326 -127t-124 -344q0 -208 117 -331.5t315 -123.5q189 0 346 92v-295zM819 1567q-67 0 -110.5 40t-43.5 97q0 60 44 97.5t110 37.5 q67 0 109.5 -38t42.5 -97t-42.5 -98t-109.5 -39z"/>
    <glyph glyph-name="cdotaccent" unicode="ċ" horiz-adv-x="983" d="M909 37q-107 -62 -309 -62q-236 0 -382 143t-146 369q0 261 156.5 411.5t418.5 150.5q181 0 262 -48v-268q-99 74 -221 74q-136 0 -215.5 -79.5t-79.5 -219.5q0 -136 76 -213.5t209 -77.5q118 0 231 74v-254zM610 1186q-67 0 -110.5 40t-43.5 97q0 60 44 97.5t110 37.5 q67 0 109.5 -38t42.5 -97t-42.5 -98t-109.5 -39z"/>
    <glyph glyph-name="Emacron" unicode="Ē" horiz-adv-x="1090" d="M1024 0h-860v1434h827v-263h-504v-319h469v-262h-469v-328h537v-262zM864 1567h-586v172h586v-172z"/>
    <glyph glyph-name="emacron" unicode="ē" horiz-adv-x="1108" d="M1053 422h-668q16 -223 281 -223q169 0 297 80v-228q-142 -76 -369 -76q-248 0 -385 137.5t-137 383.5q0 255 148 404t364 149q224 0 346.5 -133t122.5 -361v-133zM760 616q0 220 -178 220q-76 0 -131.5 -63t-67.5 -157h377zM867 1186h-586v172h586v-172z"/>
    <glyph glyph-name="Ebreve" unicode="Ĕ" horiz-adv-x="1090" d="M1024 0h-860v1434h827v-263h-504v-319h469v-262h-469v-328h537v-262zM926 1874q-12 -141 -102.5 -224t-237.5 -83q-146 0 -238 85.5t-96 221.5h179q17 -135 159 -135q137 0 156 135h180z"/>
    <glyph glyph-name="ebreve" unicode="ĕ" horiz-adv-x="1108" d="M1053 422h-668q16 -223 281 -223q169 0 297 80v-228q-142 -76 -369 -76q-248 0 -385 137.5t-137 383.5q0 255 148 404t364 149q224 0 346.5 -133t122.5 -361v-133zM760 616q0 220 -178 220q-76 0 -131.5 -63t-67.5 -157h377zM911 1493q-12 -141 -102.5 -224t-237.5 -83 q-146 0 -238 85.5t-96 221.5h179q17 -135 159 -135q137 0 156 135h180z"/>
    <glyph glyph-name="Edotaccent" unicode="Ė" horiz-adv-x="1090" d="M1024 0h-860v1434h827v-263h-504v-319h469v-262h-469v-328h537v-262zM589 1567q-67 0 -110.5 40t-43.5 97q0 60 44 97.5t110 37.5q67 0 109.5 -38t42.5 -97t-42.5 -98t-109.5 -39z"/>
    <glyph glyph-name="edotaccent" unicode="ė" horiz-adv-x="1108" d="M1053 422h-668q16 -223 281 -223q169 0 297 80v-228q-142 -76 -369 -76q-248 0 -385 137.5t-137 383.5q0 255 148 404t364 149q224 0 346.5 -133t122.5 -361v-133zM760 616q0 220 -178 220q-76 0 -131.5 -63t-67.5 -157h377zM596 1186q-67 0 -110.5 40t-43.5 97 q0 60 44 97.5t110 37.5q67 0 109.5 -38t42.5 -97t-42.5 -98t-109.5 -39z"/>
    <glyph glyph-name="Gcircumflex" unicode="Ĝ" horiz-adv-x="1456" d="M1341 96q-210 -121 -522 -121q-346 0 -545.5 191.5t-199.5 527.5q0 338 218 551t580 213q228 0 402 -63v-303q-166 96 -406 96q-201 0 -327.5 -130.5t-126.5 -348.5q0 -221 113.5 -342t306.5 -121q116 0 184 33v280h-287v258h610v-721zM1196 1567h-207l-158 188 l-147 -188h-207l235 325h248z"/>
    <glyph glyph-name="gcircumflex" unicode="ĝ" horiz-adv-x="1268" d="M1137 117q0 -285 -165 -441.5t-478 -156.5q-207 0 -328 59v266q158 -92 319 -92q160 0 248 84.5t88 229.5v81h-4q-108 -172 -319 -172q-196 0 -311 138t-115 370q0 260 128 413t337 153q187 0 280 -144h4v119h316v-907zM825 492v81q0 97 -57.5 165.5t-149.5 68.5 q-105 0 -165 -82t-60 -231q0 -128 57 -202.5t156 -74.5q98 0 158.5 75.5t60.5 199.5zM993 1186h-207l-158 188l-147 -188h-207l235 325h248z"/>
    <glyph glyph-name="Gdotaccent" unicode="Ġ" horiz-adv-x="1456" d="M1341 96q-210 -121 -522 -121q-346 0 -545.5 191.5t-199.5 527.5q0 338 218 551t580 213q228 0 402 -63v-303q-166 96 -406 96q-201 0 -327.5 -130.5t-126.5 -348.5q0 -221 113.5 -342t306.5 -121q116 0 184 33v280h-287v258h610v-721zM819 1567q-67 0 -110.5 40 t-43.5 97q0 60 44 97.5t110 37.5q67 0 109.5 -38t42.5 -97t-42.5 -98t-109.5 -39z"/>
    <glyph glyph-name="gdotaccent" unicode="ġ" horiz-adv-x="1268" d="M1137 117q0 -285 -165 -441.5t-478 -156.5q-207 0 -328 59v266q158 -92 319 -92q160 0 248 84.5t88 229.5v81h-4q-108 -172 -319 -172q-196 0 -311 138t-115 370q0 260 128 413t337 153q187 0 280 -144h4v119h316v-907zM825 492v81q0 97 -57.5 165.5t-149.5 68.5 q-105 0 -165 -82t-60 -231q0 -128 57 -202.5t156 -74.5q98 0 158.5 75.5t60.5 199.5zM634 1186q-67 0 -110.5 40t-43.5 97q0 60 44 97.5t110 37.5q67 0 109.5 -38t42.5 -97t-42.5 -98t-109.5 -39z"/>
    <glyph glyph-name="Gcommaaccent" unicode="Ģ" horiz-adv-x="1456" d="M1341 96q-210 -121 -522 -121q-346 0 -545.5 191.5t-199.5 527.5q0 338 218 551t580 213q228 0 402 -63v-303q-166 96 -406 96q-201 0 -327.5 -130.5t-126.5 -348.5q0 -221 113.5 -342t306.5 -121q116 0 184 33v280h-287v258h610v-721zM972 -117l-168 -352h-194l90 352 h272z"/>
    <glyph glyph-name="gcommaaccent" unicode="ģ" horiz-adv-x="1268" d="M821 1538l-90 -352h-272l168 352h194zM1137 117q0 -285 -165 -441.5t-478 -156.5q-207 0 -328 59v266q158 -92 319 -92q160 0 248 84.5t88 229.5v81h-4q-108 -172 -319 -172q-196 0 -311 138t-115 370q0 260 128 413t337 153q187 0 280 -144h4v119h316v-907zM825 492v81 q0 97 -57.5 165.5t-149.5 68.5q-105 0 -165 -82t-60 -231q0 -128 57 -202.5t156 -74.5q98 0 158.5 75.5t60.5 199.5z"/>
    <glyph glyph-name="Hcircumflex" unicode="Ĥ" horiz-adv-x="1569" d="M1405 0h-324v584h-594v-584h-323v1434h323v-572h594v572h324v-1434zM1144 1567h-207l-158 188l-147 -188h-207l235 325h248z"/>
    <glyph glyph-name="hcircumflex" unicode="ĥ" horiz-adv-x="1233" d="M1116 0h-315v582q0 225 -164 225q-84 0 -136 -63t-52 -160v-584h-316v1516h316v-644h4q116 177 315 177q348 0 348 -420v-629zM1012 1567h-207l-158 188l-147 -188h-207l235 325h248z"/>
    <glyph glyph-name="Hbar" unicode="Ħ" horiz-adv-x="1569" d="M1569 1018h-164v-1018h-324v584h-594v-584h-323v1018h-164v205h164v211h323v-211h594v211h324v-211h164v-205zM1081 862v156h-594v-156h594z"/>
    <glyph glyph-name="hbar" unicode="ħ" horiz-adv-x="1262" d="M1149 0h-311v553q0 225 -164 225q-88 0 -138.5 -61t-50.5 -158v-559h-315v1179h-143v159h143v178h315v-178h330v-159h-330v-329h4q116 176 316 176q344 0 344 -420v-606z"/>
    <glyph glyph-name="Itilde" unicode="Ĩ" horiz-adv-x="649" d="M607 1434v-250h-120v-934h120v-250h-563v250h120v934h-120v250h563zM684 1860q0 -140 -55.5 -216.5t-151.5 -76.5q-86 0 -168 43q-89 47 -123 47q-80 0 -80 -108h-141q0 139 55 216t154 77q81 0 168 -49q79 -44 120 -44q78 0 78 111h144z"/>
    <glyph glyph-name="itilde" unicode="ĩ" horiz-adv-x="582" d="M449 0h-316v1024h316v-1024zM650 1497q0 -140 -55.5 -216.5t-151.5 -76.5q-86 0 -168 43q-89 47 -123 47q-80 0 -80 -108h-141q0 139 55 216t154 77q81 0 168 -49q79 -44 120 -44q78 0 78 111h144z"/>
    <glyph glyph-name="Imacron" unicode="Ī" horiz-adv-x="649" d="M607 1434v-250h-120v-934h120v-250h-563v250h120v934h-120v250h563zM617 1567h-586v172h586v-172z"/>
    <glyph glyph-name="imacron" unicode="ī" horiz-adv-x="582" d="M449 0h-316v1024h316v-1024zM584 1186h-586v172h586v-172z"/>
    <glyph glyph-name="Ibreve" unicode="Ĭ" horiz-adv-x="649" d="M607 1434v-250h-120v-934h120v-250h-563v250h120v934h-120v250h563zM662 1874q-12 -141 -102.5 -224t-237.5 -83q-146 0 -238 85.5t-96 221.5h179q17 -135 159 -135q137 0 156 135h180z"/>
    <glyph glyph-name="ibreve" unicode="ĭ" horiz-adv-x="582" d="M449 0h-316v1024h316v-1024zM628 1493q-12 -141 -102.5 -224t-237.5 -83q-146 0 -238 85.5t-96 221.5h179q17 -135 159 -135q137 0 156 135h180z"/>
    <glyph glyph-name="Iogonek" unicode="Į" horiz-adv-x="649" d="M607 1434v-250h-120v-934h120v-250h-563v250h120v934h-120v250h563zM478 -400q-24 -8 -57.5 -13.5t-68.5 -5.5q-85 0 -136 44.5t-51 129.5q0 31 11 64.5t32 66t52 61.5t71 53h155q-78 -57 -115.5 -111.5t-37.5 -96.5q0 -33 17 -49.5t46 -16.5q19 0 40 3t41 9z"/>
    <glyph glyph-name="iogonek" unicode="į" horiz-adv-x="582" d="M293 1186q-80 0 -131 47.5t-51 116.5q0 71 51 116t131 45q81 0 131.5 -45t50.5 -116q0 -72 -50.5 -118t-131.5 -46zM449 0h-316v1024h316v-1024zM441 -400q-24 -8 -57.5 -13.5t-68.5 -5.5q-85 0 -136 44.5t-51 129.5q0 31 11 64.5t32 66t52 61.5t71 53h155 q-78 -57 -115.5 -111.5t-37.5 -96.5q0 -33 17 -49.5t46 -16.5q19 0 40 3t41 9z"/>
    <glyph glyph-name="Jcircumflex" unicode="Ĵ" horiz-adv-x="912" d="M762 569q0 -288 -133.5 -441t-386.5 -153q-113 0 -209 39v303q83 -63 186 -63q221 0 221 328v852h322v-865zM959 1567h-207l-158 188l-147 -188h-207l235 325h248z"/>
    <glyph glyph-name="jcircumflex" unicode="ĵ" horiz-adv-x="582" d="M449 18q0 -227 -111 -363t-320 -136q-69 0 -151 30v248q66 -37 117 -37q149 0 149 234v1030h316v-1006zM649 1186h-207l-158 188l-147 -188h-207l235 325h248z"/>
    <glyph glyph-name="Kcommaaccent" unicode="Ķ" horiz-adv-x="1329" d="M1356 0h-408l-418 623q-12 18 -38 79h-5v-702h-323v1434h323v-678h5q12 28 40 80l396 598h385l-500 -684zM886 -117l-168 -352h-194l90 352h272z"/>
    <glyph glyph-name="kcommaaccent" unicode="ķ" horiz-adv-x="1145" d="M1159 0h-379l-327 508h-4v-508h-316v1516h316v-965h4l305 473h375l-367 -481zM765 -117l-168 -352h-194l90 352h272z"/>
    <glyph glyph-name="kgreenlandic" unicode="ĸ" horiz-adv-x="1145" d="M1159 0h-379l-327 508h-4v-508h-316v1024h316v-473h4l305 473h375l-367 -481z"/>
    <glyph glyph-name="Lcommaaccent" unicode="Ļ" horiz-adv-x="1047" d="M1018 0h-854v1434h323v-1172h531v-262zM434 -451v138q35 -6 72 -6q123 0 123 73q0 66 -111 66q-13 0 -37 -2v182h172v-82q187 -8 187 -166q0 -207 -318 -207q-46 0 -88 4z"/>
    <glyph glyph-name="lcommaaccent" unicode="ļ" horiz-adv-x="582" d="M449 0h-316v1516h316v-1516zM127 -451v138q35 -6 72 -6q123 0 123 73q0 66 -111 66q-13 0 -37 -2v182h172v-82q187 -8 187 -166q0 -207 -318 -207q-46 0 -88 4z"/>
    <glyph glyph-name="Ncommaaccent" unicode="Ņ" horiz-adv-x="1618" d="M1454 0h-326l-591 901q-52 79 -72 119h-4q8 -76 8 -232v-788h-305v1434h348l569 -873q39 -59 72 -117h4q-8 50 -8 197v793h305v-1434zM990 -117l-168 -352h-194l90 352h272z"/>
    <glyph glyph-name="ncommaaccent" unicode="ņ" horiz-adv-x="1239" d="M1122 0h-315v569q0 238 -170 238q-82 0 -135 -63t-53 -160v-584h-316v1024h316v-162h4q113 187 329 187q340 0 340 -422v-627zM800 -117l-168 -352h-194l90 352h272z"/>
    <glyph glyph-name="Eng" unicode="Ŋ" horiz-adv-x="1618" d="M1454 80q0 -500 -397 -500q-119 0 -203 31v248q66 -37 139 -37q152 0 156 181l-612 898q-46 68 -72 119h-4q8 -76 8 -232v-788h-305v1434h348l569 -840q57 -84 72 -117h4q-8 50 -8 197v760h305v-1354z"/>
    <glyph glyph-name="eng" unicode="ŋ" horiz-adv-x="1239" d="M1122 63q0 -485 -409 -485q-88 0 -172 31v248q66 -37 116 -37q150 0 150 233v516q0 238 -170 238q-82 0 -135 -63t-53 -160v-584h-316v1024h316v-162h4q113 187 329 187q340 0 340 -422v-564z"/>
    <glyph glyph-name="Omacron" unicode="Ō" horiz-adv-x="1553" d="M770 -25q-308 0 -502 200.5t-194 522.5q0 340 197 550t522 210q307 0 496.5 -201t189.5 -530q0 -338 -196.5 -545t-512.5 -207zM784 1180q-170 0 -270 -127.5t-100 -337.5q0 -213 100 -337t262 -124q167 0 265 120.5t98 334.5q0 223 -95 347t-260 124zM1069 1567h-586 v172h586v-172z"/>
    <glyph glyph-name="omacron" unicode="ō" horiz-adv-x="1252" d="M621 -25q-256 0 -402.5 143.5t-146.5 389.5q0 254 152 397.5t411 143.5q255 0 400 -143.5t145 -379.5q0 -255 -149.5 -403t-409.5 -148zM629 807q-112 0 -174 -77t-62 -218q0 -295 238 -295q227 0 227 303q0 287 -229 287zM919 1186h-586v172h586v-172z"/>
    <glyph glyph-name="Obreve" unicode="Ŏ" horiz-adv-x="1553" d="M770 -25q-308 0 -502 200.5t-194 522.5q0 340 197 550t522 210q307 0 496.5 -201t189.5 -530q0 -338 -196.5 -545t-512.5 -207zM784 1180q-170 0 -270 -127.5t-100 -337.5q0 -213 100 -337t262 -124q167 0 265 120.5t98 334.5q0 223 -95 347t-260 124zM1113 1874 q-12 -141 -102.5 -224t-237.5 -83q-146 0 -238 85.5t-96 221.5h179q17 -135 159 -135q137 0 156 135h180z"/>
    <glyph glyph-name="obreve" unicode="ŏ" horiz-adv-x="1252" d="M621 -25q-256 0 -402.5 143.5t-146.5 389.5q0 254 152 397.5t411 143.5q255 0 400 -143.5t145 -379.5q0 -255 -149.5 -403t-409.5 -148zM629 807q-112 0 -174 -77t-62 -218q0 -295 238 -295q227 0 227 303q0 287 -229 287zM963 1493q-12 -141 -102.5 -224t-237.5 -83 q-146 0 -238 85.5t-96 221.5h179q17 -135 159 -135q137 0 156 135h180z"/>
    <glyph glyph-name="Rcommaaccent" unicode="Ŗ" horiz-adv-x="1337" d="M1367 0h-371l-223 369q-25 42 -48 75t-46.5 56.5t-49 36t-55.5 12.5h-87v-549h-323v1434h512q522 0 522 -390q0 -75 -23 -138.5t-65 -114.5t-101.5 -88t-132.5 -58v-4q32 -10 62 -32.5t58 -52.5t53.5 -64.5t46.5 -67.5zM487 1192v-399h140q104 0 167 60q64 61 64 151 q0 188 -225 188h-146zM849 -117l-168 -352h-194l90 352h272z"/>
    <glyph glyph-name="rcommaaccent" unicode="ŗ" horiz-adv-x="815" d="M801 739q-57 31 -133 31q-103 0 -161 -75.5t-58 -205.5v-489h-316v1024h316v-190h4q75 208 270 208q50 0 78 -12v-291zM593 -117l-168 -352h-194l90 352h272z"/>
    <glyph glyph-name="Scircumflex" unicode="Ŝ" horiz-adv-x="1148" d="M98 55v320q87 -73 189 -109.5t206 -36.5q61 0 106.5 11t76 30.5t45.5 46t15 57.5q0 42 -24 75t-65.5 61t-98.5 54t-123 53q-168 70 -250.5 171t-82.5 244q0 112 45 192.5t122.5 132.5t179.5 76.5t216 24.5q112 0 198.5 -13.5t159.5 -41.5v-299q-36 25 -78.5 44 t-87.5 31.5t-89.5 18.5t-84.5 6q-55 0 -100 -10.5t-76 -29.5t-48 -45.5t-17 -59.5q0 -36 19 -64.5t54 -54t85 -50t113 -50.5q86 -36 154.5 -76.5t117.5 -91.5t75 -116.5t26 -152.5q0 -120 -45.5 -201.5t-123.5 -132t-181.5 -72.5t-218.5 -22q-118 0 -224.5 20t-184.5 60z M922 1567h-207l-158 188l-147 -188h-207l235 325h248z"/>
    <glyph glyph-name="scircumflex" unicode="ŝ" horiz-adv-x="901" d="M66 27v256q78 -47 155.5 -70t146.5 -23q84 0 132.5 23t48.5 70q0 30 -22 50t-56.5 35t-75.5 27t-79 27q-61 23 -107.5 49.5t-78 61.5t-48 81t-16.5 109q0 86 37.5 148t100 101.5t143 58t167.5 18.5q68 0 138 -10.5t138 -30.5v-244q-60 35 -128.5 52.5t-134.5 17.5 q-31 0 -58.5 -5.5t-48.5 -16t-33 -27t-12 -37.5q0 -28 18 -48t47 -34.5t64.5 -26t70.5 -23.5q63 -22 114 -48t87.5 -61t56 -82t19.5 -112q0 -91 -39.5 -155.5t-105 -105t-151 -59t-177.5 -18.5q-169 0 -313 52zM825 1186h-207l-158 188l-147 -188h-207l235 325h248z"/>
    <glyph glyph-name="Tbar" unicode="Ŧ" horiz-adv-x="1200" d="M1171 1171h-409v-366h237v-266h-237v-539h-324v539h-237v266h237v366h-407v263h1140v-263z"/>
    <glyph glyph-name="tbar" unicode="ŧ" horiz-adv-x="797" d="M752 12q-70 -37 -211 -37q-334 0 -334 347v120h-146v205h146v144h-166v233h166v221l315 90v-311h230v-233h-230v-144h219v-205h-219v-65q0 -160 127 -160q50 0 103 29v-234z"/>
    <glyph glyph-name="Utilde" unicode="Ũ" horiz-adv-x="1481" d="M1333 621q0 -646 -602 -646q-584 0 -584 631v828h324v-832q0 -348 272 -348q267 0 267 336v844h323v-813zM1100 1829q0 -140 -55.5 -216.5t-151.5 -76.5q-86 0 -168 43q-89 47 -123 47q-80 0 -80 -108h-141q0 139 55 216t154 77q81 0 168 -49q79 -44 120 -44q78 0 78 111 h144z"/>
    <glyph glyph-name="utilde" unicode="ũ" horiz-adv-x="1239" d="M1106 0h-315v156h-5q-117 -181 -313 -181q-356 0 -356 431v618h315v-590q0 -217 172 -217q85 0 136 59.5t51 161.5v586h315v-1024zM979 1497q0 -140 -55.5 -216.5t-151.5 -76.5q-86 0 -168 43q-89 47 -123 47q-80 0 -80 -108h-141q0 139 55 216t154 77q81 0 168 -49 q79 -44 120 -44q78 0 78 111h144z"/>
    <glyph glyph-name="Umacron" unicode="Ū" horiz-adv-x="1481" d="M1333 621q0 -646 -602 -646q-584 0 -584 631v828h324v-832q0 -348 272 -348q267 0 267 336v844h323v-813zM1033 1567h-586v172h586v-172z"/>
    <glyph glyph-name="umacron" unicode="ū" horiz-adv-x="1239" d="M1106 0h-315v156h-5q-117 -181 -313 -181q-356 0 -356 431v618h315v-590q0 -217 172 -217q85 0 136 59.5t51 161.5v586h315v-1024zM912 1186h-586v172h586v-172z"/>
    <glyph glyph-name="Ubreve" unicode="Ŭ" horiz-adv-x="1481" d="M1333 621q0 -646 -602 -646q-584 0 -584 631v828h324v-832q0 -348 272 -348q267 0 267 336v844h323v-813zM1077 1874q-12 -141 -102.5 -224t-237.5 -83q-146 0 -238 85.5t-96 221.5h179q17 -135 159 -135q137 0 156 135h180z"/>
    <glyph glyph-name="ubreve" unicode="ŭ" horiz-adv-x="1239" d="M1106 0h-315v156h-5q-117 -181 -313 -181q-356 0 -356 431v618h315v-590q0 -217 172 -217q85 0 136 59.5t51 161.5v586h315v-1024zM956 1493q-12 -141 -102.5 -224t-237.5 -83q-146 0 -238 85.5t-96 221.5h179q17 -135 159 -135q137 0 156 135h180z"/>
    <glyph glyph-name="Uogonek" unicode="Ų" horiz-adv-x="1481" d="M1333 621q0 -646 -602 -646q-584 0 -584 631v828h324v-832q0 -348 272 -348q267 0 267 336v844h323v-813zM924 -400q-24 -8 -57.5 -13.5t-68.5 -5.5q-85 0 -136 44.5t-51 129.5q0 31 11 64.5t32 66t52 61.5t71 53h155q-78 -57 -115.5 -111.5t-37.5 -96.5q0 -33 17 -49.5 t46 -16.5q19 0 40 3t41 9z"/>
    <glyph glyph-name="uogonek" unicode="ų" horiz-adv-x="1239" d="M1106 0h-315v156h-5q-117 -181 -313 -181q-356 0 -356 431v618h315v-590q0 -217 172 -217q85 0 136 59.5t51 161.5v586h315v-1024zM940 -400q-24 -8 -57.5 -13.5t-68.5 -5.5q-85 0 -136 44.5t-51 129.5q0 31 11 64.5t32 66t52 61.5t71 53h155q-78 -57 -115.5 -111.5 t-37.5 -96.5q0 -33 17 -49.5t46 -16.5q19 0 40 3t41 9z"/>
    <glyph glyph-name="Wcircumflex" unicode="Ŵ" horiz-adv-x="2058" d="M2040 1434l-379 -1434h-358l-238 920q-19 72 -23 161h-4q-9 -98 -26 -161l-244 -920h-373l-377 1434h353l202 -955q13 -61 19 -164h6q4 77 29 168l260 951h346l235 -963q13 -53 23 -154h4q4 79 21 160l198 957h326zM1389 1567h-207l-158 188l-147 -188h-207l235 325h248z "/>
    <glyph glyph-name="wcircumflex" unicode="ŵ" horiz-adv-x="1633" d="M1616 1024l-295 -1024h-332l-151 600q-15 60 -17 131h-6q-7 -78 -20 -127l-162 -604h-328l-289 1024h322l141 -668q10 -47 15 -114h6q5 70 18 118l176 664h301l158 -668q6 -25 14 -116h7q5 58 16 116l133 668h293zM1176 1186h-207l-158 188l-147 -188h-207l235 325h248z "/>
    <glyph glyph-name="Ycircumflex" unicode="Ŷ" horiz-adv-x="1243" d="M1245 1434l-467 -924v-510h-323v504l-455 930h369l231 -535q6 -15 33 -117h4q13 72 31 113l235 539h342zM981 1567h-207l-158 188l-147 -188h-207l235 325h248z"/>
    <glyph glyph-name="ycircumflex" unicode="ŷ" horiz-adv-x="1102" d="M1108 1024l-416 -1106q-150 -399 -452 -399q-115 0 -189 26v252q63 -37 137 -37q122 0 170 115l54 127l-416 1022h350l191 -623q18 -58 28 -137h4q9 58 33 135l193 625h313zM910 1186h-207l-158 188l-147 -188h-207l235 325h248z"/>
    <glyph glyph-name="longs" unicode="ſ" horiz-adv-x="613" d="M717 1274q-61 24 -117 24q-151 0 -151 -165v-1133h-316v1151q0 175 114 282t310 107q96 0 160 -20v-246z"/>
    <glyph glyph-name="Aringacute" unicode="Ǻ" horiz-adv-x="1440" d="M1425 0h-352l-102 319h-510l-101 -319h-350l512 1407q-53 54 -53 137q0 106 73.5 169t180.5 63q114 0 184 -63.5t70 -164.5q0 -80 -53 -137zM719 1645q-47 0 -75 -28.5t-28 -70.5q0 -98 103 -98q48 0 77 28.5t29 69.5q0 43 -29.5 71t-76.5 28zM893 584l-152 465 q-13 40 -22 120h-8q-7 -68 -23 -116l-153 -469h358zM1037 2181l-313 -323h-228l260 323h281z"/>
    <glyph glyph-name="aringacute" unicode="ǻ" horiz-adv-x="1102" d="M985 0h-299v147h-4q-103 -172 -305 -172q-149 0 -234.5 84.5t-85.5 225.5q0 298 353 344l278 37q0 168 -182 168q-183 0 -348 -109v238q66 34 180.5 60t208.5 26q438 0 438 -437v-612zM688 416v69l-186 -24q-154 -20 -154 -139q0 -54 37.5 -88.5t101.5 -34.5 q89 0 145 61.5t56 155.5zM573 1135q-102 0 -168.5 59.5t-66.5 155.5q0 101 69.5 161t170.5 60q107 0 173 -59.5t66 -155.5q0 -98 -71.5 -159.5t-172.5 -61.5zM573 1448q-96 0 -96 -94t96 -94q45 0 74 27.5t29 66.5q0 41 -28.5 67.5t-74.5 26.5zM891 1982l-313 -323h-228 l260 323h281z"/>
    <glyph glyph-name="AEacute" unicode="Ǽ" horiz-adv-x="1915" d="M1849 0h-858v319h-471l-147 -319h-375l725 1434h1094v-263h-504v-319h469v-262h-469v-328h536v-262zM991 567v604h-78l-282 -604h360zM1526 1890l-313 -323h-228l260 323h281z"/>
    <glyph glyph-name="aeacute" unicode="ǽ" horiz-adv-x="1696" d="M1640 422h-667q20 -223 282 -223q160 0 297 80v-226q-156 -78 -378 -78q-269 0 -398 179h-4q-141 -179 -362 -179q-166 0 -259.5 82.5t-93.5 229.5q0 146 96.5 234t276.5 102l256 20q0 191 -184 191q-174 0 -344 -107v236q187 86 370 86q234 0 324 -134h4 q132 134 326 134q214 0 336 -133t122 -365v-129zM1348 616q0 220 -177 220q-75 0 -131.5 -62t-66.5 -158h375zM686 414v45l-156 -13q-184 -15 -184 -131q0 -50 39 -83t102 -33q86 0 142.5 59.5t56.5 155.5zM1180 1509l-313 -323h-228l260 323h281z"/>
    <glyph glyph-name="Oslashacute" unicode="Ǿ" horiz-adv-x="1553" d="M348 109l-143 -170l-125 104l149 176q-155 192 -155 479q0 340 196.5 550t522.5 210q234 0 401 -119l129 150l125 -103l-135 -157q166 -196 166 -502q0 -338 -196.5 -545t-512.5 -207q-240 0 -422 134zM1016 1130q-97 76 -232 76q-181 0 -287 -136.5t-106 -360.5 q0 -146 47 -252zM1110 995l-578 -676q101 -92 244 -92q175 0 281 128.5t106 351.5q0 164 -53 288zM1149 1890l-313 -323h-228l260 323h281z"/>
    <glyph glyph-name="oslashacute" unicode="ǿ" horiz-adv-x="1252" d="M1206 1010l-139 -146q113 -143 113 -338q0 -259 -148 -404t-411 -145q-198 0 -328 86l-135 -141l-119 107l137 143q-104 141 -104 338q0 253 152.5 397t412.5 144q179 0 311 -82l139 147zM772 791q-56 40 -141 40q-258 0 -258 -317q0 -73 18 -121zM862 651l-393 -409 q61 -45 160 -45q252 0 252 323q0 74 -19 131zM958 1509l-313 -323h-228l260 323h281z"/>
    <glyph glyph-name="anoteleia" unicode="·" horiz-adv-x="556" d="M275 487q-78 0 -130 48t-52 118q0 73 52.5 118.5t132.5 45.5q81 0 132.5 -46.5t51.5 -117.5q0 -73 -51.5 -119.5t-135.5 -46.5z"/>
    <glyph glyph-name="Wgrave" unicode="Ẁ" horiz-adv-x="2058" d="M2040 1434l-379 -1434h-358l-238 920q-19 72 -23 161h-4q-9 -98 -26 -161l-244 -920h-373l-377 1434h353l202 -955q13 -61 19 -164h6q4 77 29 168l260 951h346l235 -963q13 -53 23 -154h4q4 79 21 160l198 957h326zM1243 1567h-227l-314 323h281z"/>
    </font>
</defs>
</svg>
