<?xml version="1.0" standalone="no"?>
<!DOCTYPE svg PUBLIC "-//W3C//DTD SVG 1.1//EN" "http://www.w3.org/Graphics/SVG/1.1/DTD/svg11.dtd" >
<svg>
<metadata>
Created by FontForge 20090622 at Sun Nov 12 10:48:06 2017
 By ffonts
Copyright \(c\) 2017 by Jacob Debono.
</metadata>
<defs>
<font id="Minecraft-Regular" horiz-adv-x="600" >
  <font-face 
    font-family="Minecraft"
    font-weight="400"
    font-stretch="normal"
    units-per-em="1000"
    panose-1="0 0 5 0 0 0 0 0 0 0"
    ascent="800"
    descent="-200"
    x-height="500"
    cap-height="700"
    bbox="0 -200 800 700"
    underline-thickness="50"
    underline-position="-50"
    unicode-range="U+0020-U+2666"
  />
<missing-glyph horiz-adv-x="100" 
 />
    <glyph glyph-name=".notdef" horiz-adv-x="100" 
 />
    <glyph glyph-name="A" unicode="A" 
d="M100 600v100h300v-100h-300zM400 600h100v-600h-100v400h-300v-400h-100v600h100v-100h300v100z" />
    <glyph glyph-name="Adieresis" unicode="&#xc4;" 
d="M0 700h100v-100h-100v100zM500 700v-100h-100v100h100zM400 600v-100h-300v100h300zM400 400v100h100v-500h-100v300h-300v-300h-100v500h100v-100h300z" />
    <glyph glyph-name="Aring" unicode="&#xc5;" 
d="M300 700v-100h-100v100h100zM100 400v100h300v-100h-300zM400 400h100v-400h-100v200h-300v-200h-100v400h100v-100h300v100z" />
    <glyph glyph-name="AE" unicode="&#xc6;" 
d="M300 600v-100h100v-100h-100v-300h200v-100h-300v400h-100v-400h-100v600h100v-100h100v100h-100v100h400v-100h-200z" />
    <glyph glyph-name="B" unicode="B" 
d="M400 500v-100h-300v-300h300v-100h-400v700h400v-100h-300v-100h300zM500 500h-100v100h100v-100zM400 400h100v-300h-100v300z" />
    <glyph glyph-name="C" unicode="C" 
d="M400 700v-100h-300v100h300zM0 600h100v-500h-100v500zM500 500h-100v100h100v-100zM500 200v-100h-100v100h100zM100 0v100h300v-100h-300z" />
    <glyph glyph-name="Ccedilla" unicode="&#xc7;" 
d="M400 700v-100h-300v100h300zM0 600h100v-500h-100v500zM500 500h-100v100h100v-100zM500 200v-100h-100v100h100zM100 0v100h300v-100h-300zM500 -100h-100v100h100v-100zM200 -100h200v-100h-200v100z" />
    <glyph glyph-name="D" unicode="D" 
d="M400 100v-100h-400v700h400v-100h-300v-500h300zM400 600h100v-500h-100v500z" />
    <glyph glyph-name="E" unicode="E" 
d="M100 600v-100h200v-100h-200v-300h400v-100h-500v700h500v-100h-400z" />
    <glyph glyph-name="F" unicode="F" 
d="M500 700v-100h-400v-100h200v-100h-200v-400h-100v700h500z" />
    <glyph glyph-name="G" unicode="G" 
d="M100 600v100h400v-100h-400zM100 100h-100v500h100v-500zM500 100h-100v300h-100v100h200v-400zM100 0v100h300v-100h-300z" />
    <glyph glyph-name="H" unicode="H" 
d="M400 700h100v-700h-100v400h-300v-400h-100v700h100v-200h300v200z" />
    <glyph glyph-name="I" unicode="I" horiz-adv-x="400" 
d="M200 100h100v-100h-300v100h100v500h-100v100h300v-100h-100v-500z" />
    <glyph glyph-name="J" unicode="J" 
d="M400 700h100v-600h-100v600zM0 200h100v-100h-100v100zM400 100v-100h-300v100h300z" />
    <glyph glyph-name="K" unicode="K" 
d="M300 500v-100h-200v-400h-100v700h100v-200h200zM500 700v-100h-100v100h100zM400 600v-100h-100v100h100zM400 300h-100v100h100v-100zM400 300h100v-300h-100v300z" />
    <glyph glyph-name="L" unicode="L" 
d="M500 100v-100h-500v700h100v-600h400z" />
    <glyph glyph-name="M" unicode="M" 
d="M100 600h100v-100h-100v-500h-100v700h100v-100zM400 700h100v-700h-100v500h-100v100h100v100zM200 400v100h100v-100h-100z" />
    <glyph glyph-name="N" unicode="N" 
d="M100 600h100v-100h-100v-500h-100v700h100v-100zM400 700h100v-700h-100v300h-100v100h100v300zM200 500h100v-100h-100v100z" />
    <glyph glyph-name="Ntilde" unicode="&#xd1;" 
d="M500 700v-100h-500v100h500zM100 400h100v-100h-100v-300h-100v500h100v-100zM400 500h100v-500h-100v100h-100v100h100v300zM200 300h100v-100h-100v100z" />
    <glyph glyph-name="O" unicode="O" 
d="M100 600v100h300v-100h-300zM100 100h-100v500h100v-500zM400 600h100v-500h-100v500zM400 100v-100h-300v100h300z" />
    <glyph glyph-name="Oslash" unicode="&#xd8;" 
d="M100 600v100h300v-100h-300zM200 200h-100v-100h-100v500h100v-300h100v-100zM400 600h100v-500h-100v300h-100v100h100v100zM200 300v100h100v-100h-100zM400 100v-100h-300v100h300z" />
    <glyph glyph-name="P" unicode="P" 
d="M400 500v-100h-300v-400h-100v700h400v-100h-300v-100h300zM400 600h100v-100h-100v100z" />
    <glyph glyph-name="Q" unicode="Q" 
d="M100 600v100h300v-100h-300zM100 100h-100v500h100v-500zM400 600h100v-400h-100v400zM300 100v100h100v-100h-100zM100 100h200v-100h-200v100zM500 0h-100v100h100v-100z" />
    <glyph glyph-name="R" unicode="R" 
d="M400 500v-100h-300v-400h-100v700h400v-100h-300v-100h300zM500 500h-100v100h100v-100zM400 400h100v-400h-100v400z" />
    <glyph glyph-name="S" unicode="S" 
d="M100 600v100h400v-100h-400zM0 600h100v-100h-100v100zM100 400v100h300v-100h-300zM400 400h100v-300h-100v300zM0 200h100v-100h-100v100zM400 100v-100h-300v100h300z" />
    <glyph glyph-name="T" unicode="T" 
d="M500 700v-100h-200v-600h-100v600h-200v100h500z" />
    <glyph glyph-name="U" unicode="U" 
d="M100 100h-100v600h100v-600zM400 700h100v-600h-100v600zM400 100v-100h-300v100h300z" />
    <glyph glyph-name="Udieresis" unicode="&#xdc;" 
d="M100 700v-100h-100v100h100zM400 700h100v-100h-100v100zM100 100h-100v400h100v-400zM400 500h100v-400h-100v400zM400 100v-100h-300v100h300z" />
    <glyph glyph-name="V" unicode="V" 
d="M100 300h-100v400h100v-400zM400 700h100v-400h-100v400zM200 300v-200h-100v200h100zM300 300h100v-200h-100v200zM200 0v100h100v-100h-100z" />
    <glyph glyph-name="W" unicode="W" 
d="M100 200h100v-100h-100v-100h-100v700h100v-500zM400 700h100v-700h-100v100h-100v100h100v500zM200 300h100v-100h-100v100z" />
    <glyph glyph-name="X" unicode="X" 
d="M0 700h100v-100h-100v100zM500 700v-100h-100v100h100zM100 600h100v-100h-100v100zM400 600v-100h-100v100h100zM200 500h100v-100h-100v100zM100 300v100h100v-100h-100zM400 300h-100v100h100v-100zM0 300h100v-300h-100v300zM400 300h100v-300h-100v300z" />
    <glyph glyph-name="Y" unicode="Y" 
d="M0 700h100v-100h-100v100zM400 700h100v-100h-100v100zM100 600h100v-100h-100v100zM300 500v100h100v-100h-100zM200 500h100v-500h-100v500z" />
    <glyph glyph-name="Z" unicode="Z" 
d="M500 700v-200h-100v100h-400v100h500zM300 400v100h100v-100h-100zM200 300v100h100v-100h-100zM100 200v100h100v-100h-100zM0 200h100v-100h400v-100h-500v200z" />
    <glyph glyph-name="a" unicode="a" 
d="M400 500v-100h-300v100h300zM400 400h100v-400h-400v100h300v100h-300v100h300v100zM0 200h100v-100h-100v100z" />
    <glyph glyph-name="aacute" unicode="&#xe1;" 
d="M500 700v-100h-200v100h200zM400 500v-100h-300v100h300zM400 300v100h100v-400h-400v100h300v100h-300v100h300zM0 200h100v-100h-100v100z" />
    <glyph glyph-name="acircumflex" unicode="&#xe2;" 
d="M100 600v100h300v-100h-300zM0 600h100v-100h-100v100zM500 500h-100v100h100v-100zM400 500v-100h-300v100h300zM400 300v100h100v-400h-400v100h300v100h-300v100h300zM0 200h100v-100h-100v100z" />
    <glyph glyph-name="agrave" unicode="&#xe0;" 
d="M200 600h-200v100h200v-100zM400 500v-100h-300v100h300zM400 400h100v-400h-400v100h300v100h-300v100h300v100zM0 200h100v-100h-100v100z" />
    <glyph glyph-name="aring" unicode="&#xe5;" 
d="M300 700v-100h-100v100h100zM400 500v-100h-300v100h300zM400 400h100v-400h-400v100h300v100h-300v100h300v100zM0 200h100v-100h-100v100z" />
    <glyph glyph-name="ae" unicode="&#xe6;" 
d="M100 500h100v-100h-100v100zM400 500v-100h-100v100h100zM400 200h-100v-100h200v-100h-400v100h100v100h-100v100h100v100h100v-100h100v-100zM500 300h-100v100h100v-100zM0 200h100v-100h-100v100z" />
    <glyph glyph-name="b" unicode="b" 
d="M400 100v-100h-400v700h100v-300h100v-100h-100v-200h300zM400 400h-200v100h200v-100zM400 400h100v-300h-100v300z" />
    <glyph glyph-name="c" unicode="c" 
d="M400 500v-100h-300v100h300zM0 400h100v-300h-100v300zM500 300h-100v100h100v-100zM500 200v-100h-100v100h100zM100 0v100h300v-100h-300z" />
    <glyph glyph-name="ccedilla" unicode="&#xe7;" 
d="M400 500v-100h-300v100h300zM0 400h100v-300h-100v300zM500 300h-100v100h100v-100zM500 200v-100h-100v100h100zM100 0v100h300v-100h-300zM500 -100h-100v100h100v-100zM200 -100h200v-100h-200v100z" />
    <glyph glyph-name="d" unicode="d" 
d="M400 700h100v-700h-400v100h300v200h-100v100h100v300zM300 400h-200v100h200v-100zM100 100h-100v300h100v-300z" />
    <glyph glyph-name="e" unicode="e" 
d="M100 400v100h300v-100h-300zM400 400h100v-200h-400v-100h-100v300h100v-100h300v100zM100 0v100h400v-100h-400z" />
    <glyph glyph-name="ecircumflex" unicode="&#xea;" 
d="M100 600v100h300v-100h-300zM0 600h100v-100h-100v100zM500 500h-100v100h100v-100zM400 500v-100h-300v100h300zM400 300v100h100v-200h-400v-100h-100v300h100v-100h300zM100 0v100h400v-100h-400z" />
    <glyph glyph-name="edieresis" unicode="&#xeb;" 
d="M200 700v-100h-100v100h100zM400 700v-100h-100v100h100zM100 400v100h300v-100h-300zM400 400h100v-200h-400v-100h-100v300h100v-100h300v100zM100 0v100h400v-100h-400z" />
    <glyph glyph-name="f" unicode="f" horiz-adv-x="500" 
d="M400 600h-200v100h200v-100zM100 600h100v-100h200v-100h-200v-400h-100v400h-100v100h100v100z" />
    <glyph glyph-name="g" unicode="g" 
d="M500 500v-500h-100v100h-300v100h300v200h-300v100h400zM100 400v-200h-100v200h100zM400 0v-100h-400v100h400z" />
    <glyph glyph-name="h" unicode="h" 
d="M100 400h100v-100h-100v-300h-100v700h100v-300zM400 500v-100h-200v100h200zM400 400h100v-400h-100v400z" />
    <glyph glyph-name="i" unicode="i" horiz-adv-x="200" 
d="M0 700h100v-100h-100v100zM0 500h100v-500h-100v500z" />
    <glyph glyph-name="iacute" unicode="&#xed;" horiz-adv-x="300" 
d="M200 700v-100h-200v100h200zM0 500h100v-500h-100v500z" />
    <glyph glyph-name="icircumflex" unicode="&#xee;" horiz-adv-x="400" 
d="M100 700v-100h-100v100h100zM200 700h100v-100h-100v100zM100 500h100v-500h-100v500z" />
    <glyph glyph-name="j" unicode="j" 
d="M400 700h100v-100h-100v100zM400 500h100v-500h-100v500zM0 100h100v-100h-100v100zM400 0v-100h-300v100h300z" />
    <glyph glyph-name="k" unicode="k" horiz-adv-x="500" 
d="M100 300h100v-100h-100v-200h-100v700h100v-400zM400 500v-100h-100v100h100zM300 400v-100h-100v100h100zM300 100h-100v100h100v-100zM400 0h-100v100h100v-100z" />
    <glyph glyph-name="l" unicode="l" horiz-adv-x="300" 
d="M100 100h-100v600h100v-600zM100 100h100v-100h-100v100z" />
    <glyph glyph-name="m" unicode="m" 
d="M200 500v-100h-100v-400h-100v500h200zM300 500h100v-100h-100v100zM200 400h100v-200h-100v200zM400 400h100v-400h-100v400z" />
    <glyph glyph-name="n" unicode="n" 
d="M400 500v-100h-300v-400h-100v500h400zM400 400h100v-400h-100v400z" />
    <glyph glyph-name="ntilde" unicode="&#xf1;" 
d="M500 700v-100h-500v100h500zM400 500v-100h-300v-400h-100v500h400zM400 400h100v-400h-100v400z" />
    <glyph glyph-name="o" unicode="o" 
d="M100 400v100h300v-100h-300zM100 100h-100v300h100v-300zM400 400h100v-300h-100v300zM400 100v-100h-300v100h300z" />
    <glyph glyph-name="oacute" unicode="&#xf3;" 
d="M500 700v-100h-200v100h200zM100 400v100h300v-100h-300zM100 100h-100v300h100v-300zM400 400h100v-300h-100v300zM400 100v-100h-300v100h300z" />
    <glyph glyph-name="ocircumflex" unicode="&#xf4;" 
d="M100 600v100h300v-100h-300zM0 600h100v-100h-100v100zM500 500h-100v100h100v-100zM400 500v-100h-300v100h300zM100 100h-100v300h100v-300zM400 400h100v-300h-100v300zM400 100v-100h-300v100h300z" />
    <glyph glyph-name="odieresis" unicode="&#xf6;" 
d="M200 700v-100h-100v100h100zM400 700v-100h-100v100h100zM100 400v100h300v-100h-300zM100 100h-100v300h100v-300zM400 400h100v-300h-100v300zM400 100v-100h-300v100h300z" />
    <glyph glyph-name="ograve" unicode="&#xf2;" 
d="M200 600h-200v100h200v-100zM100 400v100h300v-100h-300zM100 100h-100v300h100v-300zM400 400h100v-300h-100v300zM400 100v-100h-300v100h300z" />
    <glyph glyph-name="oslash" unicode="&#xf8;" 
d="M400 400h100v-300h-100v200h-100v100h-200v100h300v-100zM200 100h200v-100h-100v-100h-100v100h-100v100h-100v300h100v-200h100v-100zM200 200v100h100v-100h-100z" />
    <glyph glyph-name="p" unicode="p" 
d="M400 200v-100h-300v-200h-100v600h100v-100h100v-100h-100v-100h300zM400 400h-200v100h200v-100zM400 400h100v-200h-100v200z" />
    <glyph glyph-name="q" unicode="q" 
d="M400 500h100v-600h-100v200h-300v100h300v100h-100v100h100v100zM300 400h-200v100h200v-100zM100 400v-200h-100v200h100z" />
    <glyph glyph-name="r" unicode="r" 
d="M100 500v-100h100v-100h-100v-300h-100v500h100zM400 500v-100h-200v100h200zM400 400h100v-100h-100v100z" />
    <glyph glyph-name="s" unicode="s" 
d="M100 400v100h400v-100h-400zM0 400h100v-100h-100v100zM100 200v100h300v-100h-300zM500 100h-100v100h100v-100zM400 100v-100h-400v100h400z" />
    <glyph glyph-name="t" unicode="t" horiz-adv-x="400" 
d="M200 100h-100v300h-100v100h100v200h100v-200h100v-100h-100v-300zM300 0h-100v100h100v-100z" />
    <glyph glyph-name="u" unicode="u" 
d="M100 100h-100v400h100v-400zM400 500h100v-500h-400v100h300v400z" />
    <glyph glyph-name="uacute" unicode="&#xfa;" 
d="M500 700v-100h-200v100h200zM100 100h-100v400h100v-400zM400 500h100v-500h-400v100h300v400z" />
    <glyph glyph-name="ucircumflex" unicode="&#xfb;" 
d="M400 700v-100h-300v100h300zM0 500v100h100v-100h-100zM400 600h100v-100h-100v100zM100 100h-100v300h100v-300zM400 400h100v-400h-400v100h300v300z" />
    <glyph glyph-name="udieresis" unicode="&#xfc;" 
d="M200 700v-100h-100v100h100zM400 700v-100h-100v100h100zM100 100h-100v400h100v-400zM400 500h100v-500h-400v100h300v400z" />
    <glyph glyph-name="ugrave" unicode="&#xf9;" 
d="M200 600h-200v100h200v-100zM100 100h-100v400h100v-400zM400 500h100v-500h-400v100h300v400z" />
    <glyph glyph-name="v" unicode="v" 
d="M100 200h-100v300h100v-300zM400 500h100v-300h-100v300zM100 200h100v-100h-100v100zM300 100v100h100v-100h-100zM200 0v100h100v-100h-100z" />
    <glyph glyph-name="w" unicode="w" 
d="M100 100h-100v400h100v-400zM400 500h100v-500h-400v100h100v200h100v-200h100v400z" />
    <glyph glyph-name="x" unicode="x" 
d="M0 400v100h100v-100h-100zM400 400v100h100v-100h-100zM100 300v100h100v-100h-100zM300 300v100h100v-100h-100zM200 200v100h100v-100h-100zM100 100v100h100v-100h-100zM300 100v100h100v-100h-100zM0 0v100h100v-100h-100zM400 0v100h100v-100h-100z" />
    <glyph glyph-name="y" unicode="y" 
d="M100 200h-100v300h100v-300zM400 500h100v-500h-100v100h-300v100h300v300zM400 0v-100h-400v100h400z" />
    <glyph glyph-name="ydieresis" unicode="&#xff;" 
d="M200 700v-100h-100v100h100zM400 700v-100h-100v100h100zM100 200h-100v300h100v-300zM400 500h100v-500h-100v100h-300v100h300v300zM400 0v-100h-400v100h400z" />
    <glyph glyph-name="z" unicode="z" 
d="M400 400v-100h-100v100h-300v100h500v-100h-100zM300 300v-100h-100v100h100zM100 200h100v-100h300v-100h-500v100h100v100z" />
    <glyph glyph-name="uni03A9" unicode="&#x3a9;" 
d="M400 700v-100h-300v100h300zM0 600h100v-400h-100v400zM400 600h100v-400h-100v400zM0 100h100v100h100v-200h-200v100zM300 200h100v-100h100v-100h-200v200z" />
    <glyph glyph-name="zero" unicode="0" 
d="M100 600v100h300v-100h-300zM200 200h-100v-100h-100v500h100v-300h100v-100zM400 600h100v-500h-100v300h-100v100h100v100zM200 300v100h100v-100h-100zM400 100v-100h-300v100h300z" />
    <glyph glyph-name="one" unicode="1" 
d="M500 100v-100h-500v100h200v400h-100v100h100v100h100v-600h200z" />
    <glyph glyph-name="two" unicode="2" 
d="M400 700v-100h-300v100h300zM0 500v100h100v-100h-100zM400 600h100v-200h-100v200zM200 400h200v-100h-200v100zM100 200v100h100v-100h-100zM0 200h100v-100h300v100h100v-200h-500v200z" />
    <glyph glyph-name="three" unicode="3" 
d="M400 700v-100h-300v100h300zM0 500v100h100v-100h-100zM400 600h100v-200h-100v200zM200 400h200v-100h-200v100zM400 100v200h100v-200h-100zM0 200h100v-100h-100v100zM400 100v-100h-300v100h300z" />
    <glyph glyph-name="four" unicode="4" 
d="M500 700v-700h-100v200h-400v200h100v-100h300v300h-100v100h200zM300 600v-100h-100v100h100zM200 500v-100h-100v100h100z" />
    <glyph glyph-name="five" unicode="5" 
d="M100 600v-100h300v-100h-400v300h500v-100h-400zM400 400h100v-300h-100v300zM0 200h100v-100h-100v100zM400 100v-100h-300v100h300z" />
    <glyph glyph-name="six" unicode="6" 
d="M400 600h-200v100h200v-100zM200 600v-100h-100v100h100zM100 300v-200h-100v400h100v-100h300v-100h-300zM400 300h100v-200h-100v200zM400 100v-100h-300v100h300z" />
    <glyph glyph-name="seven" unicode="7" 
d="M500 700v-300h-100v200h-300v-100h-100v200h500zM300 300v100h100v-100h-100zM200 300h100v-300h-100v300z" />
    <glyph glyph-name="eight" unicode="8" 
d="M100 600v100h300v-100h-300zM100 600v-200h-100v200h100zM400 600h100v-200h-100v200zM400 400v-100h-300v100h300zM100 300v-200h-100v200h100zM400 100v200h100v-200h-100zM400 100v-100h-300v100h300z" />
    <glyph glyph-name="nine" unicode="9" 
d="M100 600v100h300v-100h-300zM100 600v-200h-100v200h100zM400 600h100v-400h-100v100h-300v100h300v200zM300 100v100h100v-100h-100zM100 100h200v-100h-200v100z" />
    <glyph glyph-name="period" unicode="." horiz-adv-x="200" 
d="M0 200h100v-200h-100v200z" />
    <glyph glyph-name="comma" unicode="," horiz-adv-x="200" 
d="M0 200h100v-300h-100v300z" />
    <glyph glyph-name="colon" unicode=":" horiz-adv-x="200" 
d="M0 600h100v-200h-100v200zM0 200h100v-200h-100v200z" />
    <glyph glyph-name="semicolon" unicode=";" horiz-adv-x="200" 
d="M0 600h100v-200h-100v200zM0 200h100v-300h-100v300z" />
    <glyph glyph-name="exclam" unicode="!" horiz-adv-x="200" 
d="M0 700h100v-500h-100v500zM0 0v100h100v-100h-100z" />
    <glyph glyph-name="exclamdown" unicode="&#xa1;" horiz-adv-x="200" 
d="M0 600h100v-100h-100v100zM0 400h100v-400h-100v400z" />
    <glyph glyph-name="question" unicode="?" 
d="M400 700v-100h-300v100h300zM0 500v100h100v-100h-100zM400 600h100v-200h-100v200zM300 300v100h100v-100h-100zM200 200v100h100v-100h-100zM200 0v100h100v-100h-100z" />
    <glyph glyph-name="questiondown" unicode="&#xbf;" 
d="M300 700v-100h-100v100h100zM300 500v-100h-100v100h100zM200 400v-100h-100v100h100zM100 300v-200h-100v200h100zM400 200h100v-100h-100v100zM400 100v-100h-300v100h300z" />
    <glyph glyph-name="periodcentered" unicode="&#xb7;" horiz-adv-x="300" 
d="M200 400v-200h-200v200h200z" />
    <glyph glyph-name="bullet" unicode="&#x2022;" horiz-adv-x="300" 
d="M200 400v-200h-200v200h200z" />
    <glyph glyph-name="asterisk" unicode="*" horiz-adv-x="500" 
d="M0 500h100v-100h-100v100zM400 500v-100h-100v100h100zM300 400v-100h-200v100h200zM0 200v100h100v-100h-100zM400 200h-100v100h100v-100z" />
    <glyph glyph-name="numbersign" unicode="#" 
d="M500 400h-100v-100h100v-100h-100v-200h-100v200h-100v-200h-100v200h-100v100h100v100h-100v100h100v200h100v-200h100v200h100v-200h100v-100zM300 300v100h-100v-100h100z" />
    <glyph glyph-name="slash" unicode="/" 
d="M400 700h100v-100h-100v100zM300 600h100v-200h-100v200zM200 300v100h100v-100h-100zM100 300h100v-200h-100v200zM0 0v100h100v-100h-100z" />
    <glyph glyph-name="backslash" unicode="\" 
d="M0 700h100v-100h-100v100zM200 600v-200h-100v200h100zM200 400h100v-100h-100v100zM400 300v-200h-100v200h100zM400 100h100v-100h-100v100z" />
    <glyph glyph-name="parenleft" unicode="(" horiz-adv-x="500" 
d="M400 600h-200v100h200v-100zM200 600v-100h-100v100h100zM100 200h-100v300h100v-300zM200 100h-100v100h100v-100zM200 0v100h200v-100h-200z" />
    <glyph glyph-name="parenright" unicode=")" horiz-adv-x="500" 
d="M200 700v-100h-200v100h200zM200 600h100v-100h-100v100zM300 500h100v-300h-100v300zM200 100v100h100v-100h-100zM0 100h200v-100h-200v100z" />
    <glyph glyph-name="braceleft" unicode="{" horiz-adv-x="500" 
d="M400 600h-200v100h200v-100zM200 400h-100v200h100v-200zM0 400h100v-100h-100v100zM100 100v200h100v-200h-100zM200 0v100h200v-100h-200z" />
    <glyph glyph-name="braceright" unicode="}" horiz-adv-x="500" 
d="M200 700v-100h-200v100h200zM300 600v-200h-100v200h100zM300 400h100v-100h-100v100zM200 300h100v-200h-100v200zM0 100h200v-100h-200v100z" />
    <glyph glyph-name="bracketleft" unicode="[" horiz-adv-x="400" 
d="M100 100h200v-100h-300v700h300v-100h-200v-500z" />
    <glyph glyph-name="bracketright" unicode="]" horiz-adv-x="400" 
d="M300 700v-700h-300v100h200v500h-200v100h300z" />
    <glyph glyph-name="hyphen" unicode="-" 
d="M500 400v-100h-500v100h500z" />
    <glyph glyph-name="uni00AD" unicode="&#xad;" horiz-adv-x="300" 
d="M200 400v-100h-200v100h200z" />
    <glyph glyph-name="emdash" unicode="&#x2014;" 
d="M500 400v-100h-500v100h500z" />
    <glyph glyph-name="underscore" unicode="_" 
d="M500 0v-100h-500v100h500z" />
    <glyph glyph-name="guillemotleft" unicode="&#xab;" 
d="M200 400v100h100v-100h-100zM400 400v100h100v-100h-100zM100 300v100h100v-100h-100zM300 300v100h100v-100h-100zM0 200v100h100v-100h-100zM200 200v100h100v-100h-100zM100 100v100h100v-100h-100zM300 100v100h100v-100h-100zM200 0v100h100v-100h-100zM400 0v100
h100v-100h-100z" />
    <glyph glyph-name="guillemotright" unicode="&#xbb;" 
d="M0 400v100h100v-100h-100zM200 400v100h100v-100h-100zM100 300v100h100v-100h-100zM300 300v100h100v-100h-100zM200 200v100h100v-100h-100zM400 200v100h100v-100h-100zM100 100v100h100v-100h-100zM300 100v100h100v-100h-100zM0 0v100h100v-100h-100zM200 0v100h100
v-100h-100z" />
    <glyph glyph-name="quotedbl" unicode="&#x22;" horiz-adv-x="500" 
d="M200 700v-200h-100v200h100zM300 700h100v-200h-100v200zM0 400v100h100v-100h-100zM200 400v100h100v-100h-100z" />
    <glyph glyph-name="quotesingle" unicode="'" horiz-adv-x="300" 
d="M100 700h100v-200h-100v200zM0 400v100h100v-100h-100z" />
    <glyph glyph-name="space" unicode=" " horiz-adv-x="400" 
 />
    <glyph glyph-name="cent" unicode="&#xa2;" horiz-adv-x="500" 
d="M100 300v100h100v100h100v-100h100v-100h-300zM0 300h100v-100h-100v100zM200 100h-100v100h300v-100h-100v-100h-100v100z" />
    <glyph glyph-name="currency" unicode="&#xa4;" horiz-adv-x="400" 
d="M0 400v100h100v-100h-100zM200 400v100h100v-100h-100zM100 300v100h100v-100h-100zM0 200v100h100v-100h-100zM200 200v100h100v-100h-100z" />
    <glyph glyph-name="dollar" unicode="$" 
d="M100 500v100h100v100h100v-100h200v-100h-400zM0 500h100v-100h-100v100zM100 300v100h300v-100h-300zM500 200h-100v100h100v-100zM400 200v-100h-100v-100h-100v100h-200v100h400z" />
    <glyph glyph-name="florin" unicode="&#x192;" 
d="M300 700h100v-100h-100v100zM200 600h100v-200h100v-100h-100v-200h-100v200h-100v100h100v200zM400 600h100v-100h-100v100zM0 200h100v-100h-100v100zM100 0v100h100v-100h-100z" />
    <glyph glyph-name="sterling" unicode="&#xa3;" 
d="M400 700v-100h-200v100h200zM100 600h100v-200h200v-100h-200v-200h300v-100h-500v100h100v200h-100v100h100v200zM500 500h-100v100h100v-100z" />
    <glyph glyph-name="plus" unicode="+" 
d="M500 400v-100h-200v-200h-100v200h-200v100h200v200h100v-200h200z" />
    <glyph glyph-name="divide" unicode="&#xf7;" 
d="M300 600v-100h-100v100h100zM500 400v-100h-500v100h500zM200 100v100h100v-100h-100z" />
    <glyph glyph-name="equal" unicode="=" 
d="M500 500v-100h-500v100h500zM500 200v-100h-500v100h500z" />
    <glyph glyph-name="greater" unicode="&#x3e;" horiz-adv-x="500" 
d="M0 600v100h100v-100h-100zM100 500v100h100v-100h-100zM200 400v100h100v-100h-100zM300 300v100h100v-100h-100zM200 200v100h100v-100h-100zM100 100v100h100v-100h-100zM0 0v100h100v-100h-100z" />
    <glyph glyph-name="less" unicode="&#x3c;" horiz-adv-x="500" 
d="M300 600v100h100v-100h-100zM200 500v100h100v-100h-100zM100 400v100h100v-100h-100zM0 300v100h100v-100h-100zM100 200v100h100v-100h-100zM200 100v100h100v-100h-100zM300 0v100h100v-100h-100z" />
    <glyph glyph-name="plusminus" unicode="&#xb1;" 
d="M500 500v-100h-200v-200h-100v200h-200v100h200v200h100v-200h200zM500 100v-100h-500v100h500z" />
    <glyph glyph-name="approxequal" unicode="&#x2248;" horiz-adv-x="800" 
d="M700 600v-100h-100v-100h-300v100h-100v-100h-200v100h100v100h300v-100h100v100h200zM500 300h200v-100h-100v-100h-300v100h-100v-100h-200v100h100v100h300v-100h100v100z" />
    <glyph glyph-name="asciitilde" unicode="~" horiz-adv-x="700" 
d="M300 700v-100h-200v100h200zM500 700h100v-100h-100v100zM0 500v100h100v-100h-100zM300 600h200v-100h-200v100z" />
    <glyph glyph-name="logicalnot" unicode="&#xac;" 
d="M500 300v-200h-100v100h-400v100h500z" />
    <glyph glyph-name="infinity" unicode="&#x221e;" horiz-adv-x="800" 
d="M300 400h-200v100h200v-100zM600 400h-200v100h200v-100zM100 400v-200h-100v200h100zM400 400v-200h-100v200h100zM600 400h100v-200h-100v200zM100 200h200v-100h-200v100zM400 200h200v-100h-200v100z" />
    <glyph glyph-name="summation" unicode="&#x2211;" 
d="M500 700v-200h-100v100h-300v-100h-100v200h500zM200 400h-100v100h100v-100zM300 300h-100v100h100v-100zM100 200v100h100v-100h-100zM0 200h100v-100h300v100h100v-200h-500v200z" />
    <glyph glyph-name="radical" unicode="&#x221a;" horiz-adv-x="900" 
d="M800 700v-100h-200v-600h-300v100h-100v100h-100v100h-100v100h300v-200h100v500h400z" />
    <glyph glyph-name="percent" unicode="%" 
d="M100 500h-100v200h100v-200zM400 700h100v-100h-100v100zM300 600h100v-200h-100v200zM200 300v100h100v-100h-100zM100 300h100v-200h-100v200zM400 200h100v-200h-100v200zM0 0v100h100v-100h-100z" />
    <glyph glyph-name="smileface" unicode="&#x263a;" horiz-adv-x="900" 
d="M100 600v100h600v-100h-600zM100 0h-100v600h100v-600zM700 600h100v-600h-100v600zM300 500v-100h-100v100h100zM500 400v100h100v-100h-100zM600 300v-100h-100v-100h-200v100h-100v100h400zM700 0v-100h-600v100h600z" />
    <glyph glyph-name="invsmileface" unicode="&#x263b;" horiz-adv-x="900" 
d="M700 600h100v-600h-100v-100h-600v100h-100v600h100v100h600v-100zM200 500v-100h100v100h-100zM600 400v100h-100v-100h100zM600 200v100h-400v-100h100v-100h200v100h100z" />
    <glyph glyph-name="sun" unicode="&#x263c;" horiz-adv-x="900" 
d="M0 700h100v-100h-100v100zM500 500h100v-100h200v-200h-200v-100h-100v-200h-200v200h-100v100h-200v200h200v100h100v200h200v-200zM800 700v-100h-100v100h100zM100 600h100v-100h-100v100zM700 600v-100h-100v100h100zM500 400h-200v-200h200v200zM100 0v100h100v-100
h-100zM700 0h-100v100h100v-100zM0 -100v100h100v-100h-100zM800 -100h-100v100h100v-100z" />
    <glyph glyph-name="female" unicode="&#x2640;" 
d="M100 600v100h300v-100h-300zM100 300h-100v300h100v-300zM400 600h100v-300h-100v300zM400 300v-100h-100v-100h100v-100h-100v-100h-100v100h-100v100h100v100h-100v100h300z" />
    <glyph glyph-name="male" unicode="&#x2642;" horiz-adv-x="800" 
d="M700 700v-300h-100v100h-100v100h-100v100h300zM400 400v100h100v-100h-100zM400 400v-100h-300v100h300zM100 0h-100v300h100v-300zM400 300h100v-300h-100v300zM400 0v-100h-300v100h300z" />
    <glyph glyph-name="spade" unicode="&#x2660;" horiz-adv-x="800" 
d="M600 300h100v-100h-100v-100h-100v-100h100v-100h-500v100h100v100h-100v100h-100v100h100v100h100v100h100v200h100v-200h100v-100h100v-100z" />
    <glyph glyph-name="club" unicode="&#x2663;" horiz-adv-x="800" 
d="M700 400v-200h-100v-100h-100v-100h100v-100h-500v100h100v100h-100v100h-100v200h200v100h-100v100h100v100h300v-100h100v-100h-100v-100h200z" />
    <glyph glyph-name="heart" unicode="&#x2665;" horiz-adv-x="800" 
d="M600 600h100v-300h-100v-100h-100v-100h-100v-100h-100v100h-100v100h-100v100h-100v300h100v100h200v-100h100v100h200v-100z" />
    <glyph glyph-name="diamond" unicode="&#x2666;" horiz-adv-x="800" 
d="M600 400h100v-100h-100v-100h-100v-100h-100v-100h-100v100h-100v100h-100v100h-100v100h100v100h100v100h100v100h100v-100h100v-100h100v-100z" />
    <glyph glyph-name="at" unicode="@" horiz-adv-x="700" 
d="M500 700v-100h-400v100h400zM0 600h100v-500h-100v500zM500 600h100v-400h-400v300h200v-200h100v300zM100 0v100h400v-100h-400z" />
    <glyph glyph-name="ampersand" unicode="&#x26;" 
d="M300 700v-100h-100v100h100zM100 600h100v-100h-100v100zM400 500h-100v100h100v-100zM400 300v-200h-100v100h-100v100h-100v100h100v100h100v-200h100zM500 400v-100h-100v100h100zM100 300v-200h-100v200h100zM100 100h200v-100h-200v100zM500 0h-100v100h100v-100z
" />
    <glyph glyph-name="paragraph" unicode="&#xb6;" horiz-adv-x="700" 
d="M600 700v-700h-100v600h-100v-600h-100v300h-200v100h200v200h-200v100h500zM100 600v-200h-100v200h100z" />
    <glyph glyph-name="section" unicode="&#xa7;" 
d="M100 600v100h400v-100h-400zM0 600h100v-100h-100v100zM100 400v100h300v-100h-300zM0 400h100v-100h-100v100zM500 300h-100v100h100v-100zM400 300v-100h-300v100h300zM500 100h-100v100h100v-100zM400 100v-100h-400v100h400z" />
    <glyph glyph-name="registered" unicode="&#xae;" horiz-adv-x="700" 
d="M200 400h-100v100h400v-100h-100v-100h-100v-100h-100v200zM400 200v-100h100v-100h-400v100h-100v300h100v-200h100v-100h100v100h100zM500 400h100v-300h-100v300z" />
    <glyph glyph-name="bar" unicode="|" horiz-adv-x="200" 
d="M0 700h100v-300h-100v300zM0 300h100v-300h-100v300z" />
    <glyph glyph-name="asciicircum" unicode="^" 
d="M200 600v100h100v-100h-100zM100 500v100h100v-100h-100zM300 500v100h100v-100h-100zM0 400v100h100v-100h-100zM400 400v100h100v-100h-100z" />
    <glyph glyph-name="house" unicode="&#x2302;" 
d="M300 500v-100h-100v100h100zM200 400v-100h-100v100h100zM400 300h-100v100h100v-100zM400 300h100v-300h-500v300h100v-200h300v200z" />
    <glyph glyph-name="cedilla" unicode="&#xb8;" horiz-adv-x="400" 
d="M200 0h100v-100h-100v100zM0 -100h200v-100h-200v100z" />
  </font>
</defs>
</svg>
