<?xml version="1.0" standalone="no"?>
<!DOCTYPE svg PUBLIC "-//W3C//DTD SVG 1.1//EN" "http://www.w3.org/Graphics/SVG/1.1/DTD/svg11.dtd" >
<svg>
<metadata>
Created by FontForge 20090622 at Tue May 26 13:56:30 2015
 By deploy user
Copyright (c) 2009 by Jan Schmoeger/Paragraph. All rights reserved.
</metadata>
<defs>
<font id="Springsteel-Light" horiz-adv-x="490" >
  <font-face 
    font-family="Springsteel Lig"
    font-weight="300"
    font-stretch="normal"
    units-per-em="1000"
    panose-1="2 11 3 4 4 5 7 6 0 3"
    ascent="750"
    descent="-250"
    x-height="500"
    cap-height="700"
    bbox="-120 -250 969 940"
    underline-thickness="50"
    underline-position="-50"
    unicode-range="U+0020-U+FB04"
  />
<missing-glyph horiz-adv-x="590" 
d="M50 0v700h490v-700h-490zM315 350l185 -292v585zM275 350l-185 293v-585zM112 670l183 -291l184 291h-367zM295 322l-183 -292h367z" />
    <glyph glyph-name="f_f" unicode="ff" horiz-adv-x="520" 
d="M8 470v30q50 10 115 10q0 123 34.5 176.5t140.5 53.5v-35q-74 0 -99.5 -40.5t-25.5 -154.5h165q0 125 35 182.5t140 57.5v-35q-73 0 -99 -45t-26 -160q33 0 64.5 -2.5t45.5 -5.5l15 -2v-30h-125v-470h-40q-10 197 -10 357v113h-165v-470h-40q-10 197 -10 357v113h-115z
" />
    <glyph glyph-name="fi" unicode="fi" horiz-adv-x="441" 
d="M378 0h-40q-10 200 -10 360q0 88 1 110h-156v-470h-40q-10 197 -10 357v113h-115v30q50 10 115 10q0 125 35 182.5t140 57.5q22 0 42 -2.5t29 -5.5l9 -2v-30q-35 5 -80 5q-73 0 -99 -45t-26 -160q47 0 98 -2.5t79 -5.5l28 -2v-500z" />
    <glyph glyph-name="fl" unicode="fl" horiz-adv-x="461" 
d="M356 715h-58q-73 0 -99 -45t-26 -160q29 0 57.5 -2.5t43.5 -5.5l14 -2v-30h-115v-470h-40q-10 197 -10 357v113h-115v30q50 10 115 10q0 125 35 182.5t140 57.5h105q-5 -220 -5 -390v-360h-40q-10 200 -10 360q0 166 8 355z" />
    <glyph glyph-name="f_f_i" unicode="ffi" horiz-adv-x="656" 
d="M593 0h-40q-10 200 -10 360q0 88 1 110h-156v-470h-40q-10 197 -10 357v113h-165v-470h-40q-10 197 -10 357v113h-115v30q50 10 115 10q0 123 34.5 176.5t140.5 53.5v-35q-74 0 -99.5 -40.5t-25.5 -154.5h165q0 125 35 182.5t140 57.5q22 0 42 -2.5t29 -5.5l9 -2v-30
q-35 5 -80 5q-73 0 -99 -45t-26 -160q47 0 98 -2.5t79 -5.5l28 -2v-500z" />
    <glyph glyph-name="f_f_l" unicode="ffl" horiz-adv-x="676" 
d="M571 715h-58q-73 0 -99 -45t-26 -160q29 0 57.5 -2.5t42.5 -5.5l15 -2v-30h-115v-470h-40q-10 197 -10 357v113h-165v-470h-40q-10 197 -10 357v113h-115v30q50 10 115 10q0 123 34.5 176.5t140.5 53.5v-35q-74 0 -99.5 -40.5t-25.5 -154.5h165q0 125 35 182.5t140 57.5
h105q-5 -220 -5 -390v-360h-40q-10 200 -10 360q0 166 8 355z" />
    <glyph glyph-name="f_f_j" unicode="ffj" horiz-adv-x="658" 
d="M593 500v-150q0 -89 2.5 -216.5t2.5 -133.5q0 -63 -6 -105.5t-17 -69.5t-32.5 -41t-46 -19t-63.5 -5v35q26 0 40 2t32 12.5t26.5 31.5t15 61t6.5 98q0 5 -5 135t-5 225q0 88 1 110h-156v-470h-40q-10 197 -10 357v113h-165v-470h-40q-10 197 -10 357v113h-115v30
q50 10 115 10q0 123 34.5 176.5t140.5 53.5v-35q-74 0 -99.5 -40.5t-25.5 -154.5h165q0 125 35 182.5t140 57.5q22 0 42 -2.5t29 -5.5l9 -2v-30q-35 5 -80 5q-73 0 -99 -45t-26 -160q47 0 98 -2.5t79 -5.5z" />
    <glyph glyph-name="f_j" unicode="fj" horiz-adv-x="442" 
d="M378 500v-150q0 -89 2.5 -216.5t2.5 -133.5q0 -63 -6 -105.5t-17 -69.5t-32.5 -41t-46 -19t-63.5 -5v35q26 0 40 2t32 12.5t26.5 31.5t15 61t6.5 98q0 5 -5 135t-5 225q0 88 1 110h-156v-470h-40q-10 197 -10 357v113h-115v30q50 10 115 10q0 125 35 182.5t140 57.5
q22 0 42 -2.5t29 -5.5l9 -2v-30q-35 5 -80 5q-73 0 -99 -45t-26 -160q47 0 98 -2.5t79 -5.5z" />
    <glyph glyph-name=".notdef" horiz-adv-x="590" 
d="M50 0v700h490v-700h-490zM315 350l185 -292v585zM275 350l-185 293v-585zM112 670l183 -291l184 291h-367zM295 322l-183 -292h367z" />
    <glyph glyph-name=".null" horiz-adv-x="0" 
 />
    <glyph glyph-name="nonmarkingreturn" horiz-adv-x="333" 
 />
    <glyph glyph-name="space" unicode=" " horiz-adv-x="250" 
 />
    <glyph glyph-name="exclam" unicode="!" horiz-adv-x="222" 
d="M135 150h-50v200q0 71 2.5 158.5t4.5 139.5l3 52h45q-5 -190 -5 -350v-200zM75 30q0 15 10 25t25 10t25 -10t10 -25t-10 -25t-25 -10t-25 10t-10 25z" />
    <glyph glyph-name="quotedbl" unicode="&#x22;" horiz-adv-x="281" 
d="M183 700h45q-5 -110 -5 -190h-50q0 36 2.5 83.5t4.5 76.5zM63 700h45q-5 -110 -5 -190h-50q0 36 2.5 83.5t4.5 76.5z" />
    <glyph glyph-name="numbersign" unicode="#" horiz-adv-x="696" 
d="M48 450v35h165l10 215h45q-5 -100 -5 -215h170l10 215h45q-5 -100 -5 -215h165v-35h-165v-200h165v-35h-165q0 -123 5 -215h-45q-7 100 -10 215h-170q0 -123 5 -215h-45q-7 100 -10 215h-165v35h165v200h-165zM263 250h170v200h-170v-200z" />
    <glyph glyph-name="dollar" unicode="$" horiz-adv-x="523" 
d="M264 350q124 -15 172 -54t48 -116q0 -180 -200 -190l-5 -90h-40q5 45 5 90q-56 2 -103.5 14.5t-66.5 23.5l-20 12v40q9 -6 26 -14t71.5 -22t112.5 -14q55 0 91.5 12.5t52.5 36.5t21 46.5t5 54.5q0 55 -34.5 81.5t-135.5 38.5q-122 14 -171 57.5t-49 122.5q0 37 9 67.5
t30.5 59t62.5 45t98 18.5l5 80h40q-5 -40 -5 -80q47 -2 89.5 -14.5t61.5 -23.5l19 -12v-35q-8 5 -23 12.5t-64.5 20t-102.5 12.5q-45 0 -77 -9.5t-50 -23t-28 -35t-12.5 -39.5t-2.5 -43q0 -57 35.5 -87.5t134.5 -42.5z" />
    <glyph glyph-name="percent" unicode="%" horiz-adv-x="522" 
d="M101 0h-50l370 700h50zM31 590q0 57 35.5 88.5t84.5 31.5t84.5 -31.5t35.5 -88.5t-35.5 -88.5t-84.5 -31.5t-84.5 31.5t-35.5 88.5zM71 590q0 -37 22.5 -58.5t57.5 -21.5t57.5 21.5t22.5 58.5t-22.5 58.5t-57.5 21.5t-57.5 -21.5t-22.5 -58.5zM251 110q0 57 35.5 88.5
t84.5 31.5t84.5 -31.5t35.5 -88.5t-35.5 -88.5t-84.5 -31.5t-84.5 31.5t-35.5 88.5zM291 110q0 -37 22.5 -58.5t57.5 -21.5t57.5 21.5t22.5 58.5t-22.5 58.5t-57.5 21.5t-57.5 -21.5t-22.5 -58.5z" />
    <glyph glyph-name="ampersand" unicode="&#x26;" horiz-adv-x="637" 
d="M525 350h50q-9 -52 -15 -80.5t-20 -74t-33 -77.5l118 -118h-65l-79 79q-72 -89 -201 -89q-70 0 -120 18.5t-76 50t-37.5 66.5t-11.5 75q0 75 38 117t105 67q-83 87 -83 156q0 78 44.5 124t140.5 46q185 0 185 -160q0 -74 -55 -116.5t-149 -70.5l212 -212q33 68 52 199z
M280 30q110 0 169 81l-237 238q-60 -21 -93.5 -55.5t-33.5 -93.5q0 -33 6 -58t24.5 -53t60 -43.5t104.5 -15.5zM145 540q0 -60 80 -140l20 5q40 11 65.5 21t52 26.5t39.5 41t13 56.5q0 57 -30.5 88.5t-104.5 31.5q-135 0 -135 -130z" />
    <glyph glyph-name="quotesingle" unicode="'" horiz-adv-x="161" 
d="M63 700h45q-5 -110 -5 -190h-50q0 36 2.5 83.5t4.5 76.5z" />
    <glyph glyph-name="parenleft" unicode="(" horiz-adv-x="239" 
d="M100 300q0 -90 12.5 -169t30 -128.5t35 -85.5t30.5 -51l12 -16h-40q-5 5 -14 16t-31.5 50.5t-39.5 86.5t-31 127t-14 170t13.5 169t32.5 128.5t38 85.5t32 51l14 16h40q-5 -5 -13 -16t-28.5 -50.5t-36.5 -86.5t-29 -127t-13 -170z" />
    <glyph glyph-name="parenright" unicode=")" horiz-adv-x="239" 
d="M139 300q0 90 -12.5 169t-30 128.5t-35 85.5t-29.5 51l-13 16h40q5 -5 14 -16t31.5 -50.5t39.5 -86.5t31 -127t14 -170t-13.5 -169t-32.5 -128.5t-38 -85.5t-33 -51l-13 -16h-40q5 5 13 16t28.5 50.5t36.5 86.5t29 127t13 170z" />
    <glyph glyph-name="asterisk" unicode="*" horiz-adv-x="396" 
d="M38 557v20q53 6 122 11l-51 112l18 10l71 -100q16 26 33.5 51l26.5 37l10 12l18 -10l-51 -112l123 -11v-20q-53 -8 -124 -13l53 -110l-18 -10q-33 43 -71 100l-72 -100l-18 10q20 51 51 110z" />
    <glyph glyph-name="plus" unicode="+" horiz-adv-x="600" 
d="M50 285v40h225l5 235h45v-235h225v-40h-225v-235h-45q-5 88 -5 235h-225z" />
    <glyph glyph-name="comma" unicode="," horiz-adv-x="169" 
d="M90 -140h-40q10 120 10 200h50q0 -36 -5 -86t-10 -82z" />
    <glyph glyph-name="hyphen" unicode="-" horiz-adv-x="344" 
d="M52 285v40h240v-40h-240z" />
    <glyph glyph-name="period" unicode="." horiz-adv-x="176" 
d="M53 30q0 14 10.5 24.5t24.5 10.5t24.5 -10.5t10.5 -24.5t-10.5 -24.5t-24.5 -10.5t-24.5 10.5t-10.5 24.5z" />
    <glyph glyph-name="slash" unicode="/" horiz-adv-x="287" 
d="M54 -80h-50l224 830h50z" />
    <glyph glyph-name="zero" unicode="0" horiz-adv-x="620" 
d="M60 350q0 45 0.5 69t5.5 68t14 70t27 58.5t44 50.5t66.5 31t92.5 13t92.5 -13t66.5 -31t44 -50.5t27 -58.5t14 -70t5.5 -68t0.5 -69t-0.5 -69t-5.5 -68t-14 -70t-27 -58.5t-44 -50.5t-66.5 -31t-92.5 -13t-92.5 13t-66.5 31t-44 50.5t-27 58.5t-14 70t-5.5 68t-0.5 69z
M110 350v-56t2 -52t5.5 -50.5t10 -44t16.5 -40.5t25 -31t35 -25.5t46.5 -14.5t59.5 -6t59.5 6t46.5 14.5t35 25.5t25 31t16.5 40.5t10 44t5.5 50.5t2 52v56v55.5t-2 52t-5.5 51t-10 43.5t-16.5 40.5t-25 31.5t-35 25.5t-46.5 14.5t-59.5 6t-59.5 -6t-46.5 -14.5t-35 -25.5
t-25 -31.5t-16.5 -40.5t-10 -43.5t-5.5 -51t-2 -52v-55.5z" />
    <glyph glyph-name="one" unicode="1" horiz-adv-x="267" 
d="M27 615v35q31 0 61 12.5t44 25.5l15 12h40q-5 -200 -5 -350l5 -350h-40q-10 200 -10 350q0 149 6 293q-51 -28 -116 -28z" />
    <glyph glyph-name="two" unicode="2" horiz-adv-x="546" 
d="M61 0q-10 65 -10 170q0 85 46 126.5t174 63.5q108 19 144 59t36 111q0 32 -6 53.5t-24.5 43t-59.5 32.5t-105 11q-47 0 -93 -11t-69 -23l-23 -11v35q8 6 22.5 14t63 22t99.5 14q138 0 191.5 -48t53.5 -132q0 -87 -54 -141.5t-186 -77.5q-55 -10 -88 -22t-48.5 -31.5
t-19.5 -37.5t-4 -50v-140h160l220 5v-35q-101 -10 -220 -10q-44 0 -94 2.5t-78 5.5z" />
    <glyph glyph-name="three" unicode="3" horiz-adv-x="551" 
d="M171 335v35h90q180 0 180 154q0 31 -7 54t-26.5 45.5t-60 34.5t-101.5 12q-51 0 -97.5 -11t-66.5 -23l-21 -11v35q8 6 22.5 14t63 22t99.5 14q245 0 245 -186q0 -119 -110 -174q59 -29 84.5 -69.5t25.5 -100.5q0 -190 -245 -190q-56 0 -107 12.5t-75 25.5l-23 12v40
q9 -6 25.5 -14t70 -22t109.5 -14q61 0 102 12.5t60 36t26 47t7 54.5q0 140 -180 150z" />
    <glyph glyph-name="four" unicode="4" horiz-adv-x="577" 
d="M548 285h-100l4 -285h-44q-7 143 -11 285h-367l16 77q15 70 38 154.5t38 133.5l16 50h45q-63 -203 -95 -374h310q0 80 2.5 173.5t5.5 146.5l2 54h44q-4 -194 -4 -374h100v-41z" />
    <glyph glyph-name="five" unicode="5" horiz-adv-x="553" 
d="M74 700q87 10 195 10q48 0 96.5 -2.5t73.5 -5.5l25 -2v-35q-87 5 -195 5h-155v-290q70 5 165 5q120 0 177.5 -51.5t57.5 -138.5q0 -40 -11.5 -74t-37.5 -65t-76 -48.5t-120 -17.5q-56 0 -107 12.5t-74 25.5l-24 12v40q9 -6 25.5 -14t70 -22t109.5 -14q51 0 88 10.5
t57 26.5t32 39.5t15 43.5t3 45q0 150 -185 150h-215q0 69 2.5 157.5t5.5 143.5z" />
    <glyph glyph-name="six" unicode="6" horiz-adv-x="579" 
d="M309 -10q-41 0 -74.5 8t-58 19.5t-43.5 33t-31 40t-21 48.5t-13 50.5t-6 55t-2.5 53t-0.5 52.5q0 44 1 74t6.5 71t15 68.5t28 57.5t44.5 48t65.5 29.5t89.5 11.5q49 0 94 -9t65 -17l21 -9v-35q-70 30 -180 30q-39 0 -70 -8.5t-51.5 -22.5t-35.5 -36.5t-23 -45t-13 -55
t-6 -59t-1 -63.5q100 5 200 5q230 0 230 -195q0 -38 -10.5 -70.5t-34.5 -63t-71.5 -48.5t-113.5 -18zM309 30q53 0 90.5 14.5t56 39.5t26 50.5t7.5 55.5q0 155 -180 155h-200q0 -44 0.5 -70t4.5 -63.5t12 -60t22.5 -48.5t35.5 -40t52.5 -23.5t72.5 -9.5z" />
    <glyph glyph-name="seven" unicode="7" horiz-adv-x="538" 
d="M450 670h-190l-220 -5v35q110 10 220 10q49 0 114 -2.5t106 -5.5l40 -2l-218 -370q-36 -62 -78 -144.5t-66 -133.5l-25 -52h-53q112 230 192 370z" />
    <glyph glyph-name="eight" unicode="8" horiz-adv-x="610" 
d="M305 -10q-250 0 -250 190q0 121 130 167q-120 44 -120 183q0 78 54.5 129t185.5 51t185.5 -51t54.5 -129q0 -65 -27.5 -107.5t-92.5 -69.5q130 -40 130 -173q0 -190 -250 -190zM275 331q-170 -22 -170 -151q0 -150 200 -150t200 150q0 140 -210 150zM333 369
q49 6 82.5 22t50 39.5t23 47t6.5 52.5q0 61 -43.5 100.5t-146.5 39.5t-146.5 -39.5t-43.5 -100.5q0 -74 43.5 -114t156.5 -46z" />
    <glyph glyph-name="nine" unicode="9" horiz-adv-x="579" 
d="M275 710q75 0 124.5 -23t75.5 -72t35.5 -110.5t9.5 -154.5q0 -44 -1.5 -74.5t-6.5 -71t-15 -68.5t-28 -57.5t-43.5 -47.5t-63.5 -29.5t-87 -11.5q-51 0 -97.5 10t-67.5 20l-20 10v35q70 -35 185 -35q45 0 79.5 11.5t55 35t33.5 47.5t18.5 60.5t7 62t1.5 63.5
q-100 -5 -200 -5q-118 0 -174 54.5t-56 140.5q0 38 10 71.5t34 66.5t73 52.5t118 19.5zM275 670q-47 0 -82 -11.5t-54.5 -28t-31 -41t-14.5 -45t-3 -44.5q0 -68 41.5 -111.5t138.5 -43.5h200q0 54 -1.5 88.5t-7.5 76.5t-19 67t-34 48.5t-54.5 34t-78.5 10.5z" />
    <glyph glyph-name="colon" unicode=":" horiz-adv-x="228" 
d="M79 30q0 15 10 25t25 10t25 -10t10 -25t-10 -25t-25 -10t-25 10t-10 25zM79 355q0 15 10 25t25 10t25 -10t10 -25t-10 -25t-25 -10t-25 10t-10 25z" />
    <glyph glyph-name="semicolon" unicode=";" horiz-adv-x="225" 
d="M78 355q0 15 10 25t25 10t25 -10t10 -25t-10 -25t-25 -10t-25 10t-10 25zM118 -140h-40q10 120 10 200h50q0 -36 -5 -86t-10 -82z" />
    <glyph glyph-name="less" unicode="&#x3c;" horiz-adv-x="600" 
d="M85 270q155 -94 255 -144l190 -91v-45q-131 59 -190 90l-147 80l-105 60l-33 20q-5 10 -5 30l5 30q115 70 285 160l190 90v-45l-190 -91q-44 -22 -108 -58l-106 -61z" />
    <glyph glyph-name="equal" unicode="=" horiz-adv-x="600" 
d="M50 200v40h500v-40h-500zM50 370v40h500v-40h-500z" />
    <glyph glyph-name="greater" unicode="&#x3e;" horiz-adv-x="600" 
d="M514 270q-155 94 -255 144l-190 91v45q131 -59 190 -90l147 -80t104 -60l34 -20q5 -10 5 -30l-5 -30q-115 -70 -285 -160l-190 -90v45l190 91q44 22 108 58l105 61z" />
    <glyph glyph-name="question" unicode="?" horiz-adv-x="487" 
d="M136 150v30q0 34 4 57t17 50t42.5 48t76.5 35q76 24 103 59.5t27 90.5q0 66 -41.5 108t-153.5 42q-51 0 -97.5 -11t-67.5 -23l-20 -11v35q8 6 22.5 14t63 22t99.5 14q245 0 245 -190q0 -74 -37.5 -119.5t-132.5 -74.5q-63 -19 -81.5 -50t-18.5 -96v-30h-50zM126 30
q0 15 10 25t25 10t25 -10t10 -25t-10 -25t-25 -10t-25 10t-10 25z" />
    <glyph glyph-name="at" unicode="@" horiz-adv-x="792" 
d="M520 190h17q77 0 118.5 55t41.5 165q0 122 -84 191t-216 69q-142 0 -221 -77t-79 -243q0 -173 78 -246.5t222 -73.5q93 0 170.5 6t108.5 12l31 7v-35q-90 -30 -310 -30q-173 0 -261.5 82.5t-88.5 277.5q0 183 90.5 271.5t259.5 88.5q164 0 257 -80.5t93 -219.5
q0 -128 -57.5 -194t-152.5 -66h-140q-75 0 -127.5 47t-52.5 153t52.5 153t127.5 47q31 0 62.5 -2.5t46.5 -5.5l16 -2q5 -126 5 -190q0 -36 -1.5 -76t-3.5 -62zM267 350q0 -160 130 -160h79v320h-79q-130 0 -130 -160z" />
    <glyph glyph-name="A" unicode="A" horiz-adv-x="588" 
d="M69 0q-10 143 -10 270q0 68 3 115t13 110t35 114.5t64 90.5q40 10 115 10q33 0 64.5 -2.5t46.5 -5.5l14 -2q39 -39 64 -90.5t35 -114.5t13 -110t3 -115q0 -56 -2.5 -123.5t-4.5 -106.5l-3 -40h-40v315h-370v-315h-40zM109 355h370q-4 109 -24.5 182t-65.5 133h-190
q-45 -60 -65.5 -133t-24.5 -182z" />
    <glyph glyph-name="B" unicode="B" horiz-adv-x="572" 
d="M284 -10q-56 0 -107 2.5t-75 5.5l-23 2q-10 193 -10 350q0 70 2.5 157.5t4.5 140.5l3 52q72 10 195 10q136 0 190.5 -50.5t54.5 -139.5q0 -69 -41.5 -112t-83.5 -55q42 -11 88.5 -57.5t46.5 -115.5q0 -190 -245 -190zM294 330h-175l7 -300h158q109 0 154 40t45 110
q0 63 -53 106.5t-136 43.5zM274 670h-155v-300h175q77 0 126 43t49 107q0 73 -40.5 111.5t-154.5 38.5z" />
    <glyph glyph-name="C" unicode="C" horiz-adv-x="524" 
d="M301 -10q-62 0 -107.5 18t-73.5 48t-45 77t-23 98.5t-6 118.5q0 62 4.5 109t20.5 97t43 81.5t74.5 52t112.5 20.5q56 0 104.5 -11t69.5 -23l21 -11v-35l-23 11t-65.5 18t-106.5 11q-52 0 -90 -18t-60 -46t-34.5 -72t-16.5 -86t-4 -98t4 -98t16.5 -86t34.5 -72t60 -46
t90 -18q60 0 108.5 10t67.5 20l19 10v-35q-8 -5 -23 -12.5t-65.5 -20t-106.5 -12.5z" />
    <glyph glyph-name="D" unicode="D" horiz-adv-x="584" 
d="M279 -10q-59 0 -109 2.5t-70 5.5l-21 2q-10 193 -10 350q0 70 2.5 157.5t4.5 140.5l3 52q67 10 200 10q51 0 91.5 -12.5t67 -32t46 -50t30 -60t16.5 -68.5t7.5 -69t1.5 -68t-1.5 -67.5t-7.5 -69t-16.5 -68.5t-30 -60t-46 -50.5t-67 -32t-91.5 -12.5zM119 670v-320l4 -320
h156q55 0 94.5 18t61.5 46t34.5 72.5t16 85.5t3.5 98t-3.5 98t-16 85.5t-34.5 72.5t-61.5 46t-94.5 18h-160z" />
    <glyph glyph-name="E" unicode="E" horiz-adv-x="514" 
d="M79 0q-10 192 -10 350q0 70 2.5 157.5t4.5 140.5l3 52q95 10 200 10q47 0 97 -2.5t76 -5.5l27 -2v-35q-94 5 -200 5h-160v-300h320v-40h-320l6 -300h154l200 5v-35q-95 -10 -200 -10q-42 0 -92 2.5t-79 5.5z" />
    <glyph glyph-name="F" unicode="F" horiz-adv-x="500" 
d="M124 0h-45q-10 193 -10 350q0 70 2.5 157.5t4.5 140.5l3 52q95 10 200 10q47 0 97 -2.5t76 -5.5l27 -2v-35q-94 5 -200 5h-160v-300h320v-40h-320z" />
    <glyph glyph-name="G" unicode="G" horiz-adv-x="584" 
d="M326 330v40h210q0 -80 -2.5 -165t-5.5 -130l-2 -45q-90 -40 -220 -40q-52 0 -93 12.5t-68 32t-46.5 50.5t-29 59.5t-15.5 69t-7 68.5t-1 68q0 35 1 59.5t4.5 60t11 61t19.5 55.5t32 50.5t46 38t63 26.5t83 9q58 0 110.5 -12.5t75.5 -25.5l24 -12v-35q-10 5 -28.5 12.5
t-73.5 20t-108 12.5q-55 0 -94.5 -18t-61.5 -46t-34.5 -72.5t-16 -85.5t-3.5 -98t3.5 -98t16 -85.5t34.5 -72.5t61.5 -46t94.5 -18q40 0 85 5t70 10l25 5v280h-160z" />
    <glyph glyph-name="H" unicode="H" horiz-adv-x="617" 
d="M539 0h-40v330h-380l5 -330h-45q-10 200 -10 350q0 67 2.5 154.5t4.5 141.5l3 54h45q-5 -195 -5 -330h380l-5 330h45q10 -200 10 -350q0 -67 -2.5 -154.5t-4.5 -141.5z" />
    <glyph glyph-name="I" unicode="I" horiz-adv-x="193" 
d="M124 0h-45q-10 193 -10 350q0 70 2.5 157.5t4.5 140.5l3 52h45q-5 -193 -5 -350z" />
    <glyph glyph-name="J" unicode="J" horiz-adv-x="247" 
d="M178 350v-190q0 -88 -36.5 -129t-133.5 -41v35q70 0 97.5 32.5t27.5 102.5q0 28 -2.5 89t-2.5 101q0 70 2.5 157.5t5.5 140.5l2 52h45q-5 -193 -5 -350z" />
    <glyph glyph-name="K" unicode="K" horiz-adv-x="531" 
d="M119 350l5 -350h-45q-10 193 -10 350q0 70 2.5 157.5t4.5 140.5l3 52h45q-5 -185 -5 -350zM119 350l128 122q31 29 85.5 86l93.5 100l38 42h65l-266 -275l-80 -75q61 -55 81 -75l265 -275h-65q-146 163 -216 229z" />
    <glyph glyph-name="L" unicode="L" horiz-adv-x="484" 
d="M79 0q-10 193 -10 350q0 70 2.5 157.5t4.5 140.5l3 52h45q-5 -193 -5 -350l5 -320h155l200 5v-35q-95 -10 -200 -10q-46 0 -96 2.5t-77 5.5z" />
    <glyph glyph-name="M" unicode="M" horiz-adv-x="767" 
d="M79 700h63l132 -337l110 -313q86 251 110 313l132 337h63q10 -200 10 -350q0 -67 -2.5 -154.5t-4.5 -141.5l-3 -54h-40v640l-113 -304l-122 -336h-60l-122 336l-113 304v-290l5 -350h-45q-10 200 -10 350q0 67 2.5 154.5t4.5 141.5z" />
    <glyph glyph-name="N" unicode="N" horiz-adv-x="628" 
d="M79 700h60q130 -220 190 -330l72 -126.5l77 -130.5l31 -53v290l-5 350h45q10 -193 10 -350q0 -70 -2.5 -157.5t-4.5 -140.5l-3 -52h-60q-130 220 -190 330l-72 126.5l-77 130.5l-31 53v-290l5 -350h-45q-10 193 -10 350q0 70 2.5 157.5t4.5 140.5z" />
    <glyph glyph-name="O" unicode="O" horiz-adv-x="604" 
d="M47 350q0 40 1 68t6.5 68.5t15.5 69t29 59.5t45.5 50.5t66.5 32t91 12.5t91 -12.5t66.5 -32t45.5 -50.5t29 -59.5t15.5 -69t6.5 -68.5t1 -68t-1 -68t-6.5 -68.5t-15.5 -69t-29 -59.5t-45.5 -50.5t-66.5 -32t-91 -12.5t-91 12.5t-66.5 32t-45.5 50.5t-29 59.5t-15.5 69
t-6.5 68.5t-1 68zM97 350q0 -57 3.5 -98t15.5 -85.5t33.5 -72.5t60 -46t92.5 -18t92.5 18t60 46t33.5 72.5t15.5 85.5t3.5 98t-3.5 98t-15.5 85.5t-33.5 72.5t-60 46t-92.5 18t-92.5 -18t-60 -46t-33.5 -72.5t-15.5 -85.5t-3.5 -98z" />
    <glyph glyph-name="P" unicode="P" horiz-adv-x="542" 
d="M299 710q110 0 165 -52t55 -148q0 -97 -55 -151t-165 -54h-180l5 -305h-45q-10 200 -10 350q0 67 2.5 154.5t4.5 141.5l3 54q100 10 220 10zM299 670h-180v-325h180q82 0 126 43t44 122q0 78 -43.5 119t-126.5 41z" />
    <glyph glyph-name="Q" unicode="Q" horiz-adv-x="604" 
d="M467 -80l-63 86q-45 -16 -102 -16q-51 0 -91 12.5t-66.5 32t-45.5 50.5t-29 59.5t-15.5 69t-6.5 68.5t-1 68t1 68t6.5 68.5t15.5 69t29 59.5t45.5 50.5t66.5 32t91 12.5t91 -12.5t66.5 -32t45.5 -50.5t29 -59.5t15.5 -69t6.5 -68.5t1 -68q0 -54 -3 -92t-13.5 -87.5
t-35 -87t-63.5 -60.5l75 -103h-50zM97 350q0 -57 3.5 -98t15.5 -85.5t33.5 -72.5t60 -46t92.5 -18q41 0 76 11l-71 99h50l59 -81q55 35 73 108t18 183q0 57 -3.5 98t-15.5 85.5t-33.5 72.5t-60 46t-92.5 18t-92.5 -18t-60 -46t-33.5 -72.5t-15.5 -85.5t-3.5 -98z" />
    <glyph glyph-name="R" unicode="R" horiz-adv-x="561" 
d="M549 0h-60l-90 145.5l-80 124.5l-30 45h-170l5 -315h-45q-10 200 -10 350q0 67 2.5 154.5t4.5 141.5l3 54q100 10 220 10q105 0 162.5 -50t57.5 -140q0 -85 -45.5 -139t-134.5 -64q31 -41 58.5 -81t44 -66.5l50 -79.5zM299 670h-180v-315h180q81 0 125.5 44.5t44.5 120.5
q0 74 -45 112t-125 38z" />
    <glyph glyph-name="S" unicode="S" horiz-adv-x="534" 
d="M274 375q125 -9 177.5 -60t52.5 -140q0 -79 -58.5 -132t-181.5 -53q-58 0 -110.5 12.5t-75.5 25.5l-24 12v40q10 -6 28.5 -14t73.5 -22t108 -14q97 0 143.5 42.5t46.5 102.5q0 70 -37 106t-143 44q-126 10 -183 64.5t-57 140.5q0 80 58.5 130t191.5 50q49 0 94 -11
t66 -23l20 -11v-35l-22.5 11t-61.5 18t-96 11q-61 0 -102.5 -11t-61.5 -32.5t-28 -44t-8 -52.5q0 -68 42 -107.5t148 -47.5z" />
    <glyph glyph-name="T" unicode="T" horiz-adv-x="488" 
d="M274 0h-50q-10 200 -10 350q0 202 5 320h-215v30q130 10 240 10q49 0 109 -2.5t95 -5.5l36 -2v-35q-129 5 -220 5v-320q0 -67 2.5 -154.5t5.5 -141.5z" />
    <glyph glyph-name="U" unicode="U" horiz-adv-x="614" 
d="M502 350v350h40q10 -193 10 -350q0 -41 -1 -67.5t-6 -68.5t-14 -69t-27 -59.5t-43.5 -51t-64.5 -31.5t-89 -13t-89 13t-64.5 31.5t-43.5 50.5t-27 59.5t-14 69.5t-6 68.5t-1 67.5q0 70 2.5 157.5t5.5 140.5l2 52h40v-350q0 -44 1.5 -72t6.5 -70.5t18 -69.5t33.5 -54
t55 -40.5t80.5 -13.5q40 0 70.5 9.5t51 24t35 41t22 49.5t11 61t4.5 64.5t1 70.5z" />
    <glyph glyph-name="V" unicode="V" horiz-adv-x="552" 
d="M276 -5l-30 5q-79 202 -130 350l-110 350h52q56 -202 105 -340l113 -315l113 315q22 61 48 146t41 140l16 54h52q-85 -278 -110 -350l-55.5 -153.5l-53.5 -142.5l-21 -54q-15 -5 -30 -5z" />
    <glyph glyph-name="W" unicode="W" horiz-adv-x="978" 
d="M259 -5l-30 5q-73 201 -120 350l-100 350h52q52 -211 98 -350l100 -305l100 305q20 62 45 149.5t40 144.5l15 56q15 5 30 5l30 -5q54 -211 100 -350l100 -305l100 305q20 62 44.5 149.5t38.5 144.5l15 56h52q-77 -277 -100 -350l-51 -153.5l-50 -142.5l-19 -54
q-15 -5 -30 -5l-30 5q-73 201 -120 350q-18 54 -80 280l-27 -96l-32 -113t-21 -71l-51 -153.5l-50 -142.5l-19 -54q-15 -5 -30 -5z" />
    <glyph glyph-name="X" unicode="X" horiz-adv-x="508" 
d="M14 700h55q91 -166 185 -302q41 60 87.5 135.5l72.5 120.5l25 46h55q-115 -202 -211 -343q44 -63 99 -152t88 -147l34 -58h-55q-98 177 -195 316q-43 -62 -92 -141t-76 -127l-27 -48h-55q122 216 221 357q-43 63 -96 148.5t-84 140.5z" />
    <glyph glyph-name="Y" unicode="Y" horiz-adv-x="505" 
d="M229 330q-66 91 -137 209.5t-88 160.5h55q20 -46 77 -143t118 -182q61 85 118 182t77 143h55q-17 -42 -88 -160.5t-137 -209.5q0 -65 -2.5 -147.5t-4.5 -132.5l-3 -50h-45q4 183 5 330z" />
    <glyph glyph-name="Z" unicode="Z" horiz-adv-x="504" 
d="M497 700q-16 -37 -94 -163t-136 -207q-119 -169 -190 -300h165l225 5v-35q-110 -10 -225 -10q-47 0 -105.5 2.5t-94.5 5.5l-35 2q16 37 94.5 163.5t135.5 206.5q108 154 190 300h-175l-215 -5v35q98 10 215 10q51 0 112.5 -2.5t97.5 -5.5z" />
    <glyph glyph-name="bracketleft" unicode="[" horiz-adv-x="238" 
d="M121 300l5 -410h115v-40q-31 0 -70 2.5t-62 5.5l-23 2q-15 280 -15 440q0 71 3.5 181t7.5 185l4 74q85 10 155 10v-40h-115q-5 -250 -5 -410z" />
    <glyph glyph-name="backslash" unicode="\" horiz-adv-x="287" 
d="M283 -80h-50l-224 830h50z" />
    <glyph glyph-name="bracketright" unicode="]" horiz-adv-x="237" 
d="M117 300l-5 410h-115v40q31 0 70 -2.5t62 -5.5l23 -2q15 -280 15 -440q0 -71 -3.5 -181t-7.5 -185l-4 -74q-85 -10 -155 -10v40h115q5 250 5 410z" />
    <glyph glyph-name="asciicircum" unicode="^" horiz-adv-x="550" 
d="M275 710q7 0 14.5 -2.5t11.5 -5.5l4 -2q105 -184 195 -380h-45l-180 350l-180 -350h-45q90 196 195 380q15 10 30 10z" />
    <glyph glyph-name="underscore" unicode="_" horiz-adv-x="500" 
d="M0 -110v40h500v-40h-500z" />
    <glyph glyph-name="grave" unicode="`" horiz-adv-x="250" 
d="M210 585l-25 -25q-85 65 -145 125l30 30l62 -59.5l56 -51.5z" />
    <glyph glyph-name="a" unicode="a" horiz-adv-x="463" 
d="M68 490q70 20 155 20q50 0 85.5 -15.5t54.5 -37.5t29.5 -60t13 -69t2.5 -78q0 -48 -2.5 -110.5t-5.5 -101.5l-2 -38q-62 -10 -175 -10q-61 0 -103.5 16t-60.5 41.5t-24.5 46t-6.5 41.5q0 22 6.5 43t24.5 46t60.5 40.5t103.5 15.5q24 0 58 -2.5t55 -5.5l22 -2
q0 108 -29 154t-106 46q-38 0 -76.5 -4t-58.5 -8l-20 -3v35zM358 30v210h-135q-85 0 -115 -29.5t-30 -75.5q0 -47 30 -76t115 -29h135z" />
    <glyph glyph-name="b" unicode="b" 
d="M245 510q205 0 205 -260t-205 -260q-42 0 -86 2.5t-67 5.5l-22 2q-10 200 -10 360q0 71 2.5 168.5t5.5 159.5l2 62h45q-5 -130 -5 -259q61 19 135 19zM110 460v-430h135q49 0 81 17.5t47.5 50.5t21 68t5.5 84t-5.5 84t-21 68t-47.5 50.5t-81 17.5q-73 0 -135 -10z" />
    <glyph glyph-name="c" unicode="c" horiz-adv-x="416" 
d="M245 -10q-205 0 -205 260t210 260q36 0 71 -6t52 -12l17 -7v-35q-60 20 -140 20q-41 0 -70.5 -12.5t-46.5 -31.5t-27 -49t-13 -59.5t-3 -67.5q0 -49 5.5 -84t21 -68t47.5 -50.5t81 -17.5q38 0 74 5t53 10l18 5v-35q-60 -25 -145 -25z" />
    <glyph glyph-name="d" unicode="d" 
d="M245 510q74 0 135 -19l-5 259h45q10 -230 10 -390q0 -71 -2.5 -161t-5.5 -145l-2 -54q-80 -10 -175 -10q-205 0 -205 260t205 260zM380 30v430q-62 10 -135 10q-49 0 -81 -17.5t-47.5 -50.5t-21 -68t-5.5 -84t5.5 -84t21 -68t47.5 -50.5t81 -17.5h135z" />
    <glyph glyph-name="e" unicode="e" horiz-adv-x="462" 
d="M246 510q58 0 98 -16.5t57 -43t23.5 -49t6.5 -46.5q0 -135 -185 -135l-155 10q0 -200 155 -200q38 0 76.5 5t58.5 10l20 5v-35q-60 -25 -155 -25q-205 0 -205 260q0 42 3.5 74t15.5 69t33.5 61t60.5 40t92 16zM246 470q-40 0 -69.5 -13t-45.5 -32t-25.5 -48.5t-12 -55.5
t-2.5 -61h155q135 0 135 95q0 18 -5.5 35.5t-18.5 36.5t-41.5 31t-69.5 12z" />
    <glyph glyph-name="f" unicode="f" horiz-adv-x="305" 
d="M8 470v30q50 10 115 10q0 125 35 182.5t140 57.5v-35q-73 0 -99 -45t-26 -160q33 0 64.5 -2.5t46.5 -5.5l14 -2v-30h-125v-470h-40q-10 197 -10 357v113h-115z" />
    <glyph glyph-name="g" unicode="g" 
d="M220 -250q-27 0 -57 4t-47 8l-16 3v35q60 -10 120 -10q50 0 81.5 12.5t48.5 41t23 65t7 94.5q-85 -13 -130 -13q-210 0 -210 260t210 260q44 0 86.5 -2.5t63.5 -5.5l20 -2q10 -200 10 -350q0 -96 -3.5 -154t-15.5 -111t-35 -79t-61 -41t-95 -15zM250 30l130 5v435h-130
q-50 0 -83.5 -19.5t-49.5 -54t-21.5 -69t-5.5 -77.5t5.5 -77.5t21.5 -69t49.5 -54t83.5 -19.5z" />
    <glyph glyph-name="h" unicode="h" horiz-adv-x="503" 
d="M400 250q0 45 -4.5 78t-19 68.5t-46.5 54.5t-80 19l-140 -5v-465h-40q-10 200 -10 350q0 67 2.5 167t5.5 167l2 66h45q-5 -135 -5 -255q66 15 140 15q53 0 92 -18t59 -44t32 -64.5t14.5 -67.5t2.5 -66l-10 -250h-40v250z" />
    <glyph glyph-name="i" unicode="i" horiz-adv-x="173" 
d="M110 0h-40q-10 200 -10 360l3 140h47v-500zM55 625q0 15 10 25t25 10t25 -10t10 -25t-10 -25t-25 -10t-25 10t-10 25z" />
    <glyph glyph-name="j" unicode="j" horiz-adv-x="175" 
d="M110 500v-150q0 -89 2.5 -216.5t2.5 -133.5q0 -63 -6 -105.5t-17 -69.5t-32.5 -41t-46 -19t-63.5 -5v35q26 0 40 2t32 12.5t26.5 31.5t15 61t6.5 98q0 5 -5 135t-5 225l3 140h47zM55 625q0 15 10 25t25 10t25 -10t10 -25t-10 -25t-25 -10t-25 10t-10 25z" />
    <glyph glyph-name="k" unicode="k" horiz-adv-x="438" 
d="M110 0h-40q-10 200 -10 350q0 67 2.5 167t5.5 167l2 66h45q-5 -250 -5 -400v-350zM110 250l130 120l61.5 59.5l50.5 51.5l18 19h60l-160 -160l-100 -90q80 -70 100 -90l160 -160h-60q-65 70 -130 130z" />
    <glyph glyph-name="l" unicode="l" horiz-adv-x="173" 
d="M110 0h-40q-10 200 -10 360q0 71 2.5 168.5t5.5 159.5l2 62h45q-5 -220 -5 -390v-360z" />
    <glyph glyph-name="m" unicode="m" horiz-adv-x="863" 
d="M110 0h-40q-10 200 -10 360l3 140h32q7 -20 15 -80q26 44 59 67t91 23q136 0 180 -116q52 116 170 116q53 0 91.5 -18t59 -44t32 -64t14.5 -67.5t3 -66.5l-10 -250h-40v250q0 39 -2.5 67.5t-11.5 59t-25 49.5t-44 31.5t-67 12.5q-150 0 -150 -200v-270h-50v250
q0 39 -2.5 67.5t-11.5 59t-25 49.5t-44 31.5t-67 12.5q-150 0 -150 -200v-270z" />
    <glyph glyph-name="n" unicode="n" horiz-adv-x="522" 
d="M110 0h-40q-10 200 -10 360l3 140h32q7 -20 15 -80q26 43 61 66.5t94 23.5q205 0 205 -260l-10 -250h-40v250q0 49 -5.5 84t-21 68t-47.5 50.5t-81 17.5q-83 0 -119 -57t-36 -143v-270z" />
    <glyph glyph-name="o" unicode="o" 
d="M245 470q-49 0 -81 -17.5t-47.5 -50.5t-21 -68t-5.5 -84t5.5 -84t21 -68t47.5 -50.5t81 -17.5t81 17.5t47.5 50.5t21 68t5.5 84t-5.5 84t-21 68t-47.5 50.5t-81 17.5zM245 510q205 0 205 -260t-205 -260t-205 260t205 260z" />
    <glyph glyph-name="p" unicode="p" 
d="M245 -10q-74 0 -135 19l5 -259h-45q-10 230 -10 390q0 71 2.5 161t5.5 145l2 54q80 10 175 10q205 0 205 -260t-205 -260zM110 470v-430q62 -10 135 -10q49 0 81 17.5t47.5 50.5t21 68t5.5 84t-5.5 84t-21 68t-47.5 50.5t-81 17.5h-135z" />
    <glyph glyph-name="q" unicode="q" horiz-adv-x="493" 
d="M245 -10q-205 0 -205 260t205 260q47 0 93 -2.5t69 -5.5l23 -2v-750h-40q-8 130 -10 260q-64 -20 -135 -20zM380 40v430h-135q-49 0 -81 -17.5t-47.5 -50.5t-21 -68t-5.5 -84t5.5 -84t21 -68t47.5 -50.5t81 -17.5q73 0 135 10z" />
    <glyph glyph-name="r" unicode="r" horiz-adv-x="391" 
d="M63 500h32q7 -20 15 -80q26 43 61 66.5t94 23.5q29 0 57.5 -4t43.5 -8l14 -4v-34q-40 10 -115 10q-83 0 -119 -57t-36 -143v-270h-40q-10 200 -10 360z" />
    <glyph glyph-name="s" unicode="s" horiz-adv-x="435" 
d="M220 228q-185 12 -185 145q0 60 45 98.5t140 38.5q42 0 81 -6t57 -12l17 -7v-35q-60 20 -155 20q-135 0 -135 -97q0 -53 30 -74.5t105 -26.5q99 -7 142 -42.5t43 -99.5q0 -61 -46.5 -100.5t-138.5 -39.5q-42 0 -86 9t-66 17l-23 9v35q80 -30 175 -30q135 0 135 100
q0 52 -29.5 72.5t-105.5 25.5z" />
    <glyph glyph-name="t" unicode="t" horiz-adv-x="299" 
d="M-2 470v30q60 10 115 10q0 53 2.5 113t4.5 93l3 34h45q-5 -120 -5 -240q29 0 60 -2.5t48 -5.5l17 -2v-30h-125v-60q0 -68 0.5 -107.5t2.5 -85t5 -68.5t9.5 -49t15 -37t22 -21.5t30.5 -13.5t40 -3v-35q-29 0 -51 5t-39.5 12t-30.5 23.5t-22 32t-15 45.5t-9.5 54.5t-5 70
t-2 81t-0.5 96.5v60h-115z" />
    <glyph glyph-name="u" unicode="u" horiz-adv-x="522" 
d="M412 500h40q10 -200 10 -360l-3 -140h-32q-7 20 -15 80q-26 -43 -61 -66.5t-94 -23.5q-205 0 -205 260l10 250h40v-250q0 -49 5.5 -84t21 -68t47.5 -50.5t81 -17.5q83 0 119 57t36 143v270z" />
    <glyph glyph-name="v" unicode="v" horiz-adv-x="444" 
d="M222 40q77 185 115 308l45 152h50l-47 -153q-24 -74 -57 -161t-54 -136l-22 -50q-15 -5 -30 -5l-30 5q-80 180 -133 347l-47 153h50l45 -152q17 -55 45.5 -132t49.5 -126z" />
    <glyph glyph-name="w" unicode="w" horiz-adv-x="796" 
d="M213 -5l-30 5q-80 190 -128 350l-42 150h50q23 -90 40 -150q14 -50 41.5 -127.5l47.5 -130.5l21 -52q74 190 110 310l45 150q15 5 30 5l30 -5l45 -150q16 -53 43.5 -130.5t47.5 -128.5l19 -51q78 198 110 310l40 150h50q-24 -90 -42 -150q-21 -71 -53 -158.5t-54 -139.5
l-21 -52q-15 -5 -30 -5l-30 5q-85 200 -127 350l-28 100l-28 -100q-19 -67 -50.5 -154.5t-53.5 -141.5l-23 -54q-15 -5 -30 -5z" />
    <glyph glyph-name="x" unicode="x" horiz-adv-x="416" 
d="M234 250q36 -48 78.5 -110.5t66.5 -101.5l24 -38h-54q-68 112 -141 214q-33 -45 -68 -98.5l-54 -84.5l-19 -31h-54q87 141 169 250q-36 48 -78.5 110.5t-66.5 101.5l-24 38h54q67 -113 141 -215l67.5 99l54.5 85l19 31h54q-87 -141 -169 -250z" />
    <glyph glyph-name="y" unicode="y" horiz-adv-x="523" 
d="M413 500h40q10 -190 10 -350q0 -66 -1.5 -111t-7 -90.5t-15 -74t-25.5 -54.5t-40 -40t-56 -22t-75 -8q-27 0 -54.5 4t-41.5 8l-14 3v35q50 -10 110 -10q41 0 66.5 6t47 22.5t33 49.5t17.5 84t6 128q-43 -90 -155 -90q-47 0 -83 11.5t-57.5 34t-35.5 46t-19.5 57t-7.5 57
t-2 54.5l10 250h40v-250q0 -41 2 -68t11 -58.5t25 -50t45.5 -31t71.5 -12.5q155 0 155 201v269z" />
    <glyph glyph-name="z" unicode="z" horiz-adv-x="415" 
d="M79 30h122l180 5v-35q-90 -10 -180 -10q-40 0 -87.5 2.5t-75.5 5.5l-27 2q58 104 182 270l62 86l57 82l21 32h-122l-170 -5v35q80 10 170 10q40 0 87.5 -2.5t75.5 -5.5l27 -2q-58 -104 -182 -270l-62 -86l-57 -82z" />
    <glyph glyph-name="braceleft" unicode="{" horiz-adv-x="257" 
d="M90 300q60 -46 60 -210q0 -129 16.5 -169.5t63.5 -40.5v-30q-45 0 -70.5 15t-42.5 69t-17 156q0 108 -14 149t-46 41h-20v40h20q32 0 46 40t14 150q0 102 17 156t42.5 69t70.5 15v-30q-47 0 -63.5 -40.5t-16.5 -169.5q0 -170 -60 -210z" />
    <glyph glyph-name="bar" unicode="|" horiz-adv-x="195" 
d="M75 -250v1000h45v-1000h-45z" />
    <glyph glyph-name="braceright" unicode="}" horiz-adv-x="257" 
d="M167 300q-60 40 -60 210q0 129 -16.5 169.5t-63.5 40.5v30q45 0 70.5 -15t42.5 -69t17 -156q0 -110 14 -150t46 -40h20v-40h-20q-32 0 -46 -41t-14 -149q0 -102 -17 -156t-42.5 -69t-70.5 -15v30q47 0 63.5 40.5t16.5 169.5q0 164 60 210z" />
    <glyph glyph-name="asciitilde" unicode="~" horiz-adv-x="511" 
d="M72 310h-35q0 5 1.5 13t9 28.5t19.5 36.5t35.5 29t54.5 13q36 0 61.5 -12.5t39.5 -30t26.5 -35t30 -30t42.5 -12.5q36 0 57 20t24 40l4 20h35q0 -5 -1.5 -13t-9 -28.5t-19.5 -36.5t-35.5 -29t-54.5 -13q-36 0 -61.5 12.5t-39.5 30t-26.5 35t-30 30t-42.5 12.5
q-36 0 -57 -20t-24 -40z" />
    <glyph glyph-name="exclamdown" unicode="&#xa1;" horiz-adv-x="200" 
d="M78 350h50v-200q0 -71 -2.5 -158.5t-5.5 -139.5l-2 -52h-45q5 190 5 350v200zM138 470q0 -15 -10 -25t-25 -10t-25 10t-10 25t10 25t25 10t25 -10t10 -25z" />
    <glyph glyph-name="cent" unicode="&#xa2;" horiz-adv-x="429" 
d="M252 600q-5 -50 -5 -90q33 -1 65.5 -7t48.5 -12l16 -6v-35q-60 20 -140 20q-41 0 -70.5 -12.5t-46.5 -31.5t-27 -49t-13 -59.5t-3 -67.5q0 -49 5.5 -84t21 -68t47.5 -50.5t81 -17.5q38 0 74 5t54 10l17 5v-35q-51 -21 -125 -24l-5 -91h-40q4 50 5 91q-185 11 -185 259
q0 240 180 258l5 92h40z" />
    <glyph glyph-name="sterling" unicode="&#xa3;" horiz-adv-x="505" 
d="M31 330v30q60 10 150 10q0 88 8.5 146t31 104.5t64.5 68t106 21.5q17 0 37 -2.5t32 -5.5l11 -2v-30q-38 5 -80 5q-97 0 -128.5 -66t-31.5 -239q36 0 76 -2.5t62 -5.5l22 -2v-30h-160q0 -54 -6 -100t-16 -76t-21.5 -53.5t-23 -36t-21.5 -21t-16 -11.5l-6 -2h140l210 5v-35
q-91 -10 -210 -10q-49 0 -106.5 2.5t-90.5 5.5l-33 2v30q24 0 47 12t48 41.5t40 93t15 153.5h-150z" />
    <glyph glyph-name="yen" unicode="&#xa5;" horiz-adv-x="552" 
d="M251 330l-22 30h-163v30q60 5 137 8q-59 88 -112 178.5t-65 123.5h55q20 -46 77 -143t118 -182q61 85 118 182t77 143h55q-14 -34 -67 -125t-110 -176l137 -9v-30h-164l-6.5 -9.5l-8 -11.5l-6.5 -9q0 -13 -0.5 -39.5t-0.5 -40.5h186v-30q-87 -9 -187 -10l-8 -210h-45
q2 99 4 210q-44 0 -90 2.5t-70 5.5l-24 2v30h184q1 27 1 80z" />
    <glyph glyph-name="brokenbar" unicode="&#xa6;" horiz-adv-x="204" 
d="M77 -250v430h50v-430h-50zM77 320v430h50v-430h-50z" />
    <glyph glyph-name="section" unicode="&#xa7;" horiz-adv-x="464" 
d="M428 350q0 -78 -70 -120q70 -28 70 -110q0 -59 -49 -94.5t-146 -35.5q-42 0 -86 7.5t-67 14.5l-22 8v35q70 -25 175 -25q70 0 107.5 20t37.5 70q0 47 -31.5 64t-113.5 20q-195 9 -195 146q0 78 70 120q-70 28 -70 110q0 59 49 94.5t146 35.5q42 0 83.5 -6t61.5 -12l20 -7
v-35q-70 20 -165 20q-70 0 -107.5 -20t-37.5 -70q0 -47 31.5 -64t113.5 -20q195 -9 195 -146zM88 350q0 -26 10.5 -45.5t22.5 -30t37 -17.5t37 -9t40.5 -4t30.5 -2q112 12 112 108q0 23 -6 40.5t-19.5 28.5t-25.5 18t-33.5 11t-33 5.5t-34.5 3t-28 1.5q-110 -12 -110 -108z
" />
    <glyph glyph-name="dieresis" unicode="&#xa8;" horiz-adv-x="300" 
d="M40 625q0 15 10 25t25 10t25 -10t10 -25t-10 -25t-25 -10t-25 10t-10 25zM190 625q0 15 10 25t25 10t25 -10t10 -25t-10 -25t-25 -10t-25 10t-10 25z" />
    <glyph glyph-name="copyright" unicode="&#xa9;" horiz-adv-x="626" 
d="M33 350q0 124 74.5 202t205.5 78q132 0 206 -78t74 -202t-74 -202t-206 -78q-131 0 -205.5 78t-74.5 202zM83 350q0 -114 59.5 -177t170.5 -63t170.5 63t59.5 177t-59.5 177t-170.5 63t-170.5 -63t-59.5 -177zM308 180q-42 0 -72.5 17.5t-45 45t-21 54t-6.5 53.5
t6.5 53.5t21 54t45 45t72.5 17.5q24 0 50.5 -4t40.5 -8l14 -3v-30q-50 10 -105 10q-51 0 -75.5 -41t-24.5 -94t24.5 -94t75.5 -41q24 0 50.5 2.5t40.5 4.5l14 3v-30q-40 -15 -105 -15z" />
    <glyph glyph-name="ordfeminine" unicode="&#xaa;" horiz-adv-x="349" 
d="M174 555l85 -5q0 71 -17.5 100.5t-67.5 29.5q-27 0 -53 -2.5t-39 -5.5l-13 -2v25q45 15 105 15q33 0 56.5 -11t35.5 -25.5t18.5 -40t8 -44.5t1.5 -49l-6 -170q-34 -5 -114 -5q-42 0 -70.5 11t-40 28.5t-15.5 31.5t-4 29q0 17 4 29.5t15.5 28t40 24t70.5 8.5zM174 395h85
v130h-85q-51 0 -73 -14.5t-22 -45.5q0 -70 95 -70z" />
    <glyph glyph-name="guillemotleft" unicode="&#xab;" horiz-adv-x="502" 
d="M261 250q105 -105 195 -175l-25 -25q-44 29 -95.5 71.5t-80.5 70.5l-29 28q-5 15 -5 30l5 30q105 105 205 170l25 -25q-90 -70 -195 -175zM71 250q105 -105 195 -175l-25 -25q-44 29 -95.5 71.5t-80.5 70.5l-29 28q-5 15 -5 30l5 30q105 105 205 170l25 -25
q-90 -70 -195 -175z" />
    <glyph glyph-name="registered" unicode="&#xae;" horiz-adv-x="406" 
d="M33 540q0 78 43 124t127 46t127 -46t43 -124t-43 -124t-127 -46t-127 46t-43 124zM273 450h-29l-39 72h-39l2 -72h-25q-3 52 -3 90l3 90q30 3 60 3q32 0 48.5 -16.5t16.5 -40.5q0 -40 -38 -51zM63 540q0 -64 34.5 -102t105.5 -38t105.5 38t34.5 102t-34.5 102t-105.5 38
t-105.5 -38t-34.5 -102zM166 543h42q14 0 24.5 9.5t10.5 23.5t-10.5 24t-24.5 10h-42v-67z" />
    <glyph glyph-name="macron" unicode="&#xaf;" horiz-adv-x="300" 
d="M40 590v40h220v-40h-220z" />
    <glyph glyph-name="degree" unicode="&#xb0;" horiz-adv-x="324" 
d="M42 590q0 55 33.5 87.5t86.5 32.5t86.5 -32.5t33.5 -87.5t-33.5 -87.5t-86.5 -32.5t-86.5 32.5t-33.5 87.5zM82 590q0 -38 21 -59t59 -21t59 21t21 59t-21 59t-59 21t-59 -21t-21 -59z" />
    <glyph glyph-name="plusminus" unicode="&#xb1;" horiz-adv-x="600" 
d="M50 340v40h225l5 230h46v-230h224v-40h-225v-230h-45q-5 110 -5 230h-225zM50 0v40h500v-40h-500z" />
    <glyph glyph-name="twosuperior" unicode="&#xb2;" horiz-adv-x="304" 
d="M49 350q-5 34 -5 85q0 42 23 66t82 40q34 9 51.5 24t20.5 26t3 29q0 50 -80 50q-24 0 -46.5 -5t-33.5 -10l-10 -5v30q40 25 90 25q63 0 91.5 -23.5t28.5 -61.5q0 -44 -23 -71.5t-87 -45.5q-41 -11 -55.5 -23.5t-14.5 -44.5v-55h60l110 4v-34q-49 -5 -110 -5z" />
    <glyph glyph-name="threesuperior" unicode="&#xb3;" horiz-adv-x="309" 
d="M105 509v32h45q40 0 60 19t20 50q0 60 -85 60q-24 0 -48 -5t-35 -10l-12 -5v30q40 25 95 25q125 0 125 -95q0 -55 -53 -85q53 -30 53 -85q0 -42 -29.5 -68.5t-95.5 -26.5q-29 0 -55 6.5t-38 12.5l-12 6v30q40 -20 105 -20q85 0 85 60q0 62 -75 66z" />
    <glyph glyph-name="acute" unicode="&#xb4;" horiz-adv-x="250" 
d="M65 560l-25 25q80 70 140 130l30 -30q-27 -27 -63 -58t-59 -49z" />
    <glyph glyph-name="mu" unicode="&#xb5;" horiz-adv-x="555" 
d="M431 500h40q10 -200 10 -360l-3 -140h-32q-7 20 -15 80q-26 -43 -61 -66.5t-94 -23.5q-108 0 -159 72l4 -222h-40q-10 261 -10 410l10 250h40v-250q0 -49 5.5 -84t21 -68t47.5 -50.5t81 -17.5q83 0 119 57t36 143v270z" />
    <glyph glyph-name="mu" unicode="&#x3bc;" horiz-adv-x="555" 
d="M431 500h40q10 -200 10 -360l-3 -140h-32q-7 20 -15 80q-26 -43 -61 -66.5t-94 -23.5q-108 0 -159 72l4 -222h-40q-10 261 -10 410l10 250h40v-250q0 -49 5.5 -84t21 -68t47.5 -50.5t81 -17.5q83 0 119 57t36 143v270z" />
    <glyph glyph-name="paragraph" unicode="&#xb6;" horiz-adv-x="532" 
d="M471 0h-45q-9 158 -10 305h-140l5 -305h-45q-9 158 -10 305q-105 2 -157.5 56.5t-52.5 148.5q0 96 55 148t165 52q53 0 112 -2.5t91 -5.5l32 -2q-5 -193 -5 -350zM276 345h140q0 165 8 325h-144q-4 -120 -4 -325zM226 345q0 165 8 325q-82 -1 -125 -41.5t-43 -118.5
q0 -77 41 -120t119 -45z" />
    <glyph glyph-name="periodcentered" unicode="&#xb7;" horiz-adv-x="190" 
d="M60 350q0 15 10 25t25 10t25 -10t10 -25t-10 -25t-25 -10t-25 10t-10 25z" />
    <glyph glyph-name="cedilla" unicode="&#xb8;" horiz-adv-x="290" 
d="M40 -212v32q43 -25 100 -25q70 0 70 55q0 31 -18 43t-52 12h-70q3 18 10.5 41.5t13.5 38.5l6 15h50l-30 -65q15 5 45 5q39 0 64.5 -21t25.5 -69q0 -44 -30.5 -67t-84.5 -23q-25 0 -50 7t-38 14z" />
    <glyph glyph-name="onesuperior" unicode="&#xb9;" horiz-adv-x="164" 
d="M71 525l3 135q-23 -15 -58 -15v30q16 0 31 6.5t22 12.5l7 6h40q-5 -100 -5 -175v-175h-35q-5 100 -5 175z" />
    <glyph glyph-name="ordmasculine" unicode="&#xba;" horiz-adv-x="372" 
d="M186 680q-59 0 -82 -35.5t-23 -104.5q0 -70 23 -107.5t82 -37.5t82 37.5t23 107.5q0 69 -23 104.5t-82 35.5zM186 710q38 0 65 -12t41.5 -28.5t22.5 -42t9.5 -44t1.5 -43.5t-1.5 -44t-9.5 -45t-22.5 -43.5t-41.5 -30t-65 -12.5t-65 12.5t-41.5 30t-22.5 43.5t-9.5 45
t-1.5 44t1.5 43.5t9.5 44t22.5 42t41.5 28.5t65 12z" />
    <glyph glyph-name="guillemotright" unicode="&#xbb;" horiz-adv-x="502" 
d="M241 250q-105 105 -195 175l25 25q44 -29 95.5 -71.5t80.5 -70.5l29 -28q5 -15 5 -30l-5 -30q-105 -105 -205 -170l-25 25q90 70 195 175zM431 250q-105 105 -195 175l25 25q44 -29 95.5 -71.5t80.5 -70.5l29 -28q5 -15 5 -30l-5 -30q-105 -105 -205 -170l-25 25
q90 70 195 175z" />
    <glyph glyph-name="onequarter" unicode="&#xbc;" horiz-adv-x="590" 
d="M79 0h-45l360 700h45zM89 525l3 135q-23 -15 -58 -15v30q16 0 31 6.5t22 12.5l7 6h40q-5 -100 -5 -175v-175h-35q-5 100 -5 175zM349 178h130l5 172h40q-4 -99 -4 -172h49v-36h-49l4 -142h-40q-4 76 -5 142h-180l8 36q7 33 18.5 76t20.5 70l8 26h40q-29 -96 -45 -172z
" />
    <glyph glyph-name="onehalf" unicode="&#xbd;" horiz-adv-x="549" 
d="M76 0h-45l360 700h45zM86 525l3 135q-23 -15 -58 -15v30q16 0 31 6.5t22 12.5l7 6h40q-5 -100 -5 -175v-175h-35q-5 100 -5 175zM306 0q-5 34 -5 85q0 42 23 66t82 40q34 9 51.5 24t20.5 26t3 29q0 50 -80 50q-24 0 -46.5 -5t-32.5 -10l-11 -5v30q40 25 90 25
q63 0 91.5 -23.5t28.5 -61.5q0 -44 -23 -71.5t-87 -45.5q-41 -11 -55.5 -23.5t-14.5 -44.5v-55h60l110 4v-34q-49 -5 -110 -5z" />
    <glyph glyph-name="threequarters" unicode="&#xbe;" horiz-adv-x="690" 
d="M178 0h-45l360 700h45zM448 178h130l5 172h40q-4 -99 -4 -172h49v-36h-49l4 -142h-40q-4 76 -5 142h-180l8 36q7 33 18.5 76t19.5 70l9 26h40q-29 -96 -45 -172zM98 509v32h45q40 0 60 19t20 50q0 60 -85 60q-24 0 -48 -5t-36 -10l-11 -5v30q40 25 95 25q125 0 125 -95
q0 -55 -53 -85q53 -30 53 -85q0 -42 -29.5 -68.5t-95.5 -26.5q-29 0 -55 6.5t-38 12.5l-12 6v30q40 -20 105 -20q85 0 85 60q0 62 -75 66z" />
    <glyph glyph-name="questiondown" unicode="&#xbf;" horiz-adv-x="388" 
d="M339 350v-30q0 -34 -4 -57t-17 -50t-42.5 -48t-76.5 -35q-76 -24 -103 -59.5t-27 -90.5q0 -66 41.5 -108t153.5 -42q51 0 97.5 11t66.5 23l21 11v-35q-8 -6 -22.5 -14t-63 -22t-99.5 -14q-245 0 -245 190q0 74 37.5 119.5t132.5 74.5q63 19 81.5 50t18.5 96v30h50z
M349 470q0 -15 -10 -25t-25 -10t-25 10t-10 25t10 25t25 10t25 -10t10 -25z" />
    <glyph glyph-name="Agrave" unicode="&#xc0;" horiz-adv-x="588" 
d="M69 0q-10 143 -10 270q0 68 3 115t13 110t35 114.5t64 90.5q40 10 115 10q33 0 64.5 -2.5t46.5 -5.5l14 -2q39 -39 64 -90.5t35 -114.5t13 -110t3 -115q0 -56 -2.5 -123.5t-4.5 -106.5l-3 -40h-40v315h-370v-315h-40zM109 355h370q-4 109 -24.5 182t-65.5 133h-190
q-45 -60 -65.5 -133t-24.5 -182zM349 785l-25 -25q-85 65 -145 125l30 30l62 -59.5l57 -51.5z" />
    <glyph glyph-name="Aacute" unicode="&#xc1;" horiz-adv-x="588" 
d="M69 0q-10 143 -10 270q0 68 3 115t13 110t35 114.5t64 90.5q40 10 115 10q33 0 64.5 -2.5t46.5 -5.5l14 -2q39 -39 64 -90.5t35 -114.5t13 -110t3 -115q0 -56 -2.5 -123.5t-4.5 -106.5l-3 -40h-40v315h-370v-315h-40zM109 355h370q-4 109 -24.5 182t-65.5 133h-190
q-45 -60 -65.5 -133t-24.5 -182zM264 760l-25 25q80 70 140 130l30 -30q-27 -27 -63 -58t-59 -49z" />
    <glyph glyph-name="Acircumflex" unicode="&#xc2;" horiz-adv-x="588" 
d="M69 0q-10 143 -10 270q0 68 3 115t13 110t35 114.5t64 90.5q40 10 115 10q33 0 64.5 -2.5t46.5 -5.5l14 -2q39 -39 64 -90.5t35 -114.5t13 -110t3 -115q0 -56 -2.5 -123.5t-4.5 -106.5l-3 -40h-40v315h-370v-315h-40zM109 355h370q-4 109 -24.5 182t-65.5 133h-190
q-45 -60 -65.5 -133t-24.5 -182zM294 915q31 -22 66 -54.5t54 -54.5l20 -21l-25 -25q-45 50 -115 100q-31 -22 -60 -47t-42 -39l-13 -14l-25 25q70 80 140 130z" />
    <glyph glyph-name="Atilde" unicode="&#xc3;" horiz-adv-x="588" 
d="M69 0q-10 143 -10 270q0 68 3 115t13 110t35 114.5t64 90.5q40 10 115 10q33 0 64.5 -2.5t46.5 -5.5l14 -2q39 -39 64 -90.5t35 -114.5t13 -110t3 -115q0 -56 -2.5 -123.5t-4.5 -106.5l-3 -40h-40v315h-370v-315h-40zM109 355h370q-4 109 -24.5 182t-65.5 133h-190
q-45 -60 -65.5 -133t-24.5 -182zM234 870q28 0 68 -30t52 -30q18 0 29 12.5t13 25.5l3 12h35q0 -4 -1 -10t-6 -21.5t-12.5 -27.5t-23.5 -21.5t-37 -9.5q-28 0 -68 30t-52 30q-18 0 -29 -12.5t-13 -25.5l-3 -12h-35q0 4 1 10t6 21.5t12.5 27.5t23.5 21.5t37 9.5z" />
    <glyph glyph-name="Adieresis" unicode="&#xc4;" horiz-adv-x="588" 
d="M69 0q-10 143 -10 270q0 68 3 115t13 110t35 114.5t64 90.5q40 10 115 10q33 0 64.5 -2.5t46.5 -5.5l14 -2q39 -39 64 -90.5t35 -114.5t13 -110t3 -115q0 -56 -2.5 -123.5t-4.5 -106.5l-3 -40h-40v315h-370v-315h-40zM109 355h370q-4 109 -24.5 182t-65.5 133h-190
q-45 -60 -65.5 -133t-24.5 -182zM184 825q0 15 10 25t25 10t25 -10t10 -25t-10 -25t-25 -10t-25 10t-10 25zM334 825q0 15 10 25t25 10t25 -10t10 -25t-10 -25t-25 -10t-25 10t-10 25z" />
    <glyph glyph-name="Aring" unicode="&#xc5;" horiz-adv-x="588" 
d="M69 0q-10 143 -10 270q0 68 3 115t13 110t35 114.5t64 90.5q40 10 115 10q33 0 64.5 -2.5t46.5 -5.5l14 -2q39 -39 64 -90.5t35 -114.5t13 -110t3 -115q0 -56 -2.5 -123.5t-4.5 -106.5l-3 -40h-40v315h-370v-315h-40zM109 355h370q-4 109 -24.5 182t-65.5 133h-190
q-45 -60 -65.5 -133t-24.5 -182zM204 850q0 38 26 64t64 26t64 -26t26 -64t-26 -64t-64 -26t-64 26t-26 64zM244 850q0 -23 14 -39t36 -16t36 16t14 39t-14 39t-36 16t-36 -16t-14 -39z" />
    <glyph glyph-name="AE" unicode="&#xc6;" horiz-adv-x="924" 
d="M489 0q-4 71 -6.5 150t-2.5 122l-1 43h-370v-315h-40q-10 143 -10 270q0 68 3 115t13 110t35 114.5t64 90.5q40 10 115 10q33 0 64.5 -2.5t46.5 -5.5l14 -2q41 -41 70 -107l5 107q95 10 200 10q47 0 97 -2.5t76 -5.5l27 -2v-35q-94 5 -200 5h-160v-300h320v-40h-320v-40
l6 -260h154l200 5v-35q-95 -10 -200 -10q-42 0 -92 2.5t-79 5.5zM109 355h370q-4 109 -24.5 182t-65.5 133h-190q-45 -60 -65.5 -133t-24.5 -182z" />
    <glyph glyph-name="Ccedilla" unicode="&#xc7;" horiz-adv-x="525" 
d="M217 -212v32q43 -25 100 -25q70 0 70 55q0 31 -18 43t-52 12h-70q6 38 26 86q-68 5 -113.5 32.5t-69.5 78t-33.5 109t-9.5 139.5q0 62 4.5 109t20.5 97t43 81.5t74.5 52t112.5 20.5q56 0 104.5 -11t69.5 -23l21 -11v-35l-23 11t-65.5 18t-106.5 11q-52 0 -90 -18t-60 -46
t-34.5 -72t-16.5 -86t-4 -98t4 -98t16.5 -86t34.5 -72t60 -46t90 -18q60 0 109 10t67 20l19 10v-35q-7 -4 -20.5 -11t-59 -19t-95.5 -14l-25 -56q15 5 45 5q39 0 64.5 -21t25.5 -69q0 -44 -30.5 -67t-84.5 -23q-25 0 -50 7t-37 14z" />
    <glyph glyph-name="Egrave" unicode="&#xc8;" horiz-adv-x="514" 
d="M79 0q-10 192 -10 350q0 70 2.5 157.5t4.5 140.5l3 52q95 10 200 10q47 0 97 -2.5t76 -5.5l27 -2v-35q-94 5 -200 5h-160v-300h320v-40h-320l6 -300h154l200 5v-35q-95 -10 -200 -10q-42 0 -92 2.5t-79 5.5zM334 785l-25 -25q-85 65 -145 125l30 30l62 -59.5l56 -51.5z
" />
    <glyph glyph-name="Eacute" unicode="&#xc9;" horiz-adv-x="514" 
d="M79 0q-10 192 -10 350q0 70 2.5 157.5t4.5 140.5l3 52q95 10 200 10q47 0 97 -2.5t76 -5.5l27 -2v-35q-94 5 -200 5h-160v-300h320v-40h-320l6 -300h154l200 5v-35q-95 -10 -200 -10q-42 0 -92 2.5t-79 5.5zM259 760l-25 25q80 70 140 130l30 -30q-27 -27 -63 -58
t-59 -49z" />
    <glyph glyph-name="Ecircumflex" unicode="&#xca;" horiz-adv-x="514" 
d="M79 0q-10 192 -10 350q0 70 2.5 157.5t4.5 140.5l3 52q95 10 200 10q47 0 97 -2.5t76 -5.5l27 -2v-35q-94 5 -200 5h-160v-300h320v-40h-320l6 -300h154l200 5v-35q-95 -10 -200 -10q-42 0 -92 2.5t-79 5.5zM279 915q31 -22 66 -54.5t55 -54.5l19 -21l-25 -25
q-45 50 -115 100q-31 -22 -60 -47t-42 -39l-13 -14l-25 25q70 80 140 130z" />
    <glyph glyph-name="Edieresis" unicode="&#xcb;" horiz-adv-x="514" 
d="M79 0q-10 192 -10 350q0 70 2.5 157.5t4.5 140.5l3 52q95 10 200 10q47 0 97 -2.5t76 -5.5l27 -2v-35q-94 5 -200 5h-160v-300h320v-40h-320l6 -300h154l200 5v-35q-95 -10 -200 -10q-42 0 -92 2.5t-79 5.5zM169 825q0 15 10 25t25 10t25 -10t10 -25t-10 -25t-25 -10
t-25 10t-10 25zM319 825q0 15 10 25t25 10t25 -10t10 -25t-10 -25t-25 -10t-25 10t-10 25z" />
    <glyph glyph-name="Igrave" unicode="&#xcc;" horiz-adv-x="193" 
d="M124 0h-45q-10 193 -10 350q0 70 2.5 157.5t4.5 140.5l3 52h45q-5 -193 -5 -350zM159 785l-25 -25q-85 65 -145 125l30 30l62 -59.5l57 -51.5z" />
    <glyph glyph-name="Iacute" unicode="&#xcd;" horiz-adv-x="193" 
d="M124 0h-45q-10 193 -10 350q0 70 2.5 157.5t4.5 140.5l3 52h45q-5 -193 -5 -350zM74 760l-25 25q80 70 140 130l30 -30q-27 -27 -63 -58t-59 -49z" />
    <glyph glyph-name="Icircumflex" unicode="&#xce;" horiz-adv-x="193" 
d="M124 0h-45q-10 193 -10 350q0 70 2.5 157.5t4.5 140.5l3 52h45q-5 -193 -5 -350zM104 915q31 -22 66 -54.5t54 -54.5l20 -21l-25 -25q-45 50 -115 100q-31 -22 -60 -47t-42 -39l-13 -14l-25 25q70 80 140 130z" />
    <glyph glyph-name="Idieresis" unicode="&#xcf;" horiz-adv-x="193" 
d="M124 0h-45q-10 193 -10 350q0 70 2.5 157.5t4.5 140.5l3 52h45q-5 -193 -5 -350zM-4 825q0 15 10 25t25 10t25 -10t10 -25t-10 -25t-25 -10t-25 10t-10 25zM146 825q0 15 10 25t25 10t25 -10t10 -25t-10 -25t-25 -10t-25 10t-10 25z" />
    <glyph glyph-name="Eth" unicode="&#xd0;" horiz-adv-x="588" 
d="M-8 330v40h80q0 67 2.5 149.5t5.5 131.5l2 49q67 10 200 10q51 0 91.5 -12.5t67 -32t46 -50t30 -60t16.5 -68.5t7.5 -69t1.5 -68t-1.5 -67.5t-7.5 -69t-16.5 -68.5t-30 -60t-46 -50.5t-67 -32t-91.5 -12.5q-59 0 -109 2.5t-71 5.5l-20 2q-10 177 -10 330h-80zM122 670
v-300h80v-40h-80l4 -300h156q57 0 97.5 18.5t62 45.5t33 73t14.5 85t3 98t-3 98t-14.5 85t-33 73t-62 45.5t-97.5 18.5h-160z" />
    <glyph glyph-name="Ntilde" unicode="&#xd1;" horiz-adv-x="628" 
d="M79 700h60q130 -220 190 -330l72 -126.5l77 -130.5l31 -53v290l-5 350h45q10 -193 10 -350q0 -70 -2.5 -157.5t-4.5 -140.5l-3 -52h-60q-130 220 -190 330l-72 126.5l-77 130.5l-31 53v-290l5 -350h-45q-10 193 -10 350q0 70 2.5 157.5t4.5 140.5zM259 870q27 0 67 -30
t53 -30q18 0 29 12.5t14 25.5l2 12h35q0 -4 -1 -10t-6 -21.5t-12.5 -27.5t-23.5 -21.5t-37 -9.5q-27 0 -67 30t-53 30q-18 0 -29 -12.5t-14 -25.5l-2 -12h-35q0 4 1 10t6 21.5t12.5 27.5t23.5 21.5t37 9.5z" />
    <glyph glyph-name="Ograve" unicode="&#xd2;" horiz-adv-x="604" 
d="M47 350q0 40 1 68t6.5 68.5t15.5 69t29 59.5t45.5 50.5t66.5 32t91 12.5t91 -12.5t66.5 -32t45.5 -50.5t29 -59.5t15.5 -69t6.5 -68.5t1 -68t-1 -68t-6.5 -68.5t-15.5 -69t-29 -59.5t-45.5 -50.5t-66.5 -32t-91 -12.5t-91 12.5t-66.5 32t-45.5 50.5t-29 59.5t-15.5 69
t-6.5 68.5t-1 68zM97 350q0 -57 3.5 -98t15.5 -85.5t33.5 -72.5t60 -46t92.5 -18t92.5 18t60 46t33.5 72.5t15.5 85.5t3.5 98t-3.5 98t-15.5 85.5t-33.5 72.5t-60 46t-92.5 18t-92.5 -18t-60 -46t-33.5 -72.5t-15.5 -85.5t-3.5 -98zM359 785l-25 -25q-85 65 -145 125l30 30
l62 -59.5l57 -51.5z" />
    <glyph glyph-name="Oacute" unicode="&#xd3;" horiz-adv-x="604" 
d="M47 350q0 40 1 68t6.5 68.5t15.5 69t29 59.5t45.5 50.5t66.5 32t91 12.5t91 -12.5t66.5 -32t45.5 -50.5t29 -59.5t15.5 -69t6.5 -68.5t1 -68t-1 -68t-6.5 -68.5t-15.5 -69t-29 -59.5t-45.5 -50.5t-66.5 -32t-91 -12.5t-91 12.5t-66.5 32t-45.5 50.5t-29 59.5t-15.5 69
t-6.5 68.5t-1 68zM97 350q0 -57 3.5 -98t15.5 -85.5t33.5 -72.5t60 -46t92.5 -18t92.5 18t60 46t33.5 72.5t15.5 85.5t3.5 98t-3.5 98t-15.5 85.5t-33.5 72.5t-60 46t-92.5 18t-92.5 -18t-60 -46t-33.5 -72.5t-15.5 -85.5t-3.5 -98zM277 760l-25 25q80 70 140 130l30 -30
q-27 -27 -63 -58t-59 -49z" />
    <glyph glyph-name="Ocircumflex" unicode="&#xd4;" horiz-adv-x="604" 
d="M47 350q0 40 1 68t6.5 68.5t15.5 69t29 59.5t45.5 50.5t66.5 32t91 12.5t91 -12.5t66.5 -32t45.5 -50.5t29 -59.5t15.5 -69t6.5 -68.5t1 -68t-1 -68t-6.5 -68.5t-15.5 -69t-29 -59.5t-45.5 -50.5t-66.5 -32t-91 -12.5t-91 12.5t-66.5 32t-45.5 50.5t-29 59.5t-15.5 69
t-6.5 68.5t-1 68zM97 350q0 -57 3.5 -98t15.5 -85.5t33.5 -72.5t60 -46t92.5 -18t92.5 18t60 46t33.5 72.5t15.5 85.5t3.5 98t-3.5 98t-15.5 85.5t-33.5 72.5t-60 46t-92.5 18t-92.5 -18t-60 -46t-33.5 -72.5t-15.5 -85.5t-3.5 -98zM302 915q31 -22 66 -54.5t54 -54.5
l20 -21l-25 -25q-45 50 -115 100q-31 -22 -60 -47t-42 -39l-13 -14l-25 25q70 80 140 130z" />
    <glyph glyph-name="Otilde" unicode="&#xd5;" horiz-adv-x="604" 
d="M47 350q0 40 1 68t6.5 68.5t15.5 69t29 59.5t45.5 50.5t66.5 32t91 12.5t91 -12.5t66.5 -32t45.5 -50.5t29 -59.5t15.5 -69t6.5 -68.5t1 -68t-1 -68t-6.5 -68.5t-15.5 -69t-29 -59.5t-45.5 -50.5t-66.5 -32t-91 -12.5t-91 12.5t-66.5 32t-45.5 50.5t-29 59.5t-15.5 69
t-6.5 68.5t-1 68zM97 350q0 -57 3.5 -98t15.5 -85.5t33.5 -72.5t60 -46t92.5 -18t92.5 18t60 46t33.5 72.5t15.5 85.5t3.5 98t-3.5 98t-15.5 85.5t-33.5 72.5t-60 46t-92.5 18t-92.5 -18t-60 -46t-33.5 -72.5t-15.5 -85.5t-3.5 -98zM242 870q28 0 68 -30t52 -30
q18 0 29 12.5t13 25.5l3 12h35q0 -4 -1 -10t-6 -21.5t-12.5 -27.5t-23.5 -21.5t-37 -9.5q-28 0 -68 30t-52 30q-18 0 -29 -12.5t-13 -25.5l-3 -12h-35q0 4 1 10t6 21.5t12.5 27.5t23.5 21.5t37 9.5z" />
    <glyph glyph-name="Odieresis" unicode="&#xd6;" horiz-adv-x="604" 
d="M47 350q0 40 1 68t6.5 68.5t15.5 69t29 59.5t45.5 50.5t66.5 32t91 12.5t91 -12.5t66.5 -32t45.5 -50.5t29 -59.5t15.5 -69t6.5 -68.5t1 -68t-1 -68t-6.5 -68.5t-15.5 -69t-29 -59.5t-45.5 -50.5t-66.5 -32t-91 -12.5t-91 12.5t-66.5 32t-45.5 50.5t-29 59.5t-15.5 69
t-6.5 68.5t-1 68zM97 350q0 -57 3.5 -98t15.5 -85.5t33.5 -72.5t60 -46t92.5 -18t92.5 18t60 46t33.5 72.5t15.5 85.5t3.5 98t-3.5 98t-15.5 85.5t-33.5 72.5t-60 46t-92.5 18t-92.5 -18t-60 -46t-33.5 -72.5t-15.5 -85.5t-3.5 -98zM192 825q0 15 10 25t25 10t25 -10t10 -25
t-10 -25t-25 -10t-25 10t-10 25zM342 825q0 15 10 25t25 10t25 -10t10 -25t-10 -25t-25 -10t-25 10t-10 25z" />
    <glyph glyph-name="multiply" unicode="&#xd7;" horiz-adv-x="600" 
d="M35 20l235 235l-235 235l30 30l235 -235l235 235l30 -30l-235 -235l235 -235l-30 -30l-235 235l-235 -235z" />
    <glyph glyph-name="Oslash" unicode="&#xd8;" horiz-adv-x="604" 
d="M47 0l53 81q-53 79 -53 269q0 40 1 68t6.5 68.5t15.5 69t29 59.5t45.5 50.5t66.5 32t91 12.5q111 0 173 -59l32 49h50l-54 -82q24 -34 36.5 -85t15 -89t2.5 -94q0 -40 -1 -68t-6.5 -68.5t-15.5 -69t-29 -59.5t-45.5 -50.5t-66.5 -32t-91 -12.5q-112 0 -173 58l-32 -48
h-50zM97 350q0 -153 33 -223l319 484q-49 59 -147 59q-54 0 -92.5 -18t-60 -46t-33.5 -72.5t-15.5 -85.5t-3.5 -98zM507 350q0 153 -34 223l-318 -485q48 -58 147 -58q54 0 92.5 18t60 46t33.5 72.5t15.5 85.5t3.5 98z" />
    <glyph glyph-name="Ugrave" unicode="&#xd9;" horiz-adv-x="614" 
d="M502 350v350h40q10 -193 10 -350q0 -41 -1 -67.5t-6 -68.5t-14 -69t-27 -59.5t-43.5 -51t-64.5 -31.5t-89 -13t-89 13t-64.5 31.5t-43.5 50.5t-27 59.5t-14 69.5t-6 68.5t-1 67.5q0 70 2.5 157.5t5.5 140.5l2 52h40v-350q0 -44 1.5 -72t6.5 -70.5t18 -69.5t33.5 -54
t55 -40.5t80.5 -13.5q40 0 70.5 9.5t51 24t35 41t22 49.5t11 61t4.5 64.5t1 70.5zM360 785l-25 -25q-85 65 -145 125l30 30l62 -59.5l56 -51.5z" />
    <glyph glyph-name="Uacute" unicode="&#xda;" horiz-adv-x="614" 
d="M502 350v350h40q10 -193 10 -350q0 -41 -1 -67.5t-6 -68.5t-14 -69t-27 -59.5t-43.5 -51t-64.5 -31.5t-89 -13t-89 13t-64.5 31.5t-43.5 50.5t-27 59.5t-14 69.5t-6 68.5t-1 67.5q0 70 2.5 157.5t5.5 140.5l2 52h40v-350q0 -44 1.5 -72t6.5 -70.5t18 -69.5t33.5 -54
t55 -40.5t80.5 -13.5q40 0 70.5 9.5t51 24t35 41t22 49.5t11 61t4.5 64.5t1 70.5zM275 760l-25 25q80 70 140 130l30 -30q-27 -27 -63 -58t-59 -49z" />
    <glyph glyph-name="Ucircumflex" unicode="&#xdb;" horiz-adv-x="614" 
d="M502 350v350h40q10 -193 10 -350q0 -41 -1 -67.5t-6 -68.5t-14 -69t-27 -59.5t-43.5 -51t-64.5 -31.5t-89 -13t-89 13t-64.5 31.5t-43.5 50.5t-27 59.5t-14 69.5t-6 68.5t-1 67.5q0 70 2.5 157.5t5.5 140.5l2 52h40v-350q0 -44 1.5 -72t6.5 -70.5t18 -69.5t33.5 -54
t55 -40.5t80.5 -13.5q40 0 70.5 9.5t51 24t35 41t22 49.5t11 61t4.5 64.5t1 70.5zM307 915q31 -22 66 -54.5t55 -54.5l19 -21l-25 -25q-45 50 -115 100q-31 -22 -60 -47t-42 -39l-13 -14l-25 25q70 80 140 130z" />
    <glyph glyph-name="Udieresis" unicode="&#xdc;" horiz-adv-x="614" 
d="M502 350v350h40q10 -193 10 -350q0 -41 -1 -67.5t-6 -68.5t-14 -69t-27 -59.5t-43.5 -51t-64.5 -31.5t-89 -13t-89 13t-64.5 31.5t-43.5 50.5t-27 59.5t-14 69.5t-6 68.5t-1 67.5q0 70 2.5 157.5t5.5 140.5l2 52h40v-350q0 -44 1.5 -72t6.5 -70.5t18 -69.5t33.5 -54
t55 -40.5t80.5 -13.5q40 0 70.5 9.5t51 24t35 41t22 49.5t11 61t4.5 64.5t1 70.5zM197 825q0 15 10 25t25 10t25 -10t10 -25t-10 -25t-25 -10t-25 10t-10 25zM347 825q0 15 10 25t25 10t25 -10t10 -25t-10 -25t-25 -10t-25 10t-10 25z" />
    <glyph glyph-name="Yacute" unicode="&#xdd;" horiz-adv-x="505" 
d="M229 330q-66 91 -137 209.5t-88 160.5h55q20 -46 77 -143t118 -182q61 85 118 182t77 143h55q-17 -42 -88 -160.5t-137 -209.5q0 -65 -2.5 -147.5t-4.5 -132.5l-3 -50h-45q4 183 5 330zM234 750l-25 25q80 70 140 130l30 -30q-27 -27 -63 -58t-59 -49z" />
    <glyph glyph-name="Thorn" unicode="&#xde;" horiz-adv-x="520" 
d="M124 0h-45q-10 193 -10 350q0 70 2.5 157.5t4.5 140.5l3 52h45q-2 -72 -3 -153q74 8 153 8q116 0 170.5 -54t54.5 -141q0 -83 -60 -139t-165 -56h-153zM274 515h-154q-1 -60 -1 -165q0 -100 1 -145h154q84 0 131.5 44.5t47.5 110.5q0 69 -43.5 112t-135.5 43z" />
    <glyph glyph-name="germandbls" unicode="&#xdf;" horiz-adv-x="563" 
d="M87 0q-10 190 -10 350v120h-50v30q30 5 50 5q0 120 46 172.5t139 52.5q99 0 142 -49t43 -171v-40h-70q-120 0 -120 -100q0 -47 26 -68.5t104 -29.5q77 -8 113.5 -42.5t36.5 -104.5q0 -60 -40.5 -97.5t-119.5 -37.5q-40 0 -77.5 6t-55.5 12l-17 7v35q70 -20 150 -20
q49 0 79.5 23t30.5 72q0 52 -24.5 74t-85.5 29q-84 9 -127 39.5t-43 102.5q0 66 46.5 103t123.5 37h20q0 60 -10 98.5t-30 56.5t-41.5 24t-53.5 6t-53.5 -6t-41.5 -24t-30 -56.5t-10 -98.5v-160l5 -350h-45z" />
    <glyph glyph-name="agrave" unicode="&#xe0;" horiz-adv-x="463" 
d="M68 490q70 20 155 20q50 0 85.5 -15.5t54.5 -37.5t29.5 -60t13 -69t2.5 -78q0 -48 -2.5 -110.5t-5.5 -101.5l-2 -38q-62 -10 -175 -10q-61 0 -103.5 16t-60.5 41.5t-24.5 46t-6.5 41.5q0 22 6.5 43t24.5 46t60.5 40.5t103.5 15.5q24 0 58 -2.5t55 -5.5l22 -2
q0 108 -29 154t-106 46q-38 0 -76.5 -4t-58.5 -8l-20 -3v35zM358 30v210h-135q-85 0 -115 -29.5t-30 -75.5q0 -47 30 -76t115 -29h135zM283 585l-25 -25q-85 65 -145 125l30 30l62 -59.5l57 -51.5z" />
    <glyph glyph-name="aacute" unicode="&#xe1;" horiz-adv-x="463" 
d="M68 490q70 20 155 20q50 0 85.5 -15.5t54.5 -37.5t29.5 -60t13 -69t2.5 -78q0 -48 -2.5 -110.5t-5.5 -101.5l-2 -38q-62 -10 -175 -10q-61 0 -103.5 16t-60.5 41.5t-24.5 46t-6.5 41.5q0 22 6.5 43t24.5 46t60.5 40.5t103.5 15.5q24 0 58 -2.5t55 -5.5l22 -2
q0 108 -29 154t-106 46q-38 0 -76.5 -4t-58.5 -8l-20 -3v35zM358 30v210h-135q-85 0 -115 -29.5t-30 -75.5q0 -47 30 -76t115 -29h135zM198 560l-25 25q80 70 140 130l30 -30q-27 -27 -63 -58t-59 -49z" />
    <glyph glyph-name="acircumflex" unicode="&#xe2;" horiz-adv-x="463" 
d="M68 490q70 20 155 20q50 0 85.5 -15.5t54.5 -37.5t29.5 -60t13 -69t2.5 -78q0 -48 -2.5 -110.5t-5.5 -101.5l-2 -38q-62 -10 -175 -10q-61 0 -103.5 16t-60.5 41.5t-24.5 46t-6.5 41.5q0 22 6.5 43t24.5 46t60.5 40.5t103.5 15.5q24 0 58 -2.5t55 -5.5l22 -2
q0 108 -29 154t-106 46q-38 0 -76.5 -4t-58.5 -8l-20 -3v35zM358 30v210h-135q-85 0 -115 -29.5t-30 -75.5q0 -47 30 -76t115 -29h135zM224 715q31 -22 66 -54.5t54 -54.5l20 -21l-25 -25q-45 50 -115 100q-31 -22 -60 -47t-42 -39l-13 -14l-25 25q70 80 140 130z" />
    <glyph glyph-name="atilde" unicode="&#xe3;" horiz-adv-x="463" 
d="M68 490q70 20 155 20q50 0 85.5 -15.5t54.5 -37.5t29.5 -60t13 -69t2.5 -78q0 -48 -2.5 -110.5t-5.5 -101.5l-2 -38q-62 -10 -175 -10q-61 0 -103.5 16t-60.5 41.5t-24.5 46t-6.5 41.5q0 22 6.5 43t24.5 46t60.5 40.5t103.5 15.5q24 0 58 -2.5t55 -5.5l22 -2
q0 108 -29 154t-106 46q-38 0 -76.5 -4t-58.5 -8l-20 -3v35zM358 30v210h-135q-85 0 -115 -29.5t-30 -75.5q0 -47 30 -76t115 -29h135zM168 670q28 0 68 -30t52 -30q18 0 29 12.5t13 25.5l3 12h35q0 -4 -1 -10t-6 -21.5t-12.5 -27.5t-23.5 -21.5t-37 -9.5q-28 0 -68 30
t-52 30q-18 0 -29 -12.5t-13 -25.5l-3 -12h-35q0 4 1 10t6 21.5t12.5 27.5t23.5 21.5t37 9.5z" />
    <glyph glyph-name="adieresis" unicode="&#xe4;" horiz-adv-x="463" 
d="M68 490q70 20 155 20q50 0 85.5 -15.5t54.5 -37.5t29.5 -60t13 -69t2.5 -78q0 -48 -2.5 -110.5t-5.5 -101.5l-2 -38q-62 -10 -175 -10q-61 0 -103.5 16t-60.5 41.5t-24.5 46t-6.5 41.5q0 22 6.5 43t24.5 46t60.5 40.5t103.5 15.5q24 0 58 -2.5t55 -5.5l22 -2
q0 108 -29 154t-106 46q-38 0 -76.5 -4t-58.5 -8l-20 -3v35zM358 30v210h-135q-85 0 -115 -29.5t-30 -75.5q0 -47 30 -76t115 -29h135zM113 625q0 15 10 25t25 10t25 -10t10 -25t-10 -25t-25 -10t-25 10t-10 25zM263 625q0 15 10 25t25 10t25 -10t10 -25t-10 -25t-25 -10
t-25 10t-10 25z" />
    <glyph glyph-name="aring" unicode="&#xe5;" horiz-adv-x="463" 
d="M68 490q70 20 155 20q50 0 85.5 -15.5t54.5 -37.5t29.5 -60t13 -69t2.5 -78q0 -48 -2.5 -110.5t-5.5 -101.5l-2 -38q-62 -10 -175 -10q-61 0 -103.5 16t-60.5 41.5t-24.5 46t-6.5 41.5q0 22 6.5 43t24.5 46t60.5 40.5t103.5 15.5q24 0 58 -2.5t55 -5.5l22 -2
q0 108 -29 154t-106 46q-38 0 -76.5 -4t-58.5 -8l-20 -3v35zM358 30v210h-135q-85 0 -115 -29.5t-30 -75.5q0 -47 30 -76t115 -29h135zM133 650q0 38 26.5 64t63.5 26t63.5 -26t26.5 -64t-26.5 -64t-63.5 -26t-63.5 26t-26.5 64zM173 650q0 -23 14 -39t36 -16t36 16t14 39
t-14 39t-36 16t-36 -16t-14 -39z" />
    <glyph glyph-name="ae" unicode="&#xe6;" horiz-adv-x="779" 
d="M563 510q58 0 98 -16.5t57 -43t23.5 -49t6.5 -46.5q0 -135 -185 -135l-155 10v-5q0 -195 155 -195q38 0 76.5 5t58.5 10l20 5v-35q-60 -25 -155 -25q-109 0 -161 74l-4 -64q-62 -10 -175 -10q-61 0 -103.5 16t-60.5 41.5t-24.5 46t-6.5 41.5q0 22 6.5 43t24.5 46
t60.5 40.5t103.5 15.5q24 0 58 -2.5t55 -5.5l22 -2q0 108 -29 154t-106 46q-38 0 -76.5 -4t-58.5 -8l-20 -3v35q70 20 155 20q124 0 163 -94q46 94 177 94zM358 30v210h-135q-85 0 -115 -29.5t-30 -75.5q0 -47 30 -76t115 -29h135zM563 470q-48 0 -80 -16.5t-47.5 -46.5
t-21.5 -60.5t-6 -71.5v-15h155q135 0 135 95q0 18 -5.5 35.5t-18.5 36.5t-41.5 31t-69.5 12z" />
    <glyph glyph-name="ccedilla" unicode="&#xe7;" horiz-adv-x="416" 
d="M160 -212v32q43 -25 100 -25q70 0 70 55q0 31 -18 43t-52 12h-70q4 25 26 87q-176 17 -176 258q0 260 210 260q36 0 71 -6t52 -12l17 -7v-35q-60 20 -140 20q-41 0 -70.5 -12.5t-46.5 -31.5t-27 -49t-13 -59.5t-3 -67.5q0 -49 5.5 -84t21 -68t47.5 -50.5t81 -17.5
q38 0 74 5t53 10l18 5v-35q-51 -21 -125 -24l-25 -56q15 5 45 5q39 0 64.5 -21t25.5 -69q0 -44 -30.5 -67t-84.5 -23q-25 0 -50 7t-38 14z" />
    <glyph glyph-name="egrave" unicode="&#xe8;" horiz-adv-x="462" 
d="M246 510q58 0 98 -16.5t57 -43t23.5 -49t6.5 -46.5q0 -135 -185 -135l-155 10q0 -200 155 -200q38 0 76.5 5t58.5 10l20 5v-35q-60 -25 -155 -25q-205 0 -205 260q0 42 3.5 74t15.5 69t33.5 61t60.5 40t92 16zM246 470q-40 0 -69.5 -13t-45.5 -32t-25.5 -48.5t-12 -55.5
t-2.5 -61h155q135 0 135 95q0 18 -5.5 35.5t-18.5 36.5t-41.5 31t-69.5 12zM300 585l-25 -25q-85 65 -145 125l30 30l62 -59.5l56 -51.5z" />
    <glyph glyph-name="eacute" unicode="&#xe9;" horiz-adv-x="462" 
d="M246 510q58 0 98 -16.5t57 -43t23.5 -49t6.5 -46.5q0 -135 -185 -135l-155 10q0 -200 155 -200q38 0 76.5 5t58.5 10l20 5v-35q-60 -25 -155 -25q-205 0 -205 260q0 42 3.5 74t15.5 69t33.5 61t60.5 40t92 16zM246 470q-40 0 -69.5 -13t-45.5 -32t-25.5 -48.5t-12 -55.5
t-2.5 -61h155q135 0 135 95q0 18 -5.5 35.5t-18.5 36.5t-41.5 31t-69.5 12zM215 560l-25 25q80 70 140 130l30 -30q-27 -27 -63 -58t-59 -49z" />
    <glyph glyph-name="ecircumflex" unicode="&#xea;" horiz-adv-x="462" 
d="M246 510q58 0 98 -16.5t57 -43t23.5 -49t6.5 -46.5q0 -135 -185 -135l-155 10q0 -200 155 -200q38 0 76.5 5t58.5 10l20 5v-35q-60 -25 -155 -25q-205 0 -205 260q0 42 3.5 74t15.5 69t33.5 61t60.5 40t92 16zM246 470q-40 0 -69.5 -13t-45.5 -32t-25.5 -48.5t-12 -55.5
t-2.5 -61h155q135 0 135 95q0 18 -5.5 35.5t-18.5 36.5t-41.5 31t-69.5 12zM245 715q31 -22 66 -54.5t55 -54.5l19 -21l-25 -25q-45 50 -115 100q-31 -22 -60 -47t-42 -39l-13 -14l-25 25q70 80 140 130z" />
    <glyph glyph-name="edieresis" unicode="&#xeb;" horiz-adv-x="462" 
d="M246 510q58 0 98 -16.5t57 -43t23.5 -49t6.5 -46.5q0 -135 -185 -135l-155 10q0 -200 155 -200q38 0 76.5 5t58.5 10l20 5v-35q-60 -25 -155 -25q-205 0 -205 260q0 42 3.5 74t15.5 69t33.5 61t60.5 40t92 16zM246 470q-40 0 -69.5 -13t-45.5 -32t-25.5 -48.5t-12 -55.5
t-2.5 -61h155q135 0 135 95q0 18 -5.5 35.5t-18.5 36.5t-41.5 31t-69.5 12zM135 625q0 15 10 25t25 10t25 -10t10 -25t-10 -25t-25 -10t-25 10t-10 25zM285 625q0 15 10 25t25 10t25 -10t10 -25t-10 -25t-25 -10t-25 10t-10 25z" />
    <glyph glyph-name="igrave" unicode="&#xec;" horiz-adv-x="173" 
d="M110 0h-40q-10 200 -10 360l2 140h48v-500zM155 585l-25 -25q-85 65 -145 125l30 30l62 -59.5l57 -51.5z" />
    <glyph glyph-name="iacute" unicode="&#xed;" horiz-adv-x="173" 
d="M110 0h-40q-10 200 -10 360l2 140h48v-500zM51 560l-25 25q80 70 140 130l30 -30q-27 -27 -63 -58t-59 -49z" />
    <glyph glyph-name="icircumflex" unicode="&#xee;" horiz-adv-x="173" 
d="M110 0h-40q-10 200 -10 360l2 140h48v-500zM86 715q36 -25 80 -68v-52q-39 36 -80 65q-45 -33 -80 -66v53q43 41 80 68z" />
    <glyph glyph-name="idieresis" unicode="&#xef;" horiz-adv-x="173" 
d="M110 0h-40q-10 200 -10 360l2 140h48v-500zM-5 625q0 15 10 25t25 10t25 -10t10 -25t-10 -25t-25 -10t-25 10t-10 25zM105 625q0 15 10 25t25 10t25 -10t10 -25t-10 -25t-25 -10t-25 10t-10 25z" />
    <glyph glyph-name="eth" unicode="&#xf0;" horiz-adv-x="563" 
d="M337 510v40l92 41q-57 79 -162 79q-52 0 -99.5 -5t-69.5 -10l-21 -5v30q76 30 190 30q153 0 208 -100l102 45v-40l-87 -38q27 -69 27 -191v-69q0 -41 -2 -71.5t-9.5 -72t-24.5 -71t-43 -57t-70 -41.5t-101 -14q-67 0 -116 18.5t-75 50t-37.5 66.5t-11.5 75q0 86 60 138
t180 52q35 0 85 -2.5t82 -5.5l33 -2q0 116 -22 178zM267 30q41 0 72.5 9.5t52.5 23.5t35.5 40t22.5 48.5t12 61.5t4.5 65t0.5 72h-200q-100 0 -145 -41t-45 -109q0 -170 190 -170z" />
    <glyph glyph-name="ntilde" unicode="&#xf1;" horiz-adv-x="522" 
d="M110 0h-40q-10 200 -10 360l3 140h32q7 -20 15 -80q26 43 61 66.5t94 23.5q205 0 205 -260l-10 -250h-40v250q0 49 -5.5 84t-21 68t-47.5 50.5t-81 17.5q-83 0 -119 -57t-36 -143v-270zM196 670q28 0 68 -30t52 -30q18 0 29 12.5t13 25.5l3 12h35q0 -4 -1 -10t-6 -21.5
t-12.5 -27.5t-23.5 -21.5t-37 -9.5q-28 0 -68 30t-52 30q-18 0 -29 -12.5t-13 -25.5l-3 -12h-35q0 4 1 10t6 21.5t12.5 27.5t23.5 21.5t37 9.5z" />
    <glyph glyph-name="ograve" unicode="&#xf2;" 
d="M245 470q-49 0 -81 -17.5t-47.5 -50.5t-21 -68t-5.5 -84t5.5 -84t21 -68t47.5 -50.5t81 -17.5t81 17.5t47.5 50.5t21 68t5.5 84t-5.5 84t-21 68t-47.5 50.5t-81 17.5zM245 510q205 0 205 -260t-205 -260t-205 260t205 260zM300 585l-25 -25q-85 65 -145 125l30 30
l62 -59.5l56 -51.5z" />
    <glyph glyph-name="oacute" unicode="&#xf3;" 
d="M245 470q-49 0 -81 -17.5t-47.5 -50.5t-21 -68t-5.5 -84t5.5 -84t21 -68t47.5 -50.5t81 -17.5t81 17.5t47.5 50.5t21 68t5.5 84t-5.5 84t-21 68t-47.5 50.5t-81 17.5zM245 510q205 0 205 -260t-205 -260t-205 260t205 260zM215 560l-25 25q80 70 140 130l30 -30
q-27 -27 -63 -58t-59 -49z" />
    <glyph glyph-name="ocircumflex" unicode="&#xf4;" 
d="M245 470q-49 0 -81 -17.5t-47.5 -50.5t-21 -68t-5.5 -84t5.5 -84t21 -68t47.5 -50.5t81 -17.5t81 17.5t47.5 50.5t21 68t5.5 84t-5.5 84t-21 68t-47.5 50.5t-81 17.5zM245 510q205 0 205 -260t-205 -260t-205 260t205 260zM245 715q31 -22 66 -54.5t55 -54.5l19 -21
l-25 -25q-45 50 -115 100q-31 -22 -60 -47t-42 -39l-13 -14l-25 25q70 80 140 130z" />
    <glyph glyph-name="otilde" unicode="&#xf5;" 
d="M245 470q-49 0 -81 -17.5t-47.5 -50.5t-21 -68t-5.5 -84t5.5 -84t21 -68t47.5 -50.5t81 -17.5t81 17.5t47.5 50.5t21 68t5.5 84t-5.5 84t-21 68t-47.5 50.5t-81 17.5zM245 510q205 0 205 -260t-205 -260t-205 260t205 260zM190 670q28 0 68 -30t52 -30q18 0 29 12.5
t13 25.5l3 12h35q0 -4 -1 -10t-6 -21.5t-12.5 -27.5t-23.5 -21.5t-37 -9.5q-28 0 -68 30t-52 30q-18 0 -29 -12.5t-13 -25.5l-3 -12h-35q0 4 1 10t6 21.5t12.5 27.5t23.5 21.5t37 9.5z" />
    <glyph glyph-name="odieresis" unicode="&#xf6;" 
d="M245 470q-49 0 -81 -17.5t-47.5 -50.5t-21 -68t-5.5 -84t5.5 -84t21 -68t47.5 -50.5t81 -17.5t81 17.5t47.5 50.5t21 68t5.5 84t-5.5 84t-21 68t-47.5 50.5t-81 17.5zM245 510q205 0 205 -260t-205 -260t-205 260t205 260zM135 625q0 15 10 25t25 10t25 -10t10 -25
t-10 -25t-25 -10t-25 10t-10 25zM285 625q0 15 10 25t25 10t25 -10t10 -25t-10 -25t-25 -10t-25 10t-10 25z" />
    <glyph glyph-name="divide" unicode="&#xf7;" horiz-adv-x="600" 
d="M265 175q0 15 10 25t25 10t25 -10t10 -25t-10 -25t-25 -10t-25 10t-10 25zM50 285v40h500v-40h-500zM265 435q0 15 10 25t25 10t25 -10t10 -25t-10 -25t-25 -10t-25 10t-10 25z" />
    <glyph glyph-name="oslash" unicode="&#xf8;" 
d="M40 0l46 62q-46 63 -46 188q0 260 205 260q87 0 137 -47l28 37h50l-51 -69q41 -64 41 -181q0 -260 -205 -260q-84 0 -132 42l-23 -32h-50zM245 470q-49 0 -81 -17.5t-47.5 -50.5t-21 -68t-5.5 -84q0 -101 24 -149l242 326q-37 43 -111 43zM400 250q0 93 -21 141
l-240 -324q37 -37 106 -37q49 0 81 17.5t47.5 50.5t21 68t5.5 84z" />
    <glyph glyph-name="ugrave" unicode="&#xf9;" horiz-adv-x="522" 
d="M412 500h40q10 -200 10 -360l-3 -140h-32q-7 20 -15 80q-26 -43 -61 -66.5t-94 -23.5q-205 0 -205 260l10 250h40v-250q0 -49 5.5 -84t21 -68t47.5 -50.5t81 -17.5q83 0 119 57t36 143v270zM307 585l-25 -25q-85 65 -145 125l30 30l62 -59.5l57 -51.5z" />
    <glyph glyph-name="uacute" unicode="&#xfa;" horiz-adv-x="522" 
d="M412 500h40q10 -200 10 -360l-3 -140h-32q-7 20 -15 80q-26 -43 -61 -66.5t-94 -23.5q-205 0 -205 260l10 250h40v-250q0 -49 5.5 -84t21 -68t47.5 -50.5t81 -17.5q83 0 119 57t36 143v270zM232 560l-25 25q80 70 140 130l30 -30q-27 -27 -63 -58t-59 -49z" />
    <glyph glyph-name="ucircumflex" unicode="&#xfb;" horiz-adv-x="522" 
d="M412 500h40q10 -200 10 -360l-3 -140h-32q-7 20 -15 80q-26 -43 -61 -66.5t-94 -23.5q-205 0 -205 260l10 250h40v-250q0 -49 5.5 -84t21 -68t47.5 -50.5t81 -17.5q83 0 119 57t36 143v270zM257 715q31 -22 66 -54.5t55 -54.5l19 -21l-25 -25q-45 50 -115 100
q-31 -22 -60 -47t-42 -39l-13 -14l-25 25q70 80 140 130z" />
    <glyph glyph-name="udieresis" unicode="&#xfc;" horiz-adv-x="522" 
d="M412 500h40q10 -200 10 -360l-3 -140h-32q-7 20 -15 80q-26 -43 -61 -66.5t-94 -23.5q-205 0 -205 260l10 250h40v-250q0 -49 5.5 -84t21 -68t47.5 -50.5t81 -17.5q83 0 119 57t36 143v270zM147 625q0 15 10 25t25 10t25 -10t10 -25t-10 -25t-25 -10t-25 10t-10 25z
M297 625q0 15 10 25t25 10t25 -10t10 -25t-10 -25t-25 -10t-25 10t-10 25z" />
    <glyph glyph-name="yacute" unicode="&#xfd;" horiz-adv-x="523" 
d="M413 500h40q10 -190 10 -350q0 -66 -1.5 -111t-7 -90.5t-15 -74t-25.5 -54.5t-40 -40t-56 -22t-75 -8q-27 0 -54.5 4t-41.5 8l-14 3v35q50 -10 110 -10q41 0 66.5 6t47 22.5t33 49.5t17.5 84t6 128q-43 -90 -155 -90q-47 0 -83 11.5t-57.5 34t-35.5 46t-19.5 57t-7.5 57
t-2 54.5l10 250h40v-250q0 -41 2 -68t11 -58.5t25 -50t45.5 -31t71.5 -12.5q155 0 155 201v269zM233 560l-25 25q80 70 140 130l30 -30q-27 -27 -63 -58t-59 -49z" />
    <glyph glyph-name="thorn" unicode="&#xfe;" horiz-adv-x="512" 
d="M266 510q56 0 96 -18.5t60.5 -43.5t32 -64t14 -67.5t2.5 -66.5q0 -31 -2 -54.5t-7.5 -57t-19.5 -57t-35.5 -46t-57.5 -34t-83 -11.5q-107 0 -155 80l10 -320h-40q-20 250 -20 500q0 111 5 236t10 194l5 70h40q-7 -153 -10 -320q48 80 155 80zM111 250q0 -42 2 -69.5
t11 -59t25 -49.5t45.5 -30t71.5 -12t71.5 12.5t45.5 31t25 50t11 58.5t2 68t-2 68t-11 58.5t-25 50t-45.5 31t-71.5 12.5q-92 0 -123.5 -55t-31.5 -165z" />
    <glyph glyph-name="ydieresis" unicode="&#xff;" horiz-adv-x="523" 
d="M413 500h40q10 -190 10 -350q0 -66 -1.5 -111t-7 -90.5t-15 -74t-25.5 -54.5t-40 -40t-56 -22t-75 -8q-27 0 -54.5 4t-41.5 8l-14 3v35q50 -10 110 -10q41 0 66.5 6t47 22.5t33 49.5t17.5 84t6 128q-43 -90 -155 -90q-47 0 -83 11.5t-57.5 34t-35.5 46t-19.5 57t-7.5 57
t-2 54.5l10 250h40v-250q0 -41 2 -68t11 -58.5t25 -50t45.5 -31t71.5 -12.5q155 0 155 201v269zM148 625q0 15 10 25t25 10t25 -10t10 -25t-10 -25t-25 -10t-25 10t-10 25zM298 625q0 15 10 25t25 10t25 -10t10 -25t-10 -25t-25 -10t-25 10t-10 25z" />
    <glyph glyph-name="Amacron" unicode="&#x100;" horiz-adv-x="588" 
d="M69 0q-10 143 -10 270q0 68 3 115t13 110t35 114.5t64 90.5q40 10 115 10q33 0 64.5 -2.5t46.5 -5.5l14 -2q39 -39 64 -90.5t35 -114.5t13 -110t3 -115q0 -56 -2.5 -123.5t-4.5 -106.5l-3 -40h-40v315h-370v-315h-40zM109 355h370q-4 109 -24.5 182t-65.5 133h-190
q-45 -60 -65.5 -133t-24.5 -182zM184 790v40h220v-40h-220z" />
    <glyph glyph-name="amacron" unicode="&#x101;" horiz-adv-x="463" 
d="M68 490q70 20 155 20q50 0 85.5 -15.5t54.5 -37.5t29.5 -60t13 -69t2.5 -78q0 -48 -2.5 -110.5t-5.5 -101.5l-2 -38q-62 -10 -175 -10q-61 0 -103.5 16t-60.5 41.5t-24.5 46t-6.5 41.5q0 22 6.5 43t24.5 46t60.5 40.5t103.5 15.5q24 0 58 -2.5t55 -5.5l22 -2
q0 108 -29 154t-106 46q-38 0 -76.5 -4t-58.5 -8l-20 -3v35zM358 30v210h-135q-85 0 -115 -29.5t-30 -75.5q0 -47 30 -76t115 -29h135zM118 590v40h220v-40h-220z" />
    <glyph glyph-name="Abreve" unicode="&#x102;" horiz-adv-x="588" 
d="M69 0q-10 143 -10 270q0 68 3 115t13 110t35 114.5t64 90.5q40 10 115 10q33 0 64.5 -2.5t46.5 -5.5l14 -2q39 -39 64 -90.5t35 -114.5t13 -110t3 -115q0 -56 -2.5 -123.5t-4.5 -106.5l-3 -40h-40v315h-370v-315h-40zM109 355h370q-4 109 -24.5 182t-65.5 133h-190
q-45 -60 -65.5 -133t-24.5 -182zM384 900h35q0 -55 -35.5 -92.5t-89.5 -37.5t-89.5 37.5t-35.5 92.5h35q0 -38 26 -64t64 -26q36 0 63 26.5t27 63.5z" />
    <glyph glyph-name="abreve" unicode="&#x103;" horiz-adv-x="463" 
d="M68 490q70 20 155 20q50 0 85.5 -15.5t54.5 -37.5t29.5 -60t13 -69t2.5 -78q0 -48 -2.5 -110.5t-5.5 -101.5l-2 -38q-62 -10 -175 -10q-61 0 -103.5 16t-60.5 41.5t-24.5 46t-6.5 41.5q0 22 6.5 43t24.5 46t60.5 40.5t103.5 15.5q24 0 58 -2.5t55 -5.5l22 -2
q0 108 -29 154t-106 46q-38 0 -76.5 -4t-58.5 -8l-20 -3v35zM358 30v210h-135q-85 0 -115 -29.5t-30 -75.5q0 -47 30 -76t115 -29h135zM318 700h35q0 -55 -35.5 -92.5t-89.5 -37.5t-89.5 37.5t-35.5 92.5h35q0 -38 26 -64t64 -26q36 0 63 26.5t27 63.5z" />
    <glyph glyph-name="Aogonek" unicode="&#x104;" horiz-adv-x="588" 
d="M549 -175v-30q-30 -15 -80 -15q-41 0 -75.5 30.5t-34.5 79.5q0 28 16.5 53t41 40t39 22t23.5 10v300h-370v-315h-40q-10 143 -10 270q0 68 3 115t13 110t35 114.5t64 90.5q40 10 115 10q33 0 64.5 -2.5t46.5 -5.5l14 -2q39 -39 64 -90.5t35 -114.5t13 -110t3 -115
q0 -56 -2.5 -123.5t-4.5 -106.5l-3 -40q-5 -1 -12.5 -4t-27.5 -13t-35 -22t-27.5 -31t-12.5 -40q0 -33 22 -54t53 -21q18 0 35.5 2.5t25.5 4.5zM109 355h370q-4 109 -24.5 182t-65.5 133h-190q-45 -60 -65.5 -133t-24.5 -182z" />
    <glyph glyph-name="aogonek" unicode="&#x105;" horiz-adv-x="463" 
d="M418 -175v-30q-30 -15 -80 -15q-41 0 -75.5 30.5t-34.5 79.5q0 60 70 102q-44 -2 -75 -2q-61 0 -103.5 16t-60.5 41.5t-24.5 46t-6.5 41.5q0 22 6.5 43t24.5 46t60.5 40.5t103.5 15.5q24 0 58 -2.5t55 -5.5l22 -2q0 108 -29 154t-106 46q-38 0 -76.5 -4t-58.5 -8l-20 -3
v35q70 20 155 20q50 0 85.5 -15.5t54.5 -37.5t29.5 -60t13 -69t2.5 -78q0 -48 -2.5 -110.5t-5.5 -101.5l-2 -38q-8 -1 -18 -2q-107 -40 -107 -108q0 -33 22 -54t53 -21q18 0 35.5 2.5t26.5 4.5zM358 30v210h-135q-85 0 -115 -29.5t-30 -75.5q0 -47 30 -76t115 -29h135z" />
    <glyph glyph-name="Cacute" unicode="&#x106;" horiz-adv-x="524" 
d="M301 -10q-62 0 -107.5 18t-73.5 48t-45 77t-23 98.5t-6 118.5q0 62 4.5 109t20.5 97t43 81.5t74.5 52t112.5 20.5q56 0 104.5 -11t69.5 -23l21 -11v-35l-23 11t-65.5 18t-106.5 11q-52 0 -90 -18t-60 -46t-34.5 -72t-16.5 -86t-4 -98t4 -98t16.5 -86t34.5 -72t60 -46
t90 -18q60 0 108.5 10t67.5 20l19 10v-35q-8 -5 -23 -12.5t-65.5 -20t-106.5 -12.5zM271 760l-25 25q80 70 140 130l30 -30q-27 -27 -63 -58t-59 -49z" />
    <glyph glyph-name="cacute" unicode="&#x107;" horiz-adv-x="416" 
d="M245 -10q-205 0 -205 260t210 260q36 0 71 -6t52 -12l17 -7v-35q-60 20 -140 20q-41 0 -70.5 -12.5t-46.5 -31.5t-27 -49t-13 -59.5t-3 -67.5q0 -49 5.5 -84t21 -68t47.5 -50.5t81 -17.5q38 0 74 5t53 10l18 5v-35q-60 -25 -145 -25zM215 560l-25 25q80 70 140 130
l30 -30q-27 -27 -63 -58t-59 -49z" />
    <glyph glyph-name="Ccircumflex" unicode="&#x108;" horiz-adv-x="524" 
d="M301 -10q-62 0 -107.5 18t-73.5 48t-45 77t-23 98.5t-6 118.5q0 62 4.5 109t20.5 97t43 81.5t74.5 52t112.5 20.5q56 0 104.5 -11t69.5 -23l21 -11v-35l-23 11t-65.5 18t-106.5 11q-52 0 -90 -18t-60 -46t-34.5 -72t-16.5 -86t-4 -98t4 -98t16.5 -86t34.5 -72t60 -46
t90 -18q60 0 108.5 10t67.5 20l19 10v-35q-8 -5 -23 -12.5t-65.5 -20t-106.5 -12.5zM301 915q31 -22 66 -54.5t55 -54.5l19 -21l-25 -25q-45 50 -115 100q-31 -22 -60 -47t-42 -39l-13 -14l-25 25q70 80 140 130z" />
    <glyph glyph-name="ccircumflex" unicode="&#x109;" horiz-adv-x="416" 
d="M245 -10q-205 0 -205 260t210 260q36 0 71 -6t52 -12l17 -7v-35q-60 20 -140 20q-41 0 -70.5 -12.5t-46.5 -31.5t-27 -49t-13 -59.5t-3 -67.5q0 -49 5.5 -84t21 -68t47.5 -50.5t81 -17.5q38 0 74 5t53 10l18 5v-35q-60 -25 -145 -25zM245 715q31 -22 66 -54.5t55 -54.5
l19 -21l-25 -25q-45 50 -115 100q-31 -22 -60 -47t-42 -39l-13 -14l-25 25q70 80 140 130z" />
    <glyph glyph-name="Cdotaccent" unicode="&#x10a;" horiz-adv-x="524" 
d="M301 -10q-62 0 -107.5 18t-73.5 48t-45 77t-23 98.5t-6 118.5q0 62 4.5 109t20.5 97t43 81.5t74.5 52t112.5 20.5q56 0 104.5 -11t69.5 -23l21 -11v-35l-23 11t-65.5 18t-106.5 11q-52 0 -90 -18t-60 -46t-34.5 -72t-16.5 -86t-4 -98t4 -98t16.5 -86t34.5 -72t60 -46
t90 -18q60 0 108.5 10t67.5 20l19 10v-35q-8 -5 -23 -12.5t-65.5 -20t-106.5 -12.5zM266 825q0 15 10 25t25 10t25 -10t10 -25t-10 -25t-25 -10t-25 10t-10 25z" />
    <glyph glyph-name="cdotaccent" unicode="&#x10b;" horiz-adv-x="416" 
d="M245 -10q-205 0 -205 260t210 260q36 0 71 -6t52 -12l17 -7v-35q-60 20 -140 20q-41 0 -70.5 -12.5t-46.5 -31.5t-27 -49t-13 -59.5t-3 -67.5q0 -49 5.5 -84t21 -68t47.5 -50.5t81 -17.5q38 0 74 5t53 10l18 5v-35q-60 -25 -145 -25zM215 625q0 15 10 25t25 10t25 -10
t10 -25t-10 -25t-25 -10t-25 10t-10 25z" />
    <glyph glyph-name="Ccaron" unicode="&#x10c;" horiz-adv-x="524" 
d="M301 -10q-62 0 -107.5 18t-73.5 48t-45 77t-23 98.5t-6 118.5q0 62 4.5 109t20.5 97t43 81.5t74.5 52t112.5 20.5q56 0 104.5 -11t69.5 -23l21 -11v-35l-23 11t-65.5 18t-106.5 11q-52 0 -90 -18t-60 -46t-34.5 -72t-16.5 -86t-4 -98t4 -98t16.5 -86t34.5 -72t60 -46
t90 -18q60 0 108.5 10t67.5 20l19 10v-35q-8 -5 -23 -12.5t-65.5 -20t-106.5 -12.5zM306 760q-31 22 -66 54.5t-54 53.5l-20 22l25 25q45 -50 115 -100q31 22 60 47t42 39l13 14l25 -25q-70 -80 -140 -130z" />
    <glyph glyph-name="ccaron" unicode="&#x10d;" horiz-adv-x="416" 
d="M245 -10q-205 0 -205 260t210 260q36 0 71 -6t52 -12l17 -7v-35q-60 20 -140 20q-41 0 -70.5 -12.5t-46.5 -31.5t-27 -49t-13 -59.5t-3 -67.5q0 -49 5.5 -84t21 -68t47.5 -50.5t81 -17.5q38 0 74 5t53 10l18 5v-35q-60 -25 -145 -25zM250 560q-31 22 -66 54.5t-54 53.5
l-20 22l25 25q45 -50 115 -100q31 22 60 47t42 39l13 14l25 -25q-70 -80 -140 -130z" />
    <glyph glyph-name="Dcaron" unicode="&#x10e;" horiz-adv-x="584" 
d="M279 -10q-59 0 -109 2.5t-70 5.5l-21 2q-10 193 -10 350q0 70 2.5 157.5t4.5 140.5l3 52q67 10 200 10q51 0 91.5 -12.5t67 -32t46 -50t30 -60t16.5 -68.5t7.5 -69t1.5 -68t-1.5 -67.5t-7.5 -69t-16.5 -68.5t-30 -60t-46 -50.5t-67 -32t-91.5 -12.5zM119 670v-320l4 -320
h156q55 0 94.5 18t61.5 46t34.5 72.5t16 85.5t3.5 98t-3.5 98t-16 85.5t-34.5 72.5t-61.5 46t-94.5 18h-160zM274 760q-31 22 -66 54.5t-54 53.5l-20 22l25 25q45 -50 115 -100q31 22 60 47t42 39l13 14l25 -25q-70 -80 -140 -130z" />
    <glyph glyph-name="dcaron" unicode="&#x10f;" 
d="M245 510q74 0 135 -19l-5 259h45q10 -230 10 -390q0 -71 -2.5 -161t-5.5 -145l-2 -54q-80 -10 -175 -10q-205 0 -205 260t205 260zM380 30v430q-62 10 -135 10q-49 0 -81 -17.5t-47.5 -50.5t-21 -68t-5.5 -84t5.5 -84t21 -68t47.5 -50.5t81 -17.5h135zM520 570h-40
q10 100 10 180h50q0 -36 -5 -81t-10 -72z" />
    <glyph glyph-name="Dcroat" unicode="&#x110;" horiz-adv-x="588" 
d="M-8 330v40h80q0 67 2.5 149.5t5.5 131.5l2 49q67 10 200 10q51 0 91.5 -12.5t67 -32t46 -50t30 -60t16.5 -68.5t7.5 -69t1.5 -68t-1.5 -67.5t-7.5 -69t-16.5 -68.5t-30 -60t-46 -50.5t-67 -32t-91.5 -12.5q-59 0 -109 2.5t-71 5.5l-20 2q-10 177 -10 330h-80zM122 670
v-300h200v-40h-200l4 -300h156q57 0 97.5 18.5t62 45.5t33 73t14.5 85t3 98t-3 98t-14.5 85t-33 73t-62 45.5t-97.5 18.5h-160z" />
    <glyph glyph-name="dcroat" unicode="&#x111;" 
d="M160 590v35h218l-3 125h45l5 -125h75v-35h-74q4 -146 4 -230q0 -71 -2.5 -161t-5.5 -145l-2 -54q-80 -10 -175 -10q-205 0 -205 260t205 260q74 0 135 -19q0 67 -1 99h-219zM380 30v430q-62 10 -135 10q-49 0 -81 -17.5t-47.5 -50.5t-21 -68t-5.5 -84t5.5 -84t21 -68
t47.5 -50.5t81 -17.5h135z" />
    <glyph glyph-name="Emacron" unicode="&#x112;" horiz-adv-x="514" 
d="M79 0q-10 192 -10 350q0 70 2.5 157.5t4.5 140.5l3 52q95 10 200 10q47 0 97 -2.5t76 -5.5l27 -2v-35q-94 5 -200 5h-160v-300h320v-40h-320l6 -300h154l200 5v-35q-95 -10 -200 -10q-42 0 -92 2.5t-79 5.5zM169 790v40h220v-40h-220z" />
    <glyph glyph-name="emacron" unicode="&#x113;" horiz-adv-x="462" 
d="M246 510q58 0 98 -16.5t57 -43t23.5 -49t6.5 -46.5q0 -135 -185 -135l-155 10q0 -200 155 -200q38 0 76.5 5t58.5 10l20 5v-35q-60 -25 -155 -25q-205 0 -205 260q0 42 3.5 74t15.5 69t33.5 61t60.5 40t92 16zM246 470q-40 0 -69.5 -13t-45.5 -32t-25.5 -48.5t-12 -55.5
t-2.5 -61h155q135 0 135 95q0 18 -5.5 35.5t-18.5 36.5t-41.5 31t-69.5 12zM136 590v40h220v-40h-220z" />
    <glyph glyph-name="Ebreve" unicode="&#x114;" horiz-adv-x="514" 
d="M79 0q-10 192 -10 350q0 70 2.5 157.5t4.5 140.5l3 52q95 10 200 10q47 0 97 -2.5t76 -5.5l27 -2v-35q-94 5 -200 5h-160v-300h320v-40h-320l6 -300h154l200 5v-35q-95 -10 -200 -10q-42 0 -92 2.5t-79 5.5zM369 900h35q0 -55 -35.5 -92.5t-89.5 -37.5t-89.5 37.5
t-35.5 92.5h35q0 -38 26.5 -64t63.5 -26q36 0 63 26.5t27 63.5z" />
    <glyph glyph-name="ebreve" unicode="&#x115;" horiz-adv-x="462" 
d="M246 510q58 0 98 -16.5t57 -43t23.5 -49t6.5 -46.5q0 -135 -185 -135l-155 10q0 -200 155 -200q38 0 76.5 5t58.5 10l20 5v-35q-60 -25 -155 -25q-205 0 -205 260q0 42 3.5 74t15.5 69t33.5 61t60.5 40t92 16zM246 470q-40 0 -69.5 -13t-45.5 -32t-25.5 -48.5t-12 -55.5
t-2.5 -61h155q135 0 135 95q0 18 -5.5 35.5t-18.5 36.5t-41.5 31t-69.5 12zM336 700h35q0 -55 -35.5 -92.5t-89.5 -37.5t-89.5 37.5t-35.5 92.5h35q0 -38 26 -64t64 -26q36 0 63 26.5t27 63.5z" />
    <glyph glyph-name="Edotaccent" unicode="&#x116;" horiz-adv-x="514" 
d="M79 0q-10 192 -10 350q0 70 2.5 157.5t4.5 140.5l3 52q95 10 200 10q47 0 97 -2.5t76 -5.5l27 -2v-35q-94 5 -200 5h-160v-300h320v-40h-320l6 -300h154l200 5v-35q-95 -10 -200 -10q-42 0 -92 2.5t-79 5.5zM244 825q0 15 10 25t25 10t25 -10t10 -25t-10 -25t-25 -10
t-25 10t-10 25z" />
    <glyph glyph-name="edotaccent" unicode="&#x117;" horiz-adv-x="462" 
d="M246 510q58 0 98 -16.5t57 -43t23.5 -49t6.5 -46.5q0 -135 -185 -135l-155 10q0 -200 155 -200q38 0 76.5 5t58.5 10l20 5v-35q-60 -25 -155 -25q-205 0 -205 260q0 42 3.5 74t15.5 69t33.5 61t60.5 40t92 16zM246 470q-40 0 -69.5 -13t-45.5 -32t-25.5 -48.5t-12 -55.5
t-2.5 -61h155q135 0 135 95q0 18 -5.5 35.5t-18.5 36.5t-41.5 31t-69.5 12zM211 625q0 15 10 25t25 10t25 -10t10 -25t-10 -25t-25 -10t-25 10t-10 25z" />
    <glyph glyph-name="Eogonek" unicode="&#x118;" horiz-adv-x="514" 
d="M479 -175v-30q-30 -15 -80 -15q-41 0 -75.5 30.5t-34.5 79.5q0 60 70 102q-52 -2 -80 -2q-42 0 -92 2.5t-79 5.5l-29 2q-10 192 -10 350q0 70 2.5 157.5t4.5 140.5l3 52q95 10 200 10q47 0 97 -2.5t76 -5.5l27 -2v-35q-94 5 -200 5h-160v-300h320v-40h-320l6 -300h154
l200 5v-35q-17 -1 -41 -3q-21 -8 -40.5 -18.5t-41.5 -35t-22 -53.5q0 -33 22 -54t53 -21q18 0 35.5 2.5t25.5 4.5z" />
    <glyph glyph-name="eogonek" unicode="&#x119;" horiz-adv-x="462" 
d="M401 -175v-30q-30 -15 -80 -15q-41 0 -75.5 30.5t-34.5 79.5q0 63 66 100h-31q-205 0 -205 260q0 42 3.5 74t15.5 69t33.5 61t60.5 40t92 16q58 0 98 -16.5t57 -43t23.5 -49t6.5 -46.5q0 -135 -185 -135l-155 10q0 -200 155 -200q38 0 76.5 5t58.5 10l20 5v-35
q-145 -54 -145 -125q0 -33 22 -54t53 -21q18 0 35.5 2.5t25.5 4.5zM246 470q-40 0 -69.5 -13t-45.5 -32t-25.5 -48.5t-12 -55.5t-2.5 -61h155q135 0 135 95q0 18 -5.5 35.5t-18.5 36.5t-41.5 31t-69.5 12z" />
    <glyph glyph-name="Ecaron" unicode="&#x11a;" horiz-adv-x="514" 
d="M79 0q-10 192 -10 350q0 70 2.5 157.5t4.5 140.5l3 52q95 10 200 10q47 0 97 -2.5t76 -5.5l27 -2v-35q-94 5 -200 5h-160v-300h320v-40h-320l6 -300h154l200 5v-35q-95 -10 -200 -10q-42 0 -92 2.5t-79 5.5zM279 760q-31 22 -66 54.5t-55 53.5l-19 22l25 25
q45 -50 115 -100q31 22 60 47t42 39l13 14l25 -25q-70 -80 -140 -130z" />
    <glyph glyph-name="ecaron" unicode="&#x11b;" horiz-adv-x="462" 
d="M246 510q58 0 98 -16.5t57 -43t23.5 -49t6.5 -46.5q0 -135 -185 -135l-155 10q0 -200 155 -200q38 0 76.5 5t58.5 10l20 5v-35q-60 -25 -155 -25q-205 0 -205 260q0 42 3.5 74t15.5 69t33.5 61t60.5 40t92 16zM246 470q-40 0 -69.5 -13t-45.5 -32t-25.5 -48.5t-12 -55.5
t-2.5 -61h155q135 0 135 95q0 18 -5.5 35.5t-18.5 36.5t-41.5 31t-69.5 12zM246 560q-31 22 -66 54.5t-54 53.5l-20 22l25 25q45 -50 115 -100q31 22 60 47t42 39l13 14l25 -25q-70 -80 -140 -130z" />
    <glyph glyph-name="Gcircumflex" unicode="&#x11c;" horiz-adv-x="584" 
d="M326 330v40h210q0 -80 -2.5 -165t-5.5 -130l-2 -45q-90 -40 -220 -40q-52 0 -93 12.5t-68 32t-46.5 50.5t-29 59.5t-15.5 69t-7 68.5t-1 68q0 35 1 59.5t4.5 60t11 61t19.5 55.5t32 50.5t46 38t63 26.5t83 9q58 0 110.5 -12.5t75.5 -25.5l24 -12v-35q-10 5 -28.5 12.5
t-73.5 20t-108 12.5q-55 0 -94.5 -18t-61.5 -46t-34.5 -72.5t-16 -85.5t-3.5 -98t3.5 -98t16 -85.5t34.5 -72.5t61.5 -46t94.5 -18q40 0 85 5t70 10l25 5v280h-160zM306 915q31 -22 66 -54.5t54 -54.5l20 -21l-25 -25q-45 50 -115 100q-31 -22 -60 -47t-42 -39l-13 -14
l-25 25q70 80 140 130z" />
    <glyph glyph-name="gcircumflex" unicode="&#x11d;" 
d="M220 -250q-27 0 -57 4t-47 8l-16 3v35q60 -10 120 -10q50 0 81.5 12.5t48.5 41t23 65t7 94.5q-85 -13 -130 -13q-210 0 -210 260t210 260q44 0 86.5 -2.5t63.5 -5.5l20 -2q10 -200 10 -350q0 -96 -3.5 -154t-15.5 -111t-35 -79t-61 -41t-95 -15zM250 30l130 5v435h-130
q-50 0 -83.5 -19.5t-49.5 -54t-21.5 -69t-5.5 -77.5t5.5 -77.5t21.5 -69t49.5 -54t83.5 -19.5zM255 715q31 -22 66 -54.5t55 -54.5l19 -21l-25 -25q-45 50 -115 100q-31 -22 -60 -47t-42 -39l-13 -14l-25 25q70 80 140 130z" />
    <glyph glyph-name="Gbreve" unicode="&#x11e;" horiz-adv-x="584" 
d="M326 330v40h210q0 -80 -2.5 -165t-5.5 -130l-2 -45q-90 -40 -220 -40q-52 0 -93 12.5t-68 32t-46.5 50.5t-29 59.5t-15.5 69t-7 68.5t-1 68q0 35 1 59.5t4.5 60t11 61t19.5 55.5t32 50.5t46 38t63 26.5t83 9q58 0 110.5 -12.5t75.5 -25.5l24 -12v-35q-10 5 -28.5 12.5
t-73.5 20t-108 12.5q-55 0 -94.5 -18t-61.5 -46t-34.5 -72.5t-16 -85.5t-3.5 -98t3.5 -98t16 -85.5t34.5 -72.5t61.5 -46t94.5 -18q40 0 85 5t70 10l25 5v280h-160zM396 900h35q0 -55 -35.5 -92.5t-89.5 -37.5t-89.5 37.5t-35.5 92.5h35q0 -38 26 -64t64 -26q36 0 63 26.5
t27 63.5z" />
    <glyph glyph-name="gbreve" unicode="&#x11f;" 
d="M220 -250q-27 0 -57 4t-47 8l-16 3v35q60 -10 120 -10q50 0 81.5 12.5t48.5 41t23 65t7 94.5q-85 -13 -130 -13q-210 0 -210 260t210 260q44 0 86.5 -2.5t63.5 -5.5l20 -2q10 -200 10 -350q0 -96 -3.5 -154t-15.5 -111t-35 -79t-61 -41t-95 -15zM250 30l130 5v435h-130
q-50 0 -83.5 -19.5t-49.5 -54t-21.5 -69t-5.5 -77.5t5.5 -77.5t21.5 -69t49.5 -54t83.5 -19.5zM350 700h35q0 -55 -35.5 -92.5t-89.5 -37.5t-89.5 37.5t-35.5 92.5h35q0 -38 26 -64t64 -26q36 0 63 26.5t27 63.5z" />
    <glyph glyph-name="Gdotaccent" unicode="&#x120;" horiz-adv-x="584" 
d="M326 330v40h210q0 -80 -2.5 -165t-5.5 -130l-2 -45q-90 -40 -220 -40q-52 0 -93 12.5t-68 32t-46.5 50.5t-29 59.5t-15.5 69t-7 68.5t-1 68q0 35 1 59.5t4.5 60t11 61t19.5 55.5t32 50.5t46 38t63 26.5t83 9q58 0 110.5 -12.5t75.5 -25.5l24 -12v-35q-10 5 -28.5 12.5
t-73.5 20t-108 12.5q-55 0 -94.5 -18t-61.5 -46t-34.5 -72.5t-16 -85.5t-3.5 -98t3.5 -98t16 -85.5t34.5 -72.5t61.5 -46t94.5 -18q40 0 85 5t70 10l25 5v280h-160zM271 825q0 15 10 25t25 10t25 -10t10 -25t-10 -25t-25 -10t-25 10t-10 25z" />
    <glyph glyph-name="gdotaccent" unicode="&#x121;" 
d="M220 -250q-27 0 -57 4t-47 8l-16 3v35q60 -10 120 -10q50 0 81.5 12.5t48.5 41t23 65t7 94.5q-85 -13 -130 -13q-210 0 -210 260t210 260q44 0 86.5 -2.5t63.5 -5.5l20 -2q10 -200 10 -350q0 -96 -3.5 -154t-15.5 -111t-35 -79t-61 -41t-95 -15zM250 30l130 5v435h-130
q-50 0 -83.5 -19.5t-49.5 -54t-21.5 -69t-5.5 -77.5t5.5 -77.5t21.5 -69t49.5 -54t83.5 -19.5zM225 625q0 15 10 25t25 10t25 -10t10 -25t-10 -25t-25 -10t-25 10t-10 25z" />
    <glyph glyph-name="Gcommaaccent" unicode="&#x122;" horiz-adv-x="584" 
d="M326 330v40h210q0 -80 -2.5 -165t-5.5 -130l-2 -45q-90 -40 -220 -40q-52 0 -93 12.5t-68 32t-46.5 50.5t-29 59.5t-15.5 69t-7 68.5t-1 68q0 35 1 59.5t4.5 60t11 61t19.5 55.5t32 50.5t46 38t63 26.5t83 9q58 0 110.5 -12.5t75.5 -25.5l24 -12v-35q-10 5 -28.5 12.5
t-73.5 20t-108 12.5q-55 0 -94.5 -18t-61.5 -46t-34.5 -72.5t-16 -85.5t-3.5 -98t3.5 -98t16 -85.5t34.5 -72.5t61.5 -46t94.5 -18q40 0 85 5t70 10l25 5v280h-160zM321 -240h-40q10 100 10 180h50q0 -36 -5 -81t-10 -72z" />
    <glyph glyph-name="gcommaaccent" unicode="&#x123;" 
d="M220 -250q-27 0 -57 4t-47 8l-16 3v35q60 -10 120 -10q50 0 81.5 12.5t48.5 41t23 65t7 94.5q-85 -13 -130 -13q-210 0 -210 260t210 260q44 0 86.5 -2.5t63.5 -5.5l20 -2q10 -200 10 -350q0 -96 -3.5 -154t-15.5 -111t-35 -79t-61 -41t-95 -15zM250 30l130 5v435h-130
q-50 0 -83.5 -19.5t-49.5 -54t-21.5 -69t-5.5 -77.5t5.5 -77.5t21.5 -69t49.5 -54t83.5 -19.5zM260 740h40q-10 -100 -10 -180h-50q0 36 5 81t10 72z" />
    <glyph glyph-name="Hcircumflex" unicode="&#x124;" horiz-adv-x="617" 
d="M539 0h-40v330h-380l5 -330h-45q-10 200 -10 350q0 67 2.5 154.5t4.5 141.5l3 54h45q-5 -195 -5 -330h380l-5 330h45q10 -200 10 -350q0 -67 -2.5 -154.5t-4.5 -141.5zM309 915q31 -22 66 -54.5t55 -54.5l19 -21l-25 -25q-45 50 -115 100q-31 -22 -60 -47t-42 -39
l-13 -14l-25 25q70 80 140 130z" />
    <glyph glyph-name="hcircumflex" unicode="&#x125;" horiz-adv-x="503" 
d="M400 250q0 45 -4.5 78t-19 68.5t-46.5 54.5t-80 19l-140 -5v-465h-40q-10 200 -10 350q0 67 2 162t4 156l3 62h45q-4 -115 -4 -235q66 15 140 15q53 0 92 -18t59 -44t32 -64.5t14.5 -67.5t2.5 -66l-10 -250h-40v250zM99 930q31 -22 66 -54.5t55 -53.5l19 -22l-25 -25
q-45 50 -115 100q-31 -22 -60 -47t-42 -39l-13 -14l-25 25q70 80 140 130z" />
    <glyph glyph-name="Hbar" unicode="&#x126;" horiz-adv-x="616" 
d="M-1 510v35h73l7 155h45q-2 -70 -4 -155h377l-3 155h45q3 -69 6 -155h74v-35h-73q3 -79 3 -160q0 -67 -2.5 -154.5t-4.5 -141.5l-3 -54h-40v330h-380l5 -330h-45q-10 200 -10 350q0 54 2 160h-72zM499 370q0 21 -0.5 68.5t-0.5 71.5h-378q-1 -47 -1 -140h380z" />
    <glyph glyph-name="hbar" unicode="&#x127;" horiz-adv-x="503" 
d="M0 595v35h65l5 120h45q-2 -52 -4 -120h229v-35h-229q-1 -33 -1 -100q66 15 140 15q53 0 92 -18t59 -44t32 -64.5t14.5 -67.5t2.5 -66l-10 -250h-40v250q0 45 -4.5 78t-19 68.5t-46.5 54.5t-80 19l-140 -5v-465h-40q-10 200 -10 350q0 87 4 245h-64z" />
    <glyph glyph-name="Itilde" unicode="&#x128;" horiz-adv-x="193" 
d="M124 0h-45q-10 193 -10 350q0 70 2.5 157.5t4.5 140.5l3 52h45q-5 -193 -5 -350zM44 870q28 0 68 -30t52 -30q18 0 29 12.5t13 25.5l3 12h35q0 -4 -1 -10t-6 -21.5t-12.5 -27.5t-23.5 -21.5t-37 -9.5q-28 0 -68 30t-52 30q-18 0 -29 -12.5t-13 -25.5l-3 -12h-35q0 4 1 10
t6 21.5t12.5 27.5t23.5 21.5t37 9.5z" />
    <glyph glyph-name="itilde" unicode="&#x129;" horiz-adv-x="173" 
d="M110 0h-40q-10 200 -10 360l2 140h48v-500zM35 670q27 0 57 -30t43 -30q20 0 31.5 12.5t12.5 25.5l1 12h35q0 -4 -0.5 -10t-5 -21.5t-12 -27.5t-24 -21.5t-38.5 -9.5q-27 0 -57 30t-43 30q-20 0 -31 -12.5t-12 -25.5l-2 -12h-35q0 4 0.5 10t5 21.5t12 27.5t24 21.5
t38.5 9.5z" />
    <glyph glyph-name="Imacron" unicode="&#x12a;" horiz-adv-x="193" 
d="M124 0h-45q-10 193 -10 350q0 70 2.5 157.5t4.5 140.5l3 52h45q-5 -193 -5 -350zM-6 790v40h220v-40h-220z" />
    <glyph glyph-name="imacron" unicode="&#x12b;" horiz-adv-x="173" 
d="M110 0h-40q-10 200 -10 360l2 140h48v-500zM-5 590v40h180v-40h-180z" />
    <glyph glyph-name="Ibreve" unicode="&#x12c;" horiz-adv-x="193" 
d="M124 0h-45q-10 193 -10 350q0 70 2.5 157.5t4.5 140.5l3 52h45q-5 -193 -5 -350zM194 900h35q0 -55 -35.5 -92.5t-89.5 -37.5t-89.5 37.5t-35.5 92.5h35q0 -38 26 -64t64 -26q36 0 63 26.5t27 63.5z" />
    <glyph glyph-name="ibreve" unicode="&#x12d;" horiz-adv-x="173" 
d="M110 0h-40q-10 200 -10 360l2 140h48v-500zM160 700h35q0 -56 -29.5 -93t-80.5 -37t-80.5 37t-29.5 93h35q0 -39 19.5 -64.5t55.5 -25.5t55.5 25.5t19.5 64.5z" />
    <glyph glyph-name="Iogonek" unicode="&#x12e;" horiz-adv-x="194" 
d="M170 -175v-30q-30 -15 -80 -15q-41 0 -75.5 30.5t-34.5 79.5q0 23 10 44t24.5 35t29.5 24.5t25 14.5l10 5q-9 202 -9 337q0 70 2.5 157.5t5.5 140.5l2 52h45q-5 -193 -5 -350l5 -350q-4 -1 -11 -4t-24 -13t-30 -22t-24 -31t-11 -40q0 -33 22 -54t53 -21q18 0 35.5 2.5
t26.5 4.5z" />
    <glyph glyph-name="iogonek" unicode="&#x12f;" horiz-adv-x="175" 
d="M162 -175v-30q-30 -15 -80 -15q-41 0 -75.5 30.5t-34.5 79.5q0 37 25 68t43.5 41t30.5 15q-9 211 -9 346l3 140h47v-500q-4 -1 -10.5 -4t-22.5 -13t-28.5 -22t-23 -31t-10.5 -40q0 -33 22 -54t53 -21q18 0 35.5 2.5t26.5 4.5zM57 625q0 15 10 25t25 10t25 -10t10 -25
t-10 -25t-25 -10t-25 10t-10 25z" />
    <glyph glyph-name="Idotaccent" unicode="&#x130;" horiz-adv-x="193" 
d="M124 0h-45q-10 193 -10 350q0 70 2.5 157.5t4.5 140.5l3 52h45q-5 -193 -5 -350zM69 825q0 15 10 25t25 10t25 -10t10 -25t-10 -25t-25 -10t-25 10t-10 25z" />
    <glyph glyph-name="dotlessi" unicode="&#x131;" horiz-adv-x="173" 
d="M110 0h-40q-10 200 -10 360l2 140h48v-500z" />
    <glyph glyph-name="IJ" unicode="&#x132;" horiz-adv-x="405" 
d="M124 0h-45q-10 193 -10 350q0 70 2.5 157.5t4.5 140.5l3 52h45q-5 -193 -5 -350zM336 350v-190q0 -88 -36.5 -129t-133.5 -41v35q70 0 97.5 32.5t27.5 102.5q0 28 -2.5 89t-2.5 101q0 70 2.5 157.5t5.5 140.5l2 52h45q-5 -193 -5 -350z" />
    <glyph glyph-name="ij" unicode="&#x133;" horiz-adv-x="325" 
d="M110 0h-40q-10 200 -10 360l3 140h47v-500zM55 625q0 15 10 25t25 10t25 -10t10 -25t-10 -25t-25 -10t-25 10t-10 25zM260 500v-150q0 -89 2.5 -216.5t2.5 -133.5q0 -63 -6 -105.5t-17 -69.5t-32.5 -41t-46 -19t-63.5 -5v35q26 0 40 2t32 12.5t26.5 31.5t15 61t6.5 98
q0 5 -5 135t-5 225l3 140h47zM205 625q0 15 10 25t25 10t25 -10t10 -25t-10 -25t-25 -10t-25 10t-10 25z" />
    <glyph glyph-name="Jcircumflex" unicode="&#x134;" horiz-adv-x="247" 
d="M178 350v-190q0 -88 -36.5 -129t-133.5 -41v35q70 0 97.5 32.5t27.5 102.5q0 28 -2.5 89t-2.5 101q0 70 2.5 157.5t5.5 140.5l2 52h45q-5 -193 -5 -350zM158 915q31 -22 66 -54.5t54 -54.5l20 -21l-25 -25q-45 50 -115 100q-31 -22 -60 -47t-42 -39l-13 -14l-25 25
q70 80 140 130z" />
    <glyph glyph-name="jcircumflex" unicode="&#x135;" horiz-adv-x="175" 
d="M110 500v-150q0 -89 2.5 -216.5t2.5 -133.5q0 -63 -6 -105.5t-17 -69.5t-32.5 -41t-46 -19t-63.5 -5v35q26 0 40 2t32 12.5t26.5 31.5t15 61t6.5 98q0 5 -5 135t-5 225l3 140h47zM86 715q36 -25 80 -68v-52q-39 36 -80 65q-45 -33 -80 -66v53q43 41 80 68z" />
    <glyph glyph-name="Kcommaaccent" unicode="&#x136;" horiz-adv-x="531" 
d="M119 350l5 -350h-45q-10 193 -10 350q0 70 2.5 157.5t4.5 140.5l3 52h45q-5 -185 -5 -350zM119 350l128 122q31 29 85.5 86l93.5 100l38 42h65l-266 -275l-80 -75q61 -55 81 -75l265 -275h-65q-146 163 -216 229zM289 -240h-40q10 100 10 180h50q0 -36 -5 -81t-10 -72z
" />
    <glyph glyph-name="kcommaaccent" unicode="&#x137;" horiz-adv-x="438" 
d="M110 0h-40q-10 200 -10 350q0 67 2.5 167t5.5 167l2 66h45q-5 -250 -5 -400v-350zM110 250l130 120l61.5 59.5l50.5 51.5l18 19h60l-160 -160l-100 -90q80 -70 100 -90l160 -160h-60q-65 70 -130 130zM240 -240h-40q10 100 10 180h50q0 -36 -5 -81t-10 -72z" />
    <glyph glyph-name="kgreenlandic" unicode="&#x138;" horiz-adv-x="439" 
d="M111 0h-40q-10 200 -10 350v150h50v-500zM111 250l130 120l61.5 59.5l50.5 51.5l18 19h60l-160 -160l-100 -90q80 -70 100 -90l160 -160h-60q-65 70 -130 130z" />
    <glyph glyph-name="Lacute" unicode="&#x139;" horiz-adv-x="484" 
d="M79 0q-10 193 -10 350q0 70 2.5 157.5t4.5 140.5l3 52h45q-5 -193 -5 -350l5 -320h155l200 5v-35q-95 -10 -200 -10q-46 0 -96 2.5t-77 5.5zM74 760l-25 25q80 70 140 130l30 -30q-27 -27 -63 -58t-59 -49z" />
    <glyph glyph-name="lacute" unicode="&#x13a;" horiz-adv-x="173" 
d="M110 0h-40q-10 200 -10 360q0 71 2.5 161t5.5 145l2 54h45q-5 -190 -5 -360v-360zM65 760l-25 25q80 70 140 130l30 -30q-27 -27 -63 -58t-59 -49z" />
    <glyph glyph-name="Lcommaaccent" unicode="&#x13b;" horiz-adv-x="484" 
d="M79 0q-10 193 -10 350q0 70 2.5 157.5t4.5 140.5l3 52h45q-5 -193 -5 -350l5 -320h155l200 5v-35q-95 -10 -200 -10q-46 0 -96 2.5t-77 5.5zM284 -240h-40q10 100 10 180h50q0 -36 -5 -81t-10 -72z" />
    <glyph glyph-name="lcommaaccent" unicode="&#x13c;" horiz-adv-x="173" 
d="M110 0h-40q-10 200 -10 360q0 71 2.5 168.5t5.5 159.5l2 62h45q-5 -220 -5 -390v-360zM95 -240h-40q10 100 10 180h50q0 -36 -5 -81t-10 -72z" />
    <glyph glyph-name="Lcaron" unicode="&#x13d;" horiz-adv-x="484" 
d="M79 0q-10 193 -10 350q0 70 2.5 157.5t4.5 140.5l3 52h45q-5 -193 -5 -350l5 -320h155l200 5v-35q-95 -10 -200 -10q-46 0 -96 2.5t-77 5.5zM224 520h-40q10 100 10 180h50q0 -36 -5 -81t-10 -72z" />
    <glyph glyph-name="lcaron" unicode="&#x13e;" horiz-adv-x="173" 
d="M110 0h-40q-10 200 -10 360q0 71 2.5 168.5t5.5 159.5l2 62h45q-5 -220 -5 -390v-360zM215 570h-40q10 100 10 180h50q0 -36 -5 -81t-10 -72z" />
    <glyph glyph-name="Ldot" unicode="&#x13f;" horiz-adv-x="484" 
d="M79 0q-10 193 -10 350q0 70 2.5 157.5t4.5 140.5l3 52h45q-5 -193 -5 -350l5 -320h155l200 5v-35q-95 -10 -200 -10q-46 0 -96 2.5t-77 5.5zM249 350q0 15 10 25t25 10t25 -10t10 -25t-10 -25t-25 -10t-25 10t-10 25z" />
    <glyph glyph-name="ldot" unicode="&#x140;" horiz-adv-x="239" 
d="M110 0h-40q-10 200 -10 360q0 71 2.5 168.5t5.5 159.5l2 62h45q-5 -220 -5 -390v-360zM170 350q0 15 10 25t25 10t25 -10t10 -25t-10 -25t-25 -10t-25 10t-10 25z" />
    <glyph glyph-name="Lslash" unicode="&#x141;" horiz-adv-x="496" 
d="M-8 265v40l90 39q0 186 10 356h45q-5 -124 -5 -333l90 38v-40l-90 -39q0 -128 5 -296h145l200 5v-35q-95 -10 -200 -10q-46 0 -93.5 2.5t-72.5 5.5l-24 2q-9 158 -10 304z" />
    <glyph glyph-name="lslash" unicode="&#x142;" horiz-adv-x="210" 
d="M-11 265v40l90 39q0 212 10 406h45q-5 -144 -5 -383l90 38v-40l-90 -39v-326h-40q-8 157 -10 304z" />
    <glyph glyph-name="Nacute" unicode="&#x143;" horiz-adv-x="628" 
d="M79 700h60q130 -220 190 -330l72 -126.5l77 -130.5l31 -53v290l-5 350h45q10 -193 10 -350q0 -70 -2.5 -157.5t-4.5 -140.5l-3 -52h-60q-130 220 -190 330l-72 126.5l-77 130.5l-31 53v-290l5 -350h-45q-10 193 -10 350q0 70 2.5 157.5t4.5 140.5zM279 760l-25 25
q80 70 140 130l30 -30q-27 -27 -63 -58t-59 -49z" />
    <glyph glyph-name="nacute" unicode="&#x144;" horiz-adv-x="522" 
d="M110 0h-40q-10 200 -10 360l3 140h32q7 -20 15 -80q26 43 61 66.5t94 23.5q205 0 205 -260l-10 -250h-40v250q0 49 -5.5 84t-21 68t-47.5 50.5t-81 17.5q-83 0 -119 -57t-36 -143v-270zM230 560l-25 25q80 70 140 130l30 -30q-27 -27 -63 -58t-59 -49z" />
    <glyph glyph-name="Ncommaaccent" unicode="&#x145;" horiz-adv-x="628" 
d="M79 700h60q130 -220 190 -330l72 -126.5l77 -130.5l31 -53v290l-5 350h45q10 -193 10 -350q0 -70 -2.5 -157.5t-4.5 -140.5l-3 -52h-60q-130 220 -190 330l-72 126.5l-77 130.5l-31 53v-290l5 -350h-45q-10 193 -10 350q0 70 2.5 157.5t4.5 140.5zM314 -240h-40
q10 100 10 180h50q0 -36 -5 -81t-10 -72z" />
    <glyph glyph-name="ncommaaccent" unicode="&#x146;" horiz-adv-x="522" 
d="M110 0h-40q-10 200 -10 360l3 140h32q7 -20 15 -80q26 43 61 66.5t94 23.5q205 0 205 -260l-10 -250h-40v250q0 49 -5.5 84t-21 68t-47.5 50.5t-81 17.5q-83 0 -119 -57t-36 -143v-270zM270 -240h-40q10 100 10 180h50q0 -36 -5 -81t-10 -72z" />
    <glyph glyph-name="Ncaron" unicode="&#x147;" horiz-adv-x="628" 
d="M79 700h60q130 -220 190 -330l72 -126.5l77 -130.5l31 -53v290l-5 350h45q10 -193 10 -350q0 -70 -2.5 -157.5t-4.5 -140.5l-3 -52h-60q-130 220 -190 330l-72 126.5l-77 130.5l-31 53v-290l5 -350h-45q-10 193 -10 350q0 70 2.5 157.5t4.5 140.5zM319 760
q-31 22 -66 54.5t-55 53.5l-19 22l25 25q45 -50 115 -100q31 22 60 47t42 39l13 14l25 -25q-70 -80 -140 -130z" />
    <glyph glyph-name="ncaron" unicode="&#x148;" horiz-adv-x="522" 
d="M110 0h-40q-10 200 -10 360l3 140h32q7 -20 15 -80q26 43 61 66.5t94 23.5q205 0 205 -260l-10 -250h-40v250q0 49 -5.5 84t-21 68t-47.5 50.5t-81 17.5q-83 0 -119 -57t-36 -143v-270zM260 560q-31 22 -66 54.5t-54 53.5l-20 22l25 25q45 -50 115 -100q31 22 60 47
t42 39l13 14l25 -25q-70 -80 -140 -130z" />
    <glyph glyph-name="napostrophe" unicode="&#x149;" horiz-adv-x="523" 
d="M111 0h-40q-10 200 -10 360l3 140h32q7 -20 15 -80q26 43 61 66.5t94 23.5q205 0 205 -260l-10 -250h-40v250q0 49 -5.5 84t-21 68t-47.5 50.5t-81 17.5q-83 0 -119 -57t-36 -143v-270zM96 560h-40q10 120 10 190h50q0 -31 -5 -78.5t-10 -79.5z" />
    <glyph glyph-name="Eng" unicode="&#x14a;" horiz-adv-x="628" 
d="M79 700h60q130 -220 190 -330l72 -126.5l77 -130.5l31 -53v290l-5 350h45q10 -193 10 -350q0 -138 -10 -350q-5 -122 -40 -166t-135 -44v35q73 0 102.5 37.5t29.5 137.5h-17q-130 220 -190 330l-72 126.5l-77 130.5l-31 53v-290l5 -350h-45q-10 193 -10 350
q0 70 2.5 157.5t4.5 140.5z" />
    <glyph glyph-name="eng" unicode="&#x14b;" horiz-adv-x="520" 
d="M420 0v250q0 49 -5.5 84t-21 68t-47.5 50.5t-81 17.5q-83 0 -119 -57t-36 -143v-270h-40q-10 200 -10 360l3 140h32q7 -20 15 -80q26 43 61 66.5t94 23.5q202 0 202 -260q0 -110 -7 -250q-6 -123 -39.5 -166.5t-132.5 -43.5v35q73 0 102.5 37.5t29.5 137.5z" />
    <glyph glyph-name="Omacron" unicode="&#x14c;" horiz-adv-x="604" 
d="M47 350q0 40 1 68t6.5 68.5t15.5 69t29 59.5t45.5 50.5t66.5 32t91 12.5t91 -12.5t66.5 -32t45.5 -50.5t29 -59.5t15.5 -69t6.5 -68.5t1 -68t-1 -68t-6.5 -68.5t-15.5 -69t-29 -59.5t-45.5 -50.5t-66.5 -32t-91 -12.5t-91 12.5t-66.5 32t-45.5 50.5t-29 59.5t-15.5 69
t-6.5 68.5t-1 68zM97 350q0 -57 3.5 -98t15.5 -85.5t33.5 -72.5t60 -46t92.5 -18t92.5 18t60 46t33.5 72.5t15.5 85.5t3.5 98t-3.5 98t-15.5 85.5t-33.5 72.5t-60 46t-92.5 18t-92.5 -18t-60 -46t-33.5 -72.5t-15.5 -85.5t-3.5 -98zM192 790v40h220v-40h-220z" />
    <glyph glyph-name="omacron" unicode="&#x14d;" 
d="M245 470q-49 0 -81 -17.5t-47.5 -50.5t-21 -68t-5.5 -84t5.5 -84t21 -68t47.5 -50.5t81 -17.5t81 17.5t47.5 50.5t21 68t5.5 84t-5.5 84t-21 68t-47.5 50.5t-81 17.5zM245 510q205 0 205 -260t-205 -260t-205 260t205 260zM135 590v40h220v-40h-220z" />
    <glyph glyph-name="Obreve" unicode="&#x14e;" horiz-adv-x="604" 
d="M47 350q0 40 1 68t6.5 68.5t15.5 69t29 59.5t45.5 50.5t66.5 32t91 12.5t91 -12.5t66.5 -32t45.5 -50.5t29 -59.5t15.5 -69t6.5 -68.5t1 -68t-1 -68t-6.5 -68.5t-15.5 -69t-29 -59.5t-45.5 -50.5t-66.5 -32t-91 -12.5t-91 12.5t-66.5 32t-45.5 50.5t-29 59.5t-15.5 69
t-6.5 68.5t-1 68zM97 350q0 -57 3.5 -98t15.5 -85.5t33.5 -72.5t60 -46t92.5 -18t92.5 18t60 46t33.5 72.5t15.5 85.5t3.5 98t-3.5 98t-15.5 85.5t-33.5 72.5t-60 46t-92.5 18t-92.5 -18t-60 -46t-33.5 -72.5t-15.5 -85.5t-3.5 -98zM392 900h35q0 -55 -35.5 -92.5
t-89.5 -37.5t-89.5 37.5t-35.5 92.5h35q0 -38 26 -64t64 -26q36 0 63 26.5t27 63.5z" />
    <glyph glyph-name="obreve" unicode="&#x14f;" 
d="M245 470q-49 0 -81 -17.5t-47.5 -50.5t-21 -68t-5.5 -84t5.5 -84t21 -68t47.5 -50.5t81 -17.5t81 17.5t47.5 50.5t21 68t5.5 84t-5.5 84t-21 68t-47.5 50.5t-81 17.5zM245 510q205 0 205 -260t-205 -260t-205 260t205 260zM335 700h35q0 -55 -35.5 -92.5t-89.5 -37.5
t-89.5 37.5t-35.5 92.5h35q0 -38 26.5 -64t63.5 -26q36 0 63 26.5t27 63.5z" />
    <glyph glyph-name="Ohungarumlaut" unicode="&#x150;" horiz-adv-x="604" 
d="M47 350q0 40 1 68t6.5 68.5t15.5 69t29 59.5t45.5 50.5t66.5 32t91 12.5t91 -12.5t66.5 -32t45.5 -50.5t29 -59.5t15.5 -69t6.5 -68.5t1 -68t-1 -68t-6.5 -68.5t-15.5 -69t-29 -59.5t-45.5 -50.5t-66.5 -32t-91 -12.5t-91 12.5t-66.5 32t-45.5 50.5t-29 59.5t-15.5 69
t-6.5 68.5t-1 68zM97 350q0 -57 3.5 -98t15.5 -85.5t33.5 -72.5t60 -46t92.5 -18t92.5 18t60 46t33.5 72.5t15.5 85.5t3.5 98t-3.5 98t-15.5 85.5t-33.5 72.5t-60 46t-92.5 18t-92.5 -18t-60 -46t-33.5 -72.5t-15.5 -85.5t-3.5 -98zM362 760l-25 25q80 70 140 130l30 -30
q-27 -27 -63 -58t-59 -49zM202 760l-25 25q80 70 140 130l30 -30q-27 -27 -63 -58t-59 -49z" />
    <glyph glyph-name="ohungarumlaut" unicode="&#x151;" 
d="M245 470q-49 0 -81 -17.5t-47.5 -50.5t-21 -68t-5.5 -84t5.5 -84t21 -68t47.5 -50.5t81 -17.5t81 17.5t47.5 50.5t21 68t5.5 84t-5.5 84t-21 68t-47.5 50.5t-81 17.5zM245 510q205 0 205 -260t-205 -260t-205 260t205 260zM315 560l-25 25q80 70 140 130l30 -30
q-27 -27 -63 -58t-59 -49zM155 560l-25 25q80 70 140 130l30 -30q-27 -27 -63 -58t-59 -49z" />
    <glyph glyph-name="OE" unicode="&#x152;" horiz-adv-x="952" 
d="M517 0q-3 39 -5 96q-60 -106 -210 -106q-51 0 -91 12.5t-66.5 32t-45.5 50.5t-29 59.5t-15.5 69t-6.5 68.5t-1 68t1 68t6.5 68.5t15.5 69t29 59.5t45.5 50.5t66.5 32t91 12.5q151 0 210 -107l5 97q95 10 200 10q47 0 97 -2.5t76 -5.5l27 -2v-35q-94 5 -200 5h-160v-300
h320v-40h-320l6 -300h154l200 5v-35q-95 -10 -200 -10q-42 0 -92 2.5t-79 5.5zM97 350q0 -57 3.5 -98t15.5 -85.5t33.5 -72.5t60 -46t92.5 -18q63 0 105 23.5t62.5 70t28 99t7.5 127.5t-7.5 127.5t-28 99t-62.5 70t-105 23.5q-54 0 -92.5 -18t-60 -46t-33.5 -72.5
t-15.5 -85.5t-3.5 -98z" />
    <glyph glyph-name="oe" unicode="&#x153;" horiz-adv-x="821" 
d="M605 510q58 0 98 -16.5t57 -43t23.5 -49t6.5 -46.5q0 -135 -185 -135l-155 10q0 -200 155 -200q38 0 76.5 5t58.5 10l20 5v-35q-60 -25 -155 -25q-133 0 -180 109q-47 -109 -180 -109q-205 0 -205 260t205 260q129 0 178 -106q43 106 182 106zM245 470q-49 0 -81 -17.5
t-47.5 -50.5t-21 -68t-5.5 -84t5.5 -84t21 -68t47.5 -50.5t81 -17.5t81 17.5t47.5 50.5t21 68t5.5 84q0 106 -33 163t-122 57zM605 470q-40 0 -69 -12.5t-45.5 -31t-26 -48t-12 -56.5t-2.5 -62h155q135 0 135 95q0 18 -5.5 35.5t-18.5 36.5t-41.5 31t-69.5 12z" />
    <glyph glyph-name="Racute" unicode="&#x154;" horiz-adv-x="561" 
d="M549 0h-60l-90 145.5l-80 124.5l-30 45h-170l5 -315h-45q-10 200 -10 350q0 67 2.5 154.5t4.5 141.5l3 54q100 10 220 10q105 0 162.5 -50t57.5 -140q0 -85 -45.5 -139t-134.5 -64q31 -41 58.5 -81t44 -66.5l50 -79.5zM299 670h-180v-315h180q81 0 125.5 44.5t44.5 120.5
q0 74 -45 112t-125 38zM249 760l-25 25q80 70 140 130l30 -30q-27 -27 -63 -58t-59 -49z" />
    <glyph glyph-name="racute" unicode="&#x155;" horiz-adv-x="391" 
d="M63 500h32q7 -20 15 -80q26 43 61 66.5t94 23.5q29 0 57.5 -4t43.5 -8l14 -4v-34q-40 10 -115 10q-83 0 -119 -57t-36 -143v-270h-40q-10 200 -10 360zM165 560l-25 25q80 70 140 130l30 -30q-27 -27 -63 -58t-59 -49z" />
    <glyph glyph-name="Rcommaaccent" unicode="&#x156;" horiz-adv-x="561" 
d="M549 0h-60l-90 145.5l-80 124.5l-30 45h-170l5 -315h-45q-10 200 -10 350q0 67 2.5 154.5t4.5 141.5l3 54q100 10 220 10q105 0 162.5 -50t57.5 -140q0 -85 -45.5 -139t-134.5 -64q31 -41 58.5 -81t44 -66.5l50 -79.5zM299 670h-180v-315h180q81 0 125.5 44.5t44.5 120.5
q0 74 -45 112t-125 38zM299 -240h-40q10 100 10 180h50q0 -36 -5 -81t-10 -72z" />
    <glyph glyph-name="rcommaaccent" unicode="&#x157;" horiz-adv-x="392" 
d="M64 500h32q7 -20 15 -80q26 43 61 66.5t94 23.5q29 0 57.5 -4t42.5 -8l15 -4v-34q-40 10 -115 10q-83 0 -119 -57t-36 -143v-270h-40q-10 200 -10 360zM96 -240h-40q10 100 10 180h50q0 -36 -5 -81t-10 -72z" />
    <glyph glyph-name="Rcaron" unicode="&#x158;" horiz-adv-x="561" 
d="M549 0h-60l-90 145.5l-80 124.5l-30 45h-170l5 -315h-45q-10 200 -10 350q0 67 2.5 154.5t4.5 141.5l3 54q100 10 220 10q105 0 162.5 -50t57.5 -140q0 -85 -45.5 -139t-134.5 -64q31 -41 58.5 -81t44 -66.5l50 -79.5zM299 670h-180v-315h180q81 0 125.5 44.5t44.5 120.5
q0 74 -45 112t-125 38zM274 760q-31 22 -66 54.5t-54 53.5l-20 22l25 25q45 -50 115 -100q31 22 60 47t42 39l13 14l25 -25q-70 -80 -140 -130z" />
    <glyph glyph-name="rcaron" unicode="&#x159;" horiz-adv-x="391" 
d="M63 500h32q7 -20 15 -80q26 43 61 66.5t94 23.5q29 0 57.5 -4t43.5 -8l14 -4v-34q-40 10 -115 10q-83 0 -119 -57t-36 -143v-270h-40q-10 200 -10 360zM215 560q-31 22 -66 54.5t-55 53.5l-19 22l25 25q45 -50 115 -100q31 22 60 47t42 39l13 14l25 -25
q-70 -80 -140 -130z" />
    <glyph glyph-name="Sacute" unicode="&#x15a;" horiz-adv-x="534" 
d="M274 375q125 -9 177.5 -60t52.5 -140q0 -79 -58.5 -132t-181.5 -53q-58 0 -110.5 12.5t-75.5 25.5l-24 12v40q10 -6 28.5 -14t73.5 -22t108 -14q97 0 143.5 42.5t46.5 102.5q0 70 -37 106t-143 44q-126 10 -183 64.5t-57 140.5q0 80 58.5 130t191.5 50q49 0 94 -11
t66 -23l20 -11v-35l-22.5 11t-61.5 18t-96 11q-61 0 -102.5 -11t-61.5 -32.5t-28 -44t-8 -52.5q0 -68 42 -107.5t148 -47.5zM244 760l-25 25q80 70 140 130l30 -30q-27 -27 -63 -58t-59 -49z" />
    <glyph glyph-name="sacute" unicode="&#x15b;" horiz-adv-x="435" 
d="M220 228q-185 12 -185 145q0 60 45 98.5t140 38.5q42 0 81 -6t57 -12l17 -7v-35q-60 20 -155 20q-135 0 -135 -97q0 -53 30 -74.5t105 -26.5q99 -7 142 -42.5t43 -99.5q0 -61 -46.5 -100.5t-138.5 -39.5q-42 0 -86 9t-66 17l-23 9v35q80 -30 175 -30q135 0 135 100
q0 52 -29.5 72.5t-105.5 25.5zM185 560l-25 25q80 70 140 130l30 -30q-27 -27 -63 -58t-59 -49z" />
    <glyph glyph-name="Scircumflex" unicode="&#x15c;" horiz-adv-x="534" 
d="M274 375q125 -9 177.5 -60t52.5 -140q0 -79 -58.5 -132t-181.5 -53q-58 0 -110.5 12.5t-75.5 25.5l-24 12v40q10 -6 28.5 -14t73.5 -22t108 -14q97 0 143.5 42.5t46.5 102.5q0 70 -37 106t-143 44q-126 10 -183 64.5t-57 140.5q0 80 58.5 130t191.5 50q49 0 94 -11
t66 -23l20 -11v-35l-22.5 11t-61.5 18t-96 11q-61 0 -102.5 -11t-61.5 -32.5t-28 -44t-8 -52.5q0 -68 42 -107.5t148 -47.5zM279 915q31 -22 66 -54.5t55 -54.5l19 -21l-25 -25q-45 50 -115 100q-31 -22 -60 -47t-42 -39l-13 -14l-25 25q70 80 140 130z" />
    <glyph glyph-name="scircumflex" unicode="&#x15d;" horiz-adv-x="435" 
d="M220 228q-185 12 -185 145q0 60 45 98.5t140 38.5q42 0 81 -6t57 -12l17 -7v-35q-60 20 -155 20q-135 0 -135 -97q0 -53 30 -74.5t105 -26.5q99 -7 142 -42.5t43 -99.5q0 -61 -46.5 -100.5t-138.5 -39.5q-42 0 -86 9t-66 17l-23 9v35q80 -30 175 -30q135 0 135 100
q0 52 -29.5 72.5t-105.5 25.5zM220 715q31 -22 66 -54.5t54 -54.5l20 -21l-25 -25q-45 50 -115 100q-31 -22 -60 -47t-42 -39l-13 -14l-25 25q70 80 140 130z" />
    <glyph glyph-name="Scedilla" unicode="&#x15e;" horiz-adv-x="534" 
d="M174 -212v32q43 -25 100 -25q70 0 70 55q0 31 -18 43t-52 12h-70q4 25 26 87q-49 3 -93 15t-63 23l-20 10v40q10 -6 28.5 -14t73.5 -22t108 -14q97 0 143.5 42.5t46.5 102.5q0 70 -37 106t-143 44q-126 10 -183 64.5t-57 140.5q0 80 58.5 130t191.5 50q49 0 94 -11
t66 -23l20 -11v-35l-22.5 11t-61.5 18t-96 11q-61 0 -102.5 -11t-61.5 -32.5t-28 -44t-8 -52.5q0 -68 42 -107.5t148 -47.5q125 -9 177.5 -60t52.5 -140q0 -76 -55 -128.5t-170 -56.5l-25 -55q15 5 45 5q39 0 64.5 -21t25.5 -69q0 -44 -30.5 -67t-84.5 -23q-25 0 -50 7
t-38 14z" />
    <glyph glyph-name="scedilla" unicode="&#x15f;" horiz-adv-x="435" 
d="M135 -212v32q43 -25 100 -25q70 0 70 55q0 31 -18 43t-52 12h-70q4 23 26 86q-36 3 -72.5 11.5t-54.5 15.5l-19 7v35q80 -30 175 -30q135 0 135 100q0 52 -29.5 72.5t-105.5 25.5q-185 12 -185 145q0 60 45 98.5t140 38.5q42 0 81 -6t57 -12l17 -7v-35q-60 20 -155 20
q-135 0 -135 -97q0 -53 30 -74.5t105 -26.5q99 -7 142 -42.5t43 -99.5q0 -57 -41.5 -96t-123.5 -43l-25 -56q15 5 45 5q39 0 64.5 -21t25.5 -69q0 -44 -30.5 -67t-84.5 -23q-25 0 -50 7t-37 14z" />
    <glyph glyph-name="Scaron" unicode="&#x160;" horiz-adv-x="534" 
d="M274 375q125 -9 177.5 -60t52.5 -140q0 -79 -58.5 -132t-181.5 -53q-58 0 -110.5 12.5t-75.5 25.5l-24 12v40q10 -6 28.5 -14t73.5 -22t108 -14q97 0 143.5 42.5t46.5 102.5q0 70 -37 106t-143 44q-126 10 -183 64.5t-57 140.5q0 80 58.5 130t191.5 50q49 0 94 -11
t66 -23l20 -11v-35l-22.5 11t-61.5 18t-96 11q-61 0 -102.5 -11t-61.5 -32.5t-28 -44t-8 -52.5q0 -68 42 -107.5t148 -47.5zM279 760q-31 22 -66 54.5t-55 53.5l-19 22l25 25q45 -50 115 -100q31 22 60 47t42 39l13 14l25 -25q-70 -80 -140 -130z" />
    <glyph glyph-name="scaron" unicode="&#x161;" horiz-adv-x="435" 
d="M220 228q-185 12 -185 145q0 60 45 98.5t140 38.5q42 0 81 -6t57 -12l17 -7v-35q-60 20 -155 20q-135 0 -135 -97q0 -53 30 -74.5t105 -26.5q99 -7 142 -42.5t43 -99.5q0 -61 -46.5 -100.5t-138.5 -39.5q-42 0 -86 9t-66 17l-23 9v35q80 -30 175 -30q135 0 135 100
q0 52 -29.5 72.5t-105.5 25.5zM220 560q-31 22 -66 54.5t-54 53.5l-20 22l25 25q45 -50 115 -100q31 22 60 47t42 39l13 14l25 -25q-70 -80 -140 -130z" />
    <glyph glyph-name="Tcommaaccent" unicode="&#x162;" horiz-adv-x="488" 
d="M274 0h-50q-10 200 -10 350q0 202 5 320h-215v30q130 10 240 10q49 0 109 -2.5t95 -5.5l36 -2v-35q-129 5 -220 5v-320q0 -67 2.5 -154.5t5.5 -141.5zM254 -240h-40q10 100 10 180h50q0 -36 -5 -81t-10 -72z" />
    <glyph glyph-name="tcommaaccent" unicode="&#x163;" horiz-adv-x="299" 
d="M-2 470v30q60 10 115 10q0 53 2.5 113t4.5 93l3 34h45q-5 -120 -5 -240q29 0 60 -2.5t48 -5.5l17 -2v-30h-125v-60q0 -68 0.5 -107.5t2.5 -85t5 -68.5t9.5 -49t15 -37t22 -21.5t30.5 -13.5t40 -3v-35q-29 0 -51 5t-39.5 12t-30.5 23.5t-22 32t-15 45.5t-9.5 54.5t-5 70
t-2 81t-0.5 96.5v60h-115zM208 -240h-40q10 100 10 180h50q0 -36 -5 -81t-10 -72z" />
    <glyph glyph-name="Tcaron" unicode="&#x164;" horiz-adv-x="488" 
d="M274 0h-50q-10 200 -10 350q0 202 5 320h-215v30q130 10 240 10q49 0 109 -2.5t95 -5.5l36 -2v-35q-129 5 -220 5v-320q0 -67 2.5 -154.5t5.5 -141.5zM244 760q-31 22 -66 54.5t-54 53.5l-20 22l25 25q45 -50 115 -100q31 22 60 47t42 39l13 14l25 -25q-70 -80 -140 -130
z" />
    <glyph glyph-name="tcaron" unicode="&#x165;" horiz-adv-x="299" 
d="M-2 470v30q60 10 115 10q0 53 2.5 113t4.5 93l3 34h45q-5 -120 -5 -240q29 0 60 -2.5t48 -5.5l17 -2v-30h-125v-60q0 -68 0.5 -107.5t2.5 -85t5 -68.5t9.5 -49t15 -37t22 -21.5t30.5 -13.5t40 -3v-35q-29 0 -51 5t-39.5 12t-30.5 23.5t-22 32t-15 45.5t-9.5 54.5t-5 70
t-2 81t-0.5 96.5v60h-115zM268 570h-40q10 100 10 180h50q0 -36 -5 -81t-10 -72z" />
    <glyph glyph-name="Tbar" unicode="&#x166;" horiz-adv-x="489" 
d="M65 335v40h150q0 185 5 295h-215v30q130 10 240 10q49 0 109 -2.5t96 -5.5l35 -2v-35q-129 5 -220 5v-295h160v-40h-160q0 -66 2.5 -149.5t4.5 -134.5l3 -51h-50q-10 187 -10 335h-150z" />
    <glyph glyph-name="tbar" unicode="&#x167;" horiz-adv-x="299" 
d="M19 263v35h95v172h-115v30q60 10 115 10q0 53 2.5 113t5.5 93l2 34h45q-5 -120 -5 -240q29 0 60 -2.5t48 -5.5l17 -2v-30h-125v-172h95v-35h-94q3 -145 26.5 -191.5t97.5 -46.5v-35q-101 0 -135 58.5t-39 214.5h-96z" />
    <glyph glyph-name="Utilde" unicode="&#x168;" horiz-adv-x="614" 
d="M502 350v350h40q10 -193 10 -350q0 -41 -1 -67.5t-6 -68.5t-14 -69t-27 -59.5t-43.5 -51t-64.5 -31.5t-89 -13t-89 13t-64.5 31.5t-43.5 50.5t-27 59.5t-14 69.5t-6 68.5t-1 67.5q0 70 2.5 157.5t5.5 140.5l2 52h40v-350q0 -44 1.5 -72t6.5 -70.5t18 -69.5t33.5 -54
t55 -40.5t80.5 -13.5q40 0 70.5 9.5t51 24t35 41t22 49.5t11 61t4.5 64.5t1 70.5zM252 870q28 0 68 -30t52 -30q18 0 29 12.5t13 25.5l3 12h35q0 -4 -1 -10t-6 -21.5t-12.5 -27.5t-23.5 -21.5t-37 -9.5q-28 0 -68 30t-52 30q-18 0 -29 -12.5t-13 -25.5l-3 -12h-35q0 4 1 10
t6 21.5t12.5 27.5t23.5 21.5t37 9.5z" />
    <glyph glyph-name="utilde" unicode="&#x169;" horiz-adv-x="522" 
d="M412 500h40q10 -200 10 -360l-3 -140h-32q-7 20 -15 80q-26 -43 -61 -66.5t-94 -23.5q-205 0 -205 260l10 250h40v-250q0 -49 5.5 -84t21 -68t47.5 -50.5t81 -17.5q83 0 119 57t36 143v270zM202 670q28 0 68 -30t52 -30q18 0 29 12.5t13 25.5l3 12h35q0 -4 -1 -10
t-6 -21.5t-12.5 -27.5t-23.5 -21.5t-37 -9.5q-28 0 -68 30t-52 30q-18 0 -29 -12.5t-13 -25.5l-3 -12h-35q0 4 1 10t6 21.5t12.5 27.5t23.5 21.5t37 9.5z" />
    <glyph glyph-name="Umacron" unicode="&#x16a;" horiz-adv-x="614" 
d="M502 350v350h40q10 -193 10 -350q0 -41 -1 -67.5t-6 -68.5t-14 -69t-27 -59.5t-43.5 -51t-64.5 -31.5t-89 -13t-89 13t-64.5 31.5t-43.5 50.5t-27 59.5t-14 69.5t-6 68.5t-1 67.5q0 70 2.5 157.5t5.5 140.5l2 52h40v-350q0 -44 1.5 -72t6.5 -70.5t18 -69.5t33.5 -54
t55 -40.5t80.5 -13.5q40 0 70.5 9.5t51 24t35 41t22 49.5t11 61t4.5 64.5t1 70.5zM197 790v40h220v-40h-220z" />
    <glyph glyph-name="umacron" unicode="&#x16b;" horiz-adv-x="522" 
d="M412 500h40q10 -200 10 -360l-3 -140h-32q-7 20 -15 80q-26 -43 -61 -66.5t-94 -23.5q-205 0 -205 260l10 250h40v-250q0 -49 5.5 -84t21 -68t47.5 -50.5t81 -17.5q83 0 119 57t36 143v270zM147 590v40h220v-40h-220z" />
    <glyph glyph-name="Ubreve" unicode="&#x16c;" horiz-adv-x="614" 
d="M502 350v350h40q10 -193 10 -350q0 -41 -1 -67.5t-6 -68.5t-14 -69t-27 -59.5t-43.5 -51t-64.5 -31.5t-89 -13t-89 13t-64.5 31.5t-43.5 50.5t-27 59.5t-14 69.5t-6 68.5t-1 67.5q0 70 2.5 157.5t5.5 140.5l2 52h40v-350q0 -44 1.5 -72t6.5 -70.5t18 -69.5t33.5 -54
t55 -40.5t80.5 -13.5q40 0 70.5 9.5t51 24t35 41t22 49.5t11 61t4.5 64.5t1 70.5zM397 900h35q0 -55 -35.5 -92.5t-89.5 -37.5t-89.5 37.5t-35.5 92.5h35q0 -38 26.5 -64t63.5 -26q36 0 63 26.5t27 63.5z" />
    <glyph glyph-name="ubreve" unicode="&#x16d;" horiz-adv-x="522" 
d="M412 500h40q10 -200 10 -360l-3 -140h-32q-7 20 -15 80q-26 -43 -61 -66.5t-94 -23.5q-205 0 -205 260l10 250h40v-250q0 -49 5.5 -84t21 -68t47.5 -50.5t81 -17.5q83 0 119 57t36 143v270zM347 700h35q0 -55 -35.5 -92.5t-89.5 -37.5t-89.5 37.5t-35.5 92.5h35
q0 -38 26.5 -64t63.5 -26q36 0 63 26.5t27 63.5z" />
    <glyph glyph-name="Uring" unicode="&#x16e;" horiz-adv-x="614" 
d="M502 350v350h40q10 -193 10 -350q0 -41 -1 -67.5t-6 -68.5t-14 -69t-27 -59.5t-43.5 -51t-64.5 -31.5t-89 -13t-89 13t-64.5 31.5t-43.5 50.5t-27 59.5t-14 69.5t-6 68.5t-1 67.5q0 70 2.5 157.5t5.5 140.5l2 52h40v-350q0 -44 1.5 -72t6.5 -70.5t18 -69.5t33.5 -54
t55 -40.5t80.5 -13.5q40 0 70.5 9.5t51 24t35 41t22 49.5t11 61t4.5 64.5t1 70.5zM217 850q0 38 26.5 64t63.5 26t63.5 -26t26.5 -64t-26.5 -64t-63.5 -26t-63.5 26t-26.5 64zM257 850q0 -23 14 -39t36 -16t36 16t14 39t-14 39t-36 16t-36 -16t-14 -39z" />
    <glyph glyph-name="uring" unicode="&#x16f;" horiz-adv-x="522" 
d="M412 500h40q10 -200 10 -360l-3 -140h-32q-7 20 -15 80q-26 -43 -61 -66.5t-94 -23.5q-205 0 -205 260l10 250h40v-250q0 -49 5.5 -84t21 -68t47.5 -50.5t81 -17.5q83 0 119 57t36 143v270zM167 650q0 38 26.5 64t63.5 26t63.5 -26t26.5 -64t-26.5 -64t-63.5 -26
t-63.5 26t-26.5 64zM207 650q0 -23 14 -39t36 -16t36 16t14 39t-14 39t-36 16t-36 -16t-14 -39z" />
    <glyph glyph-name="Uhungarumlaut" unicode="&#x170;" horiz-adv-x="614" 
d="M502 350v350h40q10 -193 10 -350q0 -41 -1 -67.5t-6 -68.5t-14 -69t-27 -59.5t-43.5 -51t-64.5 -31.5t-89 -13t-89 13t-64.5 31.5t-43.5 50.5t-27 59.5t-14 69.5t-6 68.5t-1 67.5q0 70 2.5 157.5t5.5 140.5l2 52h40v-350q0 -44 1.5 -72t6.5 -70.5t18 -69.5t33.5 -54
t55 -40.5t80.5 -13.5q40 0 70.5 9.5t51 24t35 41t22 49.5t11 61t4.5 64.5t1 70.5zM367 760l-25 25q80 70 140 130l30 -30q-27 -27 -63 -58t-59 -49zM207 760l-25 25q80 70 140 130l30 -30q-27 -27 -63 -58t-59 -49z" />
    <glyph glyph-name="uhungarumlaut" unicode="&#x171;" horiz-adv-x="522" 
d="M412 500h40q10 -200 10 -360l-3 -140h-32q-7 20 -15 80q-26 -43 -61 -66.5t-94 -23.5q-205 0 -205 260l10 250h40v-250q0 -49 5.5 -84t21 -68t47.5 -50.5t81 -17.5q83 0 119 57t36 143v270zM317 560l-25 25q80 70 140 130l30 -30q-27 -27 -63 -58t-59 -49zM157 560
l-25 25q80 70 140 130l30 -30q-27 -27 -63 -58t-59 -49z" />
    <glyph glyph-name="Uogonek" unicode="&#x172;" horiz-adv-x="614" 
d="M422 -175v-30q-30 -15 -80 -15q-41 0 -75.5 30.5t-34.5 79.5q0 61 67 100q-48 1 -86 14.5t-62.5 32.5t-42 50.5t-26.5 59t-13.5 68.5t-5.5 67.5t-1 67.5q0 70 2.5 157.5t5.5 140.5l2 52h40v-350q0 -44 1.5 -72t6.5 -70.5t18 -69.5t33.5 -54t55 -40.5t80.5 -13.5
q40 0 70.5 9.5t51 24t35 41t22 49.5t11 61t4.5 64.5t1 70.5v350h40q10 -193 10 -350q0 -42 -1 -69t-5.5 -68.5t-15.5 -70.5t-28 -59.5t-46 -51t-67 -31.5q-12 -4 -25.5 -9.5t-36 -18.5t-36.5 -34.5t-14 -47.5q0 -33 22 -54t53 -21q18 0 35.5 2.5t26.5 4.5z" />
    <glyph glyph-name="uogonek" unicode="&#x173;" horiz-adv-x="522" 
d="M492 -175v-30q-30 -15 -80 -15q-41 0 -75.5 30.5t-34.5 79.5q0 28 16.5 53t41.5 40t39 22t24 10q-6 24 -11 65q-26 -43 -61 -66.5t-94 -23.5q-205 0 -205 260l10 250h40v-250q0 -49 5.5 -84t21 -68t47.5 -50.5t81 -17.5q83 0 119 57t36 143v270h40q10 -200 10 -360
l-3 -140q-5 -1 -12.5 -4t-26.5 -13t-34 -22t-27 -31t-12 -40q0 -33 22 -54t53 -21q18 0 35.5 2.5t26.5 4.5z" />
    <glyph glyph-name="Wcircumflex" unicode="&#x174;" horiz-adv-x="978" 
d="M259 -5l-30 5q-73 201 -120 350l-100 350h52q52 -211 98 -350l100 -305l100 305q20 62 45 149.5t40 144.5l15 56q15 5 30 5l30 -5q54 -211 100 -350l100 -305l100 305q20 62 44.5 149.5t38.5 144.5l15 56h52q-77 -277 -100 -350l-51 -153.5l-50 -142.5l-19 -54
q-15 -5 -30 -5l-30 5q-73 201 -120 350q-18 54 -80 280l-27 -96l-32 -113t-21 -71l-51 -153.5l-50 -142.5l-19 -54q-15 -5 -30 -5zM489 915q31 -22 66 -54.5t55 -54.5l19 -21l-25 -25q-45 50 -115 100q-31 -22 -60 -47t-42 -39l-13 -14l-25 25q70 80 140 130z" />
    <glyph glyph-name="wcircumflex" unicode="&#x175;" horiz-adv-x="796" 
d="M213 -5l-30 5q-80 190 -128 350l-42 150h50q23 -90 40 -150q14 -50 41.5 -127.5l47.5 -130.5l21 -52q74 190 110 310l45 150q15 5 30 5l30 -5l45 -150q16 -53 43.5 -130.5t47.5 -128.5l19 -51q78 198 110 310l40 150h50q-24 -90 -42 -150q-21 -71 -53 -158.5t-54 -139.5
l-21 -52q-15 -5 -30 -5l-30 5q-85 200 -127 350l-28 100l-28 -100q-19 -67 -50.5 -154.5t-53.5 -141.5l-23 -54q-15 -5 -30 -5zM398 715q31 -22 66 -54.5t54 -54.5l20 -21l-25 -25q-45 50 -115 100q-31 -22 -60 -47t-42 -39l-13 -14l-25 25q70 80 140 130z" />
    <glyph glyph-name="Ycircumflex" unicode="&#x176;" horiz-adv-x="505" 
d="M229 330q-66 91 -137 209.5t-88 160.5h55q20 -46 77 -143t118 -182q61 85 118 182t77 143h55q-17 -42 -88 -160.5t-137 -209.5q0 -65 -2.5 -147.5t-4.5 -132.5l-3 -50h-45q4 183 5 330zM254 915q31 -22 66 -54.5t54 -54.5l20 -21l-25 -25q-45 50 -115 100
q-31 -22 -60 -47t-42 -39l-13 -14l-25 25q70 80 140 130z" />
    <glyph glyph-name="ycircumflex" unicode="&#x177;" horiz-adv-x="523" 
d="M413 500h40q10 -190 10 -350q0 -66 -1.5 -111t-7 -90.5t-15 -74t-25.5 -54.5t-40 -40t-56 -22t-75 -8q-27 0 -54.5 4t-41.5 8l-14 3v35q50 -10 110 -10q41 0 66.5 6t47 22.5t33 49.5t17.5 84t6 128q-43 -90 -155 -90q-47 0 -83 11.5t-57.5 34t-35.5 46t-19.5 57t-7.5 57
t-2 54.5l10 250h40v-250q0 -41 2 -68t11 -58.5t25 -50t45.5 -31t71.5 -12.5q155 0 155 201v269zM258 715q31 -22 66 -54.5t54 -54.5l20 -21l-25 -25q-45 50 -115 100q-31 -22 -60 -47t-42 -39l-13 -14l-25 25q70 80 140 130z" />
    <glyph glyph-name="Ydieresis" unicode="&#x178;" horiz-adv-x="505" 
d="M229 330q-66 91 -137 209.5t-88 160.5h55q20 -46 77 -143t118 -182q61 85 118 182t77 143h55q-17 -42 -88 -160.5t-137 -209.5q0 -65 -2.5 -147.5t-4.5 -132.5l-3 -50h-45q4 183 5 330zM144 815q0 15 10 25t25 10t25 -10t10 -25t-10 -25t-25 -10t-25 10t-10 25zM294 815
q0 15 10 25t25 10t25 -10t10 -25t-10 -25t-25 -10t-25 10t-10 25z" />
    <glyph glyph-name="Zacute" unicode="&#x179;" horiz-adv-x="504" 
d="M497 700q-16 -37 -94 -163t-136 -207q-119 -169 -190 -300h165l225 5v-35q-110 -10 -225 -10q-47 0 -105.5 2.5t-94.5 5.5l-35 2q16 37 94.5 163.5t135.5 206.5q108 154 190 300h-175l-215 -5v35q98 10 215 10q51 0 112.5 -2.5t97.5 -5.5zM232 760l-25 25q80 70 140 130
l30 -30q-27 -27 -63 -58t-59 -49z" />
    <glyph glyph-name="zacute" unicode="&#x17a;" horiz-adv-x="415" 
d="M79 30h122l180 5v-35q-90 -10 -180 -10q-40 0 -87.5 2.5t-75.5 5.5l-27 2q58 104 182 270l62 86l57 82l21 32h-122l-170 -5v35q80 10 170 10q40 0 87.5 -2.5t75.5 -5.5l27 -2q-58 -104 -182 -270l-62 -86l-57 -82zM176 560l-25 25q80 70 140 130l30 -30q-27 -27 -63 -58
t-59 -49z" />
    <glyph glyph-name="Zdotaccent" unicode="&#x17b;" horiz-adv-x="504" 
d="M497 700q-16 -37 -94 -163t-136 -207q-119 -169 -190 -300h165l225 5v-35q-110 -10 -225 -10q-47 0 -105.5 2.5t-94.5 5.5l-35 2q16 37 94.5 163.5t135.5 206.5q108 154 190 300h-175l-215 -5v35q98 10 215 10q51 0 112.5 -2.5t97.5 -5.5zM217 825q0 15 10 25t25 10
t25 -10t10 -25t-10 -25t-25 -10t-25 10t-10 25z" />
    <glyph glyph-name="zdotaccent" unicode="&#x17c;" horiz-adv-x="415" 
d="M79 30h122l180 5v-35q-90 -10 -180 -10q-40 0 -87.5 2.5t-75.5 5.5l-27 2q58 104 182 270l62 86l57 82l21 32h-122l-170 -5v35q80 10 170 10q40 0 87.5 -2.5t75.5 -5.5l27 -2q-58 -104 -182 -270l-62 -86l-57 -82zM176 625q0 15 10 25t25 10t25 -10t10 -25t-10 -25
t-25 -10t-25 10t-10 25z" />
    <glyph glyph-name="Zcaron" unicode="&#x17d;" horiz-adv-x="504" 
d="M497 700q-16 -37 -94 -163t-136 -207q-119 -169 -190 -300h165l225 5v-35q-110 -10 -225 -10q-47 0 -105.5 2.5t-94.5 5.5l-35 2q16 37 94.5 163.5t135.5 206.5q108 154 190 300h-175l-215 -5v35q98 10 215 10q51 0 112.5 -2.5t97.5 -5.5zM257 760q-31 22 -66 54.5
t-55 53.5l-19 22l25 25q45 -50 115 -100q31 22 60 47t42 39l13 14l25 -25q-70 -80 -140 -130z" />
    <glyph glyph-name="zcaron" unicode="&#x17e;" horiz-adv-x="415" 
d="M79 30h122l180 5v-35q-90 -10 -180 -10q-40 0 -87.5 2.5t-75.5 5.5l-27 2q58 104 182 270l62 86l57 82l21 32h-122l-170 -5v35q80 10 170 10q40 0 87.5 -2.5t75.5 -5.5l27 -2q-58 -104 -182 -270l-62 -86l-57 -82zM211 560q-31 22 -66 54.5t-55 53.5l-19 22l25 25
q45 -50 115 -100q31 22 60 47t42 39l13 14l25 -25q-70 -80 -140 -130z" />
    <glyph glyph-name="florin" unicode="&#x192;" horiz-adv-x="320" 
d="M182 510q32 -1 64.5 -3.5t48.5 -4.5l16 -2v-30h-137q-46 -278 -74 -410q-31 -141 -72 -190.5t-137 -49.5v35q51 0 77.5 14t46.5 57.5t37 133.5q21 86 75 410h-106v30q47 6 113 10q28 135 72 187.5t145 52.5v-35q-40 0 -63 -6t-44.5 -27.5t-35 -62t-26.5 -109.5z" />
    <glyph glyph-name="circumflex" unicode="&#x2c6;" horiz-adv-x="360" 
d="M180 715q31 -22 66 -54.5t54 -54.5l20 -21l-25 -25q-45 50 -115 100q-31 -22 -60 -47t-42 -39l-13 -14l-25 25q70 80 140 130z" />
    <glyph glyph-name="caron" unicode="&#x2c7;" horiz-adv-x="360" 
d="M180 560q-31 22 -66 54.5t-54 53.5l-20 22l25 25q45 -50 115 -100q31 22 60 47t42 39l13 14l25 -25q-70 -80 -140 -130z" />
    <glyph glyph-name="breve" unicode="&#x2d8;" horiz-adv-x="330" 
d="M255 700h35q0 -55 -35.5 -92.5t-89.5 -37.5t-89.5 37.5t-35.5 92.5h35q0 -38 26.5 -64t63.5 -26q36 0 63 26.5t27 63.5z" />
    <glyph glyph-name="dotaccent" unicode="&#x2d9;" horiz-adv-x="150" 
d="M40 625q0 15 10 25t25 10t25 -10t10 -25t-10 -25t-25 -10t-25 10t-10 25z" />
    <glyph glyph-name="ring" unicode="&#x2da;" horiz-adv-x="260" 
d="M40 650q0 38 26 64t64 26t64 -26t26 -64t-26 -64t-64 -26t-64 26t-26 64zM80 650q0 -23 14 -39t36 -16t36 16t14 39t-14 39t-36 16t-36 -16t-14 -39z" />
    <glyph glyph-name="ogonek" unicode="&#x2db;" horiz-adv-x="270" 
d="M230 -175v-30q-30 -15 -80 -15q-41 0 -75.5 30.5t-34.5 79.5q0 24 11.5 45t27.5 34t32 23t27 14l12 4l50 -10q-5 -1 -12.5 -4t-27.5 -13t-35 -22t-27.5 -31t-12.5 -40q0 -33 22 -54t53 -21q18 0 35.5 2.5t26.5 4.5z" />
    <glyph glyph-name="tilde" unicode="&#x2dc;" horiz-adv-x="360" 
d="M120 670q28 0 68 -30t52 -30q18 0 29 12.5t13 25.5l3 12h35q0 -4 -1 -10t-6 -21.5t-12.5 -27.5t-23.5 -21.5t-37 -9.5q-28 0 -68 30t-52 30q-18 0 -29 -12.5t-13 -25.5l-3 -12h-35q0 4 1 10t6 21.5t12.5 27.5t23.5 21.5t37 9.5z" />
    <glyph glyph-name="hungarumlaut" unicode="&#x2dd;" horiz-adv-x="410" 
d="M225 560l-25 25q80 70 140 130l30 -30q-27 -27 -63 -58t-59 -49zM65 560l-25 25q80 70 140 130l30 -30q-27 -27 -63 -58t-59 -49z" />
    <glyph glyph-name="endash" unicode="&#x2013;" horiz-adv-x="504" 
d="M52 285v40h400v-40h-400z" />
    <glyph glyph-name="emdash" unicode="&#x2014;" horiz-adv-x="904" 
d="M52 285v40h800v-40h-800z" />
    <glyph glyph-name="quoteleft" unicode="&#x2018;" horiz-adv-x="160" 
d="M70 700h40q-10 -130 -10 -200h-50q0 31 5 81t10 85z" />
    <glyph glyph-name="quoteright" unicode="&#x2019;" horiz-adv-x="159" 
d="M91 500h-40q10 130 10 200h50q0 -31 -5 -81t-10 -85z" />
    <glyph glyph-name="quotesinglbase" unicode="&#x201a;" horiz-adv-x="169" 
d="M91 -100h-40q10 130 10 200h50q0 -31 -5 -81t-10 -85z" />
    <glyph glyph-name="quotedblleft" unicode="&#x201c;" horiz-adv-x="290" 
d="M200 700h40q-10 -130 -10 -200h-50q0 31 5 81t10 85zM70 700h40q-10 -130 -10 -200h-50q0 31 5 81t10 85z" />
    <glyph glyph-name="quotedblright" unicode="&#x201d;" horiz-adv-x="289" 
d="M91 500h-40q10 130 10 200h50q0 -31 -5 -81t-10 -85zM221 500h-40q10 130 10 200h50q0 -31 -5 -81t-10 -85z" />
    <glyph glyph-name="quotedblbase" unicode="&#x201e;" horiz-adv-x="299" 
d="M91 -100h-40q10 130 10 200h50q0 -31 -5 -81t-10 -85zM221 -100h-40q10 130 10 200h50q0 -31 -5 -81t-10 -85z" />
    <glyph glyph-name="dagger" unicode="&#x2020;" horiz-adv-x="349" 
d="M24 465v35q60 10 120 10q0 49 2.5 109t5.5 95l2 36h50q-8 -136 -9 -240q33 -1 65.5 -3.5t47.5 -4.5l16 -2v-35h-130v-15l6 -450h-36q-20 290 -20 450v15h-120z" />
    <glyph glyph-name="daggerdbl" unicode="&#x2021;" horiz-adv-x="368" 
d="M34 250v35h120v180h-120v35q60 10 120 10q0 49 2.5 109t5.5 95l2 36h50q-10 -130 -10 -240q31 0 63.5 -2.5t49.5 -5.5l17 -2v-35h-130v-180h130v-35q-60 -10 -130 -10l6 -240h-36q-13 120 -17 240q-29 0 -59.5 2.5t-47.5 5.5z" />
    <glyph glyph-name="bullet" unicode="&#x2022;" horiz-adv-x="222" 
d="M56 300q0 23 16 39t39 16t39 -16t16 -39t-16 -39t-39 -16t-39 16t-16 39z" />
    <glyph glyph-name="ellipsis" unicode="&#x2026;" horiz-adv-x="458" 
d="M334 30q0 15 10 25t25 10t25 -10t10 -25t-10 -25t-25 -10t-25 10t-10 25zM194 30q0 15 10 25t25 10t25 -10t10 -25t-10 -25t-25 -10t-25 10t-10 25zM54 30q0 15 10 25t25 10t25 -10t10 -25t-10 -25t-25 -10t-25 10t-10 25z" />
    <glyph glyph-name="perthousand" unicode="&#x2030;" horiz-adv-x="805" 
d="M543 110q0 57 35.5 88.5t84.5 31.5t84.5 -31.5t35.5 -88.5t-35.5 -88.5t-84.5 -31.5t-84.5 31.5t-35.5 88.5zM583 110q0 -37 22.5 -58.5t57.5 -21.5t57.5 21.5t22.5 58.5t-22.5 58.5t-57.5 21.5t-57.5 -21.5t-22.5 -58.5zM103 0h-50l370 700h50zM33 590q0 57 35.5 88.5
t84.5 31.5t84.5 -31.5t35.5 -88.5t-35.5 -88.5t-84.5 -31.5t-84.5 31.5t-35.5 88.5zM73 590q0 -37 22.5 -58.5t57.5 -21.5t57.5 21.5t22.5 58.5t-22.5 58.5t-57.5 21.5t-57.5 -21.5t-22.5 -58.5zM253 110q0 57 35.5 88.5t84.5 31.5t84.5 -31.5t35.5 -88.5t-35.5 -88.5
t-84.5 -31.5t-84.5 31.5t-35.5 88.5zM293 110q0 -37 22.5 -58.5t57.5 -21.5t57.5 21.5t22.5 58.5t-22.5 58.5t-57.5 21.5t-57.5 -21.5t-22.5 -58.5z" />
    <glyph glyph-name="guilsinglleft" unicode="&#x2039;" horiz-adv-x="312" 
d="M71 250q105 -105 195 -175l-25 -25q-44 29 -95.5 71.5t-80.5 70.5l-29 28q-5 15 -5 30l5 30q105 105 205 170l25 -25q-90 -70 -195 -175z" />
    <glyph glyph-name="guilsinglright" unicode="&#x203a;" horiz-adv-x="312" 
d="M241 250q-105 105 -195 175l25 25q44 -29 95.5 -71.5t80.5 -70.5l29 -28q5 -15 5 -30l-5 -30q-105 -105 -205 -170l-25 25q90 70 195 175z" />
    <glyph glyph-name="fraction" unicode="&#x2044;" horiz-adv-x="145" 
d="M-75 0h-45l360 700h45z" />
    <glyph glyph-name="Euro" unicode="&#x20ac;" horiz-adv-x="590" 
d="M30 410v40h74q5 58 19 102t42 81t75.5 57t114.5 20q56 0 104.5 -10t69.5 -20l21 -10v-35q-70 35 -195 35q-52 0 -89.5 -16.5t-60 -48t-34.5 -69t-17 -86.5h316v-40h-319q-1 -20 -1 -60q0 -41 1 -60h319v-40h-316q5 -49 17 -86.5t34.5 -69t60 -48t89.5 -16.5q60 0 108.5 6
t67.5 12l19 7v-35q-70 -30 -195 -30q-124 0 -181 66.5t-70 193.5h-74v40h71q-1 19 -1 60q0 40 1 60h-71z" />
    <glyph glyph-name="trademark" unicode="&#x2122;" horiz-adv-x="690" 
d="M479 390l43 143l57 167h60q5 -100 5 -175l-5 -175h-37q2 100 2 175v135l-98 -310h-54l-98 310v-135l2 -175h-37q-5 100 -5 175l5 175h60q37 -100 57 -167zM134 350q-5 100 -5 175v145h-100v30q65 5 120 5l120 -5v-33q-56 3 -100 3v-145l3 -175h-38z" />
    <glyph glyph-name="minus" unicode="&#x2212;" horiz-adv-x="600" 
d="M50 285v40h500v-40h-500z" />
    </font>
</defs>
</svg>
