<?xml version="1.0" standalone="no"?>
<!DOCTYPE svg PUBLIC "-//W3C//DTD SVG 1.1//EN" "http://www.w3.org/Graphics/SVG/1.1/DTD/svg11.dtd" >
<svg>
<metadata>
Created by FontForge 20090622 at Tue May 26 14:01:08 2015
 By deploy user
Copyright &#194;&#169; 2013, Natanael Gama (www.ndiscovered.com . info(at)ndiscovered.com), with Reserved Font Name Exo. This Font Software is licensed under the SIL Open Font License, Version 1.1.
</metadata>
<defs>
<font id="Exo2.0-LightItalic" horiz-adv-x="563" >
  <font-face 
    font-family="Exo 2.0 Light"
    font-weight="300"
    font-style="italic"
    font-stretch="normal"
    units-per-em="1000"
    panose-1="0 0 4 0 0 0 0 0 0 0"
    ascent="800"
    descent="-200"
    x-height="484"
    cap-height="690"
    bbox="-215 -270 1195.57 930"
    underline-thickness="50"
    underline-position="-50"
    slope="-8"
    unicode-range="U+0020-U+FB02"
  />
<missing-glyph horiz-adv-x="600" 
 />
    <glyph glyph-name="fi" unicode="fi" horiz-adv-x="582" 
d="M524 484l-69 -484h-63l61 433h-253l-70 -499q-20 -138 -147 -138q-47 0 -106 6l9 47h77q50 0 73.5 20.5t30.5 73.5l69 490h-87l6 46l88 5l13 88q10 73 46 108.5t107 35.5q68 0 119 -6l-4 -47h-95q-53 0 -78.5 -22.5t-32.5 -77.5l-11 -79h317zM504 688h29q23 0 20 -22
l-8 -59q-3 -19 -22 -19h-30q-23 0 -20 22l9 59q1 19 22 19z" />
    <glyph glyph-name="fl" unicode="fl" horiz-adv-x="644" 
d="M596 43l3 -41q-24 -10 -79 -10q-54 0 -81 29.5t-20 81.5l79 560h-169q-52 1 -77.5 -22t-33.5 -78l-11 -79h154l-7 -51h-154l-70 -499q-20 -138 -147 -138q-47 0 -106 6l9 47h77q50 0 73.5 20.5t30.5 73.5l69 490h-87l6 46l88 5l13 88q10 73 46 108.5t107 35.5
q202 -2 257 -10l-82 -594q-9 -69 59 -69h53z" />
    <glyph glyph-name="f_f" unicode="ff" horiz-adv-x="690" 
d="M753 663h-102q-53 0 -77.5 -20.5t-31.5 -73.5l-12 -85h163l-7 -50h-163l-67 -479q-10 -69 -45.5 -103t-101.5 -34q-59 0 -106 6l9 47h77q50 0 73 20t31 73l66 470h-258l-71 -500q-20 -138 -147 -138q-47 0 -106 6l9 47h77q50 0 73 20.5t31 73.5l70 491h-89l7 45l89 5
l11 79q20 138 152 138q87 0 131 -6l-9 -47h-102q-53 0 -77.5 -20t-31.5 -74l-10 -70h258l13 94q20 138 152 138q75 0 131 -6z" />
    <glyph glyph-name="f_f_i" unicode="ffi" horiz-adv-x="904" 
d="M846 484l-69 -484h-63l61 433h-252l-67 -478q-10 -69 -45.5 -103t-101.5 -34q-59 0 -106 6l9 47h77q50 0 73 20t31 73l66 469h-258l-71 -499q-20 -138 -147 -138q-47 0 -106 6l9 47h77q50 0 73 20.5t31 73.5l70 491h-89l7 45l89 5l11 79q20 138 152 138q87 0 131 -6
l-9 -47h-102q-53 0 -77.5 -20t-31.5 -74l-10 -70h258l13 94q20 138 152 138q75 0 131 -6l-9 -47h-102q-53 0 -77.5 -20.5t-31.5 -73.5l-12 -85h316zM826 688h29q22 0 19 -22l-8 -59q-3 -19 -22 -19h-29q-23 0 -20 22l9 59q1 19 22 19z" />
    <glyph glyph-name="f_f_l" unicode="ffl" horiz-adv-x="967" 
d="M918 43l3 -41q-24 -10 -79 -10q-54 0 -81 29.5t-20 81.5l79 560h-170q-52 1 -77.5 -22t-32.5 -78l-11 -79h154l-7 -50h-154l-68 -479q-10 -69 -45 -103t-101 -34q-60 0 -106 6l9 47h76q51 0 74 20t31 73l66 470h-257l-71 -500q-20 -138 -147 -138q-47 0 -106 6l9 47h77
q50 0 73 20.5t31 73.5l70 491h-89l7 45l89 5l11 79q20 138 152 138q87 0 131 -6l-9 -47h-102q-53 0 -77.5 -20t-31.5 -74l-10 -70h257l12 88q10 73 46 108.5t107 35.5q202 -2 257 -10l-81 -594q-10 -69 59 -69h53z" />
    <glyph glyph-name=".notdef" horiz-adv-x="600" 
 />
    <glyph glyph-name=".null" horiz-adv-x="0" 
 />
    <glyph glyph-name="nonmarkingreturn" horiz-adv-x="333" 
 />
    <glyph glyph-name="space" unicode=" " horiz-adv-x="226" 
 />
    <glyph glyph-name="exclam" unicode="!" horiz-adv-x="264" 
d="M175 377l-29 -169h-51l17 169l45 318h63zM96 107h18q27 0 22 -26l-8 -58q-1 -23 -26 -23h-18q-26 0 -23 26l9 57q3 24 26 24z" />
    <glyph glyph-name="quotedbl" unicode="&#x22;" horiz-adv-x="340" 
d="M149 478h-45l26 212h53zM287 478h-45l25 212h54z" />
    <glyph glyph-name="numbersign" unicode="#" horiz-adv-x="675" 
d="M532 456l-62 -195h111l-15 -43h-109l-69 -218h-51l68 218h-199l-69 -218h-51l68 218h-116l14 43h116l61 195h-116l14 43h115l61 191h51l-60 -191h199l61 191h51l-60 -191h111l-14 -43h-110zM480 456h-199l-62 -195h200z" />
    <glyph glyph-name="dollar" unicode="$" 
d="M532 684l-8 -47q-95 5 -149 5l-55 -270l55 -22q77 -30 101.5 -71.5t13.5 -118.5q-15 -106 -71 -138.5t-183 -32.5l-25 -119h-35l25 119q-88 2 -167 15l8 49q125 -6 171 -6l58 275l-66 26q-71 28 -95.5 71t-15.5 116q8 56 27 90.5t52.5 50.5t69 21t91.5 4h19l20 100h35
l-21 -101q78 -3 145 -16zM341 643h-15q-35 0 -52 -1t-40.5 -6.5t-35.5 -17.5t-23 -34.5t-15 -55.5q-6 -53 9 -78t66 -46l52 -20zM303 310l-55 -263q91 2 128 24.5t48 95.5q7 56 -8 80.5t-69 45.5z" />
    <glyph glyph-name="percent" unicode="%" horiz-adv-x="888" 
d="M259 702q88 0 118 -48.5t14 -158.5q-15 -109 -56 -155t-125 -46q-87 0 -116.5 48.5t-14.5 158.5q15 109 55 155t125 46zM198 0h-52l556 690h51zM262 661q-66 0 -93.5 -36.5t-40.5 -129.5q-12 -88 5 -124t75 -36q65 0 93.5 37t40.5 129q12 90 -4.5 125t-75.5 35zM692 400
q89 0 118.5 -48.5t13.5 -158.5q-15 -109 -56 -155.5t-125 -46.5q-87 0 -116.5 48.5t-14.5 159.5q15 109 55 155t125 46zM695 359q-66 0 -93.5 -36.5t-40.5 -129.5q-12 -89 5 -125t75 -36q65 0 93.5 37t40.5 130q12 89 -4.5 124.5t-75.5 35.5z" />
    <glyph glyph-name="ampersand" unicode="&#x26;" horiz-adv-x="767" 
d="M726 332h-122q-17 -111 -64 -188q-49 -80 -123 -116.5t-178 -38.5q-115 -2 -160.5 40.5t-30.5 147.5q13 87 57.5 131.5t125.5 47.5l1 4q-68 5 -92 46.5t-12 117.5q18 104 75.5 139.5t179.5 35.5q89 0 164 -22l-11 -48q-63 15 -152 15q-98 0 -138 -25.5t-53 -106.5
q-13 -75 18 -102t121 -27h220q6 59 4 138h59q0 -85 -5 -138h124zM545 332h-219q-103 -1 -148 -30.5t-60 -120.5q-14 -79 14.5 -107t102.5 -28q91 0 151.5 30.5t100.5 93.5q42 63 58 162z" />
    <glyph glyph-name="quotesingle" unicode="'" horiz-adv-x="202" 
d="M149 478h-45l26 212h53z" />
    <glyph glyph-name="parenleft" unicode="(" horiz-adv-x="355" 
d="M380 790l7 -33q-110 -52 -174 -160.5t-89 -286.5q-24 -172 8 -280.5t127 -162.5l-9 -32q-123 54 -169.5 172.5t-19.5 309.5q27 190 104 305t215 168z" />
    <glyph glyph-name="parenright" unicode=")" horiz-adv-x="355" 
d="M102 758l9 32q122 -53 169.5 -171t19.5 -312q-27 -189 -104 -303.5t-215 -168.5l-8 33q215 105 264 448q49 344 -135 442z" />
    <glyph glyph-name="asterisk" unicode="*" horiz-adv-x="449" 
d="M271 532l81 -129l-35 -24l-62 125l-98 -124l-31 26l116 127l17 157h41zM228 553l-3 -18l-9 -12l-122 36l17 39zM426 556l-129 -33l-7 12l1 18l127 44z" />
    <glyph glyph-name="plus" unicode="+" horiz-adv-x="549" 
d="M486 274h-190l-25 -181h-50l26 181h-191l7 49h190l25 180h51l-26 -180h191z" />
    <glyph glyph-name="comma" unicode="," horiz-adv-x="219" 
d="M75 107h21q24 0 20 -25l-9 -65q-9 -67 -49 -144l-32 11q22 75 29 117q-21 0 -18 22l9 60q2 14 8 19t21 5z" />
    <glyph glyph-name="hyphen" unicode="-" horiz-adv-x="459" 
d="M374 227h-307l7 50h307z" />
    <glyph glyph-name="period" unicode="." horiz-adv-x="218" 
d="M71 107h23q25 0 22 -26l-8 -58q-3 -23 -26 -23h-22q-28 0 -23 26l8 57q3 24 26 24z" />
    <glyph glyph-name="slash" unicode="/" horiz-adv-x="514" 
d="M40 -63h-57l498 753h56z" />
    <glyph glyph-name="zero" unicode="0" horiz-adv-x="594" 
d="M351 702q127 0 168.5 -85.5t14.5 -274.5t-89.5 -271.5t-185.5 -82.5q-127 0 -168.5 85.5t-14.5 274.5q26 189 88.5 271.5t186.5 82.5zM350 645q-94 0 -141 -70t-70 -233q-22 -161 3.5 -229t115.5 -68q94 0 141.5 70t70.5 233q23 161 -3 229t-117 68z" />
    <glyph glyph-name="one" unicode="1" horiz-adv-x="387" 
d="M230 0h-66l80 574q6 36 12 55l-183 -58l-2 47l190 72h66z" />
    <glyph glyph-name="two" unicode="2" horiz-adv-x="554" 
d="M116 625l-3 51q116 26 207 26q105 0 153.5 -30.5t37.5 -117.5q-8 -64 -44 -120.5t-118 -136.5l-242 -237q36 2 111 2h252l-9 -62h-446l5 42q4 20 13 29l249 244q80 78 119 135t44 110q6 53 -24.5 68.5t-102.5 15.5q-97 0 -202 -19z" />
    <glyph glyph-name="three" unicode="3" horiz-adv-x="548" 
d="M123 635l-4 50q108 17 188 17q115 0 158 -37.5t33 -124.5q-8 -66 -38.5 -115.5t-88.5 -58.5l-2 -4q62 -9 86.5 -55.5t13.5 -117.5q-13 -86 -73 -141t-181 -60q-95 -5 -199 17l10 50q115 -13 184 -9q172 12 195 155q21 136 -128 137l-130 2l7 49l127 1q43 1 73 13.5t46 35
t23.5 44.5t10.5 50q8 66 -19.5 88.5t-119.5 22.5q-86 0 -172 -9z" />
    <glyph glyph-name="four" unicode="4" horiz-adv-x="603" 
d="M542 186l-87 -7l-25 -179h-63l25 179h-289q-43 0 -60.5 33t5.5 69l261 409h67l-262 -415q-12 -19 -6.5 -30.5t23.5 -11.5h269l29 211l29 115h50l-46 -326h87z" />
    <glyph glyph-name="five" unicode="5" horiz-adv-x="530" 
d="M497 634h-298l-41 -215l65 -4q135 -6 192.5 -50t43.5 -158q-5 -38 -17.5 -70.5t-39 -67t-76 -56.5t-117.5 -25q-95 -4 -189 26l13 52q83 -23 162 -20q179 9 201 167q12 90 -36.5 117.5t-188.5 30.5l-47 4q-13 0 -21 9.5t-6 23.5l56 292h355z" />
    <glyph glyph-name="six" unicode="6" horiz-adv-x="567" 
d="M518 688l-10 -48q-50 6 -122 6q-77 0 -119.5 -21t-72.5 -84t-50 -187q79 90 195 93q99 3 138.5 -49.5t21.5 -178.5q-17 -116 -72 -173.5t-171 -57.5q-96 0 -141 37t-50.5 115t12.5 199q17 117 42 190t64.5 110.5t84 50t114.5 12.5t136 -14zM325 393q-50 -2 -93.5 -23
t-96.5 -77q-20 -142 3 -195.5t121 -53.5q84 0 124 45.5t53 136.5q13 93 -9.5 131.5t-101.5 35.5z" />
    <glyph glyph-name="seven" unicode="7" horiz-adv-x="506" 
d="M93 690h385q29 0 38 -14.5t-4 -40.5l-307 -635h-67l285 589q10 22 26 45h-361z" />
    <glyph glyph-name="eight" unicode="8" horiz-adv-x="608" 
d="M195 357l2 4q-96 12 -76 160q14 97 64 138t172 40q125 0 165.5 -42.5t27.5 -141.5q-20 -144 -120 -155l-2 -4q60 -7 80 -53.5t8 -133.5q-14 -98 -66 -137.5t-185 -40.5q-128 -1 -175 42t-33 142q13 87 44 131.5t94 50.5zM353 645q-94 0 -128 -28.5t-45 -106.5
q-11 -79 15.5 -102t123.5 -23q95 0 126.5 25t42.5 106q12 75 -14.5 102t-120.5 27zM310 331q-104 -1 -140 -28t-49 -122q-11 -77 19 -105.5t130 -28.5q98 0 136.5 30.5t48.5 109.5q13 91 -14.5 117.5t-130.5 26.5z" />
    <glyph glyph-name="nine" unicode="9" horiz-adv-x="567" 
d="M50 2l12 48q53 -6 129 -6q121 2 169 59t79 237q-44 -52 -88.5 -73.5t-102.5 -23.5q-105 -3 -142 55t-21 173q15 120 73 175.5t173 55.5q133 0 169 -78.5t5 -272.5q-18 -115 -41.5 -186t-62 -110.5t-84.5 -53t-119 -13.5q-79 0 -148 14zM259 296q53 2 95 24t94 78
q20 139 -3.5 193.5t-117.5 54.5q-88 0 -128 -43t-53 -139q-13 -93 13 -131.5t100 -36.5z" />
    <glyph glyph-name="colon" unicode=":" horiz-adv-x="224" 
d="M132 437h22q26 0 22 -27l-8 -57q-3 -23 -26 -23h-22q-28 0 -23 26l8 57q3 24 27 24zM85 107h22q27 0 22 -26l-8 -58q-3 -23 -26 -23h-22q-26 0 -23 26l9 57q3 24 26 24z" />
    <glyph glyph-name="semicolon" unicode=";" horiz-adv-x="228" 
d="M121 437h23q25 0 22 -27l-8 -57q-3 -23 -26 -23h-22q-28 0 -23 26l8 57q3 24 26 24zM79 107h21q24 0 21 -25l-9 -65q-9 -65 -50 -144l-32 11q22 77 30 117q-22 0 -19 22l9 60q2 14 8 19t21 5z" />
    <glyph glyph-name="less" unicode="&#x3c;" horiz-adv-x="530" 
d="M479 444l-367 -149l324 -147l-7 -51l-377 174l7 51l427 177z" />
    <glyph glyph-name="equal" unicode="=" horiz-adv-x="588" 
d="M520 373h-431l7 49h431zM491 162h-431l7 49h431z" />
    <glyph glyph-name="greater" unicode="&#x3e;" horiz-adv-x="529" 
d="M478 322l-7 -51l-426 -173l7 55l366 147l-323 150l7 50z" />
    <glyph glyph-name="question" unicode="?" horiz-adv-x="498" 
d="M94 646l-3 46l24 4t23.5 4t20.5 3.5t23 3t23.5 2t29 2t32 1t39.5 0.5q99 0 146 -39t36 -119q-6 -41 -29.5 -76t-54 -61.5l-61.5 -54.5t-56 -67.5t-33 -87.5l-55 1q7 51 30.5 94t53 72t59 55t52 57t27.5 65q7 58 -22 82.5t-104 24.5q-84 0 -201 -12zM202 107h18
q27 0 22 -26l-8 -57q-3 -24 -26 -24h-18q-26 0 -23 26l9 57q2 24 26 24z" />
    <glyph glyph-name="at" unicode="@" horiz-adv-x="760" 
d="M117 578l5 47q117 5 304 7q68 0 110 -3.5t77 -16.5t50.5 -33t24 -58.5t6 -87.5t-12.5 -124q-25 -189 -63 -254t-131 -65q-107 0 -97 113q-101 -115 -210 -115q-87 0 -112.5 61.5t-5.5 176.5q23 135 74 178.5t168 43.5q70 0 197 -20l-49 -325q-4 -31 5 -44.5t34 -13.5
q60 0 83.5 52t46.5 217q7 51 11 85t2.5 64t-4.5 47t-16 31.5t-25.5 20.5t-40.5 10.5t-53 5t-70 0.5h-308zM398 164l35 227q-71 4 -109 4q-109 0 -145 -32t-55 -142q-19 -90 -5 -134.5t73 -44.5q96 0 206 122z" />
    <glyph glyph-name="A" unicode="A" horiz-adv-x="612" 
d="M451 228h-301l-107 -228h-70l325 673q7 17 27 17h75q9 0 16 -6t8 -14l137 -670h-66zM440 286l-57 295l-9 58h-30q-3 -6 -12.5 -27t-14.5 -31l-139 -295h262z" />
    <glyph glyph-name="B" unicode="B" horiz-adv-x="615" 
d="M51 0l97 690q77 8 212 8q126 0 172.5 -39t31.5 -144q-11 -74 -43.5 -111.5t-94.5 -43.5l-1 -5q73 -6 98.5 -53t12.5 -133q-15 -104 -66.5 -140.5t-171.5 -36.5q-160 0 -247 8zM170 383h161q85 1 121.5 28t47.5 103q11 78 -19.5 103t-123.5 25q-114 0 -151 -1zM162 332
l-39 -282q82 -2 167 -2q93 0 132 28t50 108q12 86 -18.5 116t-125.5 32h-166z" />
    <glyph glyph-name="C" unicode="C" 
d="M485 58l5 -49q-81 -21 -198 -21q-146 0 -196 83.5t-22 276.5q27 196 96 275t214 79q104 0 183 -19l-12 -49q-73 9 -171 9q-114 0 -166 -63.5t-77 -237.5q-23 -167 9.5 -231t141.5 -64q107 -1 193 11z" />
    <glyph glyph-name="D" unicode="D" horiz-adv-x="661" 
d="M51 0l97 690q122 9 227 9q152 0 203.5 -79.5t23.5 -277.5q-15 -108 -38.5 -175.5t-63.5 -107t-90.5 -54t-128.5 -14.5q-102 0 -230 9zM207 639l-83 -588q100 -2 156 -2q83 0 130.5 25t77 88.5t46.5 185.5q25 172 -9 233t-151 61q-11 0 -167 -3z" />
    <glyph glyph-name="E" unicode="E" horiz-adv-x="555" 
d="M547 635h-278q-71 0 -80 -74l-24 -170h309l-7 -51h-309l-29 -214q-11 -71 60 -71h276v-50q-92 -6 -285 -6q-64 0 -95 34t-23 92l64 454q7 52 42 82t92 30q203 0 296 -6z" />
    <glyph glyph-name="F" unicode="F" horiz-adv-x="535" 
d="M542 635h-265q-38 0 -58.5 -17.5t-25.5 -56.5l-25 -178h300l-7 -51h-300l-47 -332h-65l80 576q8 55 43.5 85t91.5 30q197 0 288 -6z" />
    <glyph glyph-name="G" unicode="G" horiz-adv-x="622" 
d="M590 683l-12 -49q-89 10 -178 10q-126 0 -180.5 -62t-78.5 -240q-19 -164 8.5 -230t116.5 -66q54 0 100 27.5t103 82.5l34 244h64l-57 -400h-47l5 100q-99 -112 -222 -112q-113 0 -154 85.5t-19 274.5q18 138 58.5 216t102 108t159.5 30q114 0 197 -19z" />
    <glyph glyph-name="H" unicode="H" horiz-adv-x="663" 
d="M627 690l-97 -690h-66l48 340h-347l-48 -340h-66l97 690h66l-41 -293h347l41 293h66z" />
    <glyph glyph-name="I" unicode="I" horiz-adv-x="250" 
d="M117 0h-66l97 690h66z" />
    <glyph glyph-name="J" unicode="J" horiz-adv-x="333" 
d="M300 690l-78 -557q-20 -141 -146 -141q-45 0 -83 11l13 45h51q86 0 100 86l77 556h66z" />
    <glyph glyph-name="K" unicode="K" horiz-adv-x="581" 
d="M309 361l-1 -4q15 -17 28 -42l182 -315h-74l-191 333h-95q-2 -53 -6 -79l-36 -254h-65l97 690h65l-31 -224q-9 -54 -16 -79h93l261 303h80l-249 -290q-20 -24 -42 -39z" />
    <glyph glyph-name="L" unicode="L" horiz-adv-x="506" 
d="M211 690l-79 -564q-5 -33 10.5 -52t49.5 -19h259l-2 -50q-89 -6 -270 -6q-59 0 -89.5 34t-22.5 95l78 562h66z" />
    <glyph glyph-name="M" unicode="M" horiz-adv-x="869" 
d="M708 690h78q14 0 21 -8.5t6 -22.5l-64 -659h-65l63 635h-21l-256 -542q-8 -21 -30 -21h-66q-25 0 -28 24l-107 539h-22l-114 -635h-66l121 662q6 28 31 28h77q23 0 26 -24l91 -451q3 -16 8 -47.5t8 -46.5h22q23 55 42 95l214 452q9 22 31 22z" />
    <glyph glyph-name="N" unicode="N" horiz-adv-x="698" 
d="M662 690l-94 -664q-3 -26 -29 -26h-66q-20 0 -29 23l-196 525q-21 57 -27 81h-20q-3 -43 -9 -86l-75 -543h-66l93 664q4 26 30 26h63q22 0 30 -23l191 -512q21 -59 32 -94h22q3 32 11 96l74 533h65z" />
    <glyph glyph-name="O" unicode="O" horiz-adv-x="664" 
d="M386 702q145 0 196 -81.5t23 -278.5q-27 -198 -96 -276t-214 -78t-196.5 81t-24.5 279q27 197 96 275.5t216 78.5zM384 644q-114 0 -166 -65t-77 -237q-23 -167 10.5 -231.5t144.5 -64.5q112 0 164.5 65.5t76.5 236.5q25 169 -8 232.5t-145 63.5z" />
    <glyph glyph-name="P" unicode="P" horiz-adv-x="585" 
d="M51 0l97 690q85 8 229 8q118 0 161 -47t26 -166q-18 -124 -69 -166.5t-169 -42.5q-85 0 -169 8l-40 -284h-66zM163 333h162q87 1 124 33t50 124q12 89 -14.5 120.5t-108.5 31.5q-89 0 -169 -2z" />
    <glyph glyph-name="Q" unicode="Q" horiz-adv-x="664" 
d="M386 702q145 0 196 -81.5t23 -278.5q-27 -198 -96 -276t-214 -78t-196.5 81t-24.5 279q27 197 96 275.5t216 78.5zM384 644q-114 0 -166 -65t-77 -237q-23 -167 10.5 -231.5t144.5 -64.5q112 0 164.5 65.5t76.5 236.5q25 169 -8 232.5t-145 63.5zM218 -85l26 39
q96 -57 241 -81l-25 -65q-141 29 -242 107z" />
    <glyph glyph-name="R" unicode="R" horiz-adv-x="614" 
d="M51 0l97 690q85 8 229 8q114 0 160 -43.5t31 -156.5q-12 -84 -48 -125.5t-106 -51.5l-1 -5q55 -16 70 -98l44 -218h-67l-42 218q-8 42 -28.5 59.5t-57.5 18.5q-31 0 -69 0.5t-63 1t-42 0.5l-42 -298h-65zM165 353h164q85 1 122.5 32.5t49.5 115.5q12 82 -15 111.5
t-110 29.5q-90 0 -170 -2z" />
    <glyph glyph-name="S" unicode="S" horiz-adv-x="558" 
d="M344 293l-142 55q-71 28 -96 71t-16 116q8 56 27 90.5t52.5 50.5t69 21t91.5 4q107 0 198 -17l-8 -47q-111 6 -198 6q-29 0 -43.5 -0.5t-36 -4t-32.5 -10.5t-23.5 -19.5t-19.5 -32.5t-11 -48q-6 -53 9.5 -78t66.5 -46l140 -54q77 -30 101 -71.5t14 -118.5q-8 -56 -26 -90
t-52 -52t-73 -23.5t-103 -5.5q-108 0 -203 15l9 49q121 -6 199 -6q95 1 133.5 23t49.5 97q7 56 -8.5 80t-68.5 46z" />
    <glyph glyph-name="T" unicode="T" horiz-adv-x="568" 
d="M594 632h-230l-89 -632h-66l89 632h-229l9 58h524z" />
    <glyph glyph-name="U" unicode="U" horiz-adv-x="665" 
d="M634 690l-61 -430q-21 -148 -84 -210t-192 -62q-133 0 -184 64t-30 211l60 427h66l-61 -430q-16 -120 16.5 -167t130.5 -47q100 0 148.5 48.5t64.5 168.5l60 427h66z" />
    <glyph glyph-name="V" unicode="V" horiz-adv-x="599" 
d="M635 690l-314 -672q-7 -18 -27 -18h-71q-20 0 -24 21l-127 669h67l99 -565q1 -8 4 -23.5t5 -28t3 -23.5h26l33 79l257 561h69z" />
    <glyph glyph-name="W" unicode="W" horiz-adv-x="937" 
d="M962 690l-250 -671q-7 -19 -29 -19h-78q-23 0 -25 23l-47 540l-6 76h-23l-28 -79l-196 -540q-8 -20 -29 -20h-78q-10 0 -17.5 6.5t-8.5 15.5l-63 668h67l48 -561q2 -25 4 -79h26l28 81l196 538q8 21 29 21h75q10 0 16.5 -7t7.5 -17l51 -537q4 -55 5 -79h26l27 81l203 559
h69z" />
    <glyph glyph-name="X" unicode="X" horiz-adv-x="602" 
d="M381 358l153 -358h-68l-139 334h-31l-233 -334h-76l255 359l-144 331h68l129 -305h32l218 305h73z" />
    <glyph glyph-name="Y" unicode="Y" horiz-adv-x="554" 
d="M301 247l-34 -247h-66l35 249l-169 441h67l115 -308q12 -32 23 -74h7q12 26 43 77l201 305h72z" />
    <glyph glyph-name="Z" unicode="Z" horiz-adv-x="559" 
d="M563 690l-9 -56l-466 -578h392l-9 -56h-464l8 56l466 578h-381l8 56h455z" />
    <glyph glyph-name="bracketleft" unicode="[" horiz-adv-x="319" 
d="M337 724h-106q-14 0 -18 -16l-114 -816q-2 -13 10 -13h109l-6 -44h-134q-21 0 -32.5 12t-8.5 35l118 842q7 44 50 44h138z" />
    <glyph glyph-name="backslash" unicode="\" horiz-adv-x="499" 
d="M423 -63h-52l-289 753h52z" />
    <glyph glyph-name="bracketright" unicode="]" horiz-adv-x="319" 
d="M109 768h134q20 0 32 -13.5t9 -33.5l-118 -842q-3 -20 -17 -32t-33 -12h-138l6 44h105q15 0 19 16l115 816q2 13 -11 13h-109z" />
    <glyph glyph-name="asciicircum" unicode="^" horiz-adv-x="414" 
d="M405 385l-29 -18l-119 177h-8l-173 -177l-26 19l183 205h46z" />
    <glyph glyph-name="underscore" unicode="_" horiz-adv-x="588" 
d="M467 -50h-436l8 50h435z" />
    <glyph glyph-name="grave" unicode="`" horiz-adv-x="301" 
d="M283 571l-25 -29l-167 131l37 45z" />
    <glyph glyph-name="a" unicode="a" horiz-adv-x="570" 
d="M446 0h-49l9 109q-48 -55 -107.5 -88t-118.5 -33q-89 0 -116 58.5t-6 199.5q12 80 29.5 129t48.5 76t69 36.5t98 9.5q91 0 211 -20zM406 164l39 275q-106 4 -124 4q-46 0 -74.5 -5t-50.5 -16t-35.5 -36t-22.5 -57.5t-17 -87.5q-17 -114 -3 -155.5t72 -41.5q98 0 216 120z
" />
    <glyph glyph-name="b" unicode="b" horiz-adv-x="569" 
d="M147 371q125 125 225 125q86 0 116 -56t10 -202q-11 -80 -29 -130t-48 -76t-64.5 -35t-89.5 -9q-109 0 -225 33l96 679h63l-29 -201q-11 -77 -25 -128zM148 324l-38 -273q80 -10 136 -10q101 0 135.5 37.5t51.5 164.5q16 118 0.5 157.5t-75.5 39.5q-77 0 -210 -116z" />
    <glyph glyph-name="c" unicode="c" horiz-adv-x="481" 
d="M401 54l5 -44q-72 -22 -159 -22q-126 0 -170.5 59t-24.5 198q19 139 77 195.5t181 56.5q89 0 148 -22l-11 -41q-53 8 -127 8q-98 0 -142.5 -42t-59.5 -160q-16 -117 14 -157t125 -40q85 0 144 11z" />
    <glyph glyph-name="d" unicode="d" horiz-adv-x="569" 
d="M544 700l-99 -700h-49l9 113q-115 -125 -236 -125q-79 0 -105.5 60.5t-6.5 197.5q11 80 29 129t48.5 76t67.5 36.5t95 9.5q70 0 157 -12q3 53 9 93l17 122h64zM406 165l37 275q-104 4 -125 4q-107 0 -143 -37t-54 -166q-17 -109 -4 -153t68 -44q97 0 221 121z" />
    <glyph glyph-name="e" unicode="e" horiz-adv-x="533" 
d="M432 55l5 -43q-69 -24 -195 -24q-122 0 -165.5 61.5t-23.5 201.5q20 144 77 195t183 51q105 0 147.5 -36.5t26.5 -116.5q-13 -65 -52.5 -93t-123.5 -36l-199 -19q-6 -90 27 -122t115 -32q72 0 178 13zM118 245l193 19q55 6 79 23.5t33 61.5q13 59 -15 76.5t-100 17.5
q-48 0 -77 -7t-52.5 -28t-37 -58.5t-23.5 -100.5v-4z" />
    <glyph glyph-name="f" unicode="f" horiz-adv-x="368" 
d="M431 663h-102q-53 0 -78 -20.5t-32 -73.5l-12 -85h164l-8 -50h-163l-70 -500q-20 -138 -147 -138q-47 0 -106 6l9 47h77q50 0 73.5 20.5t30.5 73.5l69 491h-87l6 45l88 5l14 94q18 138 152 138q75 0 131 -6z" />
    <glyph glyph-name="g" unicode="g" horiz-adv-x="573" 
d="M519 477l-71 -473q-27 -209 -256 -218q-98 -6 -175 11l7 43q85 -4 166 0q168 10 194 154q17 97 36 131q-49 -62 -113.5 -99.5t-128.5 -37.5q-84 0 -112.5 58.5t-7.5 199.5q12 80 30 129t48.5 76t67 36.5t94.5 9.5q96 0 216 -20h5zM408 165l41 274q-108 4 -129 4
q-107 0 -143 -36.5t-55 -165.5q-17 -113 -3 -155t72 -42q98 0 217 121z" />
    <glyph glyph-name="h" unicode="h" horiz-adv-x="574" 
d="M203 700l-27 -203q-9 -61 -23 -121q140 121 237 121q64 0 94 -35t21 -100l-52 -362h-63l49 349q7 51 -8.5 72t-58.5 21q-46 0 -96 -28t-126 -90l-45 -324h-64l99 700h63z" />
    <glyph glyph-name="i" unicode="i" horiz-adv-x="236" 
d="M158 688h29q22 0 19 -22l-8 -59q-3 -19 -22 -19h-29q-23 0 -20 22l9 59q1 19 22 19zM109 0h-63l68 484h63z" />
    <glyph glyph-name="j" unicode="j" horiz-adv-x="236" 
d="M158 688h29q22 0 19 -22l-8 -59q-3 -19 -22 -19h-29q-23 0 -20 22l9 59q1 19 22 19zM177 484l-72 -510q-15 -109 -107 -180l-34 29q66 71 78 155l72 506h63z" />
    <glyph glyph-name="k" unicode="k" horiz-adv-x="509" 
d="M420 484h65q-48 -133 -175 -216q16 -28 28 -54l100 -214h-68l-109 239q-47 -25 -130 -57l-26 -182h-63l98 700h64l-49 -357q-6 -48 -25 -107q107 41 184 104.5t106 143.5z" />
    <glyph glyph-name="l" unicode="l" horiz-adv-x="283" 
d="M204 700l-81 -581q-6 -36 8.5 -52.5t50.5 -16.5h52l3 -48q-24 -10 -80 -10q-53 0 -79.5 31t-19.5 87l83 590h63z" />
    <glyph glyph-name="m" unicode="m" horiz-adv-x="874" 
d="M158 484l-9 -109q127 122 217 122q59 0 88.5 -30.5t26.5 -85.5q121 116 210 116q64 0 93 -35.5t20 -99.5l-51 -362h-63l50 349q7 50 -10.5 71.5t-60.5 21.5q-40 0 -81 -25.5t-114 -91.5l-46 -325h-61l49 349q7 49 -9.5 71t-61.5 22q-40 0 -81.5 -26t-113.5 -90l-46 -326
h-63l69 484h48z" />
    <glyph glyph-name="n" unicode="n" horiz-adv-x="574" 
d="M160 484l-10 -110q140 123 240 123q64 0 94 -35t21 -100l-52 -362h-63l49 349q7 51 -8.5 72t-58.5 21q-46 0 -95.5 -27.5t-126.5 -88.5l-45 -326h-64l69 484h50z" />
    <glyph glyph-name="o" unicode="o" horiz-adv-x="562" 
d="M306 497q121 0 165.5 -59.5t24.5 -198.5q-19 -138 -76 -194.5t-177 -56.5q-122 0 -166 58.5t-25 198.5q19 138 76 195t178 57zM306 442q-89 0 -130.5 -43.5t-57.5 -159.5q-16 -113 11 -155t114 -42q89 0 130.5 44t57.5 159q16 113 -11 155t-114 42z" />
    <glyph glyph-name="p" unicode="p" horiz-adv-x="571" 
d="M160 484l-10 -113q50 53 114 89t114 36q88 0 114.5 -57.5t6.5 -200.5q-12 -79 -30 -128.5t-48.5 -76t-67.5 -36t-96 -9.5q-74 0 -156 11q-1 -47 -8 -93l-18 -115h-63l98 693h50zM150 320l-38 -276q79 -3 124 -3q57 0 88.5 6.5t55 30t34.5 60.5t21 105q17 114 3 155.5
t-72 41.5q-41 0 -100 -32t-116 -88z" />
    <glyph glyph-name="q" unicode="q" horiz-adv-x="567" 
d="M511 463l-96 -672h-63l30 198q10 76 28 129q-116 -130 -233 -130q-79 0 -109.5 57t-11.5 201q11 80 29 130t47.5 76.5t64 35.5t88.5 9q107 0 226 -34zM406 165l37 268q-69 10 -136 10q-100 0 -135 -37.5t-51 -164.5q-16 -113 -1.5 -155t74.5 -42q51 0 96.5 27t115.5 94z
" />
    <glyph glyph-name="r" unicode="r" horiz-adv-x="393" 
d="M403 497l-16 -60h-23q-42 0 -89 -26.5t-125 -87.5l-45 -323h-64l69 484h48l-9 -114q133 127 231 127h23z" />
    <glyph glyph-name="s" unicode="s" horiz-adv-x="503" 
d="M299 191l-144 60q-53 23 -75.5 51.5t-15.5 82.5q10 69 56 91.5t144 20.5q104 -2 198 -15l-8 -45q-91 5 -188 6q-78 1 -106 -9.5t-34 -53.5q-5 -34 9 -49.5t52 -31.5l145 -60q58 -24 80 -51.5t15 -81.5q-4 -32 -17 -54t-29.5 -34.5t-45.5 -19t-57 -8.5t-72 -2
q-69 0 -181 14l8 47q62 -7 161 -7q96 2 130 15t40 55q4 23 -4.5 38.5t-20 22t-40.5 18.5z" />
    <glyph glyph-name="t" unicode="t" horiz-adv-x="365" 
d="M197 434l-44 -315q-5 -37 9 -53t51 -16h80l3 -48q-44 -10 -101 -10q-60 0 -86.5 32t-18.5 90l45 320h-89l6 45l90 5l21 147h62l-20 -147h163l-8 -50h-163z" />
    <glyph glyph-name="u" unicode="u" 
d="M508 484l-68 -484h-49l10 113q-128 -125 -231 -125q-65 0 -94.5 35t-20.5 99l51 362h64l-50 -348q-7 -49 9.5 -71t60.5 -22q46 0 92 28.5t119 94.5l44 318h63z" />
    <glyph glyph-name="v" unicode="v" horiz-adv-x="521" 
d="M440 484h66q-34 -153 -103 -287q-61 -113 -96 -156q-16 -22 -33.5 -31.5t-45.5 -9.5h-58q-19 0 -23 18l-97 466h66l82 -433h17q18 0 28 5.5t23 21.5q39 51 84 145q63 126 90 261z" />
    <glyph glyph-name="w" unicode="w" horiz-adv-x="837" 
d="M190 51h13q25 0 43 30q32 49 67 143q38 102 67 244q2 18 19 16h69q15 0 19 -16l55 -417h12q22 0 40 28q51 77 79 145q48 106 78 260h66q-37 -163 -95 -287q-52 -109 -92 -158q-30 -39 -72 -39h-43q-20 0 -22 18l-55 423h-11q-17 -112 -62 -233q-37 -102 -79 -160
q-29 -48 -85 -48h-39q-18 0 -22 18l-90 466h65z" />
    <glyph glyph-name="x" unicode="x" horiz-adv-x="517" 
d="M316 251l134 -251h-65l-119 227h-26l-182 -227h-73l206 252l-124 232h65l107 -206h29l168 206h70z" />
    <glyph glyph-name="y" unicode="y" horiz-adv-x="529" 
d="M445 484h66q-56 -231 -162 -411q-77 -135 -145.5 -199t-155.5 -81l-11 44q112 31 201 163h-41q-20 0 -34.5 11.5t-18.5 30.5l-96 442h67l83 -412q5 -21 25 -21h47l23 40q101 179 152 393z" />
    <glyph glyph-name="z" unicode="z" horiz-adv-x="497" 
d="M466 432l-376 -379h325l-7 -53h-400l6 53l376 379h-318l7 52h394z" />
    <glyph glyph-name="braceleft" unicode="{" horiz-adv-x="311" 
d="M332 768l-3 -41q-53 0 -78 -22.5t-33 -72.5l-26 -188q-8 -61 -27.5 -83t-72.5 -33q49 -18 63.5 -40.5t7.5 -74.5l-34 -245q-7 -50 10 -71t71 -21l-3 -41q-81 -4 -115 29t-23 103l36 261q5 36 -4.5 48t-44.5 25q-5 2 -7 3l7 50q43 12 55.5 23.5t18.5 57.5l29 204
q10 71 50 102.5t123 26.5z" />
    <glyph glyph-name="bar" unicode="|" horiz-adv-x="241" 
d="M79 -169h-47l133 950h48z" />
    <glyph glyph-name="braceright" unicode="}" horiz-adv-x="311" 
d="M106 727l3 41q82 5 115.5 -29t23.5 -103l-29 -204q-6 -46 2.5 -56.5t49.5 -23.5l-7 -50q-24 -8 -32.5 -12t-20.5 -12.5t-16.5 -20.5t-7.5 -32l-37 -261q-10 -71 -49 -102t-123 -27l3 41q53 0 77.5 22.5t31.5 71.5l34 246q8 52 28 73.5t76 38.5q-48 11 -62.5 35t-4.5 84
l26 188q7 50 -10 71t-71 21z" />
    <glyph glyph-name="asciitilde" unicode="~" horiz-adv-x="526" 
d="M105 231l-34 3q3 55 27 82t60 25q41 -2 104 -30.5t95 -31.5q29 -2 43 12t19 47l34 -3q-2 -52 -26.5 -79.5t-60.5 -24.5q-48 2 -110 30.5t-89 30.5q-29 3 -43 -12t-19 -49z" />
    <glyph glyph-name="uni00A0" unicode="&#xa0;" horiz-adv-x="226" 
 />
    <glyph glyph-name="exclamdown" unicode="&#xa1;" horiz-adv-x="246" 
d="M141 488h18q26 0 22 -26l-8 -56q-3 -24 -27 -24h-17q-26 0 -23 25l8 58q3 23 27 23zM129 112l-43 -311h-64l44 311l30 168h51z" />
    <glyph glyph-name="cent" unicode="&#xa2;" horiz-adv-x="504" 
d="M473 581l-11 -40q-58 7 -109 7l-86 -399h5q78 0 144 11l5 -44q-75 -22 -159 -22h-9l-21 -94h-35l22 96q-100 9 -135 68.5t-17 187.5q20 139 78 195t180 56h7l19 87h35l-20 -89q65 -4 107 -20zM232 150l86 398q-88 -3 -129 -45.5t-56 -155.5q-14 -105 8 -147.5t91 -49.5z
" />
    <glyph glyph-name="sterling" unicode="&#xa3;" horiz-adv-x="564" 
d="M543 691l-8 -51q-92 5 -173 5q-68 0 -98.5 -27.5t-36.5 -95.5l-12 -138h227l-8 -41h-222l-8 -86q-6 -75 -28.5 -123t-71.5 -80q20 2 62 2h313l-8 -56h-448l8 57q96 48 109 200l8 86h-81l6 41h78l13 141q5 57 21 93.5t45 54t60.5 23t80.5 5.5q76 0 172 -10z" />
    <glyph glyph-name="currency" unicode="&#xa4;" horiz-adv-x="597" 
d="M552 545l-78 -69q35 -52 26 -127q-7 -74 -54 -125l69 -78l-31 -27l-68 78q-55 -39 -129 -39q-75 0 -123 43l-78 -69l-28 31l79 69q-33 52 -24 123q9 79 56 129l-67 77l30 29l69 -79q52 36 125 36t121 -40l78 70zM284 197q72 -2 120 41.5t56 116.5q7 68 -29 110.5
t-105 42.5q-73 0 -119 -43.5t-54 -115.5q-7 -68 28.5 -109.5t102.5 -42.5z" />
    <glyph glyph-name="yen" unicode="&#xa5;" horiz-adv-x="610" 
d="M369 317h155l-6 -40h-177l-10 -15l-8 -57h185l-6 -40h-184l-23 -165h-66l23 165h-181l6 40h181l8 60l-5 12h-174l5 40h153l-150 373h67l115 -292q18 -46 25 -74h8q18 38 44 76l196 290h73z" />
    <glyph glyph-name="brokenbar" unicode="&#xa6;" horiz-adv-x="241" 
d="M157 381h-48l56 400h48zM80 -169h-48l56 400h48z" />
    <glyph glyph-name="section" unicode="&#xa7;" horiz-adv-x="544" 
d="M354 327l-164 103q-51 31 -71 66t-12 88q11 72 58 95.5t145 22.5q121 0 218 -12l-9 -49q-90 6 -195 7q-76 1 -109.5 -11.5t-41.5 -59.5q-5 -36 9 -58.5t45 -41.5l161 -99q63 -38 73.5 -94.5t-17.5 -135.5l-48 1q17 64 9 107.5t-51 70.5zM96 397l47 -1q-18 -64 -10.5 -105
t51.5 -68l166 -103q50 -30 70 -65t12 -90q-5 -33 -17.5 -55.5t-28.5 -35.5t-43 -19.5t-51.5 -8t-62.5 -1.5q-116 2 -218 12l9 49q98 -6 195 -7q36 0 57 1.5t43.5 8t34.5 22.5t16 42q8 62 -54 101l-159 96q-64 38 -75 92.5t18 134.5z" />
    <glyph glyph-name="dieresis" unicode="&#xa8;" horiz-adv-x="407" 
d="M171 688h20q20 0 17 -20l-8 -54q-3 -20 -22 -20h-20q-19 0 -18 19l8 55q3 20 23 20zM343 688h19q21 0 18 -20l-9 -54q-1 -20 -21 -20h-21q-20 0 -17 19l8 55q3 20 23 20z" />
    <glyph glyph-name="copyright" unicode="&#xa9;" horiz-adv-x="842" 
d="M471 702q157 0 246.5 -100t68.5 -260q-20 -156 -128.5 -255t-272.5 -99q-158 0 -246.5 101t-67.5 259q20 155 128 254.5t272 99.5zM473 667q-148 0 -247.5 -90.5t-118.5 -234.5q-18 -143 61 -231t216 -88q148 0 247.5 90.5t117.5 234.5q19 141 -59 230t-217 89zM547 174
l3 -37q-65 -14 -139 -14q-114 0 -151.5 50.5t-20.5 176.5q17 125 67.5 173.5t160.5 48.5q73 0 129 -13l-8 -36q-52 5 -116 5q-91 0 -129 -37t-54 -146q-14 -100 10.5 -138.5t104.5 -38.5q93 0 143 6z" />
    <glyph glyph-name="ordfeminine" unicode="&#xaa;" horiz-adv-x="445" 
d="M361 270h-39l4 66q-66 -73 -145 -73q-62 0 -86 37t-10 137q14 103 54 135.5t118 32.5q70 0 149 -14zM328 380l26 181q-70 2 -82 2q-72 0 -99 -23.5t-39 -106.5q-11 -77 1 -101t54 -24q62 0 139 72z" />
    <glyph glyph-name="guillemotleft" unicode="&#xab;" horiz-adv-x="468" 
d="M256 433l-161 -183l113 -186l-32 -22l-137 204l2 16l188 195zM429 433l-161 -183l113 -186l-32 -22l-137 204l2 16l188 195z" />
    <glyph glyph-name="logicalnot" unicode="&#xac;" horiz-adv-x="588" 
d="M512 322l-27 -188h-51l20 138h-380l7 50h431z" />
    <glyph glyph-name="softhyphen" unicode="&#xad;" horiz-adv-x="459" 
d="M373 227h-306l6 50h307z" />
    <glyph glyph-name="registered" unicode="&#xae;" horiz-adv-x="564" 
d="M328 701q100 0 157 -60.5t45 -163.5q-12 -99 -77 -160t-164 -61q-102 0 -158.5 63.5t-44.5 165.5q11 101 77.5 158.5t164.5 57.5zM505 482q10 92 -38.5 144t-138.5 52q-93 0 -150 -54t-67 -143q-10 -93 40 -147t138 -54q91 0 148.5 56t67.5 146zM187 346l38 267
q37 3 103 3q56 0 80.5 -15t18.5 -63q-4 -32 -18.5 -47t-46.5 -21l-1 -2q20 -7 28 -39l22 -83h-34l-20 84q-8 30 -39 30h-82l-17 -114h-32zM239 484h76q41 1 58.5 11.5t21.5 45.5q4 32 -9.5 41t-56.5 9h-75z" />
    <glyph glyph-name="macron" unicode="&#xaf;" horiz-adv-x="400" 
d="M388 615h-272l7 49h272z" />
    <glyph glyph-name="degree" unicode="&#xb0;" horiz-adv-x="370" 
d="M234 702q57 0 90 -36.5t27 -91.5q-5 -55 -44 -89.5t-94 -34.5q-58 0 -89.5 38t-26.5 92q5 55 43.5 88.5t93.5 33.5zM233 663q-38 0 -64 -24t-30 -62t17.5 -62.5t58.5 -24.5q38 0 64 23.5t30 63.5q4 38 -16.5 62t-59.5 24z" />
    <glyph glyph-name="plusminus" unicode="&#xb1;" horiz-adv-x="589" 
d="M522 379l-7 -49h-190l-20 -138h-49l19 138h-191l7 49h190l19 138h51l-19 -138h190zM56 127h431l-8 -49h-430z" />
    <glyph glyph-name="twosuperior" unicode="&#xb2;" horiz-adv-x="420" 
d="M134 726l-2 40q73 15 135 15q68 0 100.5 -19.5t25.5 -71.5q-4 -38 -26.5 -70.5t-73.5 -79.5l-150 -134q33 3 70 3h157l-6 -49h-291l4 33q2 15 9 22l154 137q97 86 102 140q3 28 -15.5 36t-62.5 8q-60 0 -130 -10z" />
    <glyph glyph-name="threesuperior" unicode="&#xb3;" horiz-adv-x="402" 
d="M137 731l-3 40q66 10 123 10q73 0 102 -23.5t24 -73.5q-5 -40 -24 -70.5t-56 -34.5l-1 -3q79 -12 65 -103q-17 -115 -165 -120q-60 -3 -130 10l7 40q78 -7 119 -5q107 7 119 85q6 34 -11 54.5t-68 20.5h-84l5 39l82 1q49 1 68.5 22t24.5 56q5 36 -12 48.5t-75 12.5
q-48 0 -110 -6z" />
    <glyph glyph-name="acute" unicode="&#xb4;" horiz-adv-x="301" 
d="M318 670l-194 -128l-22 30l184 147z" />
    <glyph glyph-name="paragraph" unicode="&#xb6;" horiz-adv-x="593" 
d="M451 0h-51l92 652q-60 6 -116 6l-122 -868h-51l58 411q-119 13 -165.5 77t-29.5 184q20 138 93 189t236 51q82 0 153 -17z" />
    <glyph glyph-name="periodcentered" unicode="&#xb7;" horiz-adv-x="223" 
d="M102 311h22q27 0 22 -26l-8 -58q-3 -23 -26 -23h-22q-26 0 -23 26l9 58q3 23 26 23z" />
    <glyph glyph-name="cedilla" unicode="&#xb8;" horiz-adv-x="228" 
d="M44 -76l8 31q54 5 76.5 -10.5t15.5 -57.5q-9 -58 -56.5 -90t-115.5 -23l12 35q44 -1 75.5 21.5t37.5 57.5q3 21 -7.5 28t-45.5 8z" />
    <glyph glyph-name="onesuperior" unicode="&#xb9;" horiz-adv-x="284" 
d="M213 360h-51l48 331q4 24 7 36l-118 -33l-1 38l122 42h52z" />
    <glyph glyph-name="ordmasculine" unicode="&#xba;" horiz-adv-x="443" 
d="M260 605q89 0 120 -39.5t18 -134.5q-13 -92 -53.5 -130t-124.5 -38q-87 0 -118.5 39.5t-18.5 134.5q13 93 52.5 130.5t124.5 37.5zM261 564q-63 0 -90 -28.5t-38 -104.5q-10 -73 8.5 -99.5t78.5 -26.5q61 0 89 28.5t38 103.5q10 73 -8.5 100t-77.5 27z" />
    <glyph glyph-name="guillemotright" unicode="&#xbb;" horiz-adv-x="468" 
d="M27 65l161 182l-113 187l32 21l136 -204l-1 -15l-189 -196zM200 65l161 182l-113 187l32 21l136 -204l-1 -15l-189 -196z" />
    <glyph glyph-name="onequarter" unicode="&#xbc;" horiz-adv-x="849" 
d="M692 690l-556 -690h-49l556 690h49zM91 612l-1 35l125 43h51l-58 -414h-51l47 333q5 31 7 37zM781 109l-50 -4l-14 -105h-48l14 104h-205q-25 0 -35 17t4 43l170 250h51l-166 -247q-6 -9 -2.5 -16t15.5 -7h174l17 123l19 68h39l-27 -191h49z" />
    <glyph glyph-name="onehalf" unicode="&#xbd;" horiz-adv-x="872" 
d="M131 0h-49l556 690h49zM207 276h-51l47 333q4 24 8 37l-120 -34l-2 35l126 43h50zM539 368l-3 38q76 15 138 15q78 0 110.5 -19t24.5 -75q-4 -34 -28.5 -68.5t-75.5 -79.5l-159 -135q50 2 73 1h170l-7 -45h-305l4 30q1 13 10 22l159 137q97 85 105 141q4 30 -15.5 39
t-65.5 9q-62 0 -135 -10z" />
    <glyph glyph-name="threequarters" unicode="&#xbe;" horiz-adv-x="942" 
d="M294 495l-5 -2q84 -12 74 -107q-8 -63 -44 -91t-116 -28q-55 0 -145 10l5 38q66 -6 127 -6q59 0 87 20.5t35 68.5q5 34 -11.5 54t-72.5 20h-87l5 37l84 1q91 2 100 81q5 37 -13 49.5t-75 12.5q-68 0 -121 -5l-2 37q66 10 127 10q83 0 113 -21.5t22 -76.5
q-12 -91 -87 -102zM796 690l-556 -690h-49l556 690h49zM873 109l-55 -5l-14 -104h-48l14 104h-199q-25 0 -35.5 17t4.5 43l170 250h50l-166 -247q-6 -9 -2.5 -16t15.5 -7h169l17 123l19 68h39l-27 -191h55z" />
    <glyph glyph-name="questiondown" unicode="&#xbf;" horiz-adv-x="495" 
d="M275 496h18q26 0 23 -26l-8 -57q-3 -24 -26 -24h-18q-26 0 -22 26l8 58q3 23 25 23zM229 288l54 -2q-7 -51 -30.5 -94t-52.5 -71.5t-58.5 -54.5t-52 -56.5t-27.5 -64.5q-9 -55 21 -80.5t104 -25.5q114 0 201 11l3 -46q-8 -1 -36 -6t-38 -6l-34 -3.5t-49 -3.5t-58 -1
q-99 0 -145.5 41.5t-35.5 116.5q5 41 29 76t54.5 62l61.5 55t56.5 67t32.5 86z" />
    <glyph glyph-name="Agrave" unicode="&#xc0;" horiz-adv-x="612" 
d="M394 731l-167 130l37 46l155 -147zM451 228h-301l-107 -228h-70l325 673q7 17 27 17h75q9 0 16 -6t8 -14l137 -670h-66zM440 286l-57 295l-9 58h-30q-3 -6 -12.5 -27t-14.5 -31l-139 -295h262z" />
    <glyph glyph-name="Aacute" unicode="&#xc1;" horiz-adv-x="612" 
d="M337 731l-22 30l183 147l33 -49zM451 228h-301l-107 -228h-70l325 673q7 17 27 17h75q9 0 16 -6t8 -14l137 -670h-66zM440 286l-57 295l-9 58h-30q-3 -6 -12.5 -27t-14.5 -31l-139 -295h262z" />
    <glyph glyph-name="Acircumflex" unicode="&#xc2;" horiz-adv-x="612" 
d="M238 738l-19 29l149 123h46l123 -127l-25 -26l-118 102h-9zM451 228h-301l-107 -228h-70l325 673q7 17 27 17h75q9 0 16 -6t8 -14l137 -670h-66zM440 286l-57 295l-9 58h-30q-3 -6 -12.5 -27t-14.5 -31l-139 -295h262z" />
    <glyph glyph-name="Atilde" unicode="&#xc3;" horiz-adv-x="612" 
d="M512 871l31 -3q-2 -51 -26 -77t-61 -23q-38 3 -78 30.5t-60 29.5q-55 5 -64 -60l-31 3q3 53 27.5 80t60.5 24q32 -3 71.5 -30t65.5 -30q30 -3 44.5 10.5t19.5 45.5zM451 228h-301l-107 -228h-70l325 673q7 17 27 17h75q9 0 16 -6t8 -14l137 -670h-66zM440 286l-57 295
l-9 58h-30q-3 -6 -12.5 -27t-14.5 -31l-139 -295h262z" />
    <glyph glyph-name="Adieresis" unicode="&#xc4;" horiz-adv-x="612" 
d="M301 771h-21q-20 0 -17 19l8 55q3 20 23 20h19q21 0 18 -20l-9 -54q-1 -20 -21 -20zM473 771h-21q-20 0 -17 19l8 55q3 20 22 20h20q21 0 18 -20l-9 -54q-1 -20 -21 -20zM451 228h-301l-107 -228h-70l325 673q7 17 27 17h75q9 0 16 -6t8 -14l137 -670h-66zM440 286
l-57 295l-9 58h-30q-3 -6 -12.5 -27t-14.5 -31l-139 -295h262z" />
    <glyph glyph-name="Aring" unicode="&#xc5;" horiz-adv-x="612" 
d="M376 716q-46 0 -73.5 30t-22.5 74q5 41 35 70t75 29q46 0 73.5 -30t22.5 -75q-6 -41 -35.5 -69.5t-74.5 -28.5zM318 817q-3 -30 13.5 -48t44.5 -18q29 0 49 19.5t23 48.5q3 28 -13 46.5t-45 18.5t-49 -19t-23 -48zM451 228h-301l-107 -228h-70l325 673q7 17 27 17h75
q9 0 16 -6t8 -14l137 -670h-66zM440 286l-57 295l-9 58h-30q-3 -6 -12.5 -27t-14.5 -31l-139 -295h262z" />
    <glyph glyph-name="AE" unicode="&#xc6;" horiz-adv-x="909" 
d="M903 635h-260q-72 0 -83 -74l-24 -169h292l-6 -52h-293l-29 -213q-11 -72 60 -72h262l-3 -50q-109 -6 -271 -6q-58 0 -89 34.5t-22 91.5l16 116h-239l-181 -241h-71l445 591q44 59 90.5 79t124.5 20q186 0 289 -5zM461 297l38 273q3 22 15.5 43t28.5 29h-4
q-37 -18 -75 -67l-207 -278h204z" />
    <glyph glyph-name="Ccedilla" unicode="&#xc7;" 
d="M485 58l5 -49q-81 -21 -198 -21q-146 0 -196 83.5t-22 276.5q27 196 96 275t214 79q104 0 183 -19l-12 -49q-73 9 -171 9q-114 0 -166 -63.5t-77 -237.5q-23 -167 9.5 -231t141.5 -64q107 -1 193 11zM229 -88l7 31q53 5 76.5 -10.5t16.5 -57.5q-10 -58 -57.5 -90
t-114.5 -23l12 35q43 -1 75 21.5t38 57.5q3 21 -7.5 28t-45.5 8z" />
    <glyph glyph-name="Egrave" unicode="&#xc8;" horiz-adv-x="555" 
d="M393 753l-167 131l37 45l155 -147zM547 635h-278q-71 0 -80 -74l-24 -170h309l-7 -51h-309l-29 -214q-11 -71 60 -71h276v-50q-92 -6 -285 -6q-64 0 -95 34t-23 92l64 454q7 52 42 82t92 30q203 0 296 -6z" />
    <glyph glyph-name="Eacute" unicode="&#xc9;" horiz-adv-x="555" 
d="M335 753l-22 30l184 147l32 -49zM547 635h-278q-71 0 -80 -74l-24 -170h309l-7 -51h-309l-29 -214q-11 -71 60 -71h276v-50q-92 -6 -285 -6q-64 0 -95 34t-23 92l64 454q7 52 42 82t92 30q203 0 296 -6z" />
    <glyph glyph-name="Ecircumflex" unicode="&#xca;" horiz-adv-x="555" 
d="M237 760l-20 29l150 124h45l123 -127l-24 -26l-118 101h-9zM547 635h-278q-71 0 -80 -74l-24 -170h309l-7 -51h-309l-29 -214q-11 -71 60 -71h276v-50q-92 -6 -285 -6q-64 0 -95 34t-23 92l64 454q7 52 42 82t92 30q203 0 296 -6z" />
    <glyph glyph-name="Edieresis" unicode="&#xcb;" horiz-adv-x="555" 
d="M300 793h-21q-20 0 -17 19l8 55q3 20 22 20h20q21 0 18 -20l-9 -54q-1 -20 -21 -20zM472 793h-21q-19 0 -18 19l9 55q3 20 22 20h20q20 0 17 -20l-8 -54q-1 -20 -21 -20zM547 635h-278q-71 0 -80 -74l-24 -170h309l-7 -51h-309l-29 -214q-11 -71 60 -71h276v-50
q-92 -6 -285 -6q-64 0 -95 34t-23 92l64 454q7 52 42 82t92 30q203 0 296 -6z" />
    <glyph glyph-name="Igrave" unicode="&#xcc;" horiz-adv-x="250" 
d="M235 760l-25 -29l-167 130l37 46zM117 0h-66l97 690h66z" />
    <glyph glyph-name="Iacute" unicode="&#xcd;" horiz-adv-x="250" 
d="M347 859l-195 -128l-22 30l184 147zM117 0h-66l97 690h66z" />
    <glyph glyph-name="Icircumflex" unicode="&#xce;" horiz-adv-x="250" 
d="M352 763l-24 -26l-118 102h-9l-147 -101l-19 29l149 123h45zM117 0h-66l97 690h66z" />
    <glyph glyph-name="Idieresis" unicode="&#xcf;" horiz-adv-x="250" 
d="M109 865h20q21 0 18 -20l-9 -54q-1 -20 -21 -20h-21q-20 0 -17 19l8 55q3 20 22 20zM281 865h20q21 0 18 -20l-9 -54q-1 -20 -21 -20h-21q-19 0 -18 19l9 55q3 20 22 20zM117 0h-66l97 690h66z" />
    <glyph glyph-name="Eth" unicode="&#xd0;" horiz-adv-x="661" 
d="M106 388l42 302q122 9 227 9q152 0 203.5 -79.5t23.5 -277.5q-15 -108 -38.5 -175.5t-63.5 -107t-90.5 -54t-128.5 -14.5q-102 0 -230 9l49 349h-72l5 39h73zM166 349l-42 -298q100 -2 156 -2q83 0 130.5 25t77 88.5t46.5 185.5q25 172 -9 233t-151 61q-11 0 -167 -3
l-36 -251h164l-6 -39h-163z" />
    <glyph glyph-name="Ntilde" unicode="&#xd1;" horiz-adv-x="698" 
d="M302 768l-32 3q4 53 28.5 80t60.5 24q32 -3 71.5 -30t65.5 -30q29 -3 44 11t20 45l31 -3q-2 -51 -26 -77t-61 -23q-38 3 -78 30.5t-60 29.5q-55 5 -64 -60zM662 690l-94 -664q-3 -26 -29 -26h-66q-20 0 -29 23l-196 525q-21 57 -27 81h-20q-3 -43 -9 -86l-75 -543h-66
l93 664q4 26 30 26h63q22 0 30 -23l191 -512q21 -59 32 -94h22q3 32 11 96l74 533h65z" />
    <glyph glyph-name="Ograve" unicode="&#xd2;" horiz-adv-x="664" 
d="M445 760l-25 -29l-167 130l37 46zM386 702q145 0 196 -81.5t23 -278.5q-27 -198 -96 -276t-214 -78t-196.5 81t-24.5 279q27 197 96 275.5t216 78.5zM384 644q-114 0 -166 -65t-77 -237q-23 -167 10.5 -231.5t144.5 -64.5q112 0 164.5 65.5t76.5 236.5q25 169 -8 232.5
t-145 63.5z" />
    <glyph glyph-name="Oacute" unicode="&#xd3;" horiz-adv-x="664" 
d="M556 859l-194 -128l-22 30l184 147zM386 702q145 0 196 -81.5t23 -278.5q-27 -198 -96 -276t-214 -78t-196.5 81t-24.5 279q27 197 96 275.5t216 78.5zM384 644q-114 0 -166 -65t-77 -237q-23 -167 10.5 -231.5t144.5 -64.5q112 0 164.5 65.5t76.5 236.5q25 169 -8 232.5
t-145 63.5z" />
    <glyph glyph-name="Ocircumflex" unicode="&#xd4;" horiz-adv-x="664" 
d="M562 763l-25 -26l-117 102h-9l-147 -101l-20 29l150 123h45zM386 702q145 0 196 -81.5t23 -278.5q-27 -198 -96 -276t-214 -78t-196.5 81t-24.5 279q27 197 96 275.5t216 78.5zM384 644q-114 0 -166 -65t-77 -237q-23 -167 10.5 -231.5t144.5 -64.5q112 0 164.5 65.5
t76.5 236.5q25 169 -8 232.5t-145 63.5z" />
    <glyph glyph-name="Otilde" unicode="&#xd5;" horiz-adv-x="664" 
d="M280 768l-32 3q4 53 28.5 80t60.5 24q32 -3 71.5 -30t65.5 -30q55 -6 63 56l32 -3q-3 -51 -26.5 -77t-60.5 -23q-38 3 -78 30.5t-60 29.5q-55 5 -64 -60zM386 702q145 0 196 -81.5t23 -278.5q-27 -198 -96 -276t-214 -78t-196.5 81t-24.5 279q27 197 96 275.5t216 78.5z
M384 644q-114 0 -166 -65t-77 -237q-23 -167 10.5 -231.5t144.5 -64.5q112 0 164.5 65.5t76.5 236.5q25 169 -8 232.5t-145 63.5z" />
    <glyph glyph-name="Odieresis" unicode="&#xd6;" horiz-adv-x="664" 
d="M319 865h20q20 0 17 -20l-8 -54q-1 -20 -21 -20h-21q-19 0 -18 19l9 55q3 20 22 20zM491 865h20q20 0 17 -20l-8 -54q-3 -20 -22 -20h-20q-19 0 -18 19l9 55q3 20 22 20zM386 702q145 0 196 -81.5t23 -278.5q-27 -198 -96 -276t-214 -78t-196.5 81t-24.5 279
q27 197 96 275.5t216 78.5zM384 644q-114 0 -166 -65t-77 -237q-23 -167 10.5 -231.5t144.5 -64.5q112 0 164.5 65.5t76.5 236.5q25 169 -8 232.5t-145 63.5z" />
    <glyph glyph-name="multiply" unicode="&#xd7;" horiz-adv-x="525" 
d="M299 285l134 -138l-36 -36l-138 142l-181 -144l-30 42l175 139l-133 138l36 36l137 -142l184 147l30 -42z" />
    <glyph glyph-name="Oslash" unicode="&#xd8;" horiz-adv-x="664" 
d="M596 730l-45 -73q88 -75 54 -315q-27 -198 -96 -276t-214 -78q-86 0 -135 25l-43 -70l-33 20l44 71q-87 76 -54 314q27 197 96 275.5t216 78.5q84 0 133 -24l43 71zM163 93l323 531q-36 20 -102 20q-114 0 -166 -65t-77 -237q-25 -188 22 -249zM516 599l-323 -532
q37 -21 103 -21q112 0 164.5 65.5t76.5 236.5q28 192 -21 251z" />
    <glyph glyph-name="Ugrave" unicode="&#xd9;" horiz-adv-x="665" 
d="M444 760l-25 -29l-167 130l37 46zM634 690l-61 -430q-21 -148 -84 -210t-192 -62q-133 0 -184 64t-30 211l60 427h66l-61 -430q-16 -120 16.5 -167t130.5 -47q100 0 148.5 48.5t64.5 168.5l60 427h66z" />
    <glyph glyph-name="Uacute" unicode="&#xda;" horiz-adv-x="665" 
d="M555 859l-194 -128l-22 30l184 147zM634 690l-61 -430q-21 -148 -84 -210t-192 -62q-133 0 -184 64t-30 211l60 427h66l-61 -430q-16 -120 16.5 -167t130.5 -47q100 0 148.5 48.5t64.5 168.5l60 427h66z" />
    <glyph glyph-name="Ucircumflex" unicode="&#xdb;" horiz-adv-x="665" 
d="M561 763l-25 -26l-117 102h-9l-147 -101l-20 29l150 123h45zM634 690l-61 -430q-21 -148 -84 -210t-192 -62q-133 0 -184 64t-30 211l60 427h66l-61 -430q-16 -120 16.5 -167t130.5 -47q100 0 148.5 48.5t64.5 168.5l60 427h66z" />
    <glyph glyph-name="Udieresis" unicode="&#xdc;" horiz-adv-x="665" 
d="M318 865h20q20 0 17 -20l-8 -54q-1 -20 -21 -20h-21q-19 0 -18 19l9 55q3 20 22 20zM490 865h20q20 0 17 -20l-8 -54q-3 -20 -22 -20h-20q-19 0 -18 19l9 55q3 20 22 20zM634 690l-61 -430q-21 -148 -84 -210t-192 -62q-133 0 -184 64t-30 211l60 427h66l-61 -430
q-16 -120 16.5 -167t130.5 -47q100 0 148.5 48.5t64.5 168.5l60 427h66z" />
    <glyph glyph-name="Yacute" unicode="&#xdd;" horiz-adv-x="554" 
d="M302 731l-22 30l184 147l32 -49zM301 247l-34 -247h-66l35 249l-169 441h67l115 -308q12 -32 23 -74h7q12 26 43 77l201 305h72z" />
    <glyph glyph-name="Thorn" unicode="&#xde;" horiz-adv-x="587" 
d="M214 690l-18 -130q45 3 163 3q116 0 159.5 -47t26.5 -169t-68 -165.5t-164 -43.5q-108 0 -175 8l-21 -146h-65l78 555l19 135h65zM145 195h161q86 1 123.5 33t50.5 125q12 91 -14 122t-109 31q-128 0 -169 -1z" />
    <glyph glyph-name="germandbls" unicode="&#xdf;" horiz-adv-x="663" 
d="M416 296l109 -60q46 -26 63 -52.5t11 -76.5q-9 -71 -54.5 -94.5t-136.5 -23.5q-78 0 -157 11l8 48q85 -6 143 -5q68 1 98 15t35 57q3 23 -5 40t-16.5 23t-31.5 20l-110 60q-39 23 -56 49t-12 62q5 45 36.5 69.5t99.5 53.5q7 3 10 4l32.5 17.5t25.5 18.5t21.5 27t8.5 35
q3 37 -25.5 54t-116.5 17q-95 0 -133 -27.5t-49 -106.5l-84 -597q-11 -73 -47 -105.5t-106 -32.5q-43 0 -100 6l9 47h77q50 0 73 20.5t31 73.5l70 491h-89l7 45l89 5l8 56q8 58 27 94.5t52.5 54.5t68 23.5t87.5 5.5q124 0 171.5 -27.5t39.5 -99.5q-4 -45 -30 -74t-79 -55
q-8 -3 -26.5 -11t-26 -11t-21 -10t-19.5 -12.5t-14 -14t-12 -17.5t-5 -21q-4 -22 8 -37t43 -32z" />
    <glyph glyph-name="agrave" unicode="&#xe0;" horiz-adv-x="570" 
d="M347 550l-167 131l37 45l155 -147zM446 0h-49l9 109q-48 -55 -107.5 -88t-118.5 -33q-89 0 -116 58.5t-6 199.5q12 80 29.5 129t48.5 76t69 36.5t98 9.5q91 0 211 -20zM406 164l39 275q-106 4 -124 4q-46 0 -74.5 -5t-50.5 -16t-35.5 -36t-22.5 -57.5t-17 -87.5
q-17 -114 -3 -155.5t72 -41.5q98 0 216 120z" />
    <glyph glyph-name="aacute" unicode="&#xe1;" horiz-adv-x="570" 
d="M290 550l-22 31l183 146l33 -49zM446 0h-49l9 109q-48 -55 -107.5 -88t-118.5 -33q-89 0 -116 58.5t-6 199.5q12 80 29.5 129t48.5 76t69 36.5t98 9.5q91 0 211 -20zM406 164l39 275q-106 4 -124 4q-46 0 -74.5 -5t-50.5 -16t-35.5 -36t-22.5 -57.5t-17 -87.5
q-17 -114 -3 -155.5t72 -41.5q98 0 216 120z" />
    <glyph glyph-name="acircumflex" unicode="&#xe2;" horiz-adv-x="570" 
d="M191 558l-19 28l149 124h46l123 -127l-25 -26l-118 101h-8zM446 0h-49l9 109q-48 -55 -107.5 -88t-118.5 -33q-89 0 -116 58.5t-6 199.5q12 80 29.5 129t48.5 76t69 36.5t98 9.5q91 0 211 -20zM406 164l39 275q-106 4 -124 4q-46 0 -74.5 -5t-50.5 -16t-35.5 -36
t-22.5 -57.5t-17 -87.5q-17 -114 -3 -155.5t72 -41.5q98 0 216 120z" />
    <glyph glyph-name="atilde" unicode="&#xe3;" horiz-adv-x="570" 
d="M465 691l32 -3q-3 -51 -27 -77.5t-61 -23.5q-38 3 -78.5 30.5t-59.5 30.5q-29 3 -44 -12t-20 -49l-31 3q3 53 27.5 80t60.5 24q32 -3 71.5 -30t65.5 -30q30 -3 44.5 11t19.5 46zM446 0h-49l9 109q-48 -55 -107.5 -88t-118.5 -33q-89 0 -116 58.5t-6 199.5q12 80 29.5 129
t48.5 76t69 36.5t98 9.5q91 0 211 -20zM406 164l39 275q-106 4 -124 4q-46 0 -74.5 -5t-50.5 -16t-35.5 -36t-22.5 -57.5t-17 -87.5q-17 -114 -3 -155.5t72 -41.5q98 0 216 120z" />
    <glyph glyph-name="adieresis" unicode="&#xe4;" horiz-adv-x="570" 
d="M254 590h-21q-20 0 -17 19l8 55q3 20 23 20h20q20 0 17 -20l-8 -54q-3 -20 -22 -20zM426 590h-21q-20 0 -17 19l8 55q3 20 23 20h19q21 0 18 -20l-9 -54q-1 -20 -21 -20zM446 0h-49l9 109q-48 -55 -107.5 -88t-118.5 -33q-89 0 -116 58.5t-6 199.5q12 80 29.5 129
t48.5 76t69 36.5t98 9.5q91 0 211 -20zM406 164l39 275q-106 4 -124 4q-46 0 -74.5 -5t-50.5 -16t-35.5 -36t-22.5 -57.5t-17 -87.5q-17 -114 -3 -155.5t72 -41.5q98 0 216 120z" />
    <glyph glyph-name="aring" unicode="&#xe5;" horiz-adv-x="570" 
d="M329 536q-47 0 -74 29.5t-22 74.5q5 41 35 69.5t75 28.5q46 0 73.5 -30t22.5 -74q-6 -41 -35.5 -69.5t-74.5 -28.5zM271 636q-3 -29 13.5 -47t44.5 -18q29 0 49 19t23 49q3 28 -13 46t-45 18t-49 -19t-23 -48zM446 0h-49l9 109q-48 -55 -107.5 -88t-118.5 -33
q-89 0 -116 58.5t-6 199.5q12 80 29.5 129t48.5 76t69 36.5t98 9.5q91 0 211 -20zM406 164l39 275q-106 4 -124 4q-46 0 -74.5 -5t-50.5 -16t-35.5 -36t-22.5 -57.5t-17 -87.5q-17 -114 -3 -155.5t72 -41.5q98 0 216 120z" />
    <glyph glyph-name="ae" unicode="&#xe6;" horiz-adv-x="873" 
d="M769 55l5 -43q-66 -24 -193 -24q-83 0 -129 28t-60 88q-97 -116 -219 -116q-85 0 -111 61t-6 197q12 80 30 129t49 76t68 36.5t96 9.5q98 0 215 -22q50 22 138 22q106 0 148 -36.5t26 -116.5q-12 -65 -52 -93t-124 -36l-198 -19q-6 -90 27 -122t115 -32q71 0 175 13z
M185 44q93 0 201 110q-2 43 6 97q19 131 67 184q-118 8 -143 8q-105 0 -140.5 -37.5t-54.5 -164.5q-17 -111 -4 -154t68 -43zM457 245l193 19q55 6 79 23.5t34 61.5q12 59 -16 76.5t-100 17.5q-63 0 -97.5 -14t-57 -55.5t-34.5 -124.5z" />
    <glyph glyph-name="ccedilla" unicode="&#xe7;" horiz-adv-x="481" 
d="M401 54l5 -44q-72 -22 -159 -22q-126 0 -170.5 59t-24.5 198q19 139 77 195.5t181 56.5q89 0 148 -22l-11 -41q-53 8 -127 8q-98 0 -142.5 -42t-59.5 -160q-16 -117 14 -157t125 -40q85 0 144 11zM183 -88l7 31q53 5 76.5 -10.5t16.5 -57.5q-10 -58 -57.5 -90t-114.5 -23
l12 35q43 -1 75 21.5t38 57.5q3 21 -7.5 28t-45.5 8z" />
    <glyph glyph-name="egrave" unicode="&#xe8;" horiz-adv-x="533" 
d="M339 550l-167 131l37 45l155 -147zM432 55l5 -43q-69 -24 -195 -24q-122 0 -165.5 61.5t-23.5 201.5q20 144 77 195t183 51q105 0 147.5 -36.5t26.5 -116.5q-13 -65 -52.5 -93t-123.5 -36l-199 -19q-6 -90 27 -122t115 -32q72 0 178 13zM118 245l193 19q55 6 79 23.5
t33 61.5q13 59 -15 76.5t-100 17.5q-48 0 -77 -7t-52.5 -28t-37 -58.5t-23.5 -100.5v-4z" />
    <glyph glyph-name="eacute" unicode="&#xe9;" horiz-adv-x="533" 
d="M282 550l-22 31l183 146l33 -49zM432 55l5 -43q-69 -24 -195 -24q-122 0 -165.5 61.5t-23.5 201.5q20 144 77 195t183 51q105 0 147.5 -36.5t26.5 -116.5q-13 -65 -52.5 -93t-123.5 -36l-199 -19q-6 -90 27 -122t115 -32q72 0 178 13zM118 245l193 19q55 6 79 23.5
t33 61.5q13 59 -15 76.5t-100 17.5q-48 0 -77 -7t-52.5 -28t-37 -58.5t-23.5 -100.5v-4z" />
    <glyph glyph-name="ecircumflex" unicode="&#xea;" horiz-adv-x="533" 
d="M183 558l-19 28l149 124h46l122 -127l-24 -26l-118 101h-9zM432 55l5 -43q-69 -24 -195 -24q-122 0 -165.5 61.5t-23.5 201.5q20 144 77 195t183 51q105 0 147.5 -36.5t26.5 -116.5q-13 -65 -52.5 -93t-123.5 -36l-199 -19q-6 -90 27 -122t115 -32q72 0 178 13zM118 245
l193 19q55 6 79 23.5t33 61.5q13 59 -15 76.5t-100 17.5q-48 0 -77 -7t-52.5 -28t-37 -58.5t-23.5 -100.5v-4z" />
    <glyph glyph-name="edieresis" unicode="&#xeb;" horiz-adv-x="533" 
d="M246 590h-21q-20 0 -17 19l8 55q3 20 23 20h19q21 0 18 -20l-9 -54q-1 -20 -21 -20zM418 590h-21q-20 0 -17 19l8 55q3 20 22 20h20q21 0 18 -20l-9 -54q-1 -20 -21 -20zM432 55l5 -43q-69 -24 -195 -24q-122 0 -165.5 61.5t-23.5 201.5q20 144 77 195t183 51
q105 0 147.5 -36.5t26.5 -116.5q-13 -65 -52.5 -93t-123.5 -36l-199 -19q-6 -90 27 -122t115 -32q72 0 178 13zM118 245l193 19q55 6 79 23.5t33 61.5q13 59 -15 76.5t-100 17.5q-48 0 -77 -7t-52.5 -28t-37 -58.5t-23.5 -100.5v-4z" />
    <glyph glyph-name="igrave" unicode="&#xec;" horiz-adv-x="236" 
d="M203 579l-25 -29l-167 131l37 45zM109 0h-64l69 484h63z" />
    <glyph glyph-name="iacute" unicode="&#xed;" horiz-adv-x="236" 
d="M315 678l-195 -128l-22 31l184 146zM109 0h-64l69 484h63z" />
    <glyph glyph-name="icircumflex" unicode="&#xee;" horiz-adv-x="236" 
d="M320 583l-24 -26l-118 101h-9l-147 -100l-19 28l149 124h45zM109 0h-64l69 484h63z" />
    <glyph glyph-name="idieresis" unicode="&#xef;" horiz-adv-x="236" 
d="M77 684h20q21 0 18 -20l-9 -54q-1 -20 -21 -20h-21q-20 0 -17 19l8 55q3 20 22 20zM249 684h20q21 0 18 -20l-9 -54q-1 -20 -21 -20h-21q-19 0 -18 19l9 55q3 20 22 20zM109 0h-64l69 484h63z" />
    <glyph glyph-name="eth" unicode="&#xf0;" horiz-adv-x="552" 
d="M487 677l-79 -53q105 -105 73 -346q-9 -69 -23.5 -117t-42 -89.5t-74 -62.5t-112.5 -21q-110 0 -153 57t-27 178q31 224 225 224q98 0 151 -61q1 140 -64 205l-93 -62l-18 28l83 57q-58 40 -164 38l10 46q127 4 202 -52l88 60zM232 42q90 0 129.5 59t56.5 189q4 37 5 52
q-51 51 -139 51q-79 0 -118 -45t-51 -131q-14 -95 14.5 -135t102.5 -40z" />
    <glyph glyph-name="ntilde" unicode="&#xf1;" horiz-adv-x="574" 
d="M463 691l31 -3q-2 -51 -26 -77.5t-61 -23.5q-38 3 -78.5 30.5t-59.5 30.5q-29 3 -44 -12t-20 -49l-32 3q4 54 28 80.5t61 23.5q32 -3 71.5 -30t65.5 -30q55 -6 64 57zM160 484l-10 -110q140 123 240 123q64 0 94 -35t21 -100l-52 -362h-63l49 349q7 51 -8.5 72t-58.5 21
q-46 0 -95.5 -27.5t-126.5 -88.5l-45 -326h-64l69 484h50z" />
    <glyph glyph-name="ograve" unicode="&#xf2;" horiz-adv-x="562" 
d="M364 579l-24 -29l-167 131l36 45zM306 497q121 0 165.5 -59.5t24.5 -198.5q-19 -138 -76 -194.5t-177 -56.5q-122 0 -166 58.5t-25 198.5q19 138 76 195t178 57zM306 442q-89 0 -130.5 -43.5t-57.5 -159.5q-16 -113 11 -155t114 -42q89 0 130.5 44t57.5 159
q16 113 -11 155t-114 42z" />
    <glyph glyph-name="oacute" unicode="&#xf3;" horiz-adv-x="562" 
d="M476 678l-194 -128l-22 31l184 146zM306 497q121 0 165.5 -59.5t24.5 -198.5q-19 -138 -76 -194.5t-177 -56.5q-122 0 -166 58.5t-25 198.5q19 138 76 195t178 57zM306 442q-89 0 -130.5 -43.5t-57.5 -159.5q-16 -113 11 -155t114 -42q89 0 130.5 44t57.5 159
q16 113 -11 155t-114 42z" />
    <glyph glyph-name="ocircumflex" unicode="&#xf4;" horiz-adv-x="562" 
d="M482 583l-25 -26l-118 101h-8l-148 -100l-19 28l150 124h45zM306 497q121 0 165.5 -59.5t24.5 -198.5q-19 -138 -76 -194.5t-177 -56.5q-122 0 -166 58.5t-25 198.5q19 138 76 195t178 57zM306 442q-89 0 -130.5 -43.5t-57.5 -159.5q-16 -113 11 -155t114 -42
q89 0 130.5 44t57.5 159q16 113 -11 155t-114 42z" />
    <glyph glyph-name="otilde" unicode="&#xf5;" horiz-adv-x="562" 
d="M200 587l-32 3q4 54 28 80.5t60 23.5q32 -3 71.5 -30t65.5 -30q57 -6 64 57l32 -3q-3 -51 -27 -77.5t-61 -23.5t-77.5 30.5t-60.5 30.5q-29 3 -43.5 -12t-19.5 -49zM306 497q121 0 165.5 -59.5t24.5 -198.5q-19 -138 -76 -194.5t-177 -56.5q-122 0 -166 58.5t-25 198.5
q19 138 76 195t178 57zM306 442q-89 0 -130.5 -43.5t-57.5 -159.5q-16 -113 11 -155t114 -42q89 0 130.5 44t57.5 159q16 113 -11 155t-114 42z" />
    <glyph glyph-name="odieresis" unicode="&#xf6;" horiz-adv-x="562" 
d="M239 684h20q20 0 17 -20l-8 -54q-3 -20 -22 -20h-20q-19 0 -18 19l9 55q3 20 22 20zM411 684h20q20 0 17 -20l-8 -54q-3 -20 -22 -20h-21q-20 0 -17 19l8 55q3 20 23 20zM306 497q121 0 165.5 -59.5t24.5 -198.5q-19 -138 -76 -194.5t-177 -56.5q-122 0 -166 58.5
t-25 198.5q19 138 76 195t178 57zM306 442q-89 0 -130.5 -43.5t-57.5 -159.5q-16 -113 11 -155t114 -42q89 0 130.5 44t57.5 159q16 113 -11 155t-114 42z" />
    <glyph glyph-name="divide" unicode="&#xf7;" horiz-adv-x="575" 
d="M307 517h18q26 -1 23 -27l-8 -53q-3 -23 -26 -23h-18q-26 0 -23 26l8 53q3 24 26 24zM500 271h-431l7 49h431zM259 175h19q26 0 23 -26l-9 -53q-1 -23 -26 -23h-18q-25 0 -22 26l8 53q3 23 25 23z" />
    <glyph glyph-name="oslash" unicode="&#xf8;" horiz-adv-x="562" 
d="M479 537l-42 -68q84 -51 59 -230q-19 -138 -76 -194.5t-177 -56.5q-55 0 -91 10l-42 -68l-31 17l39 64q-48 25 -64 81.5t-2 152.5q19 138 76 195t178 57q60 0 99 -13l43 71zM149 62l225 372q-24 8 -68 8q-89 0 -130.5 -43.5t-57.5 -159.5q-20 -141 31 -177zM405 417
l-223 -369q26 -6 61 -6q89 0 130.5 44t57.5 159q19 134 -26 172z" />
    <glyph glyph-name="ugrave" unicode="&#xf9;" 
d="M341 553l-167 130l37 46l155 -147zM508 484l-68 -484h-49l10 113q-128 -125 -231 -125q-65 0 -94.5 35t-20.5 99l51 362h64l-50 -348q-7 -49 9.5 -71t60.5 -22q46 0 92 28.5t119 94.5l44 318h63z" />
    <glyph glyph-name="uacute" unicode="&#xfa;" 
d="M283 553l-22 30l184 147l32 -50zM508 484l-68 -484h-49l10 113q-128 -125 -231 -125q-65 0 -94.5 35t-20.5 99l51 362h64l-50 -348q-7 -49 9.5 -71t60.5 -22q46 0 92 28.5t119 94.5l44 318h63z" />
    <glyph glyph-name="ucircumflex" unicode="&#xfb;" 
d="M185 560l-20 29l150 123h45l123 -127l-25 -26l-118 102h-8zM508 484l-68 -484h-49l10 113q-128 -125 -231 -125q-65 0 -94.5 35t-20.5 99l51 362h64l-50 -348q-7 -49 9.5 -71t60.5 -22q46 0 92 28.5t119 94.5l44 318h63z" />
    <glyph glyph-name="udieresis" unicode="&#xfc;" 
d="M247 593h-20q-19 0 -18 19l9 55q3 20 22 20h20q20 0 17 -20l-8 -54q-3 -20 -22 -20zM419 593h-20q-19 0 -18 19l9 55q3 20 22 20h20q20 0 17 -20l-8 -54q-3 -20 -22 -20zM508 484l-68 -484h-49l10 113q-128 -125 -231 -125q-65 0 -94.5 35t-20.5 99l51 362h64l-50 -348
q-7 -49 9.5 -71t60.5 -22q46 0 92 28.5t119 94.5l44 318h63z" />
    <glyph glyph-name="yacute" unicode="&#xfd;" horiz-adv-x="529" 
d="M252 550l-22 31l183 146l33 -49zM445 484h66q-56 -231 -162 -411q-77 -135 -145.5 -199t-155.5 -81l-11 44q112 31 201 163h-41q-20 0 -34.5 11.5t-18.5 30.5l-96 442h67l83 -412q5 -21 25 -21h47l23 40q101 179 152 393z" />
    <glyph glyph-name="thorn" unicode="&#xfe;" horiz-adv-x="570" 
d="M155 384l1 -3q47 53 106 84t116 31q85 0 113 -58t8 -200q-12 -80 -29.5 -128.5t-48 -76t-68 -36.5t-96.5 -9q-77 0 -153 12q-3 -39 -10 -80l-17 -124h-63l127 904h63l-30 -212q-9 -66 -19 -104zM150 320l-38 -274q71 -4 124 -4q108 0 143.5 36t54.5 165q17 114 3.5 155.5
t-71.5 41.5q-96 0 -216 -120z" />
    <glyph glyph-name="ydieresis" unicode="&#xff;" horiz-adv-x="529" 
d="M216 590h-21q-20 0 -17 19l8 55q3 20 23 20h19q21 0 18 -20l-9 -54q-1 -20 -21 -20zM388 590h-21q-20 0 -17 19l8 55q3 20 22 20h20q21 0 18 -20l-9 -54q-1 -20 -21 -20zM445 484h66q-56 -231 -162 -411q-77 -135 -145.5 -199t-155.5 -81l-11 44q112 31 201 163h-41
q-20 0 -34.5 11.5t-18.5 30.5l-96 442h67l83 -412q5 -21 25 -21h47l23 40q101 179 152 393z" />
    <glyph glyph-name="Amacron" unicode="&#x100;" horiz-adv-x="612" 
d="M515 792h-272l7 49h272zM451 228h-301l-107 -228h-70l325 673q7 17 27 17h75q9 0 16 -6t8 -14l137 -670h-66zM440 286l-57 295l-9 58h-30q-3 -6 -12.5 -27t-14.5 -31l-139 -295h262z" />
    <glyph glyph-name="amacron" unicode="&#x101;" horiz-adv-x="570" 
d="M468 612h-272l7 49h272zM446 0h-49l9 109q-48 -55 -107.5 -88t-118.5 -33q-89 0 -116 58.5t-6 199.5q12 80 29.5 129t48.5 76t69 36.5t98 9.5q91 0 211 -20zM406 164l39 275q-106 4 -124 4q-46 0 -74.5 -5t-50.5 -16t-35.5 -36t-22.5 -57.5t-17 -87.5q-17 -114 -3 -155.5
t72 -41.5q98 0 216 120z" />
    <glyph glyph-name="Abreve" unicode="&#x102;" horiz-adv-x="612" 
d="M501 882l34 -9q-6 -57 -48.5 -90.5t-109.5 -33.5q-70 0 -106.5 35t-25.5 92l35 3q-6 -38 20.5 -59.5t76.5 -21.5q52 0 85.5 22.5t38.5 61.5zM451 228h-301l-107 -228h-70l325 673q7 17 27 17h75q9 0 16 -6t8 -14l137 -670h-66zM440 286l-57 295l-9 58h-30
q-3 -6 -12.5 -27t-14.5 -31l-139 -295h262z" />
    <glyph glyph-name="abreve" unicode="&#x103;" horiz-adv-x="570" 
d="M454 701l34 -9q-6 -57 -48.5 -90.5t-109.5 -33.5q-70 0 -106.5 35t-25.5 92l35 3q-6 -38 20.5 -59t76.5 -21q53 0 86 22t38 61zM446 0h-49l9 109q-48 -55 -107.5 -88t-118.5 -33q-89 0 -116 58.5t-6 199.5q12 80 29.5 129t48.5 76t69 36.5t98 9.5q91 0 211 -20zM406 164
l39 275q-106 4 -124 4q-46 0 -74.5 -5t-50.5 -16t-35.5 -36t-22.5 -57.5t-17 -87.5q-17 -114 -3 -155.5t72 -41.5q98 0 216 120z" />
    <glyph glyph-name="Aogonek" unicode="&#x104;" horiz-adv-x="612" 
d="M424 670l137 -670q-60 -58 -94 -121q-21 -39 0 -51t74 6l8 -28q-91 -34 -125 -7t-5 84q32 59 107 117h-31l-44 228h-301l-107 -228h-70l325 673q7 17 27 17h75q9 0 16 -6t8 -14zM440 286l-57 295l-9 58h-30q-3 -6 -12.5 -27t-14.5 -31l-139 -295h262z" />
    <glyph glyph-name="aogonek" unicode="&#x105;" horiz-adv-x="570" 
d="M514 477l-68 -477q-60 -58 -94 -121q-21 -39 0 -51t74 6l8 -28q-91 -33 -124.5 -6.5t-5.5 83.5q32 59 107 117h-14l9 109q-48 -55 -107.5 -88t-118.5 -33q-89 0 -116 58.5t-6 199.5q12 80 29.5 129t48.5 76t69 36.5t98 9.5q91 0 211 -20zM406 164l39 275q-106 4 -124 4
q-46 0 -74.5 -5t-50.5 -16t-35.5 -36t-22.5 -57.5t-17 -87.5q-17 -114 -3 -155.5t72 -41.5q98 0 216 120z" />
    <glyph glyph-name="Cacute" unicode="&#x106;" 
d="M542 859l-194 -128l-22 30l183 147zM485 58l5 -49q-81 -21 -198 -21q-146 0 -196 83.5t-22 276.5q27 196 96 275t214 79q104 0 183 -19l-12 -49q-73 9 -171 9q-114 0 -166 -63.5t-77 -237.5q-23 -167 9.5 -231t141.5 -64q107 -1 193 11z" />
    <glyph glyph-name="cacute" unicode="&#x107;" horiz-adv-x="481" 
d="M460 678l-194 -128l-22 31l183 146zM401 54l5 -44q-72 -22 -159 -22q-126 0 -170.5 59t-24.5 198q19 139 77 195.5t181 56.5q89 0 148 -22l-11 -41q-53 8 -127 8q-98 0 -142.5 -42t-59.5 -160q-16 -117 14 -157t125 -40q85 0 144 11z" />
    <glyph glyph-name="Cdotaccent" unicode="&#x10a;" 
d="M388 865h22q22 0 19 -23l-8 -57q-3 -21 -22 -21h-21q-22 0 -20 23l8 57q3 21 22 21zM485 58l5 -49q-81 -21 -198 -21q-146 0 -196 83.5t-22 276.5q27 196 96 275t214 79q104 0 183 -19l-12 -49q-73 9 -171 9q-114 0 -166 -63.5t-77 -237.5q-23 -167 9.5 -231t141.5 -64
q107 -1 193 11z" />
    <glyph glyph-name="cdotaccent" unicode="&#x10b;" horiz-adv-x="481" 
d="M306 684h22q22 0 19 -22l-8 -58q-3 -20 -22 -20h-21q-23 0 -20 22l8 58q3 20 22 20zM401 54l5 -44q-72 -22 -159 -22q-126 0 -170.5 59t-24.5 198q19 139 77 195.5t181 56.5q89 0 148 -22l-11 -41q-53 8 -127 8q-98 0 -142.5 -42t-59.5 -160q-16 -117 14 -157t125 -40
q85 0 144 11z" />
    <glyph glyph-name="Ccaron" unicode="&#x10c;" 
d="M560 870l-151 -124h-47l-118 127l26 25l114 -101h8l147 101zM485 58l5 -49q-81 -21 -198 -21q-146 0 -196 83.5t-22 276.5q27 196 96 275t214 79q104 0 183 -19l-12 -49q-73 9 -171 9q-114 0 -166 -63.5t-77 -237.5q-23 -167 9.5 -231t141.5 -64q107 -1 193 11z" />
    <glyph glyph-name="ccaron" unicode="&#x10d;" horiz-adv-x="481" 
d="M478 689l-151 -123h-47l-118 127l26 24l114 -100h8l147 100zM401 54l5 -44q-72 -22 -159 -22q-126 0 -170.5 59t-24.5 198q19 139 77 195.5t181 56.5q89 0 148 -22l-11 -41q-53 8 -127 8q-98 0 -142.5 -42t-59.5 -160q-16 -117 14 -157t125 -40q85 0 144 11z" />
    <glyph glyph-name="Dcaron" unicode="&#x10e;" horiz-adv-x="661" 
d="M357 746l-118 127l26 25l114 -101h8l147 101l21 -28l-151 -124h-47zM51 0l97 690q122 9 227 9q152 0 203.5 -79.5t23.5 -277.5q-15 -108 -38.5 -175.5t-63.5 -107t-90.5 -54t-128.5 -14.5q-102 0 -230 9zM207 639l-83 -588q100 -2 156 -2q83 0 130.5 25t77 88.5
t46.5 185.5q25 172 -9 233t-151 61q-11 0 -167 -3z" />
    <glyph glyph-name="dcaron" unicode="&#x10f;" horiz-adv-x="569" 
d="M640 700h19q22 0 18 -21l-8 -57q-7 -57 -45 -125l-29 10q19 61 27 102q-9 -1 -13.5 4t-3.5 14l8 53q2 12 7.5 16t19.5 4zM480 700h64l-99 -700h-49l9 113q-115 -125 -236 -125q-79 0 -105.5 60.5t-6.5 197.5q11 80 29 129t48.5 76t67.5 36.5t95 9.5q70 0 157 -12
q3 53 9 93zM406 165l37 275q-104 4 -125 4q-107 0 -143 -37t-54 -166q-17 -109 -4 -153t68 -44q97 0 221 121z" />
    <glyph glyph-name="Dcroat" unicode="&#x110;" horiz-adv-x="661" 
d="M106 388l42 302q122 9 227 9q152 0 203.5 -79.5t23.5 -277.5q-15 -108 -38.5 -175.5t-63.5 -107t-90.5 -54t-128.5 -14.5q-102 0 -230 9l49 349h-72l5 39h73zM166 349l-42 -298q100 -2 156 -2q83 0 130.5 25t77 88.5t46.5 185.5q25 172 -9 233t-151 61q-11 0 -167 -3
l-36 -251h164l-6 -39h-163z" />
    <glyph glyph-name="dcroat" unicode="&#x111;" horiz-adv-x="569" 
d="M602 581h-75l-82 -581h-49l9 113q-115 -125 -236 -125q-79 0 -105.5 60.5t-6.5 197.5q11 80 29 129t48.5 76t67.5 36.5t95 9.5q70 0 157 -12q3 53 9 93v3h-157l6 38h157l11 81h64l-11 -81h74zM406 165l37 275q-104 4 -125 4q-107 0 -143 -37t-54 -166q-17 -109 -4 -153
t68 -44q97 0 221 121z" />
    <glyph glyph-name="Emacron" unicode="&#x112;" horiz-adv-x="555" 
d="M514 814h-272l7 49h272zM547 635h-278q-71 0 -80 -74l-24 -170h309l-7 -51h-309l-29 -214q-11 -71 60 -71h276v-50q-92 -6 -285 -6q-64 0 -95 34t-23 92l64 454q7 52 42 82t92 30q203 0 296 -6z" />
    <glyph glyph-name="emacron" unicode="&#x113;" horiz-adv-x="533" 
d="M460 612h-272l7 49h272zM432 55l5 -43q-69 -24 -195 -24q-122 0 -165.5 61.5t-23.5 201.5q20 144 77 195t183 51q105 0 147.5 -36.5t26.5 -116.5q-13 -65 -52.5 -93t-123.5 -36l-199 -19q-6 -90 27 -122t115 -32q72 0 178 13zM118 245l193 19q55 6 79 23.5t33 61.5
q13 59 -15 76.5t-100 17.5q-48 0 -77 -7t-52.5 -28t-37 -58.5t-23.5 -100.5v-4z" />
    <glyph glyph-name="Edotaccent" unicode="&#x116;" horiz-adv-x="555" 
d="M386 786h-20q-23 0 -20 23l8 57q3 21 22 21h21q23 0 20 -23l-8 -57q-3 -21 -23 -21zM547 635h-278q-71 0 -80 -74l-24 -170h309l-7 -51h-309l-29 -214q-11 -71 60 -71h276v-50q-92 -6 -285 -6q-64 0 -95 34t-23 92l64 454q7 52 42 82t92 30q203 0 296 -6z" />
    <glyph glyph-name="edotaccent" unicode="&#x117;" horiz-adv-x="533" 
d="M333 584h-21q-23 0 -20 22l8 58q3 20 22 20h22q22 0 19 -22l-8 -58q-3 -20 -22 -20zM432 55l5 -43q-69 -24 -195 -24q-122 0 -165.5 61.5t-23.5 201.5q20 144 77 195t183 51q105 0 147.5 -36.5t26.5 -116.5q-13 -65 -52.5 -93t-123.5 -36l-199 -19q-6 -90 27 -122
t115 -32q72 0 178 13zM118 245l193 19q55 6 79 23.5t33 61.5q13 59 -15 76.5t-100 17.5q-48 0 -77 -7t-52.5 -28t-37 -58.5t-23.5 -100.5v-4z" />
    <glyph glyph-name="Eogonek" unicode="&#x118;" horiz-adv-x="555" 
d="M547 635h-278q-71 0 -80 -74l-24 -170h309l-7 -51h-309l-29 -214q-11 -71 60 -71h276v-50q-61 -58 -94 -121q-21 -39 -0.5 -51t73.5 6l8 -28q-91 -33 -124.5 -6.5t-4.5 83.5q29 58 104 115q-81 -4 -247 -4q-64 0 -95 34t-23 92l64 454q7 52 42 82t92 30q203 0 296 -6z
" />
    <glyph glyph-name="eogonek" unicode="&#x119;" horiz-adv-x="533" 
d="M417 -154l7 -28q-91 -34 -124.5 -7t-4.5 84q27 51 92 105q-71 -12 -145 -12q-122 0 -165.5 61.5t-23.5 201.5q20 144 77 195t183 51q105 0 147.5 -36.5t26.5 -116.5q-13 -65 -52.5 -93t-123.5 -36l-199 -19q-6 -90 27 -122t115 -32q72 0 178 13l5 -43q-61 -60 -94 -121
q-21 -39 -0.5 -51t74.5 6zM118 245l193 19q55 6 79 23.5t33 61.5q13 59 -15 76.5t-100 17.5q-48 0 -77 -7t-52.5 -28t-37 -58.5t-23.5 -100.5v-4z" />
    <glyph glyph-name="Ecaron" unicode="&#x11a;" horiz-adv-x="555" 
d="M350 768l-118 127l26 25l114 -101h8l147 101l21 -28l-152 -124h-46zM547 635h-278q-71 0 -80 -74l-24 -170h309l-7 -51h-309l-29 -214q-11 -71 60 -71h276v-50q-92 -6 -285 -6q-64 0 -95 34t-23 92l64 454q7 52 42 82t92 30q203 0 296 -6z" />
    <glyph glyph-name="ecaron" unicode="&#x11b;" horiz-adv-x="533" 
d="M296 566l-118 127l26 24l114 -100h8l147 100l21 -28l-151 -123h-47zM432 55l5 -43q-69 -24 -195 -24q-122 0 -165.5 61.5t-23.5 201.5q20 144 77 195t183 51q105 0 147.5 -36.5t26.5 -116.5q-13 -65 -52.5 -93t-123.5 -36l-199 -19q-6 -90 27 -122t115 -32q72 0 178 13z
M118 245l193 19q55 6 79 23.5t33 61.5q13 59 -15 76.5t-100 17.5q-48 0 -77 -7t-52.5 -28t-37 -58.5t-23.5 -100.5v-4z" />
    <glyph glyph-name="Gbreve" unicode="&#x11e;" horiz-adv-x="622" 
d="M522 882l34 -9q-6 -57 -48.5 -90.5t-109.5 -33.5q-70 0 -106.5 35t-25.5 92l35 3q-5 -39 21 -60t76 -21q53 0 86.5 22.5t37.5 61.5zM590 683l-12 -49q-89 10 -178 10q-126 0 -180.5 -62t-78.5 -240q-19 -164 8.5 -230t116.5 -66q54 0 100 27.5t103 82.5l34 244h64
l-57 -400h-47l5 100q-99 -112 -222 -112q-113 0 -154 85.5t-19 274.5q18 138 58.5 216t102 108t159.5 30q114 0 197 -19z" />
    <glyph glyph-name="gbreve" unicode="&#x11f;" horiz-adv-x="573" 
d="M455 701l34 -9q-6 -57 -48.5 -90.5t-109.5 -33.5q-70 0 -106.5 35t-25.5 92l35 3q-5 -38 21 -59t76 -21q53 0 86.5 22t37.5 61zM519 477l-71 -473q-27 -209 -256 -218q-98 -6 -175 11l7 43q85 -4 166 0q168 10 194 154q17 97 36 131q-49 -62 -113.5 -99.5t-128.5 -37.5
q-84 0 -112.5 58.5t-7.5 199.5q12 80 30 129t48.5 76t67 36.5t94.5 9.5q96 0 216 -20h5zM408 165l41 274q-108 4 -129 4q-107 0 -143 -36.5t-55 -165.5q-17 -113 -3 -155t72 -42q98 0 217 121z" />
    <glyph glyph-name="Gdotaccent" unicode="&#x120;" horiz-adv-x="622" 
d="M409 764h-21q-22 0 -19 23l7 57q3 21 22 21h22q22 0 19 -23l-8 -57q-3 -21 -22 -21zM590 683l-12 -49q-89 10 -178 10q-126 0 -180.5 -62t-78.5 -240q-19 -164 8.5 -230t116.5 -66q54 0 100 27.5t103 82.5l34 244h64l-57 -400h-47l5 100q-99 -112 -222 -112
q-113 0 -154 85.5t-19 274.5q18 138 58.5 216t102 108t159.5 30q114 0 197 -19z" />
    <glyph glyph-name="gdotaccent" unicode="&#x121;" horiz-adv-x="573" 
d="M342 584h-21q-22 0 -19 22l7 58q3 20 22 20h22q22 0 19 -22l-8 -58q-3 -20 -22 -20zM519 477l-71 -473q-27 -209 -256 -218q-98 -6 -175 11l7 43q85 -4 166 0q168 10 194 154q17 97 36 131q-49 -62 -113.5 -99.5t-128.5 -37.5q-84 0 -112.5 58.5t-7.5 199.5q12 80 30 129
t48.5 76t67 36.5t94.5 9.5q96 0 216 -20h5zM408 165l41 274q-108 4 -129 4q-107 0 -143 -36.5t-55 -165.5q-17 -113 -3 -155t72 -42q98 0 217 121z" />
    <glyph glyph-name="Gcommaaccent" unicode="&#x122;" horiz-adv-x="622" 
d="M590 683l-12 -49q-89 10 -178 10q-126 0 -180.5 -62t-78.5 -240q-19 -164 8.5 -230t116.5 -66q54 0 100 27.5t103 82.5l34 244h64l-57 -400h-47l5 100q-99 -112 -222 -112q-113 0 -154 85.5t-19 274.5q18 138 58.5 216t102 108t159.5 30q114 0 197 -19zM273 -60h19
q22 0 18 -22l-8 -57q-7 -55 -45 -126l-29 10q19 61 27 102q-20 0 -17 19l8 53q2 12 7.5 16.5t19.5 4.5z" />
    <glyph glyph-name="gcommaaccent" unicode="&#x123;" horiz-adv-x="573" 
d="M336 560h-19q-22 0 -19 22l9 57q7 55 44 125l30 -9q-20 -64 -27 -103q9 1 13.5 -4.5t3.5 -14.5l-8 -53q-2 -12 -7.5 -16t-19.5 -4zM519 477l-71 -473q-27 -209 -256 -218q-98 -6 -175 11l7 43q85 -4 166 0q168 10 194 154q17 97 36 131q-49 -62 -113.5 -99.5
t-128.5 -37.5q-84 0 -112.5 58.5t-7.5 199.5q12 80 30 129t48.5 76t67 36.5t94.5 9.5q96 0 216 -20h5zM408 165l41 274q-108 4 -129 4q-107 0 -143 -36.5t-55 -165.5q-17 -113 -3 -155t72 -42q98 0 217 121z" />
    <glyph glyph-name="Hbar" unicode="&#x126;" horiz-adv-x="663" 
d="M679 521h-76l-73 -521h-66l48 340h-347l-48 -340h-66l73 521h-71l5 38h72l18 131h66l-18 -131h347l18 131h66l-19 -131h76zM538 521h-348l-17 -124h347z" />
    <glyph glyph-name="hbar" unicode="&#x127;" horiz-adv-x="574" 
d="M187 581l-11 -84q-9 -61 -23 -121q140 121 237 121q64 0 94 -35t21 -100l-52 -362h-63l49 349q7 51 -8.5 72t-58.5 21q-46 0 -96 -28t-126 -90l-45 -324h-64l82 581h-75l6 38h75l11 81h63l-11 -81h156l-5 -38h-156z" />
    <glyph glyph-name="Imacron" unicode="&#x12a;" horiz-adv-x="250" 
d="M331 792h-272l7 49h272zM117 0h-66l97 690h66z" />
    <glyph glyph-name="imacron" unicode="&#x12b;" horiz-adv-x="236" 
d="M299 612h-272l7 49h272zM109 0h-64l69 484h63z" />
    <glyph glyph-name="Iogonek" unicode="&#x12e;" horiz-adv-x="250" 
d="M117 0h-6q-60 -57 -95 -121q-21 -39 0 -51t74 6l8 -28q-91 -33 -124.5 -6.5t-4.5 83.5q29 58 106 117h-24l97 690h66z" />
    <glyph glyph-name="iogonek" unicode="&#x12f;" horiz-adv-x="236" 
d="M161 684h22q22 0 19 -22l-8 -58q-3 -20 -22 -20h-21q-23 0 -20 22l8 58q3 20 22 20zM114 484h63l-68 -484h-5q-60 -58 -94 -121q-21 -39 0 -51t74 6l8 -28q-91 -33 -124.5 -6.5t-5.5 83.5q32 59 107 117h-24z" />
    <glyph glyph-name="Idotaccent" unicode="&#x130;" horiz-adv-x="250" 
d="M193 865h22q22 0 19 -23l-8 -57q-3 -21 -22 -21h-21q-23 0 -20 23l8 57q3 21 22 21zM117 0h-66l97 690h66z" />
    <glyph glyph-name="dotlessi" unicode="&#x131;" horiz-adv-x="236" 
d="M109 0h-64l69 484h63z" />
    <glyph glyph-name="IJ" unicode="&#x132;" horiz-adv-x="583" 
d="M117 0h-66l97 690h66zM550 690l-78 -557q-20 -141 -146 -141q-45 0 -82 11l12 45h51q88 0 100 86l78 556h65z" />
    <glyph glyph-name="ij" unicode="&#x133;" horiz-adv-x="472" 
d="M158 688h29q22 0 19 -22l-8 -59q-3 -19 -22 -19h-29q-23 0 -20 22l9 59q1 19 22 19zM393 688h30q22 0 19 -22l-8 -59q-3 -19 -22 -19h-29q-23 0 -20 22l8 59q3 19 22 19zM109 0h-63l68 484h63zM413 484l-72 -510q-15 -107 -107 -180l-34 29q66 71 78 155l72 506h63z" />
    <glyph glyph-name="Kcommaaccent" unicode="&#x136;" horiz-adv-x="581" 
d="M309 361l-1 -4q15 -17 28 -42l182 -315h-74l-191 333h-95q-2 -53 -6 -79l-36 -254h-65l97 690h65l-31 -224q-9 -54 -16 -79h93l261 303h80l-249 -290q-20 -24 -42 -39zM261 -60h19q22 0 18 -22l-8 -57q-7 -55 -45 -126l-29 10q19 61 27 102q-19 0 -17 19l8 53
q2 12 7.5 16.5t19.5 4.5z" />
    <glyph glyph-name="kcommaaccent" unicode="&#x137;" horiz-adv-x="509" 
d="M420 484h65q-48 -133 -175 -216q16 -28 28 -54l100 -214h-68l-109 239q-47 -25 -130 -57l-26 -182h-63l98 700h64l-49 -357q-6 -48 -25 -107q107 41 184 104.5t106 143.5zM224 -60h19q22 0 18 -22l-8 -57q-9 -59 -45 -126l-29 10q19 61 27 102q-20 0 -17 19l8 53
q2 12 7.5 16.5t19.5 4.5z" />
    <glyph glyph-name="Lacute" unicode="&#x139;" horiz-adv-x="506" 
d="M345 859l-194 -128l-22 30l184 147zM211 690l-79 -564q-5 -33 10.5 -52t49.5 -19h259l-2 -50q-89 -6 -270 -6q-59 0 -89.5 34t-22.5 95l78 562h66z" />
    <glyph glyph-name="lacute" unicode="&#x13a;" horiz-adv-x="283" 
d="M342 881l-194 -128l-22 30l184 147zM204 700l-81 -581q-6 -36 8.5 -52.5t50.5 -16.5h52l3 -48q-24 -10 -80 -10q-53 0 -79.5 31t-19.5 87l83 590h63z" />
    <glyph glyph-name="Lcommaaccent" unicode="&#x13b;" horiz-adv-x="506" 
d="M211 690l-79 -564q-5 -33 10.5 -52t49.5 -19h259l-2 -50q-89 -6 -270 -6q-59 0 -89.5 34t-22.5 95l78 562h66zM249 -66h19q22 0 18 -22l-8 -57q-7 -57 -45 -125l-29 10q19 61 27 102q-9 -1 -13.5 4.5t-3.5 14.5l8 53q2 12 7.5 16t19.5 4z" />
    <glyph glyph-name="lcommaaccent" unicode="&#x13c;" horiz-adv-x="283" 
d="M204 700l-81 -581q-6 -36 8.5 -52.5t50.5 -16.5h52l3 -48q-24 -10 -80 -10q-53 0 -79.5 31t-19.5 87l83 590h63zM121 -66h19q22 0 19 -22l-9 -57q-7 -55 -44 -125l-30 10q19 61 27 102q-9 -1 -13.5 4.5t-3.5 14.5l8 53q2 12 7.5 16t19.5 4z" />
    <glyph glyph-name="Lcaron" unicode="&#x13d;" horiz-adv-x="506" 
d="M211 690l-79 -564q-5 -33 10.5 -52t49.5 -19h259l-2 -50q-89 -6 -270 -6q-59 0 -89.5 34t-22.5 95l78 562h66zM333 689h19q22 0 19 -22l-9 -57q-7 -55 -44 -125l-30 9q20 64 27 103q-9 -1 -13.5 4.5t-3.5 14.5l8 53q2 12 7.5 16t19.5 4z" />
    <glyph glyph-name="lcaron" unicode="&#x13e;" horiz-adv-x="283" 
d="M306 700h19q22 0 18 -22l-8 -57q-9 -58 -45 -125l-29 10q19 61 27 102q-10 -1 -14.5 4.5t-2.5 14.5l8 53q2 12 7.5 16t19.5 4zM204 700l-81 -581q-6 -36 8.5 -52.5t50.5 -16.5h52l3 -48q-24 -10 -80 -10q-53 0 -79.5 31t-19.5 87l83 590h63z" />
    <glyph glyph-name="Ldot" unicode="&#x13f;" horiz-adv-x="506" 
d="M211 690l-79 -564q-5 -33 10.5 -52t49.5 -19h259l-2 -50q-89 -6 -270 -6q-59 0 -89.5 34t-22.5 95l78 562h66zM386 336h-22q-22 0 -19 22l8 58q3 20 23 20h20q23 0 20 -22l-8 -58q-3 -20 -22 -20z" />
    <glyph glyph-name="ldot" unicode="&#x140;" horiz-adv-x="318" 
d="M204 700l-81 -581q-6 -36 8.5 -52.5t50.5 -16.5h52l3 -48q-24 -10 -80 -10q-53 0 -79.5 31t-19.5 87l83 590h63zM303 323h-22q-22 0 -19 22l8 58q2 21 22 21h21q22 0 19 -23l-7 -57q-3 -21 -22 -21z" />
    <glyph glyph-name="Lslash" unicode="&#x141;" horiz-adv-x="506" 
d="M450 55l-2 -50q-89 -6 -270 -6q-58 0 -89 34.5t-22 94.5l29 212l-71 -28l4 41l73 30l43 307h66l-39 -280l131 53l-4 -41l-133 -54l-34 -242q-5 -33 10.5 -52t49.5 -19h258z" />
    <glyph glyph-name="lslash" unicode="&#x142;" horiz-adv-x="295" 
d="M157 366l-34 -247q-6 -36 8.5 -52.5t50.5 -16.5h52l3 -48q-24 -10 -80 -10q-53 0 -79.5 31t-19.5 87l32 229l-67 -27l5 41l68 28l45 319h63l-41 -292l139 55l-6 -41z" />
    <glyph glyph-name="Nacute" unicode="&#x143;" horiz-adv-x="698" 
d="M578 859l-194 -128l-22 30l184 147zM662 690l-94 -664q-3 -26 -29 -26h-66q-20 0 -29 23l-196 525q-21 57 -27 81h-20q-3 -43 -9 -86l-75 -543h-66l93 664q4 26 30 26h63q22 0 30 -23l191 -512q21 -59 32 -94h22q3 32 11 96l74 533h65z" />
    <glyph glyph-name="nacute" unicode="&#x144;" horiz-adv-x="574" 
d="M287 550l-22 31l184 146l33 -49zM160 484l-10 -110q140 123 240 123q64 0 94 -35t21 -100l-52 -362h-63l49 349q7 51 -8.5 72t-58.5 21q-46 0 -95.5 -27.5t-126.5 -88.5l-45 -326h-64l69 484h50z" />
    <glyph glyph-name="Ncommaaccent" unicode="&#x145;" horiz-adv-x="698" 
d="M662 690l-94 -664q-3 -26 -29 -26h-66q-20 0 -29 23l-196 525q-21 57 -27 81h-20q-3 -43 -9 -86l-75 -543h-66l93 664q4 26 30 26h63q22 0 30 -23l191 -512q21 -59 32 -94h22q3 32 11 96l74 533h65zM305 -60h19q23 0 19 -22l-8 -57q-8 -54 -45 -126l-30 10q19 57 27 102
q-19 0 -17 19l9 53q2 12 7.5 16.5t18.5 4.5z" />
    <glyph glyph-name="ncommaaccent" unicode="&#x146;" horiz-adv-x="574" 
d="M160 484l-10 -110q140 123 240 123q64 0 94 -35t21 -100l-52 -362h-63l49 349q7 51 -8.5 72t-58.5 21q-46 0 -95.5 -27.5t-126.5 -88.5l-45 -326h-64l69 484h50zM241 -60h19q22 0 18 -22l-8 -57q-9 -59 -45 -126l-29 10q19 61 27 102q-20 0 -17 19l8 53q2 12 7.5 16.5
t19.5 4.5z" />
    <glyph glyph-name="Ncaron" unicode="&#x147;" horiz-adv-x="698" 
d="M597 870l-152 -124h-46l-118 127l26 25l114 -101h8l147 101zM662 690l-94 -664q-3 -26 -29 -26h-66q-20 0 -29 23l-196 525q-21 57 -27 81h-20q-3 -43 -9 -86l-75 -543h-66l93 664q4 26 30 26h63q22 0 30 -23l191 -512q21 -59 32 -94h22q3 32 11 96l74 533h65z" />
    <glyph glyph-name="ncaron" unicode="&#x148;" horiz-adv-x="574" 
d="M302 566l-118 127l26 24l114 -100h8l147 100l21 -28l-152 -123h-46zM160 484l-10 -110q140 123 240 123q64 0 94 -35t21 -100l-52 -362h-63l49 349q7 51 -8.5 72t-58.5 21q-46 0 -95.5 -27.5t-126.5 -88.5l-45 -326h-64l69 484h50z" />
    <glyph glyph-name="Eng" unicode="&#x14a;" horiz-adv-x="698" 
d="M662 690l-110 -778q-9 -64 -46.5 -97.5t-97.5 -32.5q-46 0 -81 10l11 41h52q89 0 101 86l12 81h-29q-12 0 -22 21l-204 517q-17 40 -27 83h-19q-2 -30 -10 -83l-75 -538h-66l93 664q4 26 30 26h57q21 0 30 -23l197 -503q23 -63 33 -93h21q3 43 11 96l73 523h66z" />
    <glyph glyph-name="eng" unicode="&#x14b;" horiz-adv-x="574" 
d="M158 484l-8 -110q141 123 239 123q65 0 95 -35t21 -100l-60 -430q-21 -139 -137 -139q-33 0 -74 11l11 40h43q80 0 93 87l58 418q7 47 -9 68t-60 21q-33 0 -71.5 -17t-66.5 -36t-81 -59l-46 -326h-64l69 484h48z" />
    <glyph glyph-name="Omacron" unicode="&#x14c;" horiz-adv-x="664" 
d="M541 792h-272l6 49h273zM386 702q145 0 196 -81.5t23 -278.5q-27 -198 -96 -276t-214 -78t-196.5 81t-24.5 279q27 197 96 275.5t216 78.5zM384 644q-114 0 -166 -65t-77 -237q-23 -167 10.5 -231.5t144.5 -64.5q112 0 164.5 65.5t76.5 236.5q25 169 -8 232.5t-145 63.5z
" />
    <glyph glyph-name="omacron" unicode="&#x14d;" horiz-adv-x="562" 
d="M461 612h-273l7 49h272zM306 497q121 0 165.5 -59.5t24.5 -198.5q-19 -138 -76 -194.5t-177 -56.5q-122 0 -166 58.5t-25 198.5q19 138 76 195t178 57zM306 442q-89 0 -130.5 -43.5t-57.5 -159.5q-16 -113 11 -155t114 -42q89 0 130.5 44t57.5 159q16 113 -11 155
t-114 42z" />
    <glyph glyph-name="Ohungarumlaut" unicode="&#x150;" horiz-adv-x="664" 
d="M613 883l-150 -157l-28 23l137 164zM457 883l-149 -157l-29 23l137 164zM386 702q145 0 196 -81.5t23 -278.5q-27 -198 -96 -276t-214 -78t-196.5 81t-24.5 279q27 197 96 275.5t216 78.5zM384 644q-114 0 -166 -65t-77 -237q-23 -167 10.5 -231.5t144.5 -64.5
q112 0 164.5 65.5t76.5 236.5q25 169 -8 232.5t-145 63.5z" />
    <glyph glyph-name="ohungarumlaut" unicode="&#x151;" horiz-adv-x="562" 
d="M533 702l-150 -156l-28 22l137 164zM377 702l-150 -156l-28 22l137 164zM306 497q121 0 165.5 -59.5t24.5 -198.5q-19 -138 -76 -194.5t-177 -56.5q-122 0 -166 58.5t-25 198.5q19 138 76 195t178 57zM306 442q-89 0 -130.5 -43.5t-57.5 -159.5q-16 -113 11 -155t114 -42
q89 0 130.5 44t57.5 159q16 113 -11 155t-114 42z" />
    <glyph glyph-name="OE" unicode="&#x152;" horiz-adv-x="908" 
d="M901 635h-269q-33 0 -54 -19t-25 -55l-24 -169h298l-7 -52h-298l-29 -214q-11 -71 60 -71h267l-2 -50q-89 -6 -274 -6q-52 0 -83 23q-78 -34 -163 -34q-154 0 -203 78.5t-21 281.5q29 200 97.5 277t219.5 77q86 0 156 -31q32 20 77 20q195 0 286 -6zM426 125l63 454
q5 27 16 48q-54 17 -115 17q-117 0 -170.5 -65t-77.5 -237q-24 -167 9.5 -231.5t148.5 -64.5q68 0 130 21q-9 24 -4 58z" />
    <glyph glyph-name="oe" unicode="&#x153;" horiz-adv-x="911" 
d="M808 55l5 -43q-67 -24 -194 -24q-139 0 -177 84q-57 -84 -200 -84q-121 0 -165.5 58.5t-25.5 198.5q20 138 77 195t177 57q140 0 179 -80q30 44 79 62t128 18q105 0 147 -36.5t26 -116.5q-12 -65 -51.5 -93t-123.5 -36l-199 -19q-6 -88 27 -120.5t116 -32.5q79 0 175 12z
M242 42q89 0 130.5 44t57.5 159q16 113 -11 155t-114 42q-89 0 -130.5 -43.5t-57.5 -159.5q-16 -113 11 -155t114 -42zM496 245l193 20q55 5 79.5 23t32.5 61q12 60 -16 76.5t-101 16.5q-89 0 -128 -35t-58 -145z" />
    <glyph glyph-name="Racute" unicode="&#x154;" horiz-adv-x="614" 
d="M327 731l-22 30l184 147l33 -49zM51 0l97 690q85 8 229 8q114 0 160 -43.5t31 -156.5q-12 -84 -48 -125.5t-106 -51.5l-1 -5q55 -16 70 -98l44 -218h-67l-42 218q-8 42 -28.5 59.5t-57.5 18.5q-31 0 -69 0.5t-63 1t-42 0.5l-42 -298h-65zM165 353h164q85 1 122.5 32.5
t49.5 115.5q12 82 -15 111.5t-110 29.5q-90 0 -170 -2z" />
    <glyph glyph-name="racute" unicode="&#x155;" horiz-adv-x="393" 
d="M229 550l-22 31l184 146l32 -49zM158 484l-9 -114q133 127 231 127h23l-16 -60h-23q-42 0 -89 -26.5t-125 -87.5l-45 -323h-64l69 484h48z" />
    <glyph glyph-name="Rcommaaccent" unicode="&#x156;" horiz-adv-x="614" 
d="M51 0l97 690q85 8 229 8q114 0 160 -43.5t31 -156.5q-12 -84 -48 -125.5t-106 -51.5l-1 -5q55 -16 70 -98l44 -218h-67l-42 218q-8 42 -28.5 59.5t-57.5 18.5q-31 0 -69 0.5t-63 1t-42 0.5l-42 -298h-65zM165 353h164q85 1 122.5 32.5t49.5 115.5q12 82 -15 111.5
t-110 29.5q-90 0 -170 -2zM286 -60h19q22 0 18 -22l-8 -57q-7 -55 -45 -126l-29 10q19 61 27 102q-19 0 -17 19l8 53q2 12 7.5 16.5t19.5 4.5z" />
    <glyph glyph-name="rcommaaccent" unicode="&#x157;" horiz-adv-x="393" 
d="M403 497l-16 -60h-23q-42 0 -89 -26.5t-125 -87.5l-45 -323h-64l69 484h48l-9 -114q133 127 231 127h23zM54 -60h19q22 0 18 -22l-8 -57q-7 -55 -45 -126l-29 10q19 61 27 102q-19 0 -17 19l8 53q2 12 7.5 16.5t19.5 4.5z" />
    <glyph glyph-name="Rcaron" unicode="&#x158;" horiz-adv-x="614" 
d="M342 746l-118 127l26 25l114 -101h8l147 101l21 -28l-152 -124h-46zM51 0l97 690q85 8 229 8q114 0 160 -43.5t31 -156.5q-12 -84 -48 -125.5t-106 -51.5l-1 -5q55 -16 70 -98l44 -218h-67l-42 218q-8 42 -28.5 59.5t-57.5 18.5q-31 0 -69 0.5t-63 1t-42 0.5l-42 -298
h-65zM165 353h164q85 1 122.5 32.5t49.5 115.5q12 82 -15 111.5t-110 29.5q-90 0 -170 -2z" />
    <glyph glyph-name="rcaron" unicode="&#x159;" horiz-adv-x="393" 
d="M244 566l-118 127l26 24l114 -100h8l146 100l21 -28l-151 -123h-46zM158 484l-9 -114q133 127 231 127h23l-16 -60h-23q-42 0 -89 -26.5t-125 -87.5l-45 -323h-64l69 484h48z" />
    <glyph glyph-name="Sacute" unicode="&#x15a;" horiz-adv-x="558" 
d="M495 859l-194 -128l-22 30l184 147zM344 293l-142 55q-71 28 -96 71t-16 116q8 56 27 90.5t52.5 50.5t69 21t91.5 4q107 0 198 -17l-8 -47q-111 6 -198 6q-29 0 -43.5 -0.5t-36 -4t-32.5 -10.5t-23.5 -19.5t-19.5 -32.5t-11 -48q-6 -53 9.5 -78t66.5 -46l140 -54
q77 -30 101 -71.5t14 -118.5q-8 -56 -26 -90t-52 -52t-73 -23.5t-103 -5.5q-108 0 -203 15l9 49q121 -6 199 -6q95 1 133.5 23t49.5 97q7 56 -8.5 80t-68.5 46z" />
    <glyph glyph-name="sacute" unicode="&#x15b;" horiz-adv-x="503" 
d="M451 678l-194 -128l-22 31l183 146zM299 191l-144 60q-53 23 -75.5 51.5t-15.5 82.5q10 69 56 91.5t144 20.5q104 -2 198 -15l-8 -45q-91 5 -188 6q-78 1 -106 -9.5t-34 -53.5q-5 -34 9 -49.5t52 -31.5l145 -60q58 -24 80 -51.5t15 -81.5q-4 -32 -17 -54t-29.5 -34.5
t-45.5 -19t-57 -8.5t-72 -2q-69 0 -181 14l8 47q62 -7 161 -7q96 2 130 15t40 55q4 23 -4.5 38.5t-20 22t-40.5 18.5z" />
    <glyph glyph-name="Scedilla" unicode="&#x15e;" horiz-adv-x="558" 
d="M344 293l-142 55q-71 28 -96 71t-16 116q8 56 27 90.5t52.5 50.5t69 21t91.5 4q107 0 198 -17l-8 -47q-111 6 -198 6q-29 0 -43.5 -0.5t-36 -4t-32.5 -10.5t-23.5 -19.5t-19.5 -32.5t-11 -48q-6 -53 9.5 -78t66.5 -46l140 -54q77 -30 101 -71.5t14 -118.5q-8 -56 -26 -90
t-52 -52t-73 -23.5t-103 -5.5q-108 0 -203 15l9 49q121 -6 199 -6q95 1 133.5 23t49.5 97q7 56 -8.5 80t-68.5 46zM196 -88l8 31q54 5 76.5 -10.5t15.5 -57.5q-9 -58 -56.5 -89.5t-115.5 -22.5l12 34q44 -1 75.5 22t37.5 58q3 21 -7.5 28t-45.5 7z" />
    <glyph glyph-name="scedilla" unicode="&#x15f;" horiz-adv-x="503" 
d="M299 191l-144 60q-53 23 -75.5 51.5t-15.5 82.5q10 69 56 91.5t144 20.5q104 -2 198 -15l-8 -45q-91 5 -188 6q-78 1 -106 -9.5t-34 -53.5q-5 -34 9 -49.5t52 -31.5l145 -60q58 -24 80 -51.5t15 -81.5q-4 -32 -17 -54t-29.5 -34.5t-45.5 -19t-57 -8.5t-72 -2
q-69 0 -181 14l8 47q62 -7 161 -7q96 2 130 15t40 55q4 23 -4.5 38.5t-20 22t-40.5 18.5zM163 -87l8 31q54 5 76.5 -10.5t15.5 -57.5q-10 -58 -57 -90t-115 -23l12 35q44 -1 75.5 21.5t37.5 57.5q3 21 -7.5 28t-45.5 8z" />
    <glyph glyph-name="Scaron" unicode="&#x160;" horiz-adv-x="558" 
d="M514 870l-152 -124h-46l-118 127l26 25l114 -101h8l147 101zM344 293l-142 55q-71 28 -96 71t-16 116q8 56 27 90.5t52.5 50.5t69 21t91.5 4q107 0 198 -17l-8 -47q-111 6 -198 6q-29 0 -43.5 -0.5t-36 -4t-32.5 -10.5t-23.5 -19.5t-19.5 -32.5t-11 -48q-6 -53 9.5 -78
t66.5 -46l140 -54q77 -30 101 -71.5t14 -118.5q-8 -56 -26 -90t-52 -52t-73 -23.5t-103 -5.5q-108 0 -203 15l9 49q121 -6 199 -6q95 1 133.5 23t49.5 97q7 56 -8.5 80t-68.5 46z" />
    <glyph glyph-name="scaron" unicode="&#x161;" horiz-adv-x="503" 
d="M469 689l-151 -123h-46l-119 127l27 24l114 -100h8l146 100zM299 191l-144 60q-53 23 -75.5 51.5t-15.5 82.5q10 69 56 91.5t144 20.5q104 -2 198 -15l-8 -45q-91 5 -188 6q-78 1 -106 -9.5t-34 -53.5q-5 -34 9 -49.5t52 -31.5l145 -60q58 -24 80 -51.5t15 -81.5
q-4 -32 -17 -54t-29.5 -34.5t-45.5 -19t-57 -8.5t-72 -2q-69 0 -181 14l8 47q62 -7 161 -7q96 2 130 15t40 55q4 23 -4.5 38.5t-20 22t-40.5 18.5z" />
    <glyph glyph-name="Tcedilla" unicode="&#x162;" horiz-adv-x="568" 
d="M594 632h-230l-89 -632h-66l89 632h-229l9 58h524zM187 -76l7 31q53 5 76.5 -10.5t16.5 -57.5q-10 -58 -57.5 -90t-114.5 -23l12 35q43 -1 75 21.5t38 57.5q3 21 -7.5 28t-45.5 8z" />
    <glyph glyph-name="tcedilla" unicode="&#x163;" horiz-adv-x="365" 
d="M197 434l-44 -315q-5 -37 9 -53t51 -16h80l3 -48q-44 -10 -101 -10q-60 0 -86.5 32t-18.5 90l45 320h-89l6 45l90 5l21 147h62l-20 -147h163l-8 -50h-163zM112 -84l7 31q53 5 76.5 -10.5t16.5 -57.5q-10 -58 -57.5 -89.5t-114.5 -22.5l12 34q43 -1 75 22t38 58
q3 20 -7.5 27t-45.5 8z" />
    <glyph glyph-name="Tcaron" unicode="&#x164;" horiz-adv-x="568" 
d="M327 746l-119 127l27 25l114 -101h8l146 101l21 -28l-151 -124h-46zM594 632h-230l-89 -632h-66l89 632h-229l9 58h524z" />
    <glyph glyph-name="tcaron" unicode="&#x165;" horiz-adv-x="365" 
d="M310 558l-29 10q19 61 27 102q-9 -1 -14 4.5t-3 14.5l8 53q2 12 7.5 16t19.5 4h19q22 0 18 -22l-8 -57q-7 -54 -45 -125zM197 434l-44 -315q-5 -37 9 -53t51 -16h80l3 -48q-44 -10 -101 -10q-60 0 -86.5 32t-18.5 90l45 320h-89l6 45l90 5l21 147h62l-20 -147h163l-8 -50
h-163z" />
    <glyph glyph-name="Tbar" unicode="&#x166;" horiz-adv-x="568" 
d="M364 632l-30 -212h151l-5 -39h-151l-54 -381h-66l54 381h-137l5 39h137l30 212h-229l9 58h524l-8 -58h-230z" />
    <glyph glyph-name="tbar" unicode="&#x167;" horiz-adv-x="365" 
d="M197 434l-14 -101h143l-5 -38h-143l-25 -176q-5 -37 9 -53t51 -16h80l3 -48q-44 -10 -101 -10q-60 0 -86.5 32t-18.5 90l25 181h-67l5 38h68l14 101h-89l6 45l90 5l21 147h62l-20 -147h163l-8 -50h-163z" />
    <glyph glyph-name="Umacron" unicode="&#x16a;" horiz-adv-x="665" 
d="M540 792h-272l6 49h273zM634 690l-61 -430q-21 -148 -84 -210t-192 -62q-133 0 -184 64t-30 211l60 427h66l-61 -430q-16 -120 16.5 -167t130.5 -47q100 0 148.5 48.5t64.5 168.5l60 427h66z" />
    <glyph glyph-name="umacron" unicode="&#x16b;" 
d="M462 614h-272l6 49h273zM508 484l-68 -484h-49l10 113q-128 -125 -231 -125q-65 0 -94.5 35t-20.5 99l51 362h64l-50 -348q-7 -49 9.5 -71t60.5 -22q46 0 92 28.5t119 94.5l44 318h63z" />
    <glyph glyph-name="Uring" unicode="&#x16e;" horiz-adv-x="665" 
d="M414 919q46 0 74 -30t22 -75q-5 -41 -35 -69.5t-75 -28.5q-46 0 -73 30t-22 74q5 42 34.5 70.5t74.5 28.5zM415 884q-30 0 -49.5 -19t-22.5 -48q-4 -29 13 -47.5t45 -18.5q29 0 48.5 19.5t22.5 48.5q3 28 -12.5 46.5t-44.5 18.5zM634 690l-61 -430q-21 -148 -84 -210
t-192 -62q-133 0 -184 64t-30 211l60 427h66l-61 -430q-16 -120 16.5 -167t130.5 -47q100 0 148.5 48.5t64.5 168.5l60 427h66z" />
    <glyph glyph-name="uring" unicode="&#x16f;" 
d="M322 538q-46 0 -73 30t-22 74q5 42 34.5 70.5t74.5 28.5q46 0 74 -30t22 -75q-5 -41 -35 -69.5t-75 -28.5zM265 638q-4 -29 13 -47t45 -18q29 0 48.5 19.5t22.5 48.5q3 28 -12.5 46.5t-44.5 18.5q-30 0 -49.5 -19.5t-22.5 -48.5zM508 484l-68 -484h-49l10 113
q-128 -125 -231 -125q-65 0 -94.5 35t-20.5 99l51 362h64l-50 -348q-7 -49 9.5 -71t60.5 -22q46 0 92 28.5t119 94.5l44 318h63z" />
    <glyph glyph-name="Uhungarumlaut" unicode="&#x170;" horiz-adv-x="665" 
d="M612 883l-150 -157l-28 23l137 164zM456 883l-149 -157l-29 23l137 164zM634 690l-61 -430q-21 -148 -84 -210t-192 -62q-133 0 -184 64t-30 211l60 427h66l-61 -430q-16 -120 16.5 -167t130.5 -47q100 0 148.5 48.5t64.5 168.5l60 427h66z" />
    <glyph glyph-name="uhungarumlaut" unicode="&#x171;" 
d="M229 548l-29 23l137 164l41 -31zM356 571l137 164l41 -31l-150 -156zM445 484h63l-68 -484h-49l10 113q-128 -125 -231 -125q-65 0 -94.5 35t-20.5 99l51 362h64l-50 -348q-7 -49 9.5 -71t60.5 -22q46 0 92 28.5t119 94.5z" />
    <glyph glyph-name="Uogonek" unicode="&#x172;" horiz-adv-x="665" 
d="M634 690l-61 -430q-20 -139 -76 -202t-169 -70q-58 -57 -91 -118q-21 -39 0 -51t74 6l7 -28q-91 -34 -124.5 -7t-4.5 84t102 114q-129 1 -179 65t-29 210l60 427h66l-61 -430q-16 -120 16.5 -167t130.5 -47q100 0 148.5 48.5t64.5 168.5l60 427h66z" />
    <glyph glyph-name="uogonek" unicode="&#x173;" 
d="M508 484l-68 -484q-63 -61 -94 -121q-21 -39 -0.5 -51t73.5 6l8 -28q-91 -34 -124.5 -7t-4.5 84q29 59 107 117h-14l10 113q-128 -125 -231 -125q-65 0 -94.5 35t-20.5 99l51 362h64l-50 -348q-7 -49 9.5 -71t60.5 -22q46 0 92 28.5t119 94.5l44 318h63z" />
    <glyph glyph-name="Wcircumflex" unicode="&#x174;" horiz-adv-x="937" 
d="M695 763l-25 -26l-118 101h-8l-148 -100l-19 28l149 124h46zM962 690l-250 -671q-7 -19 -29 -19h-78q-23 0 -25 23l-47 540l-6 76h-23l-28 -79l-196 -540q-8 -20 -29 -20h-78q-10 0 -17.5 6.5t-8.5 15.5l-63 668h67l48 -561q2 -25 4 -79h26l28 81l196 538q8 21 29 21h75
q10 0 16.5 -7t7.5 -17l51 -537q4 -55 5 -79h26l27 81l203 559h69z" />
    <glyph glyph-name="wcircumflex" unicode="&#x175;" horiz-adv-x="837" 
d="M622 583l-25 -26l-118 101h-8l-148 -100l-19 28l150 124h45zM190 51h13q25 0 43 30q32 49 67 143q38 102 67 244q2 18 19 16h69q15 0 19 -16l55 -417h12q22 0 40 28q51 77 79 145q48 106 78 260h66q-37 -163 -95 -287q-52 -109 -92 -158q-30 -39 -72 -39h-43
q-20 0 -22 18l-55 423h-11q-17 -112 -62 -233q-37 -102 -79 -160q-29 -48 -85 -48h-39q-18 0 -22 18l-90 466h65z" />
    <glyph glyph-name="Ycircumflex" unicode="&#x176;" horiz-adv-x="554" 
d="M204 738l-20 29l150 123h45l123 -127l-25 -26l-118 102h-8zM301 247l-34 -247h-66l35 249l-169 441h67l115 -308q12 -32 23 -74h7q12 26 43 77l201 305h72z" />
    <glyph glyph-name="ycircumflex" unicode="&#x177;" horiz-adv-x="529" 
d="M153 558l-19 28l149 124h46l123 -127l-25 -26l-118 101h-9zM445 484h66q-56 -231 -162 -411q-77 -135 -145.5 -199t-155.5 -81l-11 44q112 31 201 163h-41q-20 0 -34.5 11.5t-18.5 30.5l-96 442h67l83 -412q5 -21 25 -21h47l23 40q101 179 152 393z" />
    <glyph glyph-name="Ydieresis" unicode="&#x178;" horiz-adv-x="554" 
d="M266 771h-20q-19 0 -18 19l9 55q3 20 22 20h20q20 0 17 -20l-8 -54q-3 -20 -22 -20zM438 771h-20q-19 0 -18 19l9 55q1 20 22 20h20q20 0 17 -20l-8 -54q-3 -20 -22 -20zM301 247l-34 -247h-66l35 249l-169 441h67l115 -308q12 -32 23 -74h7q12 26 43 77l201 305h72z" />
    <glyph glyph-name="Zacute" unicode="&#x179;" horiz-adv-x="559" 
d="M309 731l-22 30l183 147l33 -49zM563 690l-9 -56l-466 -578h392l-9 -56h-464l8 56l466 578h-381l8 56h455z" />
    <glyph glyph-name="zacute" unicode="&#x17a;" horiz-adv-x="497" 
d="M245 550l-22 31l183 146l33 -49zM466 432l-376 -379h325l-7 -53h-400l6 53l376 379h-318l7 52h394z" />
    <glyph glyph-name="Zdotaccent" unicode="&#x17b;" horiz-adv-x="559" 
d="M360 764h-21q-22 0 -19 23l7 57q3 21 22 21h22q22 0 19 -23l-8 -57q-3 -21 -22 -21zM563 690l-9 -56l-466 -578h392l-9 -56h-464l8 56l466 578h-381l8 56h455z" />
    <glyph glyph-name="zdotaccent" unicode="&#x17c;" horiz-adv-x="497" 
d="M296 584h-21q-22 0 -20 22l8 58q3 20 22 20h22q22 0 19 -22l-8 -58q-3 -20 -22 -20zM466 432l-376 -379h325l-7 -53h-400l6 53l376 379h-318l7 52h394z" />
    <glyph glyph-name="Zcaron" unicode="&#x17d;" horiz-adv-x="559" 
d="M324 746l-119 127l26 25l115 -101h8l146 101l21 -28l-151 -124h-46zM563 690l-9 -56l-466 -578h392l-9 -56h-464l8 56l466 578h-381l8 56h455z" />
    <glyph glyph-name="zcaron" unicode="&#x17e;" horiz-adv-x="497" 
d="M259 566l-118 127l26 24l114 -100h8l147 100l21 -28l-151 -123h-47zM466 432l-376 -379h325l-7 -53h-400l6 53l376 379h-318l7 52h394z" />
    <glyph glyph-name="florin" unicode="&#x192;" horiz-adv-x="426" 
d="M168 393l40 169q15 69 54.5 103.5t109.5 34.5q56 0 94 -6l-12 -48h-69q-51 0 -77 -20.5t-38 -72.5l-38 -160h151l-12 -51h-151l-81 -345q-16 -69 -52.5 -103t-104.5 -34q-64 0 -93 6l11 47h67q48 0 73 21.5t37 71.5l79 336h-97l10 45z" />
    <glyph glyph-name="Scommaaccent" unicode="&#x218;" horiz-adv-x="558" 
d="M344 293l-142 55q-71 28 -96 71t-16 116q8 56 27 90.5t52.5 50.5t69 21t91.5 4q107 0 198 -17l-8 -47q-111 6 -198 6q-29 0 -43.5 -0.5t-36 -4t-32.5 -10.5t-23.5 -19.5t-19.5 -32.5t-11 -48q-6 -53 9.5 -78t66.5 -46l140 -54q77 -30 101 -71.5t14 -118.5q-8 -56 -26 -90
t-52 -52t-73 -23.5t-103 -5.5q-108 0 -203 15l9 49q121 -6 199 -6q95 1 133.5 23t49.5 97q7 56 -8.5 80t-68.5 46zM250 -60h19q22 0 19 -22l-8 -57q-8 -54 -45 -126l-30 10q19 57 27 102q-19 0 -17 19l9 53q2 12 7 16.5t19 4.5z" />
    <glyph glyph-name="scommaaccent" unicode="&#x219;" horiz-adv-x="503" 
d="M299 191l-144 60q-53 23 -75.5 51.5t-15.5 82.5q10 69 56 91.5t144 20.5q104 -2 198 -15l-8 -45q-91 5 -188 6q-78 1 -106 -9.5t-34 -53.5q-5 -34 9 -49.5t52 -31.5l145 -60q58 -24 80 -51.5t15 -81.5q-4 -32 -17 -54t-29.5 -34.5t-45.5 -19t-57 -8.5t-72 -2
q-69 0 -181 14l8 47q62 -7 161 -7q96 2 130 15t40 55q4 23 -4.5 38.5t-20 22t-40.5 18.5zM206 -60h19q22 0 18 -22l-8 -57q-9 -59 -45 -126l-29 10q19 61 27 102q-20 0 -17 19l8 53q2 12 7.5 16.5t19.5 4.5z" />
    <glyph glyph-name="uni021A" unicode="&#x21a;" horiz-adv-x="568" 
d="M594 632h-230l-89 -632h-66l89 632h-229l9 58h524zM226 -60h19q22 0 18 -22l-8 -57q-7 -55 -45 -126l-29 10q19 61 27 102q-19 0 -17 19l8 53q2 12 7.5 16.5t19.5 4.5z" />
    <glyph glyph-name="uni021B" unicode="&#x21b;" horiz-adv-x="365" 
d="M197 434l-44 -315q-5 -37 9 -53t51 -16h80l3 -48q-44 -10 -101 -10q-60 0 -86.5 32t-18.5 90l45 320h-89l6 45l90 5l21 147h62l-20 -147h163l-8 -50h-163zM168 -60h19q22 0 18 -22l-8 -57q-9 -59 -45 -126l-29 10q19 61 27 102q-20 0 -17 19l8 53q2 12 7.5 16.5t19.5 4.5
z" />
    <glyph glyph-name="circumflex" unicode="&#x2c6;" horiz-adv-x="410" 
d="M415 583l-24 -26l-118 101h-9l-147 -100l-19 28l149 124h46z" />
    <glyph glyph-name="caron" unicode="&#x2c7;" horiz-adv-x="410" 
d="M426 689l-151 -123h-47l-118 126l26 25l114 -100h8l147 100z" />
    <glyph glyph-name="breve" unicode="&#x2d8;" horiz-adv-x="368" 
d="M358 695l34 -9q-6 -57 -48.5 -90.5t-109.5 -33.5q-70 0 -106.5 35t-25.5 92l35 3q-5 -39 21 -60t76 -21q53 0 86.5 22.5t37.5 61.5z" />
    <glyph glyph-name="dotaccent" unicode="&#x2d9;" horiz-adv-x="215" 
d="M157 682h21q23 0 20 -22l-8 -58q-3 -20 -23 -20h-20q-23 0 -20 22l8 58q3 20 22 20z" />
    <glyph glyph-name="ring" unicode="&#x2da;" horiz-adv-x="297" 
d="M211 739q46 0 73.5 -30t22.5 -75q-6 -41 -35.5 -69.5t-74.5 -28.5q-46 0 -73 30t-22 74q5 42 34.5 70.5t74.5 28.5zM211 704q-29 0 -48.5 -19.5t-22.5 -48.5q-4 -29 13 -47t45 -18q29 0 48.5 19.5t22.5 48.5q3 28 -13 46.5t-45 18.5z" />
    <glyph glyph-name="ogonek" unicode="&#x2db;" horiz-adv-x="252" 
d="M109 2l32 -2q-60 -58 -94 -121q-21 -39 0 -51t74 6l8 -28q-91 -34 -125 -7t-5 84q30 59 110 119z" />
    <glyph glyph-name="tilde" unicode="&#x2dc;" horiz-adv-x="412" 
d="M133 588l-31 3q3 53 27.5 80t60.5 24q32 -3 71.5 -30t65.5 -30q30 -3 44.5 10.5t19.5 45.5l32 -2q-3 -51 -27 -77.5t-61 -23.5q-38 3 -78.5 30.5t-59.5 30.5q-55 5 -64 -61z" />
    <glyph glyph-name="hungarumlaut" unicode="&#x2dd;" horiz-adv-x="439" 
d="M437 694l-150 -156l-28 22l137 164zM281 694l-150 -156l-28 22l137 164z" />
    <glyph glyph-name="Delta" unicode="&#x394;" horiz-adv-x="621" 
d="M556 32l-4 -32h-563l4 32l341 658h67zM486 54l-113 499q-10 49 -13 72q-15 -35 -34 -75l-253 -496h413z" />
    <glyph glyph-name="Omega" unicode="&#x3a9;" horiz-adv-x="715" 
d="M19 58h114q34 0 65 -4q-69 59 -95.5 133.5t-10.5 182.5q23 168 99.5 250t221.5 82q143 0 199.5 -84.5t33.5 -254.5q-16 -113 -60.5 -183t-133.5 -126q29 4 62 4h117l-8 -58h-242l6 56q89 56 132 125.5t58 180.5q21 149 -17.5 215.5t-148.5 66.5q-114 0 -172.5 -68.5
t-80.5 -221.5q-16 -113 7.5 -176.5t94.5 -122.5l-6 -55h-242z" />
    <glyph glyph-name="mu" unicode="&#x3bc;" horiz-adv-x="585" 
d="M520 484l-69 -484h-48l4 78q-121 -90 -214 -90q-58 0 -92 31q1 -39 -3 -78l-21 -145h-57l47 335l50 353h63l-50 -348q-6 -46 13 -67t65 -21q43 0 87.5 18t110.5 58l50 360h64z" />
    <glyph glyph-name="pi" unicode="&#x3c0;" horiz-adv-x="638" 
d="M631 433h-100l-61 -433h-63l61 433h-258l-61 -433h-63l61 433h-100l7 51h584z" />
    <glyph glyph-name="uni0401" unicode="&#x401;" horiz-adv-x="555" 
d="M300 793h-21q-20 0 -17 19l8 55q3 20 22 20h20q21 0 18 -20l-9 -54q-1 -20 -21 -20zM472 793h-21q-19 0 -18 19l9 55q3 20 22 20h20q20 0 17 -20l-8 -54q-1 -20 -21 -20zM547 635h-278q-71 0 -80 -74l-24 -170h309l-7 -51h-309l-29 -214q-11 -71 60 -71h276v-50
q-92 -6 -285 -6q-64 0 -95 34t-23 92l64 454q7 52 42 82t92 30q203 0 296 -6z" />
    <glyph glyph-name="uni0402" unicode="&#x402;" horiz-adv-x="746" 
d="M364 632l-37 -267q110 74 221 74q83 0 120.5 -48t21.5 -164q-19 -128 -91 -180.5t-195 -48.5l-2 47q104 7 155.5 45t66.5 137q14 90 -10 122t-83 32q-58 0 -103 -16.5t-109 -57.5l-44 -307h-65l89 632h-229l8 58h524l-7 -58h-231z" />
    <glyph glyph-name="uni0403" unicode="&#x403;" horiz-adv-x="515" 
d="M516 859l-194 -128l-22 30l184 147zM49 0l80 572q8 59 43 89t87 30q196 0 288 -6l-9 -50h-261q-38 0 -58.5 -17.5t-26.5 -59.5l-78 -558h-65z" />
    <glyph glyph-name="uni0404" unicode="&#x404;" horiz-adv-x="570" 
d="M577 683l-12 -50q-81 10 -161 10q-119 0 -175 -53t-82 -199h302l-7 -51h-303q-22 -166 12 -228t148 -65q93 -2 188 12l5 -50q-91 -23 -193 -21q-153 4 -202.5 84.5t-23.5 275.5q27 199 100 276.5t226 77.5q99 0 178 -19z" />
    <glyph glyph-name="uni0405" unicode="&#x405;" horiz-adv-x="558" 
d="M344 293l-142 55q-71 28 -96 71t-16 116q8 56 27 90.5t52.5 50.5t69 21t91.5 4q107 0 198 -17l-8 -47q-111 6 -198 6q-29 0 -43.5 -0.5t-36 -4t-32.5 -10.5t-23.5 -19.5t-19.5 -32.5t-11 -48q-6 -53 9.5 -78t66.5 -46l140 -54q77 -30 101 -71.5t14 -118.5q-8 -56 -26 -90
t-52 -52t-73 -23.5t-103 -5.5q-108 0 -203 15l9 49q121 -6 199 -6q95 1 133.5 23t49.5 97q7 56 -8.5 80t-68.5 46z" />
    <glyph glyph-name="uni0406" unicode="&#x406;" horiz-adv-x="249" 
d="M117 0h-66l97 690h66z" />
    <glyph glyph-name="uni0407" unicode="&#x407;" horiz-adv-x="250" 
d="M109 865h20q21 0 18 -20l-9 -54q-1 -20 -21 -20h-21q-20 0 -17 19l8 55q3 20 22 20zM281 865h20q21 0 18 -20l-9 -54q-1 -20 -21 -20h-21q-19 0 -18 19l9 55q3 20 22 20zM117 0h-66l97 690h66z" />
    <glyph glyph-name="uni0408" unicode="&#x408;" horiz-adv-x="333" 
d="M300 690l-78 -557q-20 -141 -146 -141q-45 0 -83 11l13 45h51q86 0 100 86l77 556h66z" />
    <glyph glyph-name="uni0409" unicode="&#x409;" horiz-adv-x="969" 
d="M560 402h155q122 0 165.5 -47t26.5 -162q-15 -116 -67.5 -158.5t-167.5 -42.5q-151 0 -234 8l90 636h-134q-41 0 -61 -17t-30 -61q-53 -244 -73 -302q-25 -76 -66 -135q-71 -107 -171 -122l-3 58q64 17 116 88q43 62 64 132t70 296q14 62 47 89.5t91 27.5h222zM552 347
l-42 -296q39 -1 134 -1q105 0 144.5 28t53.5 121q12 84 -14.5 116t-116.5 32h-159z" />
    <glyph glyph-name="uni040A" unicode="&#x40a;" horiz-adv-x="978" 
d="M568 401h156q122 0 165.5 -47t26.5 -161q-15 -116 -67.5 -158.5t-167.5 -42.5q-151 0 -234 8l48 345h-329l-48 -345h-66l97 690h66l-41 -290h329l41 290h65zM560 346l-41 -295q38 -1 153 -1q91 0 128.5 30.5t50.5 118.5q12 83 -14.5 115t-116.5 32h-160z" />
    <glyph glyph-name="uni040B" unicode="&#x40b;" horiz-adv-x="775" 
d="M364 632l-39 -278q127 85 255 85q157 0 136 -154l-40 -285h-66l39 276q8 56 -12.5 80t-77.5 24q-63 0 -116 -18.5t-127 -66.5l-41 -295h-66l89 632h-229l9 58h524l-8 -58h-230z" />
    <glyph glyph-name="uni040C" unicode="&#x40c;" horiz-adv-x="587" 
d="M330 731l-22 30l184 147l32 -49zM318 361l-2 -3q82 -9 125 -102q24 -54 64 -222q5 -21 8 -35l-67 2q-39 167 -52 203q-34 97 -96 120q-23 9 -53 9h-87q0 -35 -6 -79l-36 -254h-65l97 690h65l-31 -224q-9 -54 -16 -79h83q90 0 168 111q31 45 108 193l68 -2
q-84 -164 -121 -217q-73 -104 -154 -111z" />
    <glyph glyph-name="uni040D" unicode="&#x40d;" horiz-adv-x="686" 
d="M453 760l-25 -29l-167 130l37 46zM552 0h-63l71 505q6 39 17 100l-3 -1l-14 -22.5l-16.5 -26t-14.5 -20.5l-407 -535h-71l97 690h64l-71 -503q-10 -69 -18 -102l3 1q18 29 50 73l403 531h70z" />
    <glyph glyph-name="uni040E" unicode="&#x40e;" horiz-adv-x="552" 
d="M466 882l34 -9q-5 -57 -48 -90.5t-110 -33.5q-70 0 -106 35t-25 92l34 3q-5 -39 21 -60t76 -21q53 0 86.5 22.5t37.5 61.5zM590 690l-263 -525q-27 -53 -46.5 -84t-51.5 -58t-69 -29q-56 -5 -114 13l10 47q35 -4 55 -5.5t40 3t30 9.5t25 23t24.5 34t28.5 51l18 33h-38
q-48 0 -57 45l-102 443h66l91 -416q4 -16 22 -16h46l215 432h70z" />
    <glyph glyph-name="uni040F" unicode="&#x40f;" horiz-adv-x="671" 
d="M635 690l-97 -690h-209l-24 -151h-46l17 151h-224l97 690h66l-90 -636h355l89 636h66z" />
    <glyph glyph-name="uni0410" unicode="&#x410;" horiz-adv-x="612" 
d="M451 228h-301l-107 -228h-70l325 673q7 17 27 17h75q9 0 16 -6t8 -14l137 -670h-66zM440 286l-57 295l-9 58h-30q-3 -6 -12.5 -27t-14.5 -31l-139 -295h262z" />
    <glyph glyph-name="uni0411" unicode="&#x411;" horiz-adv-x="594" 
d="M206 636l-35 -251h161q124 0 167 -44.5t27 -154.5q-16 -113 -68 -153.5t-168 -40.5q-153 0 -239 8l97 690q86 5 206 5q92 0 207 -5l-13 -54h-342zM163 332l-39 -282q78 -2 159 -2q91 0 128 29.5t49 115.5q11 81 -14.5 110t-116.5 29h-166z" />
    <glyph glyph-name="uni0412" unicode="&#x412;" horiz-adv-x="615" 
d="M51 0l97 690q77 8 212 8q126 0 172.5 -39t31.5 -144q-11 -74 -43.5 -111.5t-94.5 -43.5l-1 -5q73 -6 98.5 -53t12.5 -133q-15 -104 -66.5 -140.5t-171.5 -36.5q-160 0 -247 8zM170 383h161q85 1 121.5 28t47.5 103q11 78 -19.5 103t-123.5 25q-114 0 -151 -1zM162 332
l-39 -282q82 -2 167 -2q93 0 132 28t50 108q12 86 -18.5 116t-125.5 32h-166z" />
    <glyph glyph-name="uni0413" unicode="&#x413;" horiz-adv-x="515" 
d="M49 0l80 572q8 59 43 89t87 30q196 0 288 -6l-9 -50h-261q-38 0 -58.5 -17.5t-26.5 -59.5l-78 -558h-65z" />
    <glyph glyph-name="uni0414" unicode="&#x414;" horiz-adv-x="675" 
d="M610 54l-6 -47l-22 -158h-50l14 151h-507l-29 -151h-50l21 151l7 54h61q124 190 182 519q20 117 138 117h247l-89 -636h83zM461 54l82 582h-162q-38 0 -59 -17.5t-28 -59.5q-62 -330 -173 -505h340z" />
    <glyph glyph-name="uni0415" unicode="&#x415;" horiz-adv-x="555" 
d="M547 635h-278q-71 0 -80 -74l-24 -170h309l-7 -51h-309l-29 -214q-11 -71 60 -71h276v-50q-92 -6 -285 -6q-64 0 -95 34t-23 92l64 454q7 52 42 82t92 30q203 0 296 -6z" />
    <glyph glyph-name="uni0416" unicode="&#x416;" horiz-adv-x="898" 
d="M648 361v-3q30 -4 52.5 -21t38 -43t29 -67.5t23.5 -84.5l23 -103q5 -26 8 -39h-65q-39 177 -51 214q-31 94 -87 113q-18 6 -39 6h-95q-2 -53 -6 -79l-35 -254h-63l36 256q6 40 16 77h-91q-81 0 -143 -84q-38 -52 -119 -221l-14 -28h-70l29 62.5l26 55.5t26.5 53l25 44.5
t26.5 41.5t25.5 32.5t28 29l28.5 19.5t32.5 15.5t34.5 6.5l1 3q-21 3 -39.5 15t-32 26t-26.5 42t-20.5 48.5t-18 61t-15.5 63.5l-15 71h64q35 -156 51 -199q46 -100 118 -104h96q0 37 6 82l31 221h63l-32 -224q-7 -48 -15 -79h89q80 0 152 113q30 47 100 190h67
q-77 -164 -105 -210q-69 -111 -149 -119z" />
    <glyph glyph-name="uni0417" unicode="&#x417;" horiz-adv-x="545" 
d="M109 634l-3 49q85 15 183 15q122 0 170.5 -40t33.5 -143q-11 -75 -43 -112t-95 -43l-2 -5q72 -7 97.5 -53.5t13.5 -132.5q-14 -103 -64.5 -140t-171.5 -37q-135 0 -228 20l9 47q129 -12 209 -12q91 0 130 28t51 109q12 86 -19 116.5t-124 30.5h-112l7 53h109
q84 0 120.5 27t46.5 103q11 78 -18.5 103.5t-122.5 25.5q-36 0 -70 -1.5t-66.5 -4.5t-40.5 -3z" />
    <glyph glyph-name="uni0418" unicode="&#x418;" horiz-adv-x="686" 
d="M552 0h-63l71 505q6 39 17 100l-3 -1l-14 -22.5l-16.5 -26t-14.5 -20.5l-407 -535h-71l97 690h64l-71 -503q-10 -69 -18 -102l3 1q18 29 50 73l403 531h70z" />
    <glyph glyph-name="uni0419" unicode="&#x419;" horiz-adv-x="686" 
d="M518 879h50q-5 -58 -48 -94t-110 -36q-70 0 -106 36t-25 94h50q-15 -93 84 -93q45 0 72.5 23.5t32.5 69.5zM552 0h-63l71 505q6 39 17 100l-3 -1l-14 -22.5l-16.5 -26t-14.5 -20.5l-407 -535h-71l97 690h64l-71 -503q-10 -69 -18 -102l3 1q18 29 50 73l403 531h70z" />
    <glyph glyph-name="uni041A" unicode="&#x41a;" horiz-adv-x="587" 
d="M318 361l-2 -3q82 -9 125 -102q24 -54 64 -222q5 -21 8 -35l-67 2q-39 167 -52 203q-34 97 -96 120q-23 9 -53 9h-87q0 -35 -6 -79l-36 -254h-65l97 690h65l-31 -224q-9 -54 -16 -79h83q90 0 168 111q31 45 108 193l68 -2q-84 -164 -121 -217q-73 -104 -154 -111z" />
    <glyph glyph-name="uni041B" unicode="&#x41b;" horiz-adv-x="644" 
d="M607 690l-97 -690h-65l89 636h-155q-41 0 -61.5 -17t-29.5 -61q-48 -215 -71 -292t-66 -145q-69 -111 -172 -122l-4 55q23 9 38.5 17t37 27t40.5 48q42 62 64.5 136t70.5 293q13 60 47 87.5t93 27.5h241z" />
    <glyph glyph-name="uni041C" unicode="&#x41c;" horiz-adv-x="869" 
d="M708 690h78q14 0 21 -8.5t6 -22.5l-64 -659h-65l63 635h-21l-256 -542q-8 -21 -30 -21h-66q-25 0 -28 24l-107 539h-22l-114 -635h-66l121 662q6 28 31 28h77q23 0 26 -24l91 -451q3 -16 8 -47.5t8 -46.5h22q23 55 42 95l214 452q9 22 31 22z" />
    <glyph glyph-name="uni041D" unicode="&#x41d;" horiz-adv-x="663" 
d="M627 690l-97 -690h-66l48 340h-347l-48 -340h-66l97 690h66l-41 -293h347l41 293h66z" />
    <glyph glyph-name="uni041E" unicode="&#x41e;" horiz-adv-x="664" 
d="M386 702q145 0 196 -81.5t23 -278.5q-27 -198 -96 -276t-214 -78t-196.5 81t-24.5 279q27 197 96 275.5t216 78.5zM384 644q-114 0 -166 -65t-77 -237q-23 -167 10.5 -231.5t144.5 -64.5q112 0 164.5 65.5t76.5 236.5q25 169 -8 232.5t-145 63.5z" />
    <glyph glyph-name="uni041F" unicode="&#x41f;" horiz-adv-x="666" 
d="M630 690l-97 -690h-66l89 636h-349l-90 -636h-66l97 690h482z" />
    <glyph glyph-name="uni0420" unicode="&#x420;" horiz-adv-x="585" 
d="M51 0l97 690q85 8 229 8q118 0 161 -47t26 -166q-18 -124 -69 -166.5t-169 -42.5q-85 0 -169 8l-40 -284h-66zM163 333h162q87 1 124 33t50 124q12 89 -14.5 120.5t-108.5 31.5q-89 0 -169 -2z" />
    <glyph glyph-name="uni0421" unicode="&#x421;" 
d="M485 58l5 -49q-81 -21 -198 -21q-146 0 -196 83.5t-22 276.5q27 196 96 275t214 79q104 0 183 -19l-12 -49q-73 9 -171 9q-114 0 -166 -63.5t-77 -237.5q-23 -167 9.5 -231t141.5 -64q107 -1 193 11z" />
    <glyph glyph-name="uni0422" unicode="&#x422;" horiz-adv-x="568" 
d="M594 632h-230l-89 -632h-66l89 632h-229l9 58h524z" />
    <glyph glyph-name="uni0423" unicode="&#x423;" horiz-adv-x="552" 
d="M590 690l-263 -525q-27 -53 -46.5 -84t-51.5 -58t-69 -29q-56 -5 -114 13l10 47q35 -4 55 -5.5t40 3t30 9.5t25 23t24.5 34t28.5 51l18 33h-38q-48 0 -57 45l-102 443h66l91 -416q4 -16 22 -16h46l215 432h70z" />
    <glyph glyph-name="uni0424" unicode="&#x424;" horiz-adv-x="819" 
d="M508 747l-14 -102q172 -5 235 -71.5t41 -223.5q-22 -156 -102 -220.5t-257 -69.5l-14 -101h-65l13 101q-173 5 -235.5 72t-40.5 224q22 156 102.5 220.5t256.5 69.5l14 101h66zM484 590l-67 -474q142 5 205 57t82 183q18 130 -30 180.5t-190 53.5zM355 116l67 474
q-143 -5 -205.5 -57t-81.5 -183q-18 -131 29.5 -181t190.5 -53z" />
    <glyph glyph-name="uni0425" unicode="&#x425;" horiz-adv-x="602" 
d="M381 358l153 -358h-68l-139 334h-31l-233 -334h-76l255 359l-144 331h68l129 -305h32l218 305h73z" />
    <glyph glyph-name="uni0426" unicode="&#x426;" horiz-adv-x="680" 
d="M616 54l-7 -54l-21 -151h-51l14 151h-499l97 690h66l-90 -636h342l90 636h65l-89 -636h83z" />
    <glyph glyph-name="uni0427" unicode="&#x427;" horiz-adv-x="615" 
d="M579 690l-97 -690h-65l48 344q-130 -87 -254 -87q-78 0 -110.5 36.5t-22.5 117.5l39 279h66l-37 -270q-8 -57 11.5 -80.5t74.5 -23.5q61 0 116.5 21.5t124.5 64.5l41 288h65z" />
    <glyph glyph-name="uni0428" unicode="&#x428;" horiz-adv-x="918" 
d="M882 690l-97 -690h-734l97 690h65l-90 -636h271l89 636h64l-89 -636h270l90 636h64z" />
    <glyph glyph-name="uni0429" unicode="&#x429;" horiz-adv-x="933" 
d="M786 54h83l-8 -54l-21 -151h-50l14 151h-752l97 690h64l-89 -636h266l90 636h64l-89 -636h266l90 636h64z" />
    <glyph glyph-name="uni042A" unicode="&#x42a;" horiz-adv-x="738" 
d="M325 402h160q122 0 165 -47t27 -162q-16 -116 -68 -158.5t-168 -42.5q-153 0 -238 8l88 632h-224l9 58h289zM317 347l-42 -296q39 -1 158 -1q91 0 128 30.5t50 118.5q12 84 -14 116t-116 32h-164z" />
    <glyph glyph-name="uni042B" unicode="&#x42b;" horiz-adv-x="833" 
d="M174 402h160q123 0 166 -47t27 -162q-16 -116 -68 -158.5t-168 -42.5q-154 0 -240 8l97 690h66zM796 690l-97 -690h-66l97 690h66zM166 347l-42 -296q39 -1 159 -1q91 0 128 30.5t50 118.5q12 84 -14 116t-116 32h-165z" />
    <glyph glyph-name="uni042C" unicode="&#x42c;" horiz-adv-x="588" 
d="M174 402h160q123 0 166 -47t27 -162q-16 -116 -68 -158.5t-168 -42.5q-154 0 -240 8l97 690h66zM166 347l-42 -296q39 -1 159 -1q91 0 128 30.5t50 118.5q12 84 -14 116t-116 32h-165z" />
    <glyph glyph-name="uni042D" unicode="&#x42d;" horiz-adv-x="571" 
d="M105 633l-4 50q78 19 177 19q156 0 209.5 -80t25.5 -280q-26 -196 -97 -273.5t-222 -80.5q-107 -2 -191 22l11 49q81 -15 181 -12q116 3 170.5 67t79.5 227h-306l7 51h306q9 61 4 105t-15 72t-35 44.5t-55.5 23t-76.5 6.5q-83 0 -169 -10z" />
    <glyph glyph-name="uni042E" unicode="&#x42e;" horiz-adv-x="912" 
d="M172 386h168q30 176 96 246t198 70q144 0 196 -81t24 -279q-28 -199 -96.5 -276.5t-215.5 -77.5q-139 0 -187 77t-23 267h-168l-46 -332h-66l97 690h66zM786 348q23 167 -10 231.5t-142 64.5q-108 0 -160 -66.5t-76 -235.5q-23 -167 8 -231.5t136 -64.5q113 0 166.5 66.5
t77.5 235.5z" />
    <glyph glyph-name="uni042F" unicode="&#x42f;" horiz-adv-x="607" 
d="M474 0h-66l41 289q-24 -1 -82.5 -1.5t-85.5 -0.5q-40 0 -66 -19t-46 -62l-92 -206h-72l96 213q43 87 105 98l1 4q-62 13 -87.5 67t-13.5 133q15 99 69.5 141t160.5 42q157 0 235 -8zM456 344l42 296q-80 2 -161 2q-75 0 -113.5 -30t-50.5 -104q-28 -164 116 -164h167z
" />
    <glyph glyph-name="uni0430" unicode="&#x430;" horiz-adv-x="572" 
d="M447 0h-49l9 109q-48 -55 -107.5 -88t-118.5 -33q-89 0 -116 58.5t-6 199.5q12 80 29.5 129t48.5 76t69 36.5t98 9.5q91 0 211 -20zM407 164l39 275q-106 4 -124 4q-46 0 -74.5 -5t-50.5 -16t-35.5 -36t-22.5 -57.5t-17 -87.5q-17 -114 -3 -155.5t72 -41.5q98 0 216 120z
" />
    <glyph glyph-name="uni0431" unicode="&#x431;" horiz-adv-x="567" 
d="M528 729l8 -54q-40 -20 -74 -30t-74 -16.5t-62 -11.5q-84 -22 -119 -65t-56 -125q-11 -40 -18 -69h2q54 112 197 112q110 0 146 -57.5t20 -179.5q-17 -126 -71 -185.5t-172 -59.5q-44 0 -77.5 8.5t-55 21.5t-34.5 36.5t-19 47t-5.5 59.5t3.5 66t9 75q10 73 20.5 119.5
t27 90.5t40 71t58.5 49t84 36q11 3 89 19.5t133 41.5zM318 415q-95 0 -134 -44.5t-51 -138.5q-15 -106 12 -147.5t112 -41.5q80 0 120 43t55 154q15 101 -9.5 138t-104.5 37z" />
    <glyph glyph-name="uni0432" unicode="&#x432;" horiz-adv-x="549" 
d="M356 265v-2q69 -4 95.5 -40.5t17.5 -105.5q-11 -73 -60 -101t-160 -28q-45 0 -76.5 4t-57 15t-40 29.5t-22 47.5t-6.5 69.5t9 95.5q12 81 31 130t51 75t69.5 34.5t98.5 8.5q46 0 77.5 -4.5t60 -16.5t39 -38.5t2.5 -66.5q-18 -92 -129 -106zM120 261l151 20
q81 10 113 30.5t40 59.5q9 45 -18 59.5t-107 14.5q-46 0 -71.5 -5t-48.5 -24t-36 -55.5t-23 -99.5zM269 235l-155 -21q-5 -39 -5 -66.5t5.5 -47t14 -31t26 -18.5t37 -9t49.5 -2q85 0 121 19.5t44 74.5q8 61 -22 86.5t-115 14.5z" />
    <glyph glyph-name="uni0433" unicode="&#x433;" horiz-adv-x="514" 
d="M80 415l-2 50q92 27 202 32q40 2 68.5 -0.5t58 -12.5t43 -35t8.5 -65q-4 -33 -18.5 -58.5t-39 -41.5t-38.5 -23t-39 -16l-153 -56q-37 -14 -54.5 -31t-21.5 -46q-6 -42 20.5 -55.5t86.5 -13.5q115 1 231 39l3 -50q-104 -44 -234 -44q-89 0 -134 27t-37 97q6 49 35.5 79
t90.5 54l147 52q47 16 68 36t25 50q6 40 -21.5 51.5t-101.5 8.5q-83 -4 -193 -28z" />
    <glyph glyph-name="uni0434" unicode="&#x434;" horiz-adv-x="562" 
d="M156 664l10 46q42 -4 75.5 -11t69.5 -18.5t62 -28t51.5 -40.5t39.5 -55t25.5 -72.5t9.5 -92.5t-9 -114q-10 -69 -24.5 -117t-42 -89.5t-74 -62.5t-111.5 -21q-110 0 -153.5 57t-26.5 178q29 224 225 224q99 0 152 -63q1 47 -6 85t-19 64.5t-33.5 47.5t-43 34t-53.5 23
t-59 15.5t-65 10.5zM240 42q90 0 129 58.5t57 189.5l7 51q-52 52 -140 52q-80 0 -119 -45t-51 -131q-13 -95 15 -135t102 -40z" />
    <glyph glyph-name="uni0435" unicode="&#x435;" horiz-adv-x="533" 
d="M432 55l5 -43q-69 -24 -195 -24q-122 0 -165.5 61.5t-23.5 201.5q20 144 77 195t183 51q105 0 147.5 -36.5t26.5 -116.5q-13 -65 -52.5 -93t-123.5 -36l-199 -19q-6 -90 27 -122t115 -32q72 0 178 13zM118 245l193 19q55 6 79 23.5t33 61.5q13 59 -15 76.5t-100 17.5
q-48 0 -77 -7t-52.5 -28t-37 -58.5t-23.5 -100.5v-4z" />
    <glyph glyph-name="uni0436" unicode="&#x436;" horiz-adv-x="759" 
d="M524 253v-2q66 -7 99 -73q18 -35 56 -169q1 -5 2 -9h-61q-35 129 -50 160q-31 62 -90 67q-6 1 -12 1h-71q1 -24 -2 -54l-25 -174h-58l26 178q2 19 11 50h-71q-62 -1 -101.5 -46.5t-105.5 -164.5q-6 -11 -9 -17h-66q76 139 102 173q56 73 128 80v2q-27 4 -48 17.5t-34 30
t-26 50.5t-20 58t-19 73h61q10 -39 15.5 -57.5t15.5 -48t19.5 -43.5t23 -30t31 -22t39.5 -6h72q-1 22 4 58l21 149h58l-22 -152q-5 -35 -12 -55h62q26 0 50 11.5t41 26t39.5 46.5t36 54.5l39.5 68.5h64l-41 -74.5t-36.5 -58.5t-40.5 -51.5t-42 -29.5t-53 -17z" />
    <glyph glyph-name="uni0437" unicode="&#x437;" horiz-adv-x="492" 
d="M80 431l-3 47q59 14 151 14q119 0 164 -27.5t35 -104.5q-8 -53 -34 -79t-84 -31l-2 -3q63 -5 87.5 -36.5t15.5 -94.5q-10 -75 -57 -99.5t-163 -24.5q-108 0 -190 13l9 49q99 -8 178 -8q89 0 121 17t39 72q7 52 -20 70t-108 19l-110 1l5 47h108q75 0 105.5 18t37.5 68
t-20.5 65t-119.5 15q-87 0 -145 -7z" />
    <glyph glyph-name="uni0438" unicode="&#x438;" horiz-adv-x="565" 
d="M509 484l-68 -484h-49l10 113q-128 -125 -231 -125q-65 0 -94.5 35t-20.5 99l51 362h64l-50 -348q-7 -49 9.5 -71t60.5 -22q46 0 92 28.5t119 94.5l44 318h63z" />
    <glyph glyph-name="uni0439" unicode="&#x439;" horiz-adv-x="565" 
d="M432 698h50q-6 -58 -48.5 -94t-109.5 -36q-70 0 -106.5 36t-25.5 94h51q-15 -93 84 -93q93 0 105 93zM509 484l-68 -484h-49l10 113q-128 -125 -231 -125q-65 0 -94.5 35t-20.5 99l51 362h64l-50 -348q-7 -49 9.5 -71t60.5 -22q46 0 92 28.5t119 94.5l44 318h63z" />
    <glyph glyph-name="uni043A" unicode="&#x43a;" horiz-adv-x="525" 
d="M281 253l-2 -2q69 -6 99 -55.5t64 -173.5l6 -23l-64 2q-37 125 -52 155q-31 62 -91 70q-10 1 -22 1h-86q0 -33 -3 -53l-25 -174h-63l69 484h63l-21 -151q-6 -29 -13 -56h78q30 0 56 11.5t44.5 26t41.5 46.5t36.5 55l38.5 69l68 -1q-33 -61 -51.5 -92.5t-47 -67
t-57.5 -51.5t-66 -20z" />
    <glyph glyph-name="uni043B" unicode="&#x43b;" horiz-adv-x="553" 
d="M497 484l-69 -484h-63l62 434h-120q-33 0 -51 -15t-27 -52q-42 -182 -90 -272q-43 -91 -148 -100l-6 53q71 20 99 73q36 66 86 261q14 54 42.5 78t81.5 24h203z" />
    <glyph glyph-name="uni043C" unicode="&#x43c;" horiz-adv-x="734" 
d="M569 484h70q27 0 24 -26l-42 -458h-59l40 435h-18l-193 -366q-10 -19 -27 -19h-58q-19 0 -24 22l-92 363h-19l-81 -435h-59l86 460q4 24 28 24h69q19 0 24 -22l75 -297q13 -55 16 -72l18 1q22 47 34 70l161 301q9 19 27 19z" />
    <glyph glyph-name="uni043D" unicode="&#x43d;" horiz-adv-x="574" 
d="M518 484l-69 -484h-62l33 233h-282l-33 -233h-63l69 484h62l-28 -201h282l28 201h63z" />
    <glyph glyph-name="uni043E" unicode="&#x43e;" horiz-adv-x="564" 
d="M307 497q121 0 165 -59t25 -199q-19 -138 -76 -194.5t-177 -56.5q-122 0 -166 58.5t-25 198.5q19 138 76 195t178 57zM307 442q-89 0 -130.5 -43.5t-58.5 -159.5q-16 -113 11.5 -155t114.5 -42q89 0 130.5 44t57.5 159q16 113 -11 155t-114 42z" />
    <glyph glyph-name="uni043F" unicode="&#x43f;" horiz-adv-x="576" 
d="M161 484l-10 -110q140 123 240 123q64 0 94 -35t21 -100l-52 -362h-63l49 349q7 51 -8.5 72t-58.5 21q-46 0 -95.5 -27.5t-126.5 -88.5l-45 -326h-64l69 484h50z" />
    <glyph glyph-name="uni0440" unicode="&#x440;" horiz-adv-x="572" 
d="M161 484l-10 -113q50 53 114 89t114 36q88 0 114.5 -57.5t6.5 -200.5q-12 -79 -30 -128.5t-48.5 -76t-67.5 -36t-96 -9.5q-74 0 -156 11q-1 -47 -8 -93l-18 -115h-63l98 693h50zM151 320l-38 -276q80 -3 124 -3q57 0 88.5 6.5t55 30t34.5 60.5t21 105q17 114 3 155.5
t-72 41.5q-41 0 -100 -32t-116 -88z" />
    <glyph glyph-name="uni0441" unicode="&#x441;" horiz-adv-x="483" 
d="M402 54l5 -44q-72 -22 -159 -22q-126 0 -170.5 59t-24.5 198q19 139 77 195.5t181 56.5q89 0 148 -22l-11 -41q-53 8 -127 8q-98 0 -142.5 -42t-60.5 -160q-15 -117 15 -157t125 -40q84 0 144 11z" />
    <glyph glyph-name="uni0442" unicode="&#x442;" horiz-adv-x="876" 
d="M159 484l-9 -109q127 122 217 122q59 0 88.5 -30.5t26.5 -85.5q121 116 210 116q64 0 93 -35.5t20 -99.5l-51 -362h-63l49 349q7 50 -10 71.5t-60 21.5q-40 0 -82 -26t-113 -91l-46 -325h-61l49 349q7 49 -9.5 71t-61.5 22q-40 0 -81.5 -26t-113.5 -90l-46 -326h-63
l69 484h48z" />
    <glyph glyph-name="uni0443" unicode="&#x443;" horiz-adv-x="530" 
d="M446 484h65q-18 -81 -61.5 -196.5t-95.5 -216.5q-50 -98 -99.5 -161t-92 -87t-86 -32t-81.5 2l7 52q40 -6 74 1t79.5 45t90.5 109h-48q-20 0 -34.5 11.5t-18.5 30.5l-96 442h67l83 -412q5 -21 25 -21h52l20 37q51 95 93 206.5t57 189.5z" />
    <glyph glyph-name="uni0444" unicode="&#x444;" horiz-adv-x="708" 
d="M441 700l-28 -204q142 -6 195 -65.5t34 -191.5q-18 -131 -86.5 -189t-214.5 -62l-27 -192h-59l26 193q-143 5 -195.5 64.5t-34.5 191.5q19 132 87.5 189.5t214.5 61.5l29 204h59zM403 442l-56 -399q114 5 166.5 50t66.5 152q15 107 -24 150t-153 47zM291 43l56 399
q-114 -5 -166.5 -50t-67.5 -153q-15 -107 24.5 -150t153.5 -46z" />
    <glyph glyph-name="uni0445" unicode="&#x445;" horiz-adv-x="517" 
d="M316 251l134 -251h-65l-119 227h-26l-182 -227h-73l206 252l-124 232h65l107 -206h29l168 206h70z" />
    <glyph glyph-name="uni0446" unicode="&#x446;" horiz-adv-x="587" 
d="M514 0l-22 -149h-55l30 149h-2q-34 0 -53 20.5t-15 60.5l2 23q-125 -116 -228 -116q-65 0 -94.5 35t-20.5 99l51 362h64l-50 -348q-7 -49 9.5 -71t60.5 -22q46 0 92.5 27t117.5 89l45 325h63l-56 -403q-4 -32 27 -32h40z" />
    <glyph glyph-name="uni0447" unicode="&#x447;" horiz-adv-x="529" 
d="M473 484l-68 -484h-64l33 233q-112 -59 -205 -59q-129 -2 -114 106l29 204h63l-26 -187q-5 -40 9.5 -55t58.5 -15q82 0 193 62l27 195h64z" />
    <glyph glyph-name="uni0448" unicode="&#x448;" horiz-adv-x="858" 
d="M802 484l-68 -484h-49l9 107q-118 -119 -214 -119q-55 0 -83.5 29.5t-25.5 83.5q-114 -113 -207 -113q-61 0 -89 35t-19 99l51 362h63l-49 -348q-7 -48 9.5 -69t57.5 -21t79.5 24t110.5 89l46 325h61l-49 -348q-7 -47 9 -68.5t58 -21.5t81 24.5t110 87.5l45 326h63z" />
    <glyph glyph-name="uni0449" unicode="&#x449;" horiz-adv-x="880" 
d="M813 49l-7 -49l-22 -149h-55l32 149h-3q-34 0 -53.5 20.5t-15.5 60.5l3 24q-117 -117 -212 -117q-55 0 -83.5 29.5t-25.5 83.5q-114 -113 -207 -113q-61 0 -89 35t-19 99l51 362h63l-49 -348q-7 -48 9.5 -69t57.5 -21t79.5 24t110.5 89l46 325h61l-49 -348
q-7 -47 9 -68.5t58 -21.5t81 24.5t110 87.5l45 326h63l-56 -403q-5 -32 26 -32h41z" />
    <glyph glyph-name="uni044A" unicode="&#x44a;" horiz-adv-x="625" 
d="M334 484l-59 -215q53 21 111 21q110 0 146.5 -33.5t24.5 -119.5q-12 -85 -56 -115.5t-139 -30.5q-42 0 -73 5t-64 20t-45 49t1 86l79 282h-217l7 51h284zM262 220l-22 -79q-7 -31 0 -51.5t26 -30.5t39 -13.5t46 -3.5q73 0 102.5 21t39.5 83q8 56 -14 76t-95 20
q-66 0 -122 -22z" />
    <glyph glyph-name="uni044B" unicode="&#x44b;" horiz-adv-x="697" 
d="M170 484l-33 -222q63 28 130 28q109 0 146 -33.5t26 -119.5q-12 -84 -55 -115t-140 -31q-32 0 -54 1.5t-52 9t-47.5 20.5t-28.5 38.5t-7 61.5l53 362h62zM641 484l-69 -484h-64l69 484h64zM131 216l-14 -95q-4 -25 4 -42t27 -24.5t38.5 -10t46.5 -2.5q73 0 103 21.5
t39 82.5q8 56 -14.5 76t-96.5 20q-71 0 -133 -26z" />
    <glyph glyph-name="uni044C" unicode="&#x44c;" horiz-adv-x="506" 
d="M170 484l-33 -222q63 28 130 28q109 0 146 -33.5t26 -119.5q-12 -84 -55 -115t-140 -31q-32 0 -54 1.5t-52 9t-47.5 20.5t-28.5 38.5t-7 61.5l53 362h62zM131 216l-14 -95q-4 -25 4 -42t27 -24.5t38.5 -10t46.5 -2.5q73 0 103 21.5t39 82.5q8 56 -14.5 76t-96.5 20
q-71 0 -133 -26z" />
    <glyph glyph-name="uni044D" unicode="&#x44d;" horiz-adv-x="496" 
d="M76 429l-4 46q59 15 148 15q132 0 179 -55.5t28 -197.5q-18 -140 -77 -194t-189 -52q-92 0 -157 17l10 45q63 -7 141 -7q101 -2 145.5 35t60.5 143h-250l7 47h249q9 99 -23 132t-126 33q-71 0 -142 -7z" />
    <glyph glyph-name="uni044E" unicode="&#x44e;" horiz-adv-x="783" 
d="M145 275h136q21 125 76 173.5t167 48.5q123 0 167.5 -56.5t24.5 -200.5q-20 -140 -76.5 -194t-179.5 -54q-117 0 -159.5 51t-26.5 182h-137l-31 -225h-63l68 484h63zM650 247q16 112 -12.5 153.5t-115.5 41.5q-88 0 -128.5 -43t-56.5 -158q-16 -112 10 -153.5t111 -41.5
q92 0 134 44.5t58 156.5z" />
    <glyph glyph-name="uni044F" unicode="&#x44f;" horiz-adv-x="532" 
d="M476 482l-68 -482h-62l26 186h-140q-91 0 -111 -56l-47 -130h-65l51 141q13 35 42 51t60 17l1 3q-52 8 -72.5 47.5t-13.5 90.5q10 85 59 112t165 27q88 0 175 -7zM379 234l28 201q-36 1 -128 1q-76 0 -105 -18t-36 -77q-7 -50 12.5 -78.5t80.5 -28.5h148z" />
    <glyph glyph-name="uni0451" unicode="&#x451;" horiz-adv-x="533" 
d="M246 590h-21q-20 0 -17 19l8 55q3 20 23 20h19q21 0 18 -20l-9 -54q-1 -20 -21 -20zM418 590h-21q-20 0 -17 19l8 55q3 20 22 20h20q21 0 18 -20l-9 -54q-1 -20 -21 -20zM432 55l5 -43q-69 -24 -195 -24q-122 0 -165.5 61.5t-23.5 201.5q20 144 77 195t183 51
q105 0 147.5 -36.5t26.5 -116.5q-13 -65 -52.5 -93t-123.5 -36l-199 -19q-6 -90 27 -122t115 -32q72 0 178 13zM118 245l193 19q55 6 79 23.5t33 61.5q13 59 -15 76.5t-100 17.5q-48 0 -77 -7t-52.5 -28t-37 -58.5t-23.5 -100.5v-4z" />
    <glyph glyph-name="uni0452" unicode="&#x452;" horiz-adv-x="571" 
d="M195 502l-18 -127q-6 -44 -16 -84q131 108 232 108q135 0 117 -135l-38 -264h-63l36 251q6 49 -12 69.5t-66 20.5q-45 0 -92 -24t-118 -78l-33 -239h-64l71 502h-75l6 38h74l23 160h63l-22 -160h201l-6 -38h-200z" />
    <glyph glyph-name="uni0453" unicode="&#x453;" horiz-adv-x="514" 
d="M434 678l-195 -128l-22 31l184 146zM80 415l-2 50q92 27 202 32q40 2 68.5 -0.5t58 -12.5t43 -35t8.5 -65q-4 -33 -18.5 -58.5t-39 -41.5t-38.5 -23t-39 -16l-153 -56q-37 -14 -54.5 -31t-21.5 -46q-6 -42 20.5 -55.5t86.5 -13.5q115 1 231 39l3 -50q-104 -44 -234 -44
q-89 0 -134 27t-37 97q6 49 35.5 79t90.5 54l147 52q47 16 68 36t25 50q6 40 -21.5 51.5t-101.5 8.5q-83 -4 -193 -28z" />
    <glyph glyph-name="uni0454" unicode="&#x454;" horiz-adv-x="494" 
d="M470 474l-10 -45q-66 7 -139 7q-96 0 -138.5 -34t-60.5 -132h250l-6 -46h-251q-13 -105 18.5 -140.5t130.5 -37.5q69 -1 147 7l5 -45q-70 -17 -163 -17q-123 0 -171 57t-29 195q19 140 78.5 193.5t187.5 53.5q92 0 151 -16z" />
    <glyph glyph-name="uni0455" unicode="&#x455;" horiz-adv-x="505" 
d="M300 191l-144 60q-53 23 -75.5 51.5t-15.5 82.5q10 69 56 91.5t144 20.5q104 -2 198 -15l-8 -45q-91 5 -188 6q-78 1 -106 -9.5t-34 -53.5q-5 -34 9 -49.5t52 -31.5l145 -60q58 -24 80 -51.5t15 -81.5q-4 -32 -17 -54t-29.5 -34.5t-45.5 -19t-57 -8.5t-72 -2
q-69 0 -181 14l8 47q62 -7 161 -7q96 2 130 15t40 55q4 23 -4.5 38.5t-20 22t-40.5 18.5z" />
    <glyph glyph-name="uni0456" unicode="&#x456;" horiz-adv-x="238" 
d="M158 688h30q22 0 19 -22l-8 -59q-3 -19 -22 -19h-29q-23 0 -20 22l9 59q1 19 21 19zM110 0h-63l68 484h63z" />
    <glyph glyph-name="uni0457" unicode="&#x457;" horiz-adv-x="236" 
d="M77 684h20q21 0 18 -20l-9 -54q-1 -20 -21 -20h-21q-20 0 -17 19l8 55q3 20 22 20zM249 684h20q21 0 18 -20l-9 -54q-1 -20 -21 -20h-21q-19 0 -18 19l9 55q3 20 22 20zM109 0h-64l69 484h63z" />
    <glyph glyph-name="uni0458" unicode="&#x458;" horiz-adv-x="238" 
d="M158 688h30q22 0 19 -22l-8 -59q-3 -19 -22 -19h-29q-23 0 -20 22l9 59q1 19 21 19zM178 484l-72 -510q-15 -107 -107 -180l-34 29q66 71 78 155l72 506h63z" />
    <glyph glyph-name="uni0459" unicode="&#x459;" horiz-adv-x="788" 
d="M464 484l-33 -224q59 30 134 30q99 0 132.5 -35t22.5 -118q-12 -86 -52.5 -115.5t-134.5 -30.5q-42 0 -72.5 4.5t-59 17.5t-41 40.5t-7.5 68.5l46 314h-100q-57 0 -70 -61q-32 -135 -49 -187.5t-49 -98.5q-50 -79 -140 -91l-5 52q52 14 90 62q31 41 46.5 88.5t50.5 191.5
q21 92 108 92h183zM425 215l-14 -94q-7 -47 23 -63t86 -16q71 0 100 21t37 83q7 56 -13.5 76t-86.5 20q-73 0 -132 -27z" />
    <glyph glyph-name="uni045A" unicode="&#x45a;" horiz-adv-x="801" 
d="M479 484l-32 -222q59 28 123 28q104 0 139 -33.5t24 -119.5q-11 -84 -52 -115t-134 -31q-30 0 -51.5 1.5t-50 9t-45.5 20.5t-27.5 38.5t-6.5 61.5l18 122h-248l-35 -244h-59l69 484h59l-27 -193h248l28 193h60zM440 216l-14 -95q-3 -21 2 -35.5t14.5 -23t26 -13t31.5 -6
t36 -1.5q69 0 97.5 21.5t36.5 82.5q7 56 -13.5 76t-89.5 20q-67 0 -127 -26z" />
    <glyph glyph-name="uni045B" unicode="&#x45b;" horiz-adv-x="571" 
d="M194 502l-16 -116q-8 -57 -18 -95q133 108 233 108q135 0 117 -135l-40 -290q-16 -109 -108 -180l-33 29q66 73 78 155l38 273q7 48 -11.5 69t-66.5 21q-45 0 -92 -23.5t-119 -78.5l-32 -239h-64l71 502h-75l6 38h74l23 160h63l-22 -160h201l-6 -38h-201z" />
    <glyph glyph-name="uni045C" unicode="&#x45c;" horiz-adv-x="525" 
d="M275 550l-22 31l183 146l33 -49zM281 253l-2 -2q69 -6 99 -55.5t64 -173.5l6 -23l-64 2q-37 125 -52 155q-31 62 -91 70q-10 1 -22 1h-86q0 -33 -3 -53l-25 -174h-63l69 484h63l-21 -151q-6 -29 -13 -56h78q30 0 56 11.5t44.5 26t41.5 46.5t36.5 55l38.5 69l68 -1
q-33 -61 -51.5 -92.5t-47 -67t-57.5 -51.5t-66 -20z" />
    <glyph glyph-name="uni045D" unicode="&#x45d;" horiz-adv-x="565" 
d="M342 550l-167 131l37 45l155 -147zM509 484l-68 -484h-49l10 113q-128 -125 -231 -125q-65 0 -94.5 35t-20.5 99l51 362h64l-50 -348q-7 -49 9.5 -71t60.5 -22q46 0 92 28.5t119 94.5l44 318h63z" />
    <glyph glyph-name="uni045E" unicode="&#x45e;" horiz-adv-x="530" 
d="M400 698h50q-5 -58 -48 -94t-110 -36q-69 0 -105.5 36t-26.5 94h51q-15 -93 84 -93q93 0 105 93zM446 484h65q-18 -81 -61.5 -196.5t-95.5 -216.5q-50 -98 -99.5 -161t-92 -87t-86 -32t-81.5 2l7 52q40 -6 74 1t79.5 45t90.5 109h-48q-20 0 -34.5 11.5t-18.5 30.5
l-96 442h67l83 -412q5 -21 25 -21h52l20 37q51 95 93 206.5t57 189.5z" />
    <glyph glyph-name="uni045F" unicode="&#x45f;" horiz-adv-x="565" 
d="M509 484l-68 -484h-49l10 113q-128 -125 -231 -125q-65 0 -94.5 35t-20.5 99l51 362h64l-50 -348q-7 -49 9.5 -71t60.5 -22q46 0 92 28.5t119 94.5l44 318h63zM239 -40h42l-18 -178h-55z" />
    <glyph glyph-name="uni0490" unicode="&#x490;" horiz-adv-x="518" 
d="M549 680l-8 -45h-263q-38 0 -58.5 -17t-26.5 -60l-78 -558h-66l80 572q9 59 43.5 89t87.5 30q162 0 239 -6l31 156h45z" />
    <glyph glyph-name="uni0491" unicode="&#x491;" horiz-adv-x="446" 
d="M440 434h-211q-34 0 -52 -15t-23 -52l-51 -367h-63l54 386q14 100 113 100q127 0 190 -3l29 147h44l-23 -150z" />
    <glyph glyph-name="uni04B0" unicode="&#x4b0;" horiz-adv-x="569" 
d="M328 271h141l-7 -42h-153l-32 -229h-66l32 229h-155l6 42h144l-161 419h68l115 -308q12 -36 22 -74l8 2q34 61 43 75l201 305h71z" />
    <glyph glyph-name="uni04B1" unicode="&#x4b1;" horiz-adv-x="573" 
d="M299 67h142l-6 -42h-155l-33 -231h-66l33 231h-154l6 42h142l-160 417h67l115 -307q17 -51 23 -75h7q15 34 43 77l201 305h72z" />
    <glyph glyph-name="uni04B6" unicode="&#x4b6;" horiz-adv-x="643" 
d="M579 47l-6 -47l-22 -151h-50l14 151h-93l48 342q-133 -85 -258 -85q-155 0 -134 154l40 279h65l-37 -270q-8 -56 12.5 -80.5t79.5 -24.5q58 0 112.5 20.5t128.5 65.5l40 289h66l-91 -643h85z" />
    <glyph glyph-name="uni04B7" unicode="&#x4b7;" horiz-adv-x="549" 
d="M467 5l-21 -148h-56l25 143h-74l33 233q-112 -59 -205 -59q-129 -2 -114 106l29 204h63l-26 -187q-5 -40 9.5 -55t58.5 -15q83 0 193 63l28 194h63l-62 -432h62z" />
    <glyph glyph-name="uni04BA" unicode="&#x4ba;" horiz-adv-x="621" 
d="M214 690l-48 -342q138 85 258 85q157 0 133 -154l-39 -279h-66l39 270q8 57 -13 81t-79 24q-57 0 -111.5 -20t-129.5 -66l-41 -289h-66l97 690h66z" />
    <glyph glyph-name="uni04C0" unicode="&#x4c0;" horiz-adv-x="251" 
d="M118 0h-66l97 690h66z" />
    <glyph glyph-name="Wgrave" unicode="&#x1e80;" horiz-adv-x="937" 
d="M577 759l-25 -29l-167 131l37 45zM962 690l-250 -671q-7 -19 -29 -19h-78q-23 0 -25 23l-47 540l-6 76h-23l-28 -79l-196 -540q-8 -20 -29 -20h-78q-10 0 -17.5 6.5t-8.5 15.5l-63 668h67l48 -561q2 -25 4 -79h26l28 81l196 538q8 21 29 21h75q10 0 16.5 -7t7.5 -17
l51 -537q4 -55 5 -79h26l27 81l203 559h69z" />
    <glyph glyph-name="wgrave" unicode="&#x1e81;" horiz-adv-x="837" 
d="M504 579l-25 -29l-167 131l37 45zM190 51h13q25 0 43 30q32 49 67 143q38 102 67 244q2 18 19 16h69q15 0 19 -16l55 -417h12q22 0 40 28q51 77 79 145q48 106 78 260h66q-37 -163 -95 -287q-52 -109 -92 -158q-30 -39 -72 -39h-43q-20 0 -22 18l-55 423h-11
q-17 -112 -62 -233q-37 -102 -79 -160q-29 -48 -85 -48h-39q-18 0 -22 18l-90 466h65z" />
    <glyph glyph-name="Wacute" unicode="&#x1e82;" horiz-adv-x="937" 
d="M689 858l-194 -128l-22 31l183 146zM962 690l-250 -671q-7 -19 -29 -19h-78q-23 0 -25 23l-47 540l-6 76h-23l-28 -79l-196 -540q-8 -20 -29 -20h-78q-10 0 -17.5 6.5t-8.5 15.5l-63 668h67l48 -561q2 -25 4 -79h26l28 81l196 538q8 21 29 21h75q10 0 16.5 -7t7.5 -17
l51 -537q4 -55 5 -79h26l27 81l203 559h69z" />
    <glyph glyph-name="wacute" unicode="&#x1e83;" horiz-adv-x="837" 
d="M616 678l-194 -128l-22 31l183 146zM190 51h13q25 0 43 30q32 49 67 143q38 102 67 244q2 18 19 16h69q15 0 19 -16l55 -417h12q22 0 40 28q51 77 79 145q48 106 78 260h66q-37 -163 -95 -287q-52 -109 -92 -158q-30 -39 -72 -39h-43q-20 0 -22 18l-55 423h-11
q-17 -112 -62 -233q-37 -102 -79 -160q-29 -48 -85 -48h-39q-18 0 -22 18l-90 466h65z" />
    <glyph glyph-name="Wdieresis" unicode="&#x1e84;" horiz-adv-x="937" 
d="M452 864h20q20 0 17 -20l-8 -53q-3 -21 -22 -21h-21q-20 0 -17 20l8 54q3 20 23 20zM624 864h19q21 0 18 -20l-9 -53q-1 -21 -21 -21h-21q-20 0 -17 20l8 54q3 20 23 20zM962 690l-250 -671q-7 -19 -29 -19h-78q-23 0 -25 23l-47 540l-6 76h-23l-28 -79l-196 -540
q-8 -20 -29 -20h-78q-10 0 -17.5 6.5t-8.5 15.5l-63 668h67l48 -561q2 -25 4 -79h26l28 81l196 538q8 21 29 21h75q10 0 16.5 -7t7.5 -17l51 -537q4 -55 5 -79h26l27 81l203 559h69z" />
    <glyph glyph-name="wdieresis" unicode="&#x1e85;" horiz-adv-x="837" 
d="M379 684h20q20 0 17 -20l-8 -54q-3 -20 -22 -20h-20q-19 0 -18 19l8 55q3 20 23 20zM551 684h19q21 0 18 -20l-9 -54q-1 -20 -21 -20h-21q-20 0 -17 19l8 55q3 20 23 20zM190 51h13q25 0 43 30q32 49 67 143q38 102 67 244q2 18 19 16h69q15 0 19 -16l55 -417h12
q22 0 40 28q51 77 79 145q48 106 78 260h66q-37 -163 -95 -287q-52 -109 -92 -158q-30 -39 -72 -39h-43q-20 0 -22 18l-55 423h-11q-17 -112 -62 -233q-37 -102 -79 -160q-29 -48 -85 -48h-39q-18 0 -22 18l-90 466h65z" />
    <glyph glyph-name="Ygrave" unicode="&#x1ef2;" horiz-adv-x="554" 
d="M360 731l-167 130l37 46l154 -147zM301 247l-34 -247h-66l35 249l-169 441h67l115 -308q12 -32 23 -74h7q12 26 43 77l201 305h72z" />
    <glyph glyph-name="ygrave" unicode="&#x1ef3;" horiz-adv-x="529" 
d="M309 550l-167 131l37 45l155 -147zM445 484h66q-56 -231 -162 -411q-77 -135 -145.5 -199t-155.5 -81l-11 44q112 31 201 163h-41q-20 0 -34.5 11.5t-18.5 30.5l-96 442h67l83 -412q5 -21 25 -21h47l23 40q101 179 152 393z" />
    <glyph glyph-name="endash" unicode="&#x2013;" horiz-adv-x="602" 
d="M516 227h-449l7 50h449z" />
    <glyph glyph-name="emdash" unicode="&#x2014;" horiz-adv-x="908" 
d="M822 227h-755l7 50h755z" />
    <glyph glyph-name="quoteleft" unicode="&#x2018;" horiz-adv-x="209" 
d="M143 503h-20q-24 0 -20 24l9 63q7 58 48 137l31 -11q-19 -59 -29 -112q10 1 15 -5t4 -15l-9 -58q-2 -13 -8 -18t-21 -5z" />
    <glyph glyph-name="quoteright" unicode="&#x2019;" horiz-adv-x="207" 
d="M154 718h21q23 0 20 -24l-9 -62q-9 -62 -48 -137l-32 10q22 70 29 113q-10 -1 -15 4.5t-3 15.5l9 58q2 13 7.5 17.5t20.5 4.5z" />
    <glyph glyph-name="quotesinglbase" unicode="&#x201a;" horiz-adv-x="220" 
d="M75 102h21q24 0 20 -24l-9 -63q-8 -59 -49 -137l-33 11q22 66 30 112q-9 -1 -14.5 5t-4.5 15l9 58q3 14 9 18.5t21 4.5z" />
    <glyph glyph-name="quotedblleft" unicode="&#x201c;" horiz-adv-x="348" 
d="M143 503h-20q-24 0 -20 24l9 63q7 58 48 137l31 -11q-19 -59 -29 -112q10 1 15 -5t4 -15l-9 -58q-2 -13 -8 -18t-21 -5zM282 503h-21q-23 0 -19 24l9 63q7 58 48 137l31 -11q-19 -59 -29 -112q9 1 14.5 -5t4.5 -15l-9 -58q-3 -13 -9 -18t-20 -5z" />
    <glyph glyph-name="quotedblright" unicode="&#x201d;" horiz-adv-x="346" 
d="M154 718h21q23 0 20 -24l-9 -62q-9 -62 -48 -137l-32 10q22 70 29 113q-10 -1 -15 4.5t-3 15.5l9 58q2 13 7.5 17.5t20.5 4.5zM293 718h21q23 0 20 -24l-9 -62q-9 -62 -48 -137l-32 10q21 70 29 113q-10 -1 -15 4.5t-3 15.5l8 58q3 13 8.5 17.5t20.5 4.5z" />
    <glyph glyph-name="quotedblbase" unicode="&#x201e;" horiz-adv-x="357" 
d="M74 101h20q24 0 20 -24l-9 -62q-9 -62 -48 -137l-32 10q22 70 29 112q-21 0 -18 21l9 58q2 13 8 17.5t21 4.5zM212 101h21q24 0 20 -24l-9 -62q-9 -62 -48 -137l-32 10q22 70 29 112q-21 0 -18 21l9 58q2 13 7.5 17.5t20.5 4.5z" />
    <glyph glyph-name="dagger" unicode="&#x2020;" horiz-adv-x="440" 
d="M192 -110h-58l80 555l5 35l27 211h59l-32 -211l-5 -35zM63 427l8 57h132l-7 -49zM423 484l-8 -57l-131 8l7 49h132z" />
    <glyph glyph-name="daggerdbl" unicode="&#x2021;" horiz-adv-x="480" 
d="M294 483l-55 -385l-26 -208h-59l32 208l54 385l26 208h59zM434 427l-130 8l7 49h132zM215 435l-132 -8l8 57h132zM175 146l-7 -49h-132l8 57zM388 97h-132l7 49l133 8z" />
    <glyph glyph-name="bullet" unicode="&#x2022;" horiz-adv-x="358" 
d="M181 351h11q42 0 57.5 -18t9.5 -60l-2 -14q-5 -44 -23 -59.5t-62 -15.5h-11q-44 0 -60 18t-9 62l2 14q6 43 24 58t63 15z" />
    <glyph glyph-name="ellipsis" unicode="&#x2026;" horiz-adv-x="816" 
d="M83 107h22q27 0 22 -26l-8 -58q-3 -23 -26 -23h-22q-26 0 -23 26l8 57q3 24 27 24zM382 107h22q27 0 22 -26l-8 -58q-3 -23 -26 -23h-22q-28 0 -23 26l8 57q3 24 27 24zM681 107h22q25 0 22 -26l-8 -58q-3 -23 -26 -23h-22q-28 0 -23 26l8 57q3 24 27 24z" />
    <glyph glyph-name="perthousand" unicode="&#x2030;" horiz-adv-x="1256" 
d="M259 702q88 0 118 -48.5t14 -158.5q-15 -109 -56 -155t-125 -46q-87 0 -116.5 48.5t-14.5 158.5q15 109 55 155t125 46zM198 0h-52l556 690h51zM262 661q-66 0 -93.5 -36.5t-40.5 -129.5q-12 -88 5 -124t75 -36q65 0 93.5 37t40.5 129q12 90 -4.5 125t-75.5 35zM692 400
q89 0 118.5 -48.5t13.5 -158.5q-15 -109 -56 -155.5t-125 -46.5q-87 0 -116.5 48.5t-14.5 159.5q15 109 55 155t125 46zM1058 400q88 0 118 -48.5t14 -158.5q-15 -109 -56 -155.5t-125 -46.5q-87 0 -116.5 48.5t-14.5 159.5q15 109 55 155t125 46zM695 359
q-66 0 -93.5 -36.5t-40.5 -129.5q-12 -89 5 -125t75 -36q65 0 93.5 37t40.5 130q12 89 -4.5 124.5t-75.5 35.5zM1061 359q-66 0 -93.5 -36.5t-40.5 -129.5q-12 -89 5 -125t75 -36q65 0 93.5 37t40.5 130q12 89 -4.5 124.5t-75.5 35.5z" />
    <glyph glyph-name="guilsinglleft" unicode="&#x2039;" horiz-adv-x="295" 
d="M256 433l-161 -183l113 -186l-32 -22l-137 204l2 16l188 195z" />
    <glyph glyph-name="guilsinglright" unicode="&#x203a;" horiz-adv-x="295" 
d="M244 254l-1 -16l-190 -196l-26 24l162 184l-113 186l32 21z" />
    <glyph glyph-name="fraction" unicode="&#x2044;" horiz-adv-x="160" 
d="M-163 0h-52l552 690h52z" />
    <glyph glyph-name="Euro" unicode="&#x20ac;" horiz-adv-x="637" 
d="M628 683l-12 -50q-66 12 -144 10q-96 -2 -151.5 -47.5t-83.5 -153.5h268l-14 -42h-264q0 -3 -4 -25t-6 -34l-4 -33h239l-14 -42h-228q-6 -117 34 -167t135 -52q90 -2 163 12l5 -50q-72 -21 -166 -21q-134 0 -190 68t-49 210h-90l6 42h88l5 40q3 23 8 52h-87l6 42h90
q32 135 103.5 197.5t202.5 62.5q87 0 154 -19z" />
    <glyph glyph-name="trademark" unicode="&#x2122;" horiz-adv-x="951" 
d="M840 696h53q9 0 14 -6t4 -15l-34 -359h-44l31 343h-12l-144 -287q-6 -14 -21 -14h-40q-17 0 -19 17l-67 284h-12l-63 -343h-45l67 362q3 18 19 18h51q17 0 19 -17l55 -237q2 -8 5 -26t5 -27h14q10 27 24 54l120 239q7 14 20 14zM436 656h-136l-48 -340h-47l47 340h-135
l5 40h319z" />
    <glyph glyph-name="partialdiff" unicode="&#x2202;" horiz-adv-x="569" 
d="M188 653l3 49q70 1 118.5 -4.5t91 -20t67 -40.5t39 -67t13.5 -99t-14 -137q-29 -175 -96.5 -260.5t-186.5 -85.5q-110 0 -153.5 66.5t-20.5 171.5q21 103 80 162t153 58q112 0 163 -90q12 74 12 123t-13 84.5t-46.5 54.5t-83 27.5t-126.5 7.5zM224 45q90 0 139.5 71.5
t74.5 202.5q-55 73 -145 73q-144 0 -182 -172q-18 -84 10.5 -129.5t102.5 -45.5z" />
    <glyph glyph-name="emptyset" unicode="&#x2205;" horiz-adv-x="685" 
d="M350 633q121 0 206.5 -85.5t85.5 -206.5t-85.5 -207t-206.5 -86q-122 0 -207.5 86t-85.5 207t86 206.5t207 85.5zM319 241h54q0 35 14.5 64.5t32.5 46.5t32.5 43.5t14.5 56.5q0 93 -117 93q-50 0 -122 -11l3 -45q60 9 119 9q66 0 66 -46q0 -21 -15 -44.5t-33.5 -42.5
t-33.5 -52t-15 -72zM366 171h-39q-7 0 -7 -8v-37q0 -7 7 -7h39q8 0 8 7v37q0 8 -8 8z" />
    <glyph glyph-name="product" unicode="&#x220f;" horiz-adv-x="722" 
d="M728 636h-110l-104 -742h-64l105 742h-296l-104 -742h-63l104 742h-110l7 54h642z" />
    <glyph glyph-name="summation" unicode="&#x2211;" horiz-adv-x="583" 
d="M569 636h-390l137 -285l-241 -397h408l-8 -54h-480l8 54l243 399l-135 283l7 54h458z" />
    <glyph glyph-name="minus" unicode="&#x2212;" horiz-adv-x="587" 
d="M505 271h-430l7 49h431z" />
    <glyph glyph-name="radical" unicode="&#x221a;" horiz-adv-x="557" 
d="M612 876l-391 -869q-3 -7 -11 -7h-73q-5 0 -9.5 2.5t-3.5 6.5l-60 475h53l54 -439h14l371 831h56z" />
    <glyph glyph-name="infinity" unicode="&#x221e;" horiz-adv-x="781" 
d="M601 443q60 0 93 -34.5t24 -99.5q-9 -67 -54 -103t-107 -36q-41 0 -75 17t-50 34.5t-40 49.5q-54 -48 -99.5 -74.5t-99.5 -26.5q-63 0 -99 38t-27 107q9 64 51 96t102 32q56 0 93 -26.5t80 -79.5q115 106 208 106zM121 308q-7 -44 15 -67t66 -23q31 0 60.5 14t47.5 29
t53 48q-34 45 -61.5 65.5t-72.5 20.5q-95 0 -108 -87zM663 314q13 81 -73 81q-15 0 -29 -2.5t-28.5 -9.5l-24 -11.5t-24.5 -17l-20.5 -17t-22 -20t-19.5 -18.5q35 -47 53 -60q30 -21 74 -21q47 0 77.5 24.5t36.5 71.5z" />
    <glyph glyph-name="integral" unicode="&#x222b;" horiz-adv-x="376" 
d="M129 -77l50 659q11 132 125 132q53 0 92 -4l-8 -46h-64q-42 0 -63.5 -21.5t-25.5 -71.5l-50 -661q-6 -68 -36 -100t-92 -32t-90 4l9 46h63q42 0 64 22t26 73z" />
    <glyph glyph-name="approxequal" unicode="&#x2248;" horiz-adv-x="588" 
d="M129 332l-43 3q5 109 100 107q39 -1 120 -30.5t119 -30.5q27 -1 41 11t19 46l44 -3q-3 -54 -27.5 -79.5t-75.5 -24.5q-44 0 -123.5 30.5t-113.5 31.5q-27 0 -41 -13t-19 -48zM102 141l-43 3q2 58 28.5 83.5t71.5 23.5q39 -1 120 -30.5t119 -30.5q27 -1 41 11t19 46l44 -2
q-3 -55 -27 -80.5t-75 -24.5q-44 1 -124 31t-114 31q-27 0 -41 -13t-19 -48z" />
    <glyph glyph-name="notequal" unicode="&#x2260;" horiz-adv-x="612" 
d="M374 373l-121 -162h256l-6 -49h-287l-92 -124l-23 12l84 112h-113l7 49h142l122 162h-242l7 49h271l81 108l23 -12l-72 -96h127l-6 -49h-158z" />
    <glyph glyph-name="lessequal" unicode="&#x2264;" horiz-adv-x="572" 
d="M512 473l-364 -118l332 -108l-8 -50l-384 132l7 52l424 145zM471 88h-425l7 48h425z" />
    <glyph glyph-name="greaterequal" unicode="&#x2265;" horiz-adv-x="570" 
d="M499 381l-7 -52l-422 -132l8 53l361 110l-329 118l7 48zM469 88h-424l7 48h424z" />
    <glyph glyph-name="lozenge" unicode="&#x25ca;" horiz-adv-x="578" 
d="M47 355l290 338q8 8 15 -2l195 -339q3 -8 0 -15l-290 -340q-9 -9 -15 2l-196 341q-3 8 1 15zM100 345l156 -279l239 282l-156 277z" />
    <glyph glyph-name="c_t" horiz-adv-x="808" 
d="M641 434l-45 -315q-5 -37 9 -53t51 -16h80l3 -48q-44 -10 -101 -10q-60 0 -86.5 32t-18.5 90l45 319h-258q-99 0 -143 -40t-59 -153q-16 -117 14 -157t125 -40q85 0 144 11l5 -44q-72 -22 -159 -22q-126 0 -170.5 59t-24.5 198q20 131 78 185t180 54h275l21 147h62
l-20 -147h163l-7 -50h-163z" />
    <glyph glyph-name="f_f_y" horiz-adv-x="1182" 
d="M1097 484h66q-56 -231 -162 -411q-76 -135 -145 -199t-155 -81l-12 44q58 16 106 54.5t96 108.5h-42q-20 0 -34 11.5t-19 30.5l-73 337q-12 55 -68 55h-132l-68 -479q-10 -69 -45 -103t-102 -34q-59 0 -105 6l9 47h76q51 0 74 20t30 73l67 470h-258l-71 -500
q-20 -138 -147 -138q-47 0 -106 6l9 47h77q50 0 73 20.5t31 73.5l70 491h-89l7 45l89 5l11 79q20 138 152 138q87 0 131 -6l-9 -47h-102q-53 0 -77.5 -20t-31.5 -74l-10 -70h258l13 94q20 138 152 138q75 0 131 -6l-9 -47h-102q-53 0 -77.5 -20.5t-31.5 -73.5l-12 -85h144
q93 0 111 -92l65 -320q5 -21 26 -21h46l23 40q103 184 152 393z" />
    <glyph glyph-name="f_t" horiz-adv-x="695" 
d="M528 434l-44 -315q-6 -37 8 -53t51 -16h81l2 -48q-43 -10 -101 -10q-60 0 -86.5 32t-18.5 90l45 320h-265l-70 -500q-20 -138 -147 -138q-47 0 -106 6l9 47h77q50 0 73.5 20.5t30.5 73.5l69 491h-87l6 45l88 5l14 94q18 138 152 138q75 0 131 -6l-9 -47h-102
q-53 0 -78 -20.5t-32 -73.5l-12 -85h265l21 147h63l-21 -147h163l-7 -50h-163z" />
    <glyph glyph-name="f_y" horiz-adv-x="857" 
d="M772 484h66q-56 -231 -162 -411q-76 -135 -145 -199t-155 -81l-12 44q58 16 106 54.5t96 108.5h-42q-20 0 -34 11.5t-19 30.5l-73 337q-12 55 -68 55h-132l-68 -500q-20 -138 -147 -138q-47 0 -106 6l9 47h77q50 0 73.5 20.5t30.5 73.5l67 491h-88l6 45l89 5l13 94
q20 138 152 138q76 0 131 -6l-9 -47h-102q-53 0 -77.5 -20.5t-31.5 -73.5l-12 -85h144q93 0 111 -92l65 -320q5 -21 26 -21h46l23 40q103 184 152 393z" />
    <glyph glyph-name="s_t" horiz-adv-x="847" 
d="M679 434l-44 -315q-5 -37 9 -53t51 -16h80l3 -48q-44 -10 -101 -10q-60 0 -86.5 32t-18.5 90l45 320h-351q-78 1 -106 -8t-34 -46q-5 -34 9 -49.5t52 -31.5l145 -60q58 -24 80 -51.5t15 -81.5q-4 -32 -17 -54t-29.5 -34.5t-45.5 -19t-57 -8.5t-72 -2q-69 0 -181 14l8 47
q62 -7 161 -7q96 2 130 15t40 55q4 23 -4.5 38.5t-20 22t-40.5 18.5l-144 60q-53 23 -75.5 51.5t-15.5 82.5q10 60 56.5 80.5t143.5 18.5h360l21 147h62l-20 -147h163l-8 -50h-163z" />
    <glyph glyph-name="t_t" horiz-adv-x="704" 
d="M537 434l-44 -315q-5 -37 9 -53t50 -16h81l2 -48q-43 -10 -100 -10q-61 0 -87.5 31.5t-18.5 90.5l45 320h-277l-44 -315q-5 -37 9 -53t51 -16h80l3 -48q-44 -10 -101 -10q-60 0 -86.5 32t-18.5 90l45 320h-89l6 45l90 5l21 147h62l-20 -147h276l21 147h63l-21 -147h163
l-7 -50h-163z" />
    <glyph glyph-name="t_y" horiz-adv-x="885" 
d="M800 484h66q-56 -231 -162 -411q-76 -135 -145 -199t-155 -81l-12 44q58 16 106 54.5t96 108.5h-42q-20 0 -34 11.5t-19 30.5l-73 337q-12 55 -68 55h-161l-44 -315q-5 -37 9 -53t51 -16h80l3 -48q-44 -10 -101 -10q-60 0 -86.5 32t-18.5 90l45 320h-89l6 45l90 5l21 147
h62l-20 -147h165q100 0 120 -98l63 -314q5 -21 26 -21h46l23 40q103 184 152 393z" />
    <glyph glyph-name="brevecy" horiz-adv-x="367" 
d="M342 692h50q-6 -58 -48.5 -94t-109.5 -36q-70 0 -106.5 36t-25.5 94h51q-15 -93 84 -93q93 0 105 93z" />
    </font>
</defs>
</svg>
