<?xml version="1.0" encoding="UTF-8" standalone="no"?>
<!DOCTYPE svg PUBLIC "-//W3C//DTD SVG 1.1//EN" "http://www.w3.org/Graphics/SVG/1.1/DTD/svg11.dtd">
<svg xmlns="http://www.w3.org/2000/svg" width="100%" height="100%">
<metadata>
Created by FontXChange 20110222 at Fri Jul 27 17:13:19 2012
 By Ted Hoot
(c) 2009 Microsoft Corporation. All Rights Reserved.
</metadata>
<defs>
<font id="SegoeUI-SemiBold" horiz-adv-x="0">
  <font-face font-family="Segoe UI Semibold" font-weight="600" font-stretch="normal" units-per-em="2048" panose-1="2 11 7 2 4 2 4 2 2 3" ascent="1638" descent="-410" x-height="1024" cap-height="1434" bbox="-887 -514 2811 2159" underline-thickness="119" underline-position="-119" unicode-range="U+000D-FE23"/>
<missing-glyph horiz-adv-x="1322" d="M166 0v1398h990v-1398h-990zM314 148h694v1102h-694v-1102z"/>
    <glyph glyph-name=".notdef" horiz-adv-x="1322" d="M166 0v1398h990v-1398h-990zM314 148h694v1102h-694v-1102z"/>
    <glyph glyph-name="null" unicode=""/>
    <glyph glyph-name="nonmarkingreturn" horiz-adv-x="154"/>
    <glyph glyph-name="space" unicode=" " horiz-adv-x="563"/>
    <glyph glyph-name="exclam" unicode="!" horiz-adv-x="622" d="M422 1434l-19 -1012h-190l-26 1012h235zM311 -20q-60 0 -102 38.5t-42 93.5q0 57 42 97t102 40q58 0 100.5 -40t42.5 -97q0 -55 -42.5 -93.5t-100.5 -38.5z"/>
    <glyph glyph-name="quotedbl" unicode="&quot;" horiz-adv-x="896" d="M374 1442l-30 -447h-152l-30 447h212zM735 1442l-30 -447h-153l-30 447h213z"/>
    <glyph glyph-name="numbersign" unicode="#" horiz-adv-x="1211" d="M1170 1049l-31 -140h-227l-58 -276h248l-35 -140h-242l-82 -370h-159l80 370h-242l-78 -370h-159l78 370h-229l28 140h232l55 276h-244l29 140h244l80 385h161l-79 -385h242l82 385h158l-80 -385h228zM754 909h-244l-60 -276h245z"/>
    <glyph glyph-name="dollar" unicode="$" horiz-adv-x="1137" d="M642 8v-217h-123v209q-222 0 -361 86v223q61 -53 165.5 -89t195.5 -36v445q-236 109 -305.5 201t-69.5 218q0 149 106 257.5t269 130.5v180h123v-176q210 -6 290 -56v-214q-109 80 -290 86v-461q220 -102 301 -198t81 -217q0 -147 -101 -246t-281 -126zM519 852v399 q-75 -15 -119 -64t-44 -119q0 -74 36 -121t127 -95zM642 575v-385q170 36 170 177q0 118 -170 208z"/>
    <glyph glyph-name="percent" unicode="%" horiz-adv-x="1721" d="M416 714q-152 0 -242 97.5t-90 260.5q0 178 95.5 280.5t257.5 102.5q157 0 243.5 -95t86.5 -267t-97 -275.5t-254 -103.5zM430 1315q-82 0 -129.5 -63t-47.5 -173q0 -108 46.5 -168t127.5 -60t127 62.5t46 173.5q0 108 -45.5 168t-124.5 60zM1387 1434l-920 -1444h-143 l919 1444h144zM1258 -22q-152 0 -242 97.5t-90 260.5q0 178 95.5 280.5t257.5 102.5q157 0 243.5 -95t86.5 -267t-97 -275.5t-254 -103.5zM1272 579q-82 0 -129.5 -63t-47.5 -173q0 -108 46.5 -168t127.5 -60t127 62.5t46 173.5q0 108 -45.5 168t-124.5 60z"/>
    <glyph glyph-name="ampersand" unicode="&amp;" horiz-adv-x="1684" d="M1479 -23q-63 0 -111 14t-88.5 40t-78.5 63t-80 85q-41 -39 -94.5 -75t-119 -64.5t-143 -45t-168.5 -16.5q-110 0 -202 27t-157.5 79.5t-101.5 129.5t-36 176q0 153 88 261.5t247 177.5q-30 22 -60 51.5t-53.5 67t-38 83t-14.5 99.5q0 79 30.5 140t84.5 103t127.5 63.5 t158.5 21.5q84 0 154 -21.5t120 -61.5t78 -96t28 -124q0 -121 -68.5 -200t-205.5 -135q69 -25 125 -60.5t103.5 -79.5t85 -94.5t73.5 -104.5q75 108 113 237.5t38 271.5q0 36 -4.5 68t-12.5 63h208q10 -32 12 -60t5 -68q0 -87 -21 -175t-56 -171t-82 -166t-98 -160 q35 -38 64 -66.5t59.5 -47.5t62 -28t71.5 -9q31 0 62 8t64 20v-185q-40 -18 -83.5 -27t-84.5 -9zM629 163q70 0 128.5 15t108 39.5t90 57t73.5 68.5q-58 85 -107 145.5t-98.5 104t-106 75t-130.5 58.5q-55 -22 -101 -49.5t-79.5 -64.5t-52.5 -86.5t-19 -115.5 q0 -61 23 -107.5t63 -77.5t93 -46.5t115 -15.5zM838 1129q0 43 -16 73.5t-40.5 50.5t-54.5 29t-59 9q-85 0 -135 -46t-51 -125q0 -35 10.5 -66.5t30 -58.5t45.5 -47.5t55 -35.5q108 38 161.5 89t53.5 128z"/>
    <glyph glyph-name="quotesingle" unicode="'" horiz-adv-x="529" d="M371 1442l-30 -447h-153l-30 447h213z"/>
    <glyph glyph-name="parenleft" unicode="(" horiz-adv-x="680" d="M660 -326h-196q-316 354 -316 873q0 521 316 887h197q-310 -380 -310 -885q0 -501 309 -875z"/>
    <glyph glyph-name="parenright" unicode=")" horiz-adv-x="680" d="M217 -326h-196q310 374 310 875q0 505 -311 885h198q317 -366 317 -887q0 -519 -318 -873z"/>
    <glyph glyph-name="asterisk" unicode="*" horiz-adv-x="889" d="M818 1081l-274 -47l192 -229l-142 -98l-148 260l-148 -260l-143 98l193 229l-275 47l57 160l257 -103l-32 296h182l-32 -296l257 103z"/>
    <glyph glyph-name="plus" unicode="+" horiz-adv-x="1422" d="M1190 510h-395v-395h-165v395h-395v165h395v396h165v-396h395v-165z"/>
    <glyph glyph-name="comma" unicode="," horiz-adv-x="494" d="M368 239l-155 -499h-174l110 499h219z"/>
    <glyph glyph-name="hyphen" unicode="-" horiz-adv-x="823" d="M690 474h-546v171h546v-171z"/>
    <glyph glyph-name="period" unicode="." horiz-adv-x="494" d="M247 -22q-60 0 -102 39.5t-42 94.5q0 56 42 96t102 40q61 0 103.5 -40t42.5 -96q0 -55 -42.5 -94.5t-103.5 -39.5z"/>
    <glyph glyph-name="slash" unicode="/" horiz-adv-x="847" d="M867 1434l-693 -1672h-211l690 1672h214z"/>
    <glyph glyph-name="zero" unicode="0" horiz-adv-x="1137" d="M553 -24q-224 0 -349.5 183t-125.5 529q0 380 131 575t378 195q473 0 473 -735q0 -364 -133.5 -555.5t-373.5 -191.5zM576 1273q-261 0 -261 -575q0 -538 256 -538q252 0 252 547q0 566 -247 566z"/>
    <glyph glyph-name="one" unicode="1" horiz-adv-x="1137" d="M1027 0h-854v192h312v1014l-320 -85v202l552 138v-1269h310v-192z"/>
    <glyph glyph-name="two" unicode="2" horiz-adv-x="1137" d="M1001 0h-900v191l397 385q152 147 217 244.5t65 208.5q0 114 -67.5 176.5t-192.5 62.5q-183 0 -350 -164v223q177 131 411 131q202 0 318 -101.5t116 -293.5q0 -129 -72 -252.5t-277 -323.5l-295 -283v-5h630v-199z"/>
    <glyph glyph-name="three" unicode="3" horiz-adv-x="1137" d="M138 53v218q140 -111 316 -111q143 0 228.5 65t85.5 176q0 244 -373 244h-111v186h106q331 0 331 230q0 212 -258 212q-144 0 -271 -103v206q146 82 345 82q191 0 306 -96t115 -246q0 -283 -288 -364v-4q155 -15 245 -108.5t90 -233.5q0 -193 -145 -311.5t-382 -118.5 q-213 0 -340 77z"/>
    <glyph glyph-name="four" unicode="4" horiz-adv-x="1137" d="M1074 346h-179v-346h-218v346h-652v150l622 938h248v-913h179v-175zM677 521v555q0 59 4 132h-4q-12 -32 -49 -98l-390 -589h439z"/>
    <glyph glyph-name="five" unicode="5" horiz-adv-x="1137" d="M164 33v223q141 -95 286 -95q146 0 235 74.5t89 198.5q0 122 -90.5 190t-259.5 68q-58 0 -215 -12v754h737v-198h-533v-359q65 4 121 4q228 0 352.5 -117t124.5 -320q0 -213 -142.5 -341.5t-391.5 -128.5q-210 0 -313 59z"/>
    <glyph glyph-name="six" unicode="6" horiz-adv-x="1137" d="M967 1417v-201q-107 57 -225 57q-183 0 -293 -148t-110 -397h4q97 180 320 180q183 0 291 -122t108 -326q0 -214 -133.5 -349t-338.5 -135q-227 0 -356 172t-129 483q0 377 168.5 602t446.5 225q156 0 247 -41zM593 726q-108 0 -175.5 -75.5t-67.5 -178.5 q0 -129 67 -220.5t178 -91.5q105 0 170 79.5t65 201.5q0 134 -62 209.5t-175 75.5z"/>
    <glyph glyph-name="seven" unicode="7" horiz-adv-x="1137" d="M1048 1340l-540 -1340h-244l525 1236h-699v198h958v-94z"/>
    <glyph glyph-name="eight" unicode="8" horiz-adv-x="1137" d="M392 752v4q-253 120 -253 347q0 156 127 255.5t327 99.5q181 0 297 -93t116 -239q0 -238 -266 -370v-4q308 -112 308 -388q0 -178 -135 -283t-376 -105q-195 0 -320.5 104t-125.5 270q0 276 301 402zM780 1091q0 87 -54.5 137.5t-148.5 50.5q-88 0 -149 -52.5t-61 -133.5 q0 -165 205 -249q208 86 208 247zM560 651q-242 -97 -242 -280q0 -95 70.5 -156t185.5 -61q109 0 178.5 60t69.5 151q0 192 -262 286z"/>
    <glyph glyph-name="nine" unicode="9" horiz-adv-x="1137" d="M166 27v201q116 -68 246 -68q189 0 294 137.5t105 390.5q-2 -1 -4 0q-89 -166 -310 -166q-179 0 -294.5 126.5t-115.5 325.5q0 212 136 348t347 136q222 0 346.5 -167.5t124.5 -488.5q0 -396 -162 -611t-450 -215q-152 0 -263 51zM554 1273q-101 0 -169 -79t-68 -200 q0 -134 66.5 -210t180.5 -76q99 0 167.5 69.5t68.5 170.5q0 143 -68.5 234t-177.5 91z"/>
    <glyph glyph-name="colon" unicode=":" horiz-adv-x="494" d="M247 -22q-60 0 -102 39.5t-42 94.5q0 56 42 96t102 40q61 0 103.5 -40t42.5 -96q0 -55 -42.5 -94.5t-103.5 -39.5zM247 769q-60 0 -102 39.5t-42 94.5q0 56 42 96t102 40q61 0 103.5 -40t42.5 -96q0 -55 -42.5 -94.5t-103.5 -39.5z"/>
    <glyph glyph-name="semicolon" unicode=";" horiz-adv-x="494" d="M247 771q-59 0 -99.5 40.5t-40.5 96.5t40.5 95t99.5 39q57 0 98 -39t41 -95t-41 -96.5t-98 -40.5zM368 239l-152 -503h-177l109 503h220z"/>
    <glyph glyph-name="less" unicode="&lt;" horiz-adv-x="1422" d="M1159 98l-893 429v106l893 466v-190l-653 -324v-4l653 -294v-189z"/>
    <glyph glyph-name="equal" unicode="=" horiz-adv-x="1422" d="M1190 724h-955v165h955v-165zM1190 295h-955v164h955v-164z"/>
    <glyph glyph-name="greater" unicode="&gt;" horiz-adv-x="1422" d="M1159 533l-893 -429v189l654 291v6l-654 324v190l893 -465v-106z"/>
    <glyph glyph-name="question" unicode="?" horiz-adv-x="909" d="M303 405q-9 25 -16 65t-7 79q0 61 24.5 110.5t61 92.5t79 83t79 78t61 80t24.5 92q0 45 -18 78.5t-49.5 56t-72 33.5t-86.5 11q-149 0 -284 -133v231q164 96 340 96q81 0 153 -21t126 -62t85 -102t31 -142q0 -77 -26 -137t-65.5 -110.5t-85 -89.5t-85 -78t-65.5 -81 t-26 -93q0 -43 11 -78t22 -59h-211zM417 -18q-57 0 -101 39q-42 38 -42 94q0 57 42 94q43 40 101 40q57 0 100 -40q42 -37 42 -94q0 -56 -42 -94q-44 -39 -100 -39z"/>
    <glyph glyph-name="at" unicode="@" horiz-adv-x="1955" d="M1147 397h-5q-72 -215 -282 -215q-134 0 -216 100.5t-82 270.5q0 225 112.5 374t296.5 149q70 0 125 -38.5t71 -92.5h3q3 28 15 115h166q-47 -528 -47 -538q0 -198 103 -198q94 0 156 110.5t62 286.5q0 260 -167.5 424.5t-464.5 164.5q-285 0 -472 -199t-187 -498 q0 -295 180 -476t485 -181q240 0 411 82v-154q-175 -74 -437 -74q-368 0 -593 220t-225 576q0 366 238 607t608 241q347 0 574.5 -202t227.5 -527q0 -238 -123.5 -390.5t-301.5 -152.5q-230 0 -231 215zM988 934q-110 0 -177.5 -108t-67.5 -269q0 -108 45.5 -170.5 t121.5 -62.5q110 0 174 113.5t64 300.5q0 196 -160 196z"/>
    <glyph glyph-name="A" unicode="A" horiz-adv-x="1375" d="M1355 0h-261l-129 365h-564l-124 -365h-260l537 1434h268zM902 559l-199 572q-9 28 -19 90h-4q-9 -57 -20 -90l-197 -572h439z"/>
    <glyph glyph-name="B" unicode="B" horiz-adv-x="1237" d="M177 0v1434h455q208 0 329.5 -91t121.5 -237q0 -122 -69 -212t-191 -128v-4q148 -17 236.5 -109.5t88.5 -240.5q0 -184 -145 -298t-366 -114h-460zM414 1243v-408h154q124 0 194.5 58.5t70.5 165.5q0 184 -246 184h-173zM414 644v-454h203q133 0 205.5 61.5t72.5 169.5 q0 223 -309 223h-172z"/>
    <glyph glyph-name="C" unicode="C" horiz-adv-x="1272" d="M1177 60q-162 -84 -403 -84q-312 0 -500 197t-188 517q0 344 211.5 556t534.5 212q208 0 345 -59v-236q-145 86 -320 86q-233 0 -377.5 -149t-144.5 -398q0 -237 135 -377.5t355 -140.5q203 0 352 96v-220z"/>
    <glyph glyph-name="D" unicode="D" horiz-adv-x="1469" d="M177 0v1434h414q793 0 793 -699q0 -332 -220 -533.5t-590 -201.5h-397zM414 1232v-1031h190q251 0 390.5 138t139.5 390q0 503 -521 503h-199z"/>
    <glyph glyph-name="E" unicode="E" horiz-adv-x="1060" d="M982 0h-805v1434h773v-202h-535v-406h493v-201h-493v-424h567v-201z"/>
    <glyph glyph-name="F" unicode="F" horiz-adv-x="1029" d="M951 1232h-536v-431h494v-201h-494v-600h-238v1434h774v-202z"/>
    <glyph glyph-name="G" unicode="G" horiz-adv-x="1428" d="M1296 98q-224 -122 -499 -122q-318 0 -515 198t-197 524q0 333 215.5 546.5t547.5 213.5q239 0 402 -70v-245q-165 110 -393 110q-229 0 -375.5 -151t-146.5 -391q0 -247 126 -388.5t342 -141.5q148 0 256 57v341h-302v200h539v-681z"/>
    <glyph glyph-name="H" unicode="H" horiz-adv-x="1506" d="M1329 0h-239v622h-675v-622h-238v1434h238v-603h675v603h239v-1434z"/>
    <glyph glyph-name="I" unicode="I" horiz-adv-x="592" d="M546 1434v-192h-131v-1050h131v-192h-500v192h131v1050h-131v192h500z"/>
    <glyph glyph-name="J" unicode="J" horiz-adv-x="812" d="M648 514q0 -255 -126 -396.5t-336 -141.5q-98 0 -161 23v224q57 -39 147 -39q238 0 238 368v882h238v-920z"/>
    <glyph glyph-name="K" unicode="K" horiz-adv-x="1251" d="M1262 0h-310l-499 656q-28 37 -34 50h-4v-706h-238v1434h238v-674h4q12 22 34 49l481 625h285l-563 -688z"/>
    <glyph glyph-name="L" unicode="L" horiz-adv-x="1001" d="M971 0h-794v1434h238v-1233h556v-201z"/>
    <glyph glyph-name="M" unicode="M" horiz-adv-x="1893" d="M1717 0h-236v928q0 114 14 279h-4q-22 -94 -39 -135l-428 -1072h-164l-429 1064q-18 47 -38 143h-4q8 -86 8 -281v-926h-220v1434h335l377 -955q43 -110 56 -164h5q37 113 60 168l384 951h323v-1434z"/>
    <glyph glyph-name="N" unicode="N" horiz-adv-x="1571" d="M1393 0h-260l-685 1054q-26 40 -43 83h-6q8 -46 8 -197v-940h-230v1434h277l662 -1029q42 -64 54 -88h4q-10 57 -10 193v924h229v-1434z"/>
    <glyph glyph-name="O" unicode="O" horiz-adv-x="1548" d="M768 -24q-310 0 -496.5 201t-186.5 523q0 346 190 552t516 206q302 0 486.5 -200t184.5 -523q0 -351 -189 -555t-505 -204zM779 1249q-197 0 -320.5 -147t-123.5 -387q0 -239 120 -385t314 -146q206 0 325 139t119 389q0 257 -115.5 397t-318.5 140z"/>
    <glyph glyph-name="P" unicode="P" horiz-adv-x="1197" d="M414 520v-520h-237v1434h435q247 0 383 -115t136 -324t-142 -342t-384 -133h-191zM414 1238v-524h154q153 0 233 71t80 200q0 253 -294 253h-173z"/>
    <glyph glyph-name="Q" unicode="Q" horiz-adv-x="1548" d="M741 -23q-63 0 -128.5 12.5t-127 38t-117.5 63.5t-102 88q-181 201 -181 525q0 346 189 551q191 206 522 206q297 0 482 -200t185 -523q0 -134 -29 -253t-87.5 -215t-147 -162.5t-210.5 -95.5q53 -51 99.5 -90t92.5 -65.5t96 -40.5t110 -14q16 0 35 1.5t38 5t36.5 8 t32.5 10.5v-212q-17 -6 -39 -10t-44 -7t-43.5 -4.5t-40.5 -1.5q-104 0 -186.5 30t-154.5 82.5t-139 122.5t-141 150zM779 1249q-198 0 -322 -147q-123 -147 -123 -387q0 -238 120 -386q121 -145 314 -145q207 0 326 139t119 389q0 258 -116 397q-115 140 -318 140z"/>
    <glyph glyph-name="R" unicode="R" horiz-adv-x="1275" d="M1285 0h-278l-229 384q-31 53 -60.5 90.5t-60 61.5t-66.5 35t-81 11h-96v-582h-237v1434h472q101 0 186 -24t148 -72.5t98.5 -121t35.5 -169.5q0 -76 -22.5 -139.5t-64 -113t-100 -84.5t-131.5 -54v-4q39 -22 68 -48.5t55 -54.5t51.5 -63.5t56.5 -82.5zM414 1241v-466 h198q55 0 101.5 17t80.5 49t53 78t19 103q0 103 -65 161t-187 58h-200z"/>
    <glyph glyph-name="S" unicode="S" horiz-adv-x="1115" d="M111 57v245q33 -30 78.5 -54t96.5 -40.5t102 -25.5t94 -9q150 0 223.5 50t73.5 145q0 51 -24.5 88.5t-68.5 68.5t-103.5 59.5t-127.5 59.5q-73 39 -136 79t-109.5 88.5t-73 109.5t-26.5 143q0 101 45.5 175.5t120 123t169.5 72t194 23.5q225 0 328 -51v-235 q-122 88 -314 88q-53 0 -105.5 -10t-94 -33t-67.5 -59t-26 -87q0 -48 20 -83t58.5 -64t94 -56.5t128.5 -59.5q75 -39 141.5 -82t117 -95t80 -115.5t29.5 -144.5q0 -109 -44 -184t-118.5 -122t-171.5 -68t-205 -21q-36 0 -88.5 5.5t-107.5 16t-104 25.5t-79 34z"/>
    <glyph glyph-name="T" unicode="T" horiz-adv-x="1130" d="M1097 1232h-412v-1232h-238v1232h-411v202h1061v-202z"/>
    <glyph glyph-name="U" unicode="U" horiz-adv-x="1440" d="M1280 580q0 -604 -572 -604q-548 0 -548 581v877h238v-828q0 -422 328 -422q316 0 316 407v843h238v-854z"/>
    <glyph glyph-name="V" unicode="V" horiz-adv-x="1314" d="M1301 1434l-515 -1434h-266l-506 1434h260l354 -1088q17 -52 26 -121h4q7 57 29 123l362 1086h252z"/>
    <glyph glyph-name="W" unicode="W" horiz-adv-x="1978" d="M1956 1434l-393 -1434h-269l-273 1003q-17 64 -21 140h-4q-5 -71 -24 -138l-274 -1005h-275l-401 1434h261l260 -1050q16 -66 20 -138h5q4 51 28 138l294 1050h245l272 -1058q14 -54 21 -128h4q3 50 23 132l255 1054h246z"/>
    <glyph glyph-name="X" unicode="X" horiz-adv-x="1268" d="M1249 0h-285l-294 526q-13 24 -29 68h-4q-9 -22 -30 -68l-303 -526h-287l470 721l-432 713h291l259 -484q25 -48 45 -96h3q29 63 50 100l269 480h268l-442 -711z"/>
    <glyph glyph-name="Y" unicode="Y" horiz-adv-x="1182" d="M1176 1434l-470 -913v-521h-238v516l-458 918h271l282 -615q5 -11 30 -83h3q9 32 33 83l295 615h252z"/>
    <glyph glyph-name="Z" unicode="Z" horiz-adv-x="1202" d="M1155 1330l-786 -1129h776v-201h-1109v109l789 1123h-728v202h1058v-104z"/>
    <glyph glyph-name="bracketleft" unicode="[" horiz-adv-x="680" d="M621 -326h-413v1760h413v-156h-216v-1448h216v-156z"/>
    <glyph glyph-name="backslash" unicode="\" horiz-adv-x="829" d="M869 -240h-206l-676 1674h210z"/>
    <glyph glyph-name="bracketright" unicode="]" horiz-adv-x="680" d="M474 -326h-413v156h216v1448h-216v156h413v-1760z"/>
    <glyph glyph-name="asciicircum" unicode="^" horiz-adv-x="1422" d="M1208 618h-192l-312 604h-6l-291 -604h-189l425 840h109z"/>
    <glyph glyph-name="underscore" unicode="_" horiz-adv-x="850" d="M850 -297h-850v119h850v-119z"/>
    <glyph glyph-name="grave" unicode="`" horiz-adv-x="591" d="M527 1204h-173l-262 328h214z"/>
    <glyph glyph-name="a" unicode="a" horiz-adv-x="1069" d="M937 0h-225v160h-4q-106 -184 -311 -184q-151 0 -236.5 82t-85.5 217q0 290 334 338l304 43q0 219 -208 219q-183 0 -330 -126v203q162 96 374 96q388 0 388 -382v-666zM713 503l-215 -30q-100 -13 -150.5 -48.5t-50.5 -124.5q0 -65 46.5 -106.5t124.5 -41.5 q106 0 175.5 74.5t69.5 187.5v89z"/>
    <glyph glyph-name="b" unicode="b" horiz-adv-x="1234" d="M387 148h-4v-148h-232v1516h232v-672h4q119 204 348 204q194 0 303.5 -137.5t109.5 -368.5q0 -257 -123 -411.5t-336 -154.5q-200 0 -302 172zM381 555v-127q0 -112 71.5 -190t181.5 -78q129 0 202.5 100.5t73.5 280.5q0 151 -68.5 236.5t-185.5 85.5q-124 0 -199.5 -88 t-75.5 -220z"/>
    <glyph glyph-name="c" unicode="c" horiz-adv-x="963" d="M884 47q-123 -71 -291 -71q-228 0 -368 142.5t-140 369.5q0 253 150.5 406.5t402.5 153.5q140 0 247 -49v-216q-107 80 -228 80q-147 0 -241 -99.5t-94 -260.5q0 -159 88.5 -251t237.5 -92q125 0 236 89v-202z"/>
    <glyph glyph-name="d" unicode="d" horiz-adv-x="1234" d="M1082 0h-232v174h-4q-112 -198 -345 -198q-189 0 -302.5 137.5t-113.5 374.5q0 254 125.5 407t334.5 153q207 0 301 -166h4v634h232v-1516zM853 468v134q0 109 -71 185t-181 76q-130 0 -204.5 -97t-74.5 -269q0 -156 71.5 -246.5t192.5 -90.5q119 0 193 87.5t74 220.5z "/>
    <glyph glyph-name="e" unicode="e" horiz-adv-x="1088" d="M1018 449h-698q4 -142 87.5 -219t229.5 -77q164 0 301 98v-187q-140 -88 -370 -88q-226 0 -354.5 139.5t-128.5 392.5q0 239 141.5 389.5t351.5 150.5t325 -135t115 -375v-89zM794 613q-1 125 -59 194.5t-160 69.5q-100 0 -169.5 -73t-85.5 -191h474z"/>
    <glyph glyph-name="f" unicode="f" horiz-adv-x="706" d="M730 1327q-47 27 -107 27q-169 0 -169 -191v-139h238v-182h-237v-842h-232v842h-175v182h175v166q0 162 106 255.5t265 93.5q86 0 136 -19v-193z"/>
    <glyph glyph-name="g" unicode="g" horiz-adv-x="1234" d="M1083 82q0 -564 -567 -564q-200 0 -349 67v212q168 -96 319 -96q365 0 365 359v112h-4q-115 -196 -346 -196q-187 0 -301.5 136.5t-114.5 366.5q0 261 123 415t338 154q203 0 301 -166h4v142h232v-942zM853 469v133q0 108 -71.5 184.5t-178.5 76.5q-132 0 -206.5 -97.5 t-74.5 -272.5q0 -151 71.5 -241.5t189.5 -90.5q120 0 195 86.5t75 221.5z"/>
    <glyph glyph-name="h" unicode="h" horiz-adv-x="1192" d="M1061 0h-232v560q0 304 -203 304q-102 0 -172 -88t-70 -225v-551h-233v1516h233v-662h4q116 194 332 194q341 0 341 -417v-631z"/>
    <glyph glyph-name="i" unicode="i" horiz-adv-x="535" d="M268 1239q-57 0 -97.5 37t-40.5 94t40.5 95t97.5 38q59 0 100 -38t41 -95q0 -54 -41 -92.5t-100 -38.5zM383 0h-232v1024h232v-1024z"/>
    <glyph glyph-name="j" unicode="j" horiz-adv-x="535" d="M383 43q0 -252 -106 -388.5t-303 -136.5q-73 0 -142 32v199q65 -45 123 -45q196 0 196 346v974h232v-981zM269 1239q-57 0 -97.5 37t-40.5 94t40.5 95t97.5 38q58 0 99 -38t41 -95q0 -54 -41 -92.5t-99 -38.5z"/>
    <glyph glyph-name="k" unicode="k" horiz-adv-x="1075" d="M1080 0h-294l-398 492h-4v-492h-233v1516h233v-961h4l376 469h279l-423 -494z"/>
    <glyph glyph-name="l" unicode="l" horiz-adv-x="535" d="M384 0h-233v1516h233v-1516z"/>
    <glyph glyph-name="m" unicode="m" horiz-adv-x="1814" d="M1682 0h-232v558q0 161 -45.5 233t-153.5 72q-91 0 -154.5 -91t-63.5 -218v-554h-233v577q0 286 -202 286q-94 0 -154.5 -86t-60.5 -223v-554h-232v1024h232v-162h4q111 186 323 186q106 0 185.5 -58.5t108.5 -153.5q114 212 340 212q338 0 338 -417v-631z"/>
    <glyph glyph-name="n" unicode="n" horiz-adv-x="1195" d="M1063 0h-232v577q0 287 -203 287q-106 0 -175 -79.5t-69 -200.5v-584h-233v1024h233v-170h4q115 194 332 194q167 0 255 -108.5t88 -313.5v-626z"/>
    <glyph glyph-name="o" unicode="o" horiz-adv-x="1223" d="M605 -24q-237 0 -378.5 143.5t-141.5 380.5q0 258 147.5 403t397.5 145q240 0 374 -141t134 -391q0 -245 -144.5 -392.5t-388.5 -147.5zM616 863q-136 0 -215 -95t-79 -262q0 -161 80 -253.5t214 -92.5q137 0 210.5 91t73.5 259q0 169 -73.5 261t-210.5 92z"/>
    <glyph glyph-name="p" unicode="p" horiz-adv-x="1234" d="M387 151h-4v-622h-232v1495h232v-180h4q119 204 348 204q195 0 304 -137t109 -368q0 -256 -123 -410t-336 -154q-196 0 -302 172zM381 555v-127q0 -112 71.5 -190t181.5 -78q129 0 202.5 100.5t73.5 280.5q0 151 -68.5 236.5t-185.5 85.5q-124 0 -199.5 -88t-75.5 -220z "/>
    <glyph glyph-name="q" unicode="q" horiz-adv-x="1234" d="M1082 -471h-232v647h-4q-105 -200 -343 -200q-189 0 -303.5 137.5t-114.5 374.5q0 255 125.5 407.5t337.5 152.5q206 0 298 -166h4v142h232v-1495zM853 466v132q0 111 -71.5 188t-181.5 77q-129 0 -203.5 -96.5t-74.5 -272.5q0 -156 72 -245t186 -89q125 0 199 87t74 219 z"/>
    <glyph glyph-name="r" unicode="r" horiz-adv-x="758" d="M745 803q-42 33 -121 33q-103 0 -172 -93t-69 -253v-490h-232v1024h232v-211h4q34 108 104.5 168.5t157.5 60.5q63 0 96 -19v-220z"/>
    <glyph glyph-name="s" unicode="s" horiz-adv-x="883" d="M87 32v215q130 -99 287 -99q210 0 210 124q0 35 -18 59.5t-48.5 43.5t-72 34t-92.5 34q-63 25 -113.5 53t-84 63.5t-50.5 80.5t-17 105q0 74 35 130.5t94 95t134 58t155 19.5q142 0 254 -43v-203q-108 74 -248 74q-44 0 -79.5 -9t-60.5 -25t-39 -38.5t-14 -49.5 q0 -33 14 -56t41.5 -40.5t66 -32t88.5 -31.5q66 -27 118.5 -55t89.5 -63.5t57 -82t20 -110.5q0 -78 -36 -136t-96 -96t-138.5 -56.5t-165.5 -18.5q-168 0 -291 56z"/>
    <glyph glyph-name="t" unicode="t" horiz-adv-x="740" d="M691 11q-68 -34 -179 -34q-298 0 -298 286v579h-171v182h171v237l232 66v-303h245v-182h-245v-512q0 -91 33 -130t110 -39q59 0 102 34v-184z"/>
    <glyph glyph-name="u" unicode="u" horiz-adv-x="1195" d="M1044 0h-232v162h-4q-101 -186 -314 -186q-363 0 -363 436v612h232v-588q0 -276 213 -276q103 0 169.5 76t66.5 199v589h232v-1024z"/>
    <glyph glyph-name="v" unicode="v" horiz-adv-x="1039" d="M1033 1024l-396 -1024h-251l-377 1024h252l227 -716q26 -79 32 -138h3q9 74 28 134l238 720h244z"/>
    <glyph glyph-name="w" unicode="w" horiz-adv-x="1549" d="M1528 1024l-302 -1024h-243l-186 694q-11 40 -14 90h-4q-2 -34 -18 -88l-202 -696h-238l-301 1024h240l186 -738q9 -33 12 -88h7q3 42 16 90l207 736h218l184 -741q9 -35 13 -88h7q2 37 15 88l182 741h221z"/>
    <glyph glyph-name="x" unicode="x" horiz-adv-x="1026" d="M1007 1024l-341 -518l337 -506h-269l-180 317q-17 29 -40 74h-4q-4 -9 -42 -74l-183 -317h-268l348 502l-330 522h270l177 -333q20 -37 39 -76h3l229 409h254z"/>
    <glyph glyph-name="y" unicode="y" horiz-adv-x="1041" d="M1038 1024l-462 -1188q-144 -318 -404 -318q-73 0 -122 13v193q55 -18 100 -18q130 0 194 128l69 168l-407 1022h257l244 -744q4 -14 18 -74h5q5 23 18 72l256 746h234z"/>
    <glyph glyph-name="z" unicode="z" horiz-adv-x="951" d="M907 927l-553 -746h551v-181h-876v87l565 756h-511v181h824v-97z"/>
    <glyph glyph-name="braceleft" unicode="{" horiz-adv-x="680" d="M608 -326q-356 4 -356 304v295q0 198 -156 208v146q156 10 156 212v287q0 304 356 308v-155q-159 -4 -159 -191v-282q0 -202 -199 -249v-3q199 -44 199 -247v-279q0 -107 35.5 -152.5t123.5 -47.5v-154z"/>
    <glyph glyph-name="bar" unicode="|" horiz-adv-x="570" d="M383 -482h-194v2048h194v-2048z"/>
    <glyph glyph-name="braceright" unicode="}" horiz-adv-x="680" d="M583 481q-155 -10 -155 -208v-295q0 -300 -354 -304v154q87 2 123.5 48t36.5 152v279q0 203 197 247v3q-197 47 -197 249v282q0 187 -160 191v155q354 -4 354 -308v-287q0 -202 155 -212v-146z"/>
    <glyph glyph-name="asciitilde" unicode="~" horiz-adv-x="1422" d="M1220 759q-7 -159 -80.5 -246.5t-199.5 -87.5q-109 0 -266 98q-97 67 -159 67q-140 0 -146 -169h-166q5 155 79.5 245t201.5 90q113 0 236 -76q132 -91 197 -91q61 0 98 47t39 123h166z"/>
    <glyph glyph-name="Adieresis" unicode="Ä" horiz-adv-x="1375" d="M1355 0h-261l-129 365h-564l-124 -365h-260l537 1434h268zM902 559l-199 572q-9 28 -19 90h-4q-9 -57 -20 -90l-197 -572h439zM886 1565q-50 0 -86.5 33t-36.5 84q0 49 35 82t85 33q53 0 89.5 -33.5t36.5 -81.5q0 -49 -35 -83t-88 -34zM470 1565q-52 0 -89 34.5t-37 82.5 q0 49 35.5 82t86.5 33t88.5 -33.5t37.5 -81.5q0 -49 -36 -83t-86 -34z"/>
    <glyph glyph-name="Aring" unicode="Å" horiz-adv-x="1375" d="M1355 0h-261l-129 365h-564l-124 -365h-260l537 1434h268zM902 559l-199 572q-9 28 -19 90h-4q-9 -57 -20 -90l-197 -572h439zM679 1333q-94 0 -155.5 54t-61.5 142q0 98 63 156t161 58q96 0 157.5 -58.5t61.5 -149.5q0 -87 -65.5 -144.5t-160.5 -57.5zM679 1643 q-45 0 -74.5 -30t-29.5 -74q0 -104 104 -104q48 0 79.5 29.5t31.5 74.5t-31.5 74.5t-79.5 29.5z"/>
    <glyph glyph-name="Ccedilla" unicode="Ç" horiz-adv-x="1272" d="M1177 60q-162 -84 -403 -84q-312 0 -500 197t-188 517q0 344 211.5 556t534.5 212q208 0 345 -59v-236q-145 86 -320 86q-233 0 -377.5 -149t-144.5 -398q0 -237 135 -377.5t355 -140.5q203 0 352 96v-220zM984 -248q0 -194 -288 -194q-47 0 -81 3v111q44 -6 71 -6 q133 0 133 82q0 74 -121 74q-10 0 -39 -4v182h136v-94q87 0 138 -40.5t51 -113.5z"/>
    <glyph glyph-name="Eacute" unicode="É" horiz-adv-x="1060" d="M982 0h-805v1434h773v-202h-535v-406h493v-201h-493v-424h567v-201zM873 1908l-286 -328h-172l242 328h216z"/>
    <glyph glyph-name="Ntilde" unicode="Ñ" horiz-adv-x="1571" d="M1393 0h-260l-685 1054q-26 40 -43 83h-6q8 -46 8 -197v-940h-230v1434h277l662 -1029q42 -64 54 -88h4q-10 57 -10 193v924h229v-1434zM1154 1836q0 -116 -51.5 -189.5t-139.5 -73.5q-72 0 -165 48q-78 45 -121 45q-84 0 -84 -111h-115q0 119 51 190.5t143 71.5 q68 0 157 -51q72 -44 125 -44q81 0 81 114h119z"/>
    <glyph glyph-name="Odieresis" unicode="Ö" horiz-adv-x="1548" d="M768 -24q-310 0 -496.5 201t-186.5 523q0 346 190 552t516 206q302 0 486.5 -200t184.5 -523q0 -351 -189 -555t-505 -204zM779 1249q-197 0 -320.5 -147t-123.5 -387q0 -239 120 -385t314 -146q206 0 325 139t119 389q0 257 -115.5 397t-318.5 140zM983 1564 q-50 0 -86.5 33t-36.5 84q0 49 35 82t85 33q53 0 89.5 -33.5t36.5 -81.5q0 -49 -35 -83t-88 -34zM567 1564q-52 0 -89 34.5t-37 82.5q0 49 35.5 82t86.5 33t88.5 -33.5t37.5 -81.5q0 -49 -36 -83t-86 -34z"/>
    <glyph glyph-name="Udieresis" unicode="Ü" horiz-adv-x="1440" d="M1280 580q0 -604 -572 -604q-548 0 -548 581v877h238v-828q0 -422 328 -422q316 0 316 407v843h238v-854zM927 1566q-50 0 -86.5 33t-36.5 84q0 49 35 82t85 33q53 0 89.5 -33.5t36.5 -81.5q0 -49 -35 -83t-88 -34zM511 1566q-52 0 -89 34.5t-37 82.5q0 49 35.5 82 t86.5 33t88.5 -33.5t37.5 -81.5q0 -49 -36 -83t-86 -34z"/>
    <glyph glyph-name="aacute" unicode="á" horiz-adv-x="1069" d="M937 0h-225v160h-4q-106 -184 -311 -184q-151 0 -236.5 82t-85.5 217q0 290 334 338l304 43q0 219 -208 219q-183 0 -330 -126v203q162 96 374 96q388 0 388 -382v-666zM713 503l-215 -30q-100 -13 -150.5 -48.5t-50.5 -124.5q0 -65 46.5 -106.5t124.5 -41.5 q106 0 175.5 74.5t69.5 187.5v89zM828 1546l-286 -328h-172l242 328h216z"/>
    <glyph glyph-name="agrave" unicode="à" horiz-adv-x="1069" d="M937 0h-225v160h-4q-106 -184 -311 -184q-151 0 -236.5 82t-85.5 217q0 290 334 338l304 43q0 219 -208 219q-183 0 -330 -126v203q162 96 374 96q388 0 388 -382v-666zM713 503l-215 -30q-100 -13 -150.5 -48.5t-50.5 -124.5q0 -65 46.5 -106.5t124.5 -41.5 q106 0 175.5 74.5t69.5 187.5v89zM719 1204h-173l-262 328h214z"/>
    <glyph glyph-name="acircumflex" unicode="â" horiz-adv-x="1069" d="M937 0h-225v160h-4q-106 -184 -311 -184q-151 0 -236.5 82t-85.5 217q0 290 334 338l304 43q0 219 -208 219q-183 0 -330 -126v203q162 96 374 96q388 0 388 -382v-666zM713 503l-215 -30q-100 -13 -150.5 -48.5t-50.5 -124.5q0 -65 46.5 -106.5t124.5 -41.5 q106 0 175.5 74.5t69.5 187.5v89zM854 1204h-160l-161 211l-157 -211h-155l224 328h184z"/>
    <glyph glyph-name="adieresis" unicode="ä" horiz-adv-x="1069" d="M937 0h-225v160h-4q-106 -184 -311 -184q-151 0 -236.5 82t-85.5 217q0 290 334 338l304 43q0 219 -208 219q-183 0 -330 -126v203q162 96 374 96q388 0 388 -382v-666zM713 503l-215 -30q-100 -13 -150.5 -48.5t-50.5 -124.5q0 -65 46.5 -106.5t124.5 -41.5 q106 0 175.5 74.5t69.5 187.5v89zM742 1203q-50 0 -86.5 33t-36.5 84q0 49 35 82t85 33q53 0 89.5 -33.5t36.5 -81.5q0 -49 -35 -83t-88 -34zM326 1203q-52 0 -89 34.5t-37 82.5q0 49 35.5 82t86.5 33t88.5 -33.5t37.5 -81.5q0 -49 -36 -83t-86 -34z"/>
    <glyph glyph-name="atilde" unicode="ã" horiz-adv-x="1069" d="M937 0h-225v160h-4q-106 -184 -311 -184q-151 0 -236.5 82t-85.5 217q0 290 334 338l304 43q0 219 -208 219q-183 0 -330 -126v203q162 96 374 96q388 0 388 -382v-666zM713 503l-215 -30q-100 -13 -150.5 -48.5t-50.5 -124.5q0 -65 46.5 -106.5t124.5 -41.5 q106 0 175.5 74.5t69.5 187.5v89zM872 1475q0 -116 -51.5 -189.5t-139.5 -73.5q-72 0 -165 48q-78 45 -121 45q-84 0 -84 -111h-115q0 119 51 190.5t143 71.5q68 0 157 -51q72 -44 125 -44q81 0 81 114h119z"/>
    <glyph glyph-name="aring" unicode="å" horiz-adv-x="1069" d="M937 0h-225v160h-4q-106 -184 -311 -184q-151 0 -236.5 82t-85.5 217q0 290 334 338l304 43q0 219 -208 219q-183 0 -330 -126v203q162 96 374 96q388 0 388 -382v-666zM713 503l-215 -30q-100 -13 -150.5 -48.5t-50.5 -124.5q0 -65 46.5 -106.5t124.5 -41.5 q106 0 175.5 74.5t69.5 187.5v89zM541 1180q-94 0 -155.5 54t-61.5 142q0 98 63 156t161 58q96 0 157.5 -58.5t61.5 -149.5q0 -87 -65.5 -144.5t-160.5 -57.5zM541 1490q-45 0 -74.5 -30t-29.5 -74q0 -104 104 -104q48 0 79.5 29.5t31.5 74.5t-31.5 74.5t-79.5 29.5z"/>
    <glyph glyph-name="ccedilla" unicode="ç" horiz-adv-x="963" d="M884 47q-123 -71 -291 -71q-228 0 -368 142.5t-140 369.5q0 253 150.5 406.5t402.5 153.5q140 0 247 -49v-216q-107 80 -228 80q-147 0 -241 -99.5t-94 -260.5q0 -159 88.5 -251t237.5 -92q125 0 236 89v-202zM801 -248q0 -194 -288 -194q-47 0 -81 3v111q44 -6 71 -6 q133 0 133 82q0 74 -121 74q-10 0 -39 -4v182h136v-94q87 0 138 -40.5t51 -113.5z"/>
    <glyph glyph-name="eacute" unicode="é" horiz-adv-x="1088" d="M1018 449h-698q4 -142 87.5 -219t229.5 -77q164 0 301 98v-187q-140 -88 -370 -88q-226 0 -354.5 139.5t-128.5 392.5q0 239 141.5 389.5t351.5 150.5t325 -135t115 -375v-89zM794 613q-1 125 -59 194.5t-160 69.5q-100 0 -169.5 -73t-85.5 -191h474zM863 1546l-286 -328 h-172l242 328h216z"/>
    <glyph glyph-name="egrave" unicode="è" horiz-adv-x="1088" d="M1018 449h-698q4 -142 87.5 -219t229.5 -77q164 0 301 98v-187q-140 -88 -370 -88q-226 0 -354.5 139.5t-128.5 392.5q0 239 141.5 389.5t351.5 150.5t325 -135t115 -375v-89zM794 613q-1 125 -59 194.5t-160 69.5q-100 0 -169.5 -73t-85.5 -191h474zM756 1204h-173 l-262 328h214z"/>
    <glyph glyph-name="ecircumflex" unicode="ê" horiz-adv-x="1088" d="M1018 449h-698q4 -142 87.5 -219t229.5 -77q164 0 301 98v-187q-140 -88 -370 -88q-226 0 -354.5 139.5t-128.5 392.5q0 239 141.5 389.5t351.5 150.5t325 -135t115 -375v-89zM794 613q-1 125 -59 194.5t-160 69.5q-100 0 -169.5 -73t-85.5 -191h474zM888 1204h-160 l-161 211l-157 -211h-155l224 328h184z"/>
    <glyph glyph-name="edieresis" unicode="ë" horiz-adv-x="1088" d="M1018 449h-698q4 -142 87.5 -219t229.5 -77q164 0 301 98v-187q-140 -88 -370 -88q-226 0 -354.5 139.5t-128.5 392.5q0 239 141.5 389.5t351.5 150.5t325 -135t115 -375v-89zM794 613q-1 125 -59 194.5t-160 69.5q-100 0 -169.5 -73t-85.5 -191h474zM773 1203 q-50 0 -86.5 33t-36.5 84q0 49 35 82t85 33q53 0 89.5 -33.5t36.5 -81.5q0 -49 -35 -83t-88 -34zM357 1203q-52 0 -89 34.5t-37 82.5q0 49 35.5 82t86.5 33t88.5 -33.5t37.5 -81.5q0 -49 -36 -83t-86 -34z"/>
    <glyph glyph-name="iacute" unicode="í" horiz-adv-x="535" d="M384 0h-233v1024h233v-1024zM551 1546l-286 -328h-172l242 328h216z"/>
    <glyph glyph-name="igrave" unicode="ì" horiz-adv-x="535" d="M384 0h-233v1024h233v-1024zM435 1204h-173l-262 328h214z"/>
    <glyph glyph-name="icircumflex" unicode="î" horiz-adv-x="535" d="M384 0h-233v1024h233v-1024zM582 1204h-160l-161 211l-157 -211h-155l224 328h184z"/>
    <glyph glyph-name="idieresis" unicode="ï" horiz-adv-x="535" d="M384 0h-233v1024h233v-1024zM474 1203q-50 0 -86.5 33t-36.5 84q0 49 35 82t85 33q53 0 89.5 -33.5t36.5 -81.5q0 -49 -35 -83t-88 -34zM58 1203q-52 0 -89 34.5t-37 82.5q0 49 35.5 82t86.5 33t88.5 -33.5t37.5 -81.5q0 -49 -36 -83t-86 -34z"/>
    <glyph glyph-name="ntilde" unicode="ñ" horiz-adv-x="1195" d="M1063 0h-232v577q0 287 -203 287q-106 0 -175 -79.5t-69 -200.5v-584h-233v1024h233v-170h4q115 194 332 194q167 0 255 -108.5t88 -313.5v-626zM941 1475q0 -116 -51.5 -189.5t-139.5 -73.5q-72 0 -165 48q-78 45 -121 45q-84 0 -84 -111h-115q0 119 51 190.5t143 71.5 q68 0 157 -51q72 -44 125 -44q81 0 81 114h119z"/>
    <glyph glyph-name="oacute" unicode="ó" horiz-adv-x="1223" d="M605 -24q-237 0 -378.5 143.5t-141.5 380.5q0 258 147.5 403t397.5 145q240 0 374 -141t134 -391q0 -245 -144.5 -392.5t-388.5 -147.5zM616 863q-136 0 -215 -95t-79 -262q0 -161 80 -253.5t214 -92.5q137 0 210.5 91t73.5 259q0 169 -73.5 261t-210.5 92zM912 1546 l-286 -328h-172l242 328h216z"/>
    <glyph glyph-name="ograve" unicode="ò" horiz-adv-x="1223" d="M605 -24q-237 0 -378.5 143.5t-141.5 380.5q0 258 147.5 403t397.5 145q240 0 374 -141t134 -391q0 -245 -144.5 -392.5t-388.5 -147.5zM616 863q-136 0 -215 -95t-79 -262q0 -161 80 -253.5t214 -92.5q137 0 210.5 91t73.5 259q0 169 -73.5 261t-210.5 92zM794 1204 h-173l-262 328h214z"/>
    <glyph glyph-name="ocircumflex" unicode="ô" horiz-adv-x="1223" d="M605 -24q-237 0 -378.5 143.5t-141.5 380.5q0 258 147.5 403t397.5 145q240 0 374 -141t134 -391q0 -245 -144.5 -392.5t-388.5 -147.5zM616 863q-136 0 -215 -95t-79 -262q0 -161 80 -253.5t214 -92.5q137 0 210.5 91t73.5 259q0 169 -73.5 261t-210.5 92zM931 1204 h-160l-161 211l-157 -211h-155l224 328h184z"/>
    <glyph glyph-name="odieresis" unicode="ö" horiz-adv-x="1223" d="M605 -24q-237 0 -378.5 143.5t-141.5 380.5q0 258 147.5 403t397.5 145q240 0 374 -141t134 -391q0 -245 -144.5 -392.5t-388.5 -147.5zM616 863q-136 0 -215 -95t-79 -262q0 -161 80 -253.5t214 -92.5q137 0 210.5 91t73.5 259q0 169 -73.5 261t-210.5 92zM822 1203 q-50 0 -86.5 33t-36.5 84q0 49 35 82t85 33q53 0 89.5 -33.5t36.5 -81.5q0 -49 -35 -83t-88 -34zM406 1203q-52 0 -89 34.5t-37 82.5q0 49 35.5 82t86.5 33t88.5 -33.5t37.5 -81.5q0 -49 -36 -83t-86 -34z"/>
    <glyph glyph-name="otilde" unicode="õ" horiz-adv-x="1223" d="M605 -24q-237 0 -378.5 143.5t-141.5 380.5q0 258 147.5 403t397.5 145q240 0 374 -141t134 -391q0 -245 -144.5 -392.5t-388.5 -147.5zM616 863q-136 0 -215 -95t-79 -262q0 -161 80 -253.5t214 -92.5q137 0 210.5 91t73.5 259q0 169 -73.5 261t-210.5 92zM955 1475 q0 -116 -51.5 -189.5t-139.5 -73.5q-72 0 -165 48q-78 45 -121 45q-84 0 -84 -111h-115q0 119 51 190.5t143 71.5q68 0 157 -51q72 -44 125 -44q81 0 81 114h119z"/>
    <glyph glyph-name="uacute" unicode="ú" horiz-adv-x="1195" d="M1044 0h-232v162h-4q-101 -186 -314 -186q-363 0 -363 436v612h232v-588q0 -276 213 -276q103 0 169.5 76t66.5 199v589h232v-1024zM913 1546l-286 -328h-172l242 328h216z"/>
    <glyph glyph-name="ugrave" unicode="ù" horiz-adv-x="1195" d="M1044 0h-232v162h-4q-101 -186 -314 -186q-363 0 -363 436v612h232v-588q0 -276 213 -276q103 0 169.5 76t66.5 199v589h232v-1024zM740 1204h-173l-262 328h214z"/>
    <glyph glyph-name="ucircumflex" unicode="û" horiz-adv-x="1195" d="M1044 0h-232v162h-4q-101 -186 -314 -186q-363 0 -363 436v612h232v-588q0 -276 213 -276q103 0 169.5 76t66.5 199v589h232v-1024zM905 1204h-160l-161 211l-157 -211h-155l224 328h184z"/>
    <glyph glyph-name="udieresis" unicode="ü" horiz-adv-x="1195" d="M1044 0h-232v162h-4q-101 -186 -314 -186q-363 0 -363 436v612h232v-588q0 -276 213 -276q103 0 169.5 76t66.5 199v589h232v-1024zM802 1203q-50 0 -86.5 33t-36.5 84q0 49 35 82t85 33q53 0 89.5 -33.5t36.5 -81.5q0 -49 -35 -83t-88 -34zM386 1203q-52 0 -89 34.5 t-37 82.5q0 49 35.5 82t86.5 33t88.5 -33.5t37.5 -81.5q0 -49 -36 -83t-86 -34z"/>
    <glyph glyph-name="dagger" unicode="†" horiz-adv-x="797" d="M729 977h-251v-733h-163v733h-250v139h250v318h163v-318h251v-139z"/>
    <glyph glyph-name="degree" unicode="°" horiz-adv-x="775" d="M392 896q-117 0 -199 82t-82 200q0 116 81 196t197 80q118 0 200.5 -80.5t82.5 -195.5q0 -118 -82 -200t-198 -82zM392 1321q-60 0 -102.5 -42t-42.5 -102q0 -61 41.5 -104.5t101.5 -43.5q59 0 102.5 44t43.5 104q0 61 -42.5 102.5t-101.5 41.5z"/>
    <glyph glyph-name="cent" unicode="¢" horiz-adv-x="1137" d="M975 208q-88 -58 -203 -68v-189h-141v191q-208 22 -331 161t-123 346q0 219 123 366.5t331 184.5v214h141v-203q113 -2 203 -52v-213q-93 67 -203 74v-690q112 12 203 86v-208zM631 339v670q-107 -27 -167.5 -117.5t-60.5 -222.5t61 -219t167 -111z"/>
    <glyph glyph-name="sterling" unicode="£" horiz-adv-x="1137" d="M1055 0h-932v176q206 62 206 281v168h-185v175h185v245q0 181 115.5 297t299.5 116q124 0 226 -41v-201q-95 57 -201 57q-218 0 -218 -267v-206h284v-175h-284v-138q0 -215 -193 -301h697v-186z"/>
    <glyph glyph-name="section" unicode="§" horiz-adv-x="952" d="M697 424q90 -75 90 -189q0 -134 -107 -217.5t-273 -83.5q-140 0 -255 56v196q132 -79 253 -79q85 0 131.5 35.5t46.5 90.5q0 47 -35.5 80t-181.5 103q-235 120 -235 313q0 161 145 241q-106 84 -106 226q0 129 99.5 212t261.5 83q138 0 233 -43v-191q-100 62 -221 62 q-166 0 -166 -128q0 -48 41 -88t206 -109q225 -107 225 -294q0 -170 -152 -276zM423 884q-95 -45 -95 -141q0 -64 53 -112t185 -104q83 60 83 152q0 64 -49.5 109t-176.5 96z"/>
    <glyph glyph-name="bullet" unicode="•" horiz-adv-x="847" d="M425 362q-104 0 -179 73t-75 177q0 103 75 178.5t179 75.5t177 -75t73 -179t-73 -177t-177 -73z"/>
    <glyph glyph-name="paragraph" unicode="¶" horiz-adv-x="985" d="M884 1304h-123v-1304h-136v1304h-140v-1304h-139v874q-113 0 -187.5 80t-74.5 202q0 123 79.5 200.5t193.5 77.5h527v-130z"/>
    <glyph glyph-name="germandbls" unicode="ß" horiz-adv-x="1191" d="M498 2v206q70 -48 158 -48q102 0 166 64.5t64 172.5q0 131 -95.5 213t-263.5 99v171q109 18 180 92.5t71 176.5q0 97 -50 150.5t-136 53.5q-209 0 -209 -280v-1073h-232v1084q0 206 123.5 330t332.5 124q186 0 297.5 -96t111.5 -253q0 -129 -73 -231t-190 -141v-5 q371 -74 371 -422q0 -176 -119.5 -295t-316.5 -119q-107 0 -190 26z"/>
    <glyph glyph-name="uni00AD" unicode="­" horiz-adv-x="823" d="M690 474h-546v171h546v-171z"/>
    <glyph glyph-name="registered" unicode="®" horiz-adv-x="1808" d="M905 -29q-314 0 -535.5 218.5t-221.5 527.5t221.5 527.5t535.5 218.5q313 0 534.5 -218.5t221.5 -527.5t-221.5 -527.5t-534.5 -218.5zM905 1364q-269 0 -459 -189.5t-190 -457.5t190 -457.5t459 -189.5t458.5 189.5t189.5 457.5t-189.5 457.5t-458.5 189.5zM1293 255 h-210l-92 217q-70 163 -151 163h-78v-380h-168v940h282q176 0 271.5 -69t95.5 -187q0 -97 -58.5 -165t-172.5 -91v-4q79 -17 157 -174zM762 1053v-283h126q173 0 173 142q0 77 -46.5 109t-147.5 32h-105z"/>
    <glyph glyph-name="copyright" unicode="©" horiz-adv-x="1808" d="M905 -29q-314 0 -535.5 218.5t-221.5 527.5t221.5 527.5t535.5 218.5q313 0 534.5 -218.5t221.5 -527.5t-221.5 -527.5t-534.5 -218.5zM905 1364q-269 0 -459 -189.5t-190 -457.5t190 -457.5t459 -189.5t458.5 189.5t189.5 457.5t-189.5 457.5t-458.5 189.5zM1206 275 q-113 -65 -268 -65q-207 0 -347.5 138t-140.5 345q0 241 143.5 384.5t373.5 143.5q132 0 235 -51v-190q-88 72 -234 72q-144 0 -237.5 -93t-93.5 -249q0 -152 95.5 -244t242.5 -92q135 0 231 78v-177z"/>
    <glyph glyph-name="trademark" unicode="™" horiz-adv-x="1581" d="M1396 772h-127v463h-4l-193 -463h-93l-184 463h-4v-463h-123v662h168l194 -477h4l201 477h161v-662zM593 1325h-196v-553h-130v553h-191v109h517v-109z"/>
    <glyph glyph-name="acute" unicode="´" horiz-adv-x="597" d="M568 1546l-286 -328h-172l242 328h216z"/>
    <glyph glyph-name="dieresis" unicode="¨" horiz-adv-x="892" d="M649 1203q-50 0 -86.5 33t-36.5 84q0 49 35 82t85 33q53 0 89.5 -33.5t36.5 -81.5q0 -49 -35 -83t-88 -34zM233 1203q-52 0 -89 34.5t-37 82.5q0 49 35.5 82t86.5 33t88.5 -33.5t37.5 -81.5q0 -49 -36 -83t-86 -34z"/>
    <glyph glyph-name="notequal" unicode="≠" horiz-adv-x="1422" d="M1190 295h-544l-152 -295h-187l152 295h-224v164h311l136 265h-447v165h533l152 299h187l-152 -299h235v-165h-321l-138 -265h459v-164z"/>
    <glyph glyph-name="AE" unicode="Æ" horiz-adv-x="1831" d="M1749 0h-804v365h-492l-172 -365h-275l710 1434h1000v-202h-534v-406h497v-201h-497v-424h567v-201zM945 559v673h-87l-317 -673h404z"/>
    <glyph glyph-name="Oslash" unicode="Ø" horiz-adv-x="1548" d="M335 121l-148 -177l-99 83l154 184q-157 193 -157 489q0 343 189.5 550.5t517.5 207.5q233 0 401 -125l132 157l99 -81l-137 -162q176 -194 176 -512q0 -351 -189 -555t-506 -204q-261 0 -433 145zM1057 1171q-111 90 -276 90q-204 0 -330.5 -151.5t-126.5 -394.5 q0 -192 75 -321zM1136 1069l-659 -780q114 -117 291 -117q212 0 334 142.5t122 397.5q0 222 -88 357z"/>
    <glyph glyph-name="infinity" unicode="∞" horiz-adv-x="1669" d="M836 462q-168 -260 -382 -260q-167 0 -272 108.5t-105 284.5q0 162 109.5 278t267.5 116q234 0 383 -263q165 259 383 259q167 0 271.5 -108.5t104.5 -283.5q0 -162 -108.5 -278.5t-267.5 -116.5q-226 0 -384 264zM919 593q124 -230 301 -230q90 0 144.5 63.5t54.5 167.5 q0 99 -56.5 164t-142.5 65q-163 0 -301 -230zM754 597q-124 231 -300 231q-92 0 -147 -65.5t-55 -168.5q0 -98 60.5 -162.5t155.5 -64.5q157 0 286 230z"/>
    <glyph glyph-name="plusminus" unicode="±" horiz-adv-x="1422" d="M1190 671h-395v-396h-163v396h-396v164h396v398h163v-398h395v-164zM1189 0h-954v164h954v-164z"/>
    <glyph glyph-name="lessequal" unicode="≤" horiz-adv-x="1424" d="M1160 251l-894 419v110l894 452v-189l-654 -314v-4l654 -283v-191zM1189 0h-954v164h954v-164z"/>
    <glyph glyph-name="greaterequal" unicode="≥" horiz-adv-x="1424" d="M1160 671l-894 -419v191l654 280v5l-654 316v189l894 -452v-110zM1189 0h-954v164h954v-164z"/>
    <glyph glyph-name="yen" unicode="¥" horiz-adv-x="1137" d="M1093 1434l-355 -650h270v-161h-321v-183h321v-161h-321v-279h-228v279h-331v161h331v183h-331v161h275l-348 650h250l231 -494q26 -56 43 -107h4q12 40 45 113l229 488h236z"/>
    <glyph glyph-name="uni00B5" unicode="µ" horiz-adv-x="1215" d="M1098 0h-239q-23 69 -23 161h-5q-73 -184 -244 -184q-141 0 -201 96h-3v-468h-232v1419h232v-610q0 -112 59 -178.5t154 -66.5q103 0 167.5 78t64.5 210v567h235v-759q0 -188 35 -265z"/>
    <glyph glyph-name="partialdiff" unicode="∂" horiz-adv-x="1135" d="M845 863h4q26 445 -258 445q-128 0 -256 -76l50 199q124 63 259 63q220 0 329 -134.5t109 -431.5q0 -220 -69.5 -458.5t-214 -366t-341.5 -127.5q-179 0 -286.5 108t-107.5 291q0 266 147 461t373 195q178 0 262 -168zM820 665q-49 190 -196 190q-139 0 -231.5 -139.5 t-92.5 -325.5q0 -107 48.5 -168.5t131.5 -61.5q130 0 223.5 139.5t116.5 365.5z"/>
    <glyph glyph-name="summation" unicode="∑" horiz-adv-x="1287" d="M1237 -469h-1185v122l643 839l-612 809v133h1117v-203h-778l552 -733l-581 -765h844v-202z"/>
    <glyph glyph-name="product" unicode="∏" horiz-adv-x="1578" d="M1413 -470h-238v1694h-760v-1694h-238v1904h1236v-1904z"/>
    <glyph glyph-name="integral" unicode="∫" horiz-adv-x="1139" d="M961 1327q-47 27 -109 27q-166 0 -166 -212v-1291q0 -154 -107 -246t-265 -92q-85 0 -135 20v191q47 -26 106 -26q168 0 168 212v1289q0 156 106 248t264 92q88 0 138 -24v-188z"/>
    <glyph glyph-name="ordfeminine" unicode="ª" horiz-adv-x="820" d="M711 717h-167v100h-4q-77 -120 -225 -120q-107 0 -172.5 60.5t-65.5 154.5q0 204 243 237l224 31q0 143 -145 143q-134 0 -251 -82v150q115 64 276 64q135 0 211 -71.5t76 -201.5v-465zM544 1066l-155 -22q-144 -20 -144 -116q0 -46 34 -74.5t91 -28.5q69 0 121.5 53.5 t52.5 128.5v59z"/>
    <glyph glyph-name="ordmasculine" unicode="º" horiz-adv-x="905" d="M446 696q-174 0 -273 101.5t-99 275.5q0 179 106 280t281 101q170 0 268.5 -99t98.5 -270q0 -178 -103.5 -283.5t-278.5 -105.5zM453 1315q-92 0 -146 -64.5t-54 -177.5q0 -111 51.5 -174t147.5 -63q91 0 144.5 65t53.5 176t-52.5 174.5t-144.5 63.5z"/>
    <glyph glyph-name="uni2126" unicode="Ω" horiz-adv-x="1556" d="M1465 0h-556v198q308 235 308 584q0 217 -121.5 343.5t-313.5 126.5q-194 0 -317.5 -127t-123.5 -347q0 -346 307 -580v-198h-556v198h344q-343 224 -343 607q0 304 188 478.5t495 174.5q314 0 501.5 -173t187.5 -478q0 -383 -347 -609h347v-198z"/>
    <glyph glyph-name="ae" unicode="æ" horiz-adv-x="1700" d="M1630 449h-699q3 -142 85 -219.5t225 -77.5q171 0 310 99v-186q-135 -89 -367 -89q-275 0 -390 206h-4q-140 -206 -372 -206q-160 0 -251.5 82.5t-91.5 220.5q0 306 379 331l259 16q0 250 -201 250q-178 0 -336 -115v196q152 91 357 91q240 0 311 -170h4q114 170 349 170 q206 0 319.5 -135.5t113.5 -376.5v-87zM1406 613q-2 127 -59 195.5t-160 68.5q-98 0 -168.5 -72t-86.5 -192h474zM713 412v55l-177 -11q-121 -7 -180.5 -43t-59.5 -119q0 -64 46.5 -103t125.5 -39q103 0 174 74t71 186z"/>
    <glyph glyph-name="oslash" unicode="ø" horiz-adv-x="1223" d="M1188 1030l-155 -164q105 -137 105 -344q0 -252 -145.5 -399t-387.5 -147q-194 0 -322 95l-140 -151l-99 90l144 155q-103 137 -103 341q0 256 147 399.5t395 143.5q185 0 310 -91l151 163zM798 815q-67 59 -181 59q-141 0 -222.5 -97t-81.5 -268q0 -105 35 -178z M877 701l-456 -488q76 -62 194 -62q145 0 221 94.5t76 266.5q0 110 -35 189z"/>
    <glyph glyph-name="questiondown" unicode="¿" horiz-adv-x="909" d="M634 621q9 -25 16 -64t7 -78q0 -60 -24 -109t-60 -91.5t-78 -81.5t-78 -79t-60 -84t-24 -97q0 -42 16 -74.5t43 -54.5t63 -33t76 -11q176 0 306 132v-232q-161 -94 -334 -94q-83 0 -155.5 21.5t-127 63.5t-86.5 105t-32 146q0 73 26 130.5t65.5 106t85.5 90t85.5 82.5 t65.5 85.5t26 98.5q0 38 -9.5 69t-18.5 53h206zM519 1047q57 0 102 -39q43 -38 43 -96q0 -56 -43 -95q-43 -40 -102 -40q-58 0 -100 40q-43 39 -43 95q0 58 43 96q43 39 100 39z"/>
    <glyph glyph-name="uni00A0" unicode=" " horiz-adv-x="563"/>
    <glyph glyph-name="exclamdown" unicode="¡" horiz-adv-x="622" d="M311 778q-60 0 -102 39t-42 95t42.5 95.5t102.5 39.5q58 0 100 -39.5t42 -95.5t-42.5 -95t-100.5 -39zM435 -406h-244l27 1011h189z"/>
    <glyph glyph-name="logicalnot" unicode="¬" horiz-adv-x="1422" d="M1190 259h-164v412h-791v164h955v-576z"/>
    <glyph glyph-name="radical" unicode="√" horiz-adv-x="1331" d="M1151 1516l-398 -1516h-150l-319 741h-176v141h303l260 -619l325 1253h155z"/>
    <glyph glyph-name="florin" unicode="ƒ" horiz-adv-x="1137" d="M993 1225q-53 28 -119 28q-138 0 -160 -150l-27 -176h162v-172h-189l-97 -635q-62 -410 -373 -410q-35 0 -103 18v188q34 -21 82 -21q144 0 181 270l88 590h-104v172h133l20 148q20 165 119 264.5t252 99.5q74 0 135 -24v-190z"/>
    <glyph glyph-name="approxequal" unicode="≈" horiz-adv-x="1424" d="M1221 976q-7 -158 -84.5 -245.5t-210.5 -87.5q-108 0 -262 101q-96 64 -157 64q-133 0 -139 -168h-166q5 156 84 244.5t213 88.5q105 0 232 -82q130 -84 194 -84q58 0 93 46.5t37 122.5h166zM1221 549q-7 -159 -84.5 -247t-210.5 -88q-109 0 -266 102q-94 63 -159 63 q-128 0 -133 -168h-166q5 155 84 245t213 90q105 0 232 -83q130 -85 194 -85q58 0 93 48t37 123h166z"/>
    <glyph glyph-name="uni0394" unicode="Δ" horiz-adv-x="1374" d="M1320 0h-1276v98l505 1336h268l503 -1336v-98zM1029 201l-316 889q-29 80 -33 130h-4q-5 -44 -35 -130l-312 -889h700z"/>
    <glyph glyph-name="guillemotleft" unicode="«" horiz-adv-x="1105" d="M1032 200h-214l-311 336l311 344h214l-318 -344zM599 200h-212l-313 336l313 344h211l-317 -344z"/>
    <glyph glyph-name="guillemotright" unicode="»" horiz-adv-x="1105" d="M1033 538l-313 -338h-211l315 338l-315 342h211zM600 538l-312 -338h-214l320 338l-320 342h214z"/>
    <glyph glyph-name="ellipsis" unicode="…" horiz-adv-x="1666" d="M1387 -20q-31 0 -56.5 10.5t-44.5 29t-29.5 43t-10.5 51.5q0 29 11 54t30 43t45 28.5t56 10.5t56.5 -10t46 -28t30.5 -43t11 -55q0 -29 -11 -53.5t-30.5 -42.5t-46 -28t-57.5 -10zM831 -20q-30 0 -56 10.5t-45 28.5t-30 42.5t-11 52.5q0 30 11 55t30.5 43t45.5 28t56 10 t56.5 -10.5t46 -29t30.5 -43t11 -53.5q0 -28 -11 -52.5t-30.5 -42.5t-46 -28.5t-57.5 -10.5zM275 -20q-30 0 -56 10.5t-44.5 29t-29 43t-10.5 51.5q0 29 10.5 53.5t29 43t44.5 29t57 10.5q30 0 56.5 -10.5t46 -29t30.5 -43t11 -53.5q0 -28 -11 -52.5t-30.5 -42.5t-46 -28.5 t-57.5 -10.5z"/>
    <glyph glyph-name="Agrave" unicode="À" horiz-adv-x="1375" d="M1355 0h-261l-129 365h-564l-124 -365h-260l537 1434h268zM902 559l-199 572q-9 28 -19 90h-4q-9 -57 -20 -90l-197 -572h439zM828 1566h-173l-262 328h214z"/>
    <glyph glyph-name="Atilde" unicode="Ã" horiz-adv-x="1375" d="M1355 0h-261l-129 365h-564l-124 -365h-260l537 1434h268zM902 559l-199 572q-9 28 -19 90h-4q-9 -57 -20 -90l-197 -572h439zM1021 1836q0 -116 -51.5 -189.5t-139.5 -73.5q-72 0 -165 48q-78 45 -121 45q-84 0 -84 -111h-115q0 119 51 190.5t143 71.5q68 0 157 -51 q72 -44 125 -44q81 0 81 114h119z"/>
    <glyph glyph-name="Otilde" unicode="Õ" horiz-adv-x="1548" d="M768 -24q-310 0 -496.5 201t-186.5 523q0 346 190 552t516 206q302 0 486.5 -200t184.5 -523q0 -351 -189 -555t-505 -204zM779 1249q-197 0 -320.5 -147t-123.5 -387q0 -239 120 -385t314 -146q206 0 325 139t119 389q0 257 -115.5 397t-318.5 140zM1122 1835 q0 -116 -51.5 -189.5t-139.5 -73.5q-72 0 -165 48q-78 45 -121 45q-84 0 -84 -111h-115q0 119 51 190.5t143 71.5q68 0 157 -51q72 -44 125 -44q81 0 81 114h119z"/>
    <glyph glyph-name="OE" unicode="Œ" horiz-adv-x="1915" d="M1832 0h-735q-17 0 -141 -14q-100 -10 -186 -10q-316 0 -500.5 201t-184.5 523q0 346 192 552t522 206q92 0 182 -10q114 -14 116 -14h703v-202h-535v-408h496v-202h-496v-421h567v-201zM1023 225v985q-144 39 -241 39q-199 0 -322.5 -150t-123.5 -384q0 -233 121.5 -382 t318.5 -149q105 0 247 41z"/>
    <glyph glyph-name="oe" unicode="œ" horiz-adv-x="1897" d="M1830 448h-700q3 -142 85.5 -219t225.5 -77q169 0 308 98v-187q-134 -87 -353 -87q-272 0 -385 214h-4q-130 -213 -413 -213q-234 0 -371.5 142.5t-137.5 378.5q0 258 145 404t390 146q287 0 393 -208h4q122 208 394 208q198 0 308.5 -136.5t110.5 -371.5v-92zM1605 612 q-2 125 -59.5 194.5t-157.5 69.5q-102 0 -172.5 -75t-84.5 -189h474zM617 863q-136 0 -215.5 -96t-79.5 -265q0 -158 79.5 -249.5t213.5 -91.5q136 0 210.5 90.5t74.5 256.5q0 171 -74 263t-209 92z"/>
    <glyph glyph-name="endash" unicode="–" horiz-adv-x="1024" d="M1024 474h-1024v171h1024v-171z"/>
    <glyph glyph-name="emdash" unicode="—" horiz-adv-x="2048" d="M2048 474h-2048v171h2048v-171z"/>
    <glyph glyph-name="quotedblleft" unicode="“" horiz-adv-x="879" d="M771 1462l-112 -445h-203l163 445h152zM417 1462l-109 -445h-207l163 445h153z"/>
    <glyph glyph-name="quotedblright" unicode="”" horiz-adv-x="879" d="M781 1462l-162 -445h-154l111 445h205zM427 1462l-163 -445h-153l113 445h203z"/>
    <glyph glyph-name="quoteleft" unicode="‘" horiz-adv-x="525" d="M417 1462l-109 -445h-207l163 445h153z"/>
    <glyph glyph-name="quoteright" unicode="’" horiz-adv-x="525" d="M427 1462l-163 -445h-153l113 445h203z"/>
    <glyph glyph-name="divide" unicode="÷" horiz-adv-x="1422" d="M723 858q-53 0 -89.5 34.5t-36.5 84.5q0 52 33.5 88.5t87.5 36.5q118 0 118 -123q0 -53 -33.5 -87t-79.5 -34zM1190 509h-956v165h956v-165zM714 82q-51 0 -86.5 34.5t-35.5 83.5q0 51 34.5 88.5t87.5 37.5q117 0 117 -124q0 -51 -33.5 -85.5t-83.5 -34.5z"/>
    <glyph glyph-name="lozenge" unicode="◊" horiz-adv-x="1199" d="M1106 717l-462 -717h-93l-459 715l459 719h93zM929 717l-330 528l-330 -528l330 -529z"/>
    <glyph glyph-name="ydieresis" unicode="ÿ" horiz-adv-x="1041" d="M1038 1024l-462 -1188q-144 -318 -404 -318q-73 0 -122 13v193q55 -18 100 -18q130 0 194 128l69 168l-407 1022h257l244 -744q4 -14 18 -74h5q5 23 18 72l256 746h234zM735 1203q-50 0 -86.5 33t-36.5 84q0 49 35 82t85 33q53 0 89.5 -33.5t36.5 -81.5q0 -49 -35 -83 t-88 -34zM319 1203q-52 0 -89 34.5t-37 82.5q0 49 35.5 82t86.5 33t88.5 -33.5t37.5 -81.5q0 -49 -36 -83t-86 -34z"/>
    <glyph glyph-name="Ydieresis" unicode="Ÿ" horiz-adv-x="1182" d="M1176 1434l-470 -913v-521h-238v516l-458 918h271l282 -615q5 -11 30 -83h3q9 32 33 83l295 615h252zM802 1565q-50 0 -86.5 33t-36.5 84q0 49 35 82t85 33q53 0 89.5 -33.5t36.5 -81.5q0 -49 -35 -83t-88 -34zM386 1565q-52 0 -89 34.5t-37 82.5q0 49 35.5 82t86.5 33 t88.5 -33.5t37.5 -81.5q0 -49 -36 -83t-86 -34z"/>
    <glyph glyph-name="fraction" unicode="⁄" horiz-adv-x="518" d="M801 1434l-875 -1434h-189l873 1434h191z"/>
    <glyph glyph-name="fraction" unicode="∕" horiz-adv-x="518" d="M801 1434l-875 -1434h-189l873 1434h191z"/>
    <glyph glyph-name="Euro" unicode="€" horiz-adv-x="1137" d="M1050 50q-138 -74 -294 -74q-445 0 -530 492h-122v163h103q-4 28 -4 69q0 42 6 96h-105v161h127q53 235 201.5 368t360.5 133q144 0 257 -56v-201q-111 78 -250 78q-120 0 -213 -87.5t-130 -234.5h465v-161h-491q-8 -88 -1 -165h492v-163h-470q69 -314 337 -314 q125 0 261 87v-191z"/>
    <glyph glyph-name="guilsinglleft" unicode="‹" horiz-adv-x="673" d="M599 200h-212l-313 336l313 344h213l-318 -344z"/>
    <glyph glyph-name="guilsinglright" unicode="›" horiz-adv-x="673" d="M600 538l-313 -338h-213l318 338l-317 342h212z"/>
    <glyph glyph-name="uniFB01" unicode="ﬁ" horiz-adv-x="1239" d="M729 1327q-47 27 -107 27q-169 0 -169 -191v-139h238v-182h-237v-842h-232v842h-175v182h175v166q0 162 106 255.5t265 93.5q86 0 136 -19v-193zM975 1239q-57 0 -97.5 37t-40.5 94t40.5 95t97.5 38q59 0 100 -38t41 -95q0 -54 -41 -92.5t-100 -38.5zM1090 0h-232v1024 h232v-1024z"/>
    <glyph glyph-name="uniFB02" unicode="ﬂ" horiz-adv-x="1239" d="M730 1327q-47 27 -107 27q-169 0 -169 -191v-139h238v-182h-237v-842h-232v842h-175v182h175v166q0 162 106 255.5t265 93.5q86 0 136 -19v-193zM1091 0h-233v1516h233v-1516z"/>
    <glyph glyph-name="daggerdbl" unicode="‡" horiz-adv-x="797" d="M729 567h-251v-323h-163v323h-250v137h250v276h-250v141h250v311h163v-311h251v-141h-251v-276h251v-137z"/>
    <glyph glyph-name="periodcentered" unicode="·" horiz-adv-x="494" d="M245 499q-59 0 -100.5 40t-41.5 96q0 57 42.5 96.5t102.5 39.5t102.5 -39.5t42.5 -96.5q0 -56 -43 -96t-105 -40z"/>
    <glyph glyph-name="quotesinglbase" unicode="‚" horiz-adv-x="525" d="M405 218l-164 -445h-153l113 445h204z"/>
    <glyph glyph-name="quotedblbase" unicode="„" horiz-adv-x="879" d="M759 218l-164 -445h-152l110 445h206zM405 218l-164 -445h-153l113 445h204z"/>
    <glyph glyph-name="perthousand" unicode="‰" horiz-adv-x="2521" d="M416 711q-152 0 -242 98t-90 261q0 179 95.5 282t257.5 103q157 0 243.5 -95.5t86.5 -267.5q0 -173 -97 -277t-254 -104zM430 1315q-82 0 -129.5 -63t-47.5 -173q0 -108 46.5 -168t127.5 -60t127 62.5t46 173.5q0 108 -45.5 168t-124.5 60zM1415 1434l-927 -1439h-188 l926 1439h189zM2084 -21q-152 0 -242 98t-90 260q0 178 97 282t256 104q157 0 243.5 -95.5t86.5 -269.5q0 -172 -96.5 -275.5t-254.5 -103.5zM2099 582q-84 0 -130.5 -63t-46.5 -173q0 -107 46.5 -167t126.5 -60q82 0 128 63t46 173q0 108 -46 167.5t-124 59.5zM1288 -21 q-152 0 -242 98t-90 260q0 179 96.5 282.5t255.5 103.5q156 0 243 -96t87 -269q0 -172 -97 -275.5t-253 -103.5zM1302 582q-83 0 -130.5 -62.5t-47.5 -173.5q0 -106 47 -166.5t127 -60.5q82 0 128 63t46 173q0 109 -45.5 168t-124.5 59z"/>
    <glyph glyph-name="Acircumflex" unicode="Â" horiz-adv-x="1375" d="M1355 0h-261l-129 365h-564l-124 -365h-260l537 1434h268zM902 559l-199 572q-9 28 -19 90h-4q-9 -57 -20 -90l-197 -572h439zM994 1566h-160l-161 211l-157 -211h-155l224 328h184z"/>
    <glyph glyph-name="Ecircumflex" unicode="Ê" horiz-adv-x="1060" d="M982 0h-805v1434h773v-202h-535v-406h493v-201h-493v-424h567v-201zM873 1567h-160l-161 211l-157 -211h-155l224 328h184z"/>
    <glyph glyph-name="Aacute" unicode="Á" horiz-adv-x="1375" d="M1355 0h-261l-129 365h-564l-124 -365h-260l537 1434h268zM902 559l-199 572q-9 28 -19 90h-4q-9 -57 -20 -90l-197 -572h439zM954 1908l-286 -328h-172l242 328h216z"/>
    <glyph glyph-name="Edieresis" unicode="Ë" horiz-adv-x="1060" d="M982 0h-805v1434h773v-202h-535v-406h493v-201h-493v-424h567v-201zM776 1565q-50 0 -86.5 33t-36.5 84q0 49 35 82t85 33q53 0 89.5 -33.5t36.5 -81.5q0 -49 -35 -83t-88 -34zM360 1565q-52 0 -89 34.5t-37 82.5q0 49 35.5 82t86.5 33t88.5 -33.5t37.5 -81.5 q0 -49 -36 -83t-86 -34z"/>
    <glyph glyph-name="Egrave" unicode="È" horiz-adv-x="1060" d="M982 0h-805v1434h773v-202h-535v-406h493v-201h-493v-424h567v-201zM731 1566h-173l-262 328h214z"/>
    <glyph glyph-name="Iacute" unicode="Í" horiz-adv-x="592" d="M546 1434v-192h-131v-1050h131v-192h-500v192h131v1050h-131v192h500zM584 1908l-286 -328h-172l242 328h216z"/>
    <glyph glyph-name="Icircumflex" unicode="Î" horiz-adv-x="592" d="M546 1434v-192h-131v-1050h131v-192h-500v192h131v1050h-131v192h500zM620 1567h-160l-161 211l-157 -211h-155l224 328h184z"/>
    <glyph glyph-name="Idieresis" unicode="Ï" horiz-adv-x="592" d="M546 1434v-192h-131v-1050h131v-192h-500v192h131v1050h-131v192h500zM511 1565q-50 0 -86.5 33t-36.5 84q0 49 35 82t85 33q53 0 89.5 -33.5t36.5 -81.5q0 -49 -35 -83t-88 -34zM95 1565q-52 0 -89 34.5t-37 82.5q0 49 35.5 82t86.5 33t88.5 -33.5t37.5 -81.5 q0 -49 -36 -83t-86 -34z"/>
    <glyph glyph-name="Igrave" unicode="Ì" horiz-adv-x="592" d="M546 1434v-192h-131v-1050h131v-192h-500v192h131v1050h-131v192h500zM469 1566h-173l-262 328h214z"/>
    <glyph glyph-name="Oacute" unicode="Ó" horiz-adv-x="1548" d="M768 -24q-310 0 -496.5 201t-186.5 523q0 346 190 552t516 206q302 0 486.5 -200t184.5 -523q0 -351 -189 -555t-505 -204zM779 1249q-197 0 -320.5 -147t-123.5 -387q0 -239 120 -385t314 -146q206 0 325 139t119 389q0 257 -115.5 397t-318.5 140zM1076 1908l-286 -328 h-172l242 328h216z"/>
    <glyph glyph-name="Ocircumflex" unicode="Ô" horiz-adv-x="1548" d="M768 -24q-310 0 -496.5 201t-186.5 523q0 346 190 552t516 206q302 0 486.5 -200t184.5 -523q0 -351 -189 -555t-505 -204zM779 1249q-197 0 -320.5 -147t-123.5 -387q0 -239 120 -385t314 -146q206 0 325 139t119 389q0 257 -115.5 397t-318.5 140zM1101 1566h-160 l-161 211l-157 -211h-155l224 328h184z"/>
    <glyph glyph-name="Ograve" unicode="Ò" horiz-adv-x="1548" d="M768 -24q-310 0 -496.5 201t-186.5 523q0 346 190 552t516 206q302 0 486.5 -200t184.5 -523q0 -351 -189 -555t-505 -204zM779 1249q-197 0 -320.5 -147t-123.5 -387q0 -239 120 -385t314 -146q206 0 325 139t119 389q0 257 -115.5 397t-318.5 140zM920 1566h-173 l-262 328h214z"/>
    <glyph glyph-name="Uacute" unicode="Ú" horiz-adv-x="1440" d="M1280 580q0 -604 -572 -604q-548 0 -548 581v877h238v-828q0 -422 328 -422q316 0 316 407v843h238v-854zM1029 1908l-286 -328h-172l242 328h216z"/>
    <glyph glyph-name="Ucircumflex" unicode="Û" horiz-adv-x="1440" d="M1280 580q0 -604 -572 -604q-548 0 -548 581v877h238v-828q0 -422 328 -422q316 0 316 407v843h238v-854zM1037 1567h-160l-161 211l-157 -211h-155l224 328h184z"/>
    <glyph glyph-name="Ugrave" unicode="Ù" horiz-adv-x="1440" d="M1280 580q0 -604 -572 -604q-548 0 -548 581v877h238v-828q0 -422 328 -422q316 0 316 407v843h238v-854zM870 1566h-173l-262 328h214z"/>
    <glyph glyph-name="dotlessi" unicode="ı" horiz-adv-x="535" d="M384 0h-233v1024h233v-1024z"/>
    <glyph glyph-name="circumflex" unicode="ˆ" horiz-adv-x="771" d="M698 1204h-160l-161 211l-157 -211h-155l224 328h184z"/>
    <glyph glyph-name="tilde" unicode="˜" horiz-adv-x="733" d="M711 1475q0 -116 -51.5 -189.5t-139.5 -73.5q-72 0 -165 48q-78 45 -121 45q-84 0 -84 -111h-115q0 119 51 190.5t143 71.5q68 0 157 -51q72 -44 125 -44q81 0 81 114h119z"/>
    <glyph glyph-name="uni02C9" unicode="ˉ" horiz-adv-x="660" d="M600 1204h-543v137h543v-137z"/>
    <glyph glyph-name="breve" unicode="˘" horiz-adv-x="661" d="M634 1480q-11 -124 -97.5 -200t-209.5 -76q-130 0 -211.5 75.5t-87.5 200.5h136q12 -146 166 -146q65 0 111 39.5t56 106.5h137z"/>
    <glyph glyph-name="dotaccent" unicode="˙" horiz-adv-x="460" d="M230 1203q-50 0 -86.5 33.5t-36.5 82.5q0 48 36 81t87 33t87 -32.5t36 -81.5q0 -48 -36 -82t-87 -34z"/>
    <glyph glyph-name="ring" unicode="˚" horiz-adv-x="565" d="M279 1180q-94 0 -155.5 54t-61.5 142q0 98 63 156t161 58q96 0 157.5 -58.5t61.5 -149.5q0 -87 -65.5 -144.5t-160.5 -57.5zM279 1490q-45 0 -74.5 -30t-29.5 -74q0 -104 104 -104q48 0 79.5 29.5t31.5 74.5t-31.5 74.5t-79.5 29.5z"/>
    <glyph glyph-name="cedilla" unicode="¸" horiz-adv-x="429" d="M420 -248q0 -194 -288 -194q-47 0 -81 3v111q44 -6 71 -6q133 0 133 82q0 74 -121 74q-10 0 -39 -4v182h136v-94q87 0 138 -40.5t51 -113.5z"/>
    <glyph glyph-name="hungarumlaut" unicode="˝" horiz-adv-x="740" d="M747 1522l-248 -318h-148l211 318h185zM441 1522l-243 -318h-148l208 318h183z"/>
    <glyph glyph-name="ogonek" unicode="˛" horiz-adv-x="454" d="M374 0q-151 -137 -151 -216q0 -68 65 -68q36 0 68 13v-121q-38 -16 -105 -16q-78 0 -125.5 42t-47.5 116q0 122 161 250h135z"/>
    <glyph glyph-name="caron" unicode="ˇ" horiz-adv-x="771" d="M704 1531l-224 -327h-185l-224 327h155l160 -210l161 210h157z"/>
    <glyph glyph-name="Lslash" unicode="Ł" horiz-adv-x="1001" d="M971 0h-794v511l-158 -92v202l158 91v722h238v-594l308 179v-203l-308 -177v-438h556v-201z"/>
    <glyph glyph-name="lslash" unicode="ł" horiz-adv-x="598" d="M566 785l-157 -106v-679h-232v530l-152 -103v202l152 103v784h232v-635l157 105v-201z"/>
    <glyph glyph-name="Scaron" unicode="Š" horiz-adv-x="1115" d="M111 57v245q33 -30 78.5 -54t96.5 -40.5t102 -25.5t94 -9q150 0 223.5 50t73.5 145q0 51 -24.5 88.5t-68.5 68.5t-103.5 59.5t-127.5 59.5q-73 39 -136 79t-109.5 88.5t-73 109.5t-26.5 143q0 101 45.5 175.5t120 123t169.5 72t194 23.5q225 0 328 -51v-235 q-122 88 -314 88q-53 0 -105.5 -10t-94 -33t-67.5 -59t-26 -87q0 -48 20 -83t58.5 -64t94 -56.5t128.5 -59.5q75 -39 141.5 -82t117 -95t80 -115.5t29.5 -144.5q0 -109 -44 -184t-118.5 -122t-171.5 -68t-205 -21q-36 0 -88.5 5.5t-107.5 16t-104 25.5t-79 34zM891 1881 l-224 -327h-185l-224 327h155l160 -210l161 210h157z"/>
    <glyph glyph-name="scaron" unicode="š" horiz-adv-x="883" d="M87 32v215q130 -99 287 -99q210 0 210 124q0 35 -18 59.5t-48.5 43.5t-72 34t-92.5 34q-63 25 -113.5 53t-84 63.5t-50.5 80.5t-17 105q0 74 35 130.5t94 95t134 58t155 19.5q142 0 254 -43v-203q-108 74 -248 74q-44 0 -79.5 -9t-60.5 -25t-39 -38.5t-14 -49.5 q0 -33 14 -56t41.5 -40.5t66 -32t88.5 -31.5q66 -27 118.5 -55t89.5 -63.5t57 -82t20 -110.5q0 -78 -36 -136t-96 -96t-138.5 -56.5t-165.5 -18.5q-168 0 -291 56zM792 1531l-224 -327h-185l-224 327h155l160 -210l161 210h157z"/>
    <glyph glyph-name="Zcaron" unicode="Ž" horiz-adv-x="1202" d="M1155 1330l-786 -1129h776v-201h-1109v109l789 1123h-728v202h1058v-104zM940 1878l-224 -327h-185l-224 327h155l160 -210l161 210h157z"/>
    <glyph glyph-name="zcaron" unicode="ž" horiz-adv-x="951" d="M907 927l-553 -746h551v-181h-876v87l565 756h-511v181h824v-97zM822 1531l-224 -327h-185l-224 327h155l160 -210l161 210h157z"/>
    <glyph glyph-name="brokenbar" unicode="¦" horiz-adv-x="570" d="M383 701h-194v865h194v-865zM383 -482h-194v872h194v-872z"/>
    <glyph glyph-name="Eth" unicode="Ð" horiz-adv-x="1469" d="M177 0v616h-162v205h162v613h414q793 0 793 -699q0 -334 -220 -534.5t-590 -200.5h-397zM414 1232v-411h307v-205h-307v-415h190q251 0 390.5 138t139.5 392q0 501 -521 501h-199z"/>
    <glyph glyph-name="eth" unicode="ð" horiz-adv-x="1176" d="M772 966l4 3q-90 154 -197 253l-295 -148l-65 118l257 123q-119 105 -266 201h280q67 -45 153 -119l282 139l65 -113l-242 -119q342 -307 342 -762q0 -247 -136 -405.5t-370 -158.5q-235 0 -367 141.5t-132 386.5q0 239 129.5 388t349.5 149q122 0 208 -77zM595 863 q-127 0 -200 -95t-73 -259q0 -161 71 -255t198 -94q121 0 191.5 96.5t70.5 257.5q0 349 -258 349z"/>
    <glyph glyph-name="Yacute" unicode="Ý" horiz-adv-x="1182" d="M1176 1434l-470 -913v-521h-238v516l-458 918h271l282 -615q5 -11 30 -83h3q9 32 33 83l295 615h252zM908 1894l-286 -328h-172l242 328h216z"/>
    <glyph glyph-name="yacute" unicode="ý" horiz-adv-x="1041" d="M1038 1024l-462 -1188q-144 -318 -404 -318q-73 0 -122 13v193q55 -18 100 -18q130 0 194 128l69 168l-407 1022h257l244 -744q4 -14 18 -74h5q5 23 18 72l256 746h234zM845 1546l-286 -328h-172l242 328h216z"/>
    <glyph glyph-name="Thorn" unicode="Þ" horiz-adv-x="1197" d="M415 301v-301h-238v1434h238v-219h207q245 0 377 -115t132 -326q0 -209 -143 -341t-385 -132h-188zM415 1020v-524h154q151 0 231.5 69t80.5 198q0 257 -294 257h-172z"/>
    <glyph glyph-name="thorn" unicode="þ" horiz-adv-x="1234" d="M383 134v-605h-232v1987h232v-661h4q117 193 343 193q197 0 307.5 -137.5t110.5 -368.5q0 -257 -124.5 -411.5t-340.5 -154.5q-194 0 -300 158zM381 551v-116q0 -115 71 -195t181 -80q130 0 203.5 102t73.5 283q0 149 -69 233.5t-187 84.5q-123 0 -198 -89t-75 -223z"/>
    <glyph glyph-name="minus" unicode="−" horiz-adv-x="1422" d="M1190 510h-955v165h955v-165z"/>
    <glyph glyph-name="multiply" unicode="×" horiz-adv-x="1422" d="M1168 253l-116 -116l-340 340l-339 -340l-117 117l340 337l-340 340l115 117l341 -340l341 340l114 -119l-339 -338z"/>
    <glyph glyph-name="onenumerator" horiz-adv-x="759" d="M676 584h-531v139h181v541l-192 -48v149l361 90v-732h181v-139z"/>
    <glyph glyph-name="twonumerator" horiz-adv-x="785" d="M686 584h-577v133l230 220q99 95 126 146t27 102t-33.5 83t-88.5 32q-117 0 -214 -102v179q87 77 242 77q126 0 199.5 -68.5t73.5 -180.5q0 -143 -193 -325l-155 -145v-4h363v-147z"/>
    <glyph glyph-name="threenumerator" horiz-adv-x="785" d="M130 616v160q104 -73 219 -73q75 0 118.5 33t43.5 89q0 124 -215 124h-82v140h78q192 0 192 117q0 106 -132 106q-97 0 -192 -67v155q92 54 225 54q122 0 194 -60.5t72 -157.5q0 -147 -144 -200v-4q174 -42 174 -200q0 -119 -90 -194t-241 -75q-140 0 -220 53z"/>
    <glyph glyph-name="onehalf" unicode="½" horiz-adv-x="1938" d="M657 584h-531v139h181v541l-192 -48v149l361 90v-732h181v-139zM1790 1h-577v133l230 220q99 95 126 146t27 102t-33.5 83t-88.5 32q-117 0 -214 -102v179q87 77 242 77q126 0 199.5 -68.5t73.5 -180.5q0 -143 -193 -325l-155 -145v-4h363v-147zM1445 1434l-875 -1434 h-189l873 1434h191z"/>
    <glyph glyph-name="onequarter" unicode="¼" horiz-adv-x="1898" d="M657 584h-531v139h181v541l-192 -48v149l361 90v-732h181v-139zM1447 1434l-875 -1434h-189l873 1434h191zM1769 192h-110v-191h-169v191h-394v114l361 545h202v-529h110v-130zM1494 704h-5q-12 -31 -39 -74l-195 -308h235v300q0 30 4 82z"/>
    <glyph glyph-name="threequarters" unicode="¾" horiz-adv-x="1975" d="M130 616v160q104 -73 219 -73q75 0 118.5 33t43.5 89q0 124 -215 124h-82v140h78q192 0 192 117q0 106 -132 106q-97 0 -192 -67v155q92 54 225 54q122 0 194 -60.5t72 -157.5q0 -147 -144 -200v-4q174 -42 174 -200q0 -119 -90 -194t-241 -75q-140 0 -220 53zM1511 1434 l-875 -1434h-189l873 1434h191zM1825 192h-110v-191h-169v191h-394v114l361 545h202v-529h110v-130zM1550 704h-5q-12 -31 -39 -74l-195 -308h235v300q0 30 4 82z"/>
    <glyph glyph-name="franc" unicode="₣" horiz-adv-x="1029" d="M671 237h-257v-237h-237v237h-162v178h162v1019h773v-202h-536v-432h495v-201h-495v-184h257v-178z"/>
    <glyph glyph-name="Gbreve" unicode="Ğ" horiz-adv-x="1428" d="M1296 98q-224 -122 -499 -122q-318 0 -515 198t-197 524q0 333 215.5 546.5t547.5 213.5q239 0 402 -70v-245q-165 110 -393 110q-229 0 -375.5 -151t-146.5 -391q0 -247 126 -388.5t342 -141.5q148 0 256 57v341h-302v200h539v-681zM1102 1842q-11 -124 -97.5 -200 t-209.5 -76q-130 0 -211.5 75.5t-87.5 200.5h136q12 -146 166 -146q65 0 111 39.5t56 106.5h137z"/>
    <glyph glyph-name="gbreve" unicode="ğ" horiz-adv-x="1234" d="M1083 82q0 -564 -567 -564q-200 0 -349 67v212q168 -96 319 -96q365 0 365 359v112h-4q-115 -196 -346 -196q-187 0 -301.5 136.5t-114.5 366.5q0 261 123 415t338 154q203 0 301 -166h4v142h232v-942zM853 469v133q0 108 -71.5 184.5t-178.5 76.5q-132 0 -206.5 -97.5 t-74.5 -272.5q0 -151 71.5 -241.5t189.5 -90.5q120 0 195 86.5t75 221.5zM914 1480q-11 -124 -97.5 -200t-209.5 -76q-130 0 -211.5 75.5t-87.5 200.5h136q12 -146 166 -146q65 0 111 39.5t56 106.5h137z"/>
    <glyph glyph-name="Idotaccent" unicode="İ" horiz-adv-x="592" d="M546 1434v-192h-131v-1050h131v-192h-500v192h131v1050h-131v192h500zM295 1566q-50 0 -86.5 33.5t-36.5 82.5q0 48 36 81t87 33t87 -32.5t36 -81.5q0 -48 -36 -82t-87 -34z"/>
    <glyph glyph-name="Scedilla" unicode="Ş" horiz-adv-x="1115" d="M111 57v245q33 -30 78.5 -54t96.5 -40.5t102 -25.5t94 -9q150 0 223.5 50t73.5 145q0 51 -24.5 88.5t-68.5 68.5t-103.5 59.5t-127.5 59.5q-73 39 -136 79t-109.5 88.5t-73 109.5t-26.5 143q0 101 45.5 175.5t120 123t169.5 72t194 23.5q225 0 328 -51v-235 q-122 88 -314 88q-53 0 -105.5 -10t-94 -33t-67.5 -59t-26 -87q0 -48 20 -83t58.5 -64t94 -56.5t128.5 -59.5q75 -39 141.5 -82t117 -95t80 -115.5t29.5 -144.5q0 -109 -44 -184t-118.5 -122t-171.5 -68t-205 -21q-36 0 -88.5 5.5t-107.5 16t-104 25.5t-79 34zM790 -248 q0 -194 -288 -194q-47 0 -81 3v111q44 -6 71 -6q133 0 133 82q0 74 -121 74q-10 0 -39 -4v182h136v-94q87 0 138 -40.5t51 -113.5z"/>
    <glyph glyph-name="scedilla" unicode="ş" horiz-adv-x="883" d="M87 32v215q130 -99 287 -99q210 0 210 124q0 35 -18 59.5t-48.5 43.5t-72 34t-92.5 34q-63 25 -113.5 53t-84 63.5t-50.5 80.5t-17 105q0 74 35 130.5t94 95t134 58t155 19.5q142 0 254 -43v-203q-108 74 -248 74q-44 0 -79.5 -9t-60.5 -25t-39 -38.5t-14 -49.5 q0 -33 14 -56t41.5 -40.5t66 -32t88.5 -31.5q66 -27 118.5 -55t89.5 -63.5t57 -82t20 -110.5q0 -78 -36 -136t-96 -96t-138.5 -56.5t-165.5 -18.5q-168 0 -291 56zM665 -248q0 -194 -288 -194q-47 0 -81 3v111q44 -6 71 -6q133 0 133 82q0 74 -121 74q-10 0 -39 -4v182h136 v-94q87 0 138 -40.5t51 -113.5z"/>
    <glyph glyph-name="Cacute" unicode="Ć" horiz-adv-x="1272" d="M1177 60q-162 -84 -403 -84q-312 0 -500 197t-188 517q0 344 211.5 556t534.5 212q208 0 345 -59v-236q-145 86 -320 86q-233 0 -377.5 -149t-144.5 -398q0 -237 135 -377.5t355 -140.5q203 0 352 96v-220zM1079 1908l-286 -328h-172l242 328h216z"/>
    <glyph glyph-name="cacute" unicode="ć" horiz-adv-x="963" d="M884 47q-123 -71 -291 -71q-228 0 -368 142.5t-140 369.5q0 253 150.5 406.5t402.5 153.5q140 0 247 -49v-216q-107 80 -228 80q-147 0 -241 -99.5t-94 -260.5q0 -159 88.5 -251t237.5 -92q125 0 236 89v-202zM876 1546l-286 -328h-172l242 328h216z"/>
    <glyph glyph-name="Ccaron" unicode="Č" horiz-adv-x="1272" d="M1177 60q-162 -84 -403 -84q-312 0 -500 197t-188 517q0 344 211.5 556t534.5 212q208 0 345 -59v-236q-145 86 -320 86q-233 0 -377.5 -149t-144.5 -398q0 -237 135 -377.5t355 -140.5q203 0 352 96v-220zM1102 1893l-224 -327h-185l-224 327h155l160 -210l161 210h157z "/>
    <glyph glyph-name="ccaron" unicode="č" horiz-adv-x="963" d="M884 47q-123 -71 -291 -71q-228 0 -368 142.5t-140 369.5q0 253 150.5 406.5t402.5 153.5q140 0 247 -49v-216q-107 80 -228 80q-147 0 -241 -99.5t-94 -260.5q0 -159 88.5 -251t237.5 -92q125 0 236 89v-202zM898 1531l-224 -327h-185l-224 327h155l160 -210l161 210 h157z"/>
    <glyph glyph-name="dcroat" unicode="đ" horiz-adv-x="1246" d="M1082 0h-232v159h-4q-107 -183 -330 -183q-196 0 -313.5 137.5t-117.5 374.5q0 254 127.5 407t340.5 153q199 0 293 -155h4v295h-331v166h331v162h232v-162h139v-166h-139v-1188zM853 472v124q0 112 -72 189.5t-182 77.5q-129 0 -203 -97.5t-74 -269.5q0 -156 71.5 -246 t192.5 -90q118 0 192.5 88.5t74.5 223.5z"/>
    <glyph glyph-name="uni00AF" unicode="¯" horiz-adv-x="850" d="M850 1396h-850v120h850v-120z"/>
    <glyph glyph-name="uni2219" unicode="∙" horiz-adv-x="494" d="M245 499q-59 0 -100.5 40t-41.5 96q0 57 42.5 96.5t102.5 39.5t102.5 -39.5t42.5 -96.5q0 -56 -43 -96t-105 -40z"/>
    <glyph glyph-name="Abreve" unicode="Ă" horiz-adv-x="1375" d="M1355 0h-261l-129 365h-564l-124 -365h-260l537 1434h268zM902 559l-199 572q-9 28 -19 90h-4q-9 -57 -20 -90l-197 -572h439zM988 1843q-11 -124 -97.5 -200t-209.5 -76q-130 0 -211.5 75.5t-87.5 200.5h136q12 -146 166 -146q65 0 111 39.5t56 106.5h137z"/>
    <glyph glyph-name="abreve" unicode="ă" horiz-adv-x="1069" d="M937 0h-225v160h-4q-106 -184 -311 -184q-151 0 -236.5 82t-85.5 217q0 290 334 338l304 43q0 219 -208 219q-183 0 -330 -126v203q162 96 374 96q388 0 388 -382v-666zM713 503l-215 -30q-100 -13 -150.5 -48.5t-50.5 -124.5q0 -65 46.5 -106.5t124.5 -41.5 q106 0 175.5 74.5t69.5 187.5v89zM851 1480q-11 -124 -97.5 -200t-209.5 -76q-130 0 -211.5 75.5t-87.5 200.5h136q12 -146 166 -146q65 0 111 39.5t56 106.5h137z"/>
    <glyph glyph-name="Aogonek" unicode="Ą" horiz-adv-x="1375" d="M1355 0h-261l-129 365h-564l-124 -365h-260l537 1434h268zM902 559l-199 572q-9 28 -19 90h-4q-9 -57 -20 -90l-197 -572h439zM1227 0q-151 -137 -151 -216q0 -68 65 -68q36 0 68 13v-121q-38 -16 -105 -16q-78 0 -125.5 42t-47.5 116q0 122 161 250h135z"/>
    <glyph glyph-name="aogonek" unicode="ą" horiz-adv-x="1069" d="M937 0h-225v160h-4q-106 -184 -311 -184q-151 0 -236.5 82t-85.5 217q0 290 334 338l304 43q0 219 -208 219q-183 0 -330 -126v203q162 96 374 96q388 0 388 -382v-666zM713 503l-215 -30q-100 -13 -150.5 -48.5t-50.5 -124.5q0 -65 46.5 -106.5t124.5 -41.5 q106 0 175.5 74.5t69.5 187.5v89zM845 0q-151 -137 -151 -216q0 -68 65 -68q36 0 68 13v-121q-38 -16 -105 -16q-78 0 -125.5 42t-47.5 116q0 122 161 250h135z"/>
    <glyph glyph-name="Dcaron" unicode="Ď" horiz-adv-x="1469" d="M177 0v1434h414q793 0 793 -699q0 -332 -220 -533.5t-590 -201.5h-397zM414 1232v-1031h190q251 0 390.5 138t139.5 390q0 503 -521 503h-199zM1013 1893l-224 -327h-185l-224 327h155l160 -210l161 210h157z"/>
    <glyph glyph-name="dcaron" unicode="ď" horiz-adv-x="1442" d="M1082 0h-232v174h-4q-112 -198 -345 -198q-189 0 -302.5 137.5t-113.5 374.5q0 254 125.5 407t334.5 153q207 0 301 -166h4v634h232v-1516zM853 468v134q0 109 -71 185t-181 76q-130 0 -204.5 -97t-74.5 -269q0 -156 71.5 -246.5t192.5 -90.5q119 0 193 87.5t74 220.5z M1513 1516l-167 -302h-155l105 302h217z"/>
    <glyph glyph-name="Dcroat" unicode="Đ" horiz-adv-x="1469" d="M177 0v616h-162v205h162v613h414q793 0 793 -699q0 -334 -220 -534.5t-590 -200.5h-397zM414 1232v-411h307v-205h-307v-415h190q251 0 390.5 138t139.5 392q0 501 -521 501h-199z"/>
    <glyph glyph-name="Eogonek" unicode="Ę" horiz-adv-x="1060" d="M982 0h-805v1434h773v-202h-535v-406h493v-201h-493v-424h567v-201zM892 0q-151 -137 -151 -216q0 -68 65 -68q36 0 68 13v-121q-38 -16 -105 -16q-78 0 -125.5 42t-47.5 116q0 122 161 250h135z"/>
    <glyph glyph-name="eogonek" unicode="ę" horiz-adv-x="1088" d="M1018 449h-698q4 -142 87.5 -219t229.5 -77q164 0 301 98v-187q-140 -88 -370 -88q-226 0 -354.5 139.5t-128.5 392.5q0 239 141.5 389.5t351.5 150.5t325 -135t115 -375v-89zM794 613q-1 125 -59 194.5t-160 69.5q-100 0 -169.5 -73t-85.5 -191h474zM782 0 q-151 -137 -151 -216q0 -68 65 -68q36 0 68 13v-121q-38 -16 -105 -16q-78 0 -125.5 42t-47.5 116q0 122 161 250h135z"/>
    <glyph glyph-name="Ecaron" unicode="Ě" horiz-adv-x="1060" d="M982 0h-805v1434h773v-202h-535v-406h493v-201h-493v-424h567v-201zM891 1893l-224 -327h-185l-224 327h155l160 -210l161 210h157z"/>
    <glyph glyph-name="ecaron" unicode="ě" horiz-adv-x="1088" d="M1018 449h-698q4 -142 87.5 -219t229.5 -77q164 0 301 98v-187q-140 -88 -370 -88q-226 0 -354.5 139.5t-128.5 392.5q0 239 141.5 389.5t351.5 150.5t325 -135t115 -375v-89zM794 613q-1 125 -59 194.5t-160 69.5q-100 0 -169.5 -73t-85.5 -191h474zM884 1531l-224 -327 h-185l-224 327h155l160 -210l161 210h157z"/>
    <glyph glyph-name="Lacute" unicode="Ĺ" horiz-adv-x="1001" d="M971 0h-794v1434h238v-1233h556v-201zM888 1908l-286 -328h-172l242 328h216z"/>
    <glyph glyph-name="lacute" unicode="ĺ" horiz-adv-x="535" d="M384 0h-233v1516h233v-1516zM597 1992l-286 -328h-172l242 328h216z"/>
    <glyph glyph-name="Lcaron" unicode="Ľ" horiz-adv-x="1001" d="M971 0h-794v1434h238v-1233h556v-201zM972 1435l-167 -302h-155l105 302h217z"/>
    <glyph glyph-name="lcaron" unicode="ľ" horiz-adv-x="682" d="M384 0h-233v1516h233v-1516zM801 1512l-167 -302h-155l105 302h217z"/>
    <glyph glyph-name="Ldot" unicode="Ŀ" horiz-adv-x="1001" d="M971 0h-794v1434h238v-1233h556v-201zM776 660q-50 0 -86.5 33.5t-36.5 82.5q0 48 36 81t87 33t87 -32.5t36 -81.5q0 -48 -36 -82t-87 -34z"/>
    <glyph glyph-name="ldot" unicode="ŀ" horiz-adv-x="754" d="M384 0h-233v1516h233v-1516zM631 633q-50 0 -86.5 33.5t-36.5 82.5q0 48 36 81t87 33t87 -32.5t36 -81.5q0 -48 -36 -82t-87 -34z"/>
    <glyph glyph-name="Nacute" unicode="Ń" horiz-adv-x="1571" d="M1393 0h-260l-685 1054q-26 40 -43 83h-6q8 -46 8 -197v-940h-230v1434h277l662 -1029q42 -64 54 -88h4q-10 57 -10 193v924h229v-1434zM1110 1908l-286 -328h-172l242 328h216z"/>
    <glyph glyph-name="nacute" unicode="ń" horiz-adv-x="1195" d="M1063 0h-232v577q0 287 -203 287q-106 0 -175 -79.5t-69 -200.5v-584h-233v1024h233v-170h4q115 194 332 194q167 0 255 -108.5t88 -313.5v-626zM908 1546l-286 -328h-172l242 328h216z"/>
    <glyph glyph-name="Ncaron" unicode="Ň" horiz-adv-x="1571" d="M1393 0h-260l-685 1054q-26 40 -43 83h-6q8 -46 8 -197v-940h-230v1434h277l662 -1029q42 -64 54 -88h4q-10 57 -10 193v924h229v-1434zM1101 1893l-224 -327h-185l-224 327h155l160 -210l161 210h157z"/>
    <glyph glyph-name="ncaron" unicode="ň" horiz-adv-x="1195" d="M1063 0h-232v577q0 287 -203 287q-106 0 -175 -79.5t-69 -200.5v-584h-233v1024h233v-170h4q115 194 332 194q167 0 255 -108.5t88 -313.5v-626zM935 1531l-224 -327h-185l-224 327h155l160 -210l161 210h157z"/>
    <glyph glyph-name="Ohungarumlaut" unicode="Ő" horiz-adv-x="1548" d="M768 -24q-310 0 -496.5 201t-186.5 523q0 346 190 552t516 206q302 0 486.5 -200t184.5 -523q0 -351 -189 -555t-505 -204zM779 1249q-197 0 -320.5 -147t-123.5 -387q0 -239 120 -385t314 -146q206 0 325 139t119 389q0 257 -115.5 397t-318.5 140zM1194 1885l-248 -318 h-148l211 318h185zM888 1885l-243 -318h-148l208 318h183z"/>
    <glyph glyph-name="ohungarumlaut" unicode="ő" horiz-adv-x="1223" d="M605 -24q-237 0 -378.5 143.5t-141.5 380.5q0 258 147.5 403t397.5 145q240 0 374 -141t134 -391q0 -245 -144.5 -392.5t-388.5 -147.5zM616 863q-136 0 -215 -95t-79 -262q0 -161 80 -253.5t214 -92.5q137 0 210.5 91t73.5 259q0 169 -73.5 261t-210.5 92zM1028 1522 l-248 -318h-148l211 318h185zM722 1522l-243 -318h-148l208 318h183z"/>
    <glyph glyph-name="Racute" unicode="Ŕ" horiz-adv-x="1275" d="M1285 0h-278l-229 384q-31 53 -60.5 90.5t-60 61.5t-66.5 35t-81 11h-96v-582h-237v1434h472q101 0 186 -24t148 -72.5t98.5 -121t35.5 -169.5q0 -76 -22.5 -139.5t-64 -113t-100 -84.5t-131.5 -54v-4q39 -22 68 -48.5t55 -54.5t51.5 -63.5t56.5 -82.5zM414 1241v-466 h198q55 0 101.5 17t80.5 49t53 78t19 103q0 103 -65 161t-187 58h-200zM933 1908l-286 -328h-172l242 328h216z"/>
    <glyph glyph-name="racute" unicode="ŕ" horiz-adv-x="758" d="M745 803q-42 33 -121 33q-103 0 -172 -93t-69 -253v-490h-232v1024h232v-211h4q34 108 104.5 168.5t157.5 60.5q63 0 96 -19v-220zM737 1546l-286 -328h-172l242 328h216z"/>
    <glyph glyph-name="Rcaron" unicode="Ř" horiz-adv-x="1275" d="M1285 0h-278l-229 384q-31 53 -60.5 90.5t-60 61.5t-66.5 35t-81 11h-96v-582h-237v1434h472q101 0 186 -24t148 -72.5t98.5 -121t35.5 -169.5q0 -76 -22.5 -139.5t-64 -113t-100 -84.5t-131.5 -54v-4q39 -22 68 -48.5t55 -54.5t51.5 -63.5t56.5 -82.5zM414 1241v-466 h198q55 0 101.5 17t80.5 49t53 78t19 103q0 103 -65 161t-187 58h-200zM938 1893l-224 -327h-185l-224 327h155l160 -210l161 210h157z"/>
    <glyph glyph-name="rcaron" unicode="ř" horiz-adv-x="758" d="M745 803q-42 33 -121 33q-103 0 -172 -93t-69 -253v-490h-232v1024h232v-211h4q34 108 104.5 168.5t157.5 60.5q63 0 96 -19v-220zM746 1531l-224 -327h-185l-224 327h155l160 -210l161 210h157z"/>
    <glyph glyph-name="Sacute" unicode="Ś" horiz-adv-x="1115" d="M111 57v245q33 -30 78.5 -54t96.5 -40.5t102 -25.5t94 -9q150 0 223.5 50t73.5 145q0 51 -24.5 88.5t-68.5 68.5t-103.5 59.5t-127.5 59.5q-73 39 -136 79t-109.5 88.5t-73 109.5t-26.5 143q0 101 45.5 175.5t120 123t169.5 72t194 23.5q225 0 328 -51v-235 q-122 88 -314 88q-53 0 -105.5 -10t-94 -33t-67.5 -59t-26 -87q0 -48 20 -83t58.5 -64t94 -56.5t128.5 -59.5q75 -39 141.5 -82t117 -95t80 -115.5t29.5 -144.5q0 -109 -44 -184t-118.5 -122t-171.5 -68t-205 -21q-36 0 -88.5 5.5t-107.5 16t-104 25.5t-79 34zM858 1908 l-286 -328h-172l242 328h216z"/>
    <glyph glyph-name="sacute" unicode="ś" horiz-adv-x="883" d="M87 32v215q130 -99 287 -99q210 0 210 124q0 35 -18 59.5t-48.5 43.5t-72 34t-92.5 34q-63 25 -113.5 53t-84 63.5t-50.5 80.5t-17 105q0 74 35 130.5t94 95t134 58t155 19.5q142 0 254 -43v-203q-108 74 -248 74q-44 0 -79.5 -9t-60.5 -25t-39 -38.5t-14 -49.5 q0 -33 14 -56t41.5 -40.5t66 -32t88.5 -31.5q66 -27 118.5 -55t89.5 -63.5t57 -82t20 -110.5q0 -78 -36 -136t-96 -96t-138.5 -56.5t-165.5 -18.5q-168 0 -291 56zM761 1546l-286 -328h-172l242 328h216z"/>
    <glyph glyph-name="uni0162" unicode="Ţ" horiz-adv-x="1130" d="M1097 1232h-412v-1232h-238v1232h-411v202h1061v-202zM793 -248q0 -194 -288 -194q-47 0 -81 3v111q44 -6 71 -6q133 0 133 82q0 74 -121 74q-10 0 -39 -4v182h136v-94q87 0 138 -40.5t51 -113.5z"/>
    <glyph glyph-name="uni0163" unicode="ţ" horiz-adv-x="740" d="M691 11q-68 -34 -179 -34q-298 0 -298 286v579h-171v182h171v237l232 66v-303h245v-182h-245v-512q0 -91 33 -130t110 -39q59 0 102 34v-184zM700 -248q0 -194 -288 -194q-47 0 -81 3v111q44 -6 71 -6q133 0 133 82q0 74 -121 74q-10 0 -39 -4v182h136v-94 q87 0 138 -40.5t51 -113.5z"/>
    <glyph glyph-name="Tcaron" unicode="Ť" horiz-adv-x="1130" d="M1097 1232h-412v-1232h-238v1232h-411v202h1061v-202zM883 1893l-224 -327h-185l-224 327h155l160 -210l161 210h157z"/>
    <glyph glyph-name="tcaron" unicode="ť" horiz-adv-x="846" d="M691 11q-68 -34 -179 -34q-298 0 -298 286v579h-171v182h171v237l232 66v-303h245v-182h-245v-512q0 -91 33 -130t110 -39q59 0 102 34v-184zM959 1434l-167 -302h-155l105 302h217z"/>
    <glyph glyph-name="Uring" unicode="Ů" horiz-adv-x="1440" d="M1280 580q0 -604 -572 -604q-548 0 -548 581v877h238v-828q0 -422 328 -422q316 0 316 407v843h238v-854zM705 1566q-94 0 -155.5 54t-61.5 142q0 98 63 156t161 58q96 0 157.5 -58.5t61.5 -149.5q0 -87 -65.5 -144.5t-160.5 -57.5zM705 1876q-45 0 -74.5 -30t-29.5 -74 q0 -104 104 -104q48 0 79.5 29.5t31.5 74.5t-31.5 74.5t-79.5 29.5z"/>
    <glyph glyph-name="uring" unicode="ů" horiz-adv-x="1195" d="M1044 0h-232v162h-4q-101 -186 -314 -186q-363 0 -363 436v612h232v-588q0 -276 213 -276q103 0 169.5 76t66.5 199v589h232v-1024zM586 1180q-94 0 -155.5 54t-61.5 142q0 98 63 156t161 58q96 0 157.5 -58.5t61.5 -149.5q0 -87 -65.5 -144.5t-160.5 -57.5zM586 1490 q-45 0 -74.5 -30t-29.5 -74q0 -104 104 -104q48 0 79.5 29.5t31.5 74.5t-31.5 74.5t-79.5 29.5z"/>
    <glyph glyph-name="Uhungarumlaut" unicode="Ű" horiz-adv-x="1440" d="M1280 580q0 -604 -572 -604q-548 0 -548 581v877h238v-828q0 -422 328 -422q316 0 316 407v843h238v-854zM1160 1884l-248 -318h-148l211 318h185zM854 1884l-243 -318h-148l208 318h183z"/>
    <glyph glyph-name="uhungarumlaut" unicode="ű" horiz-adv-x="1195" d="M1044 0h-232v162h-4q-101 -186 -314 -186q-363 0 -363 436v612h232v-588q0 -276 213 -276q103 0 169.5 76t66.5 199v589h232v-1024zM1012 1522l-248 -318h-148l211 318h185zM706 1522l-243 -318h-148l208 318h183z"/>
    <glyph glyph-name="Zacute" unicode="Ź" horiz-adv-x="1202" d="M1155 1330l-786 -1129h776v-201h-1109v109l789 1123h-728v202h1058v-104zM940 1909l-286 -328h-172l242 328h216z"/>
    <glyph glyph-name="zacute" unicode="ź" horiz-adv-x="951" d="M907 927l-553 -746h551v-181h-876v87l565 756h-511v181h824v-97zM815 1546l-286 -328h-172l242 328h216z"/>
    <glyph glyph-name="Zdotaccent" unicode="Ż" horiz-adv-x="1202" d="M1155 1330l-786 -1129h776v-201h-1109v109l789 1123h-728v202h1058v-104zM614 1565q-50 0 -86.5 33.5t-36.5 82.5q0 48 36 81t87 33t87 -32.5t36 -81.5q0 -48 -36 -82t-87 -34z"/>
    <glyph glyph-name="zdotaccent" unicode="ż" horiz-adv-x="951" d="M907 927l-553 -746h551v-181h-876v87l565 756h-511v181h824v-97zM496 1203q-50 0 -86.5 33.5t-36.5 82.5q0 48 36 81t87 33t87 -32.5t36 -81.5q0 -48 -36 -82t-87 -34z"/>
    <glyph glyph-name="Gamma" unicode="Γ" horiz-adv-x="1003" d="M971 1228h-556v-1228h-238v1434h794v-206z"/>
    <glyph glyph-name="Theta" unicode="Θ" horiz-adv-x="1548" d="M768 -24q-309 0 -496 199.5t-187 524.5q0 343 189 550.5t516 207.5q303 0 488 -200t185 -523q0 -351 -188.5 -555t-506.5 -204zM780 1249q-197 0 -320.5 -147.5t-123.5 -385.5q0 -240 120 -385.5t314 -145.5q206 0 324 139t118 389q0 253 -114.5 394.5t-317.5 141.5z M1024 618h-499v196h499v-196z"/>
    <glyph glyph-name="Phi" unicode="Φ" horiz-adv-x="1601" d="M911 182v-199h-221v199h-43q-251 0 -405.5 159t-154.5 413q0 247 154 396.5t408 149.5h41v149h221v-149h42q254 0 407 -150t153 -395q0 -255 -155.5 -414t-402.5 -159h-44zM911 1113v-737h38q156 0 244.5 99t88.5 275q0 166 -90.5 264.5t-244.5 98.5h-36zM691 376v737 h-35q-154 0 -246 -97.5t-92 -264.5q0 -177 89 -276t247 -99h37z"/>
    <glyph glyph-name="alpha" unicode="α" horiz-adv-x="1279" d="M1252 8q-67 -19 -120 -19q-175 0 -236 264h-5q-141 -277 -395 -277q-188 0 -301 143.5t-113 362.5q0 250 129 408t349 158q119 0 212 -66t141 -186h4l76 228h238l-205 -510q34 -190 72 -258.5t99 -68.5q33 0 57 10zM837 522q-32 166 -98.5 254.5t-159.5 88.5 q-120 0 -191.5 -106.5t-71.5 -262.5q0 -141 62 -236t166 -95q88 0 160.5 81t120.5 238z"/>
    <glyph glyph-name="delta" unicode="δ" horiz-adv-x="1222" d="M1013 1465v-235q-166 113 -336 113q-87 0 -139.5 -29t-52.5 -77q0 -41 46 -86.5t152 -108.5q166 -100 261.5 -178t145 -174.5t49.5 -208.5q0 -233 -146 -369.5t-394 -136.5q-229 0 -372.5 133.5t-143.5 348.5q0 151 99 277t288 212q-223 147 -223 309q0 134 110 206.5 t302 72.5q171 0 354 -69zM629 841q-305 -133 -305 -383q0 -136 78.5 -216.5t209.5 -80.5q134 0 213 84t79 224q0 105 -64 191t-211 181z"/>
    <glyph glyph-name="epsilon" unicode="ε" horiz-adv-x="920" d="M852 21q-136 -46 -340 -46q-203 0 -320 81.5t-117 217.5q0 94 66.5 162.5t175.5 89.5v4q-82 18 -143 83t-61 148q0 136 111.5 212t297.5 76q151 0 285 -44v-195q-128 66 -270 66q-188 0 -188 -126q0 -65 70.5 -104.5t179.5 -39.5q73 0 118 4v-172q-73 4 -143 4 q-263 0 -263 -152q0 -65 62 -104t175 -39q164 0 304 70v-196z"/>
    <glyph glyph-name="sigma" unicode="σ" horiz-adv-x="1213" d="M1191 848h-242q127 -162 127 -359q0 -227 -132.5 -370t-355.5 -143q-230 0 -366.5 143.5t-136.5 382.5q0 522 533 522h573v-176zM737 848h-101q-312 0 -312 -353q0 -152 72 -243t192 -91q116 0 183.5 92.5t67.5 246.5q0 195 -102 348z"/>
    <glyph glyph-name="tau" unicode="τ" horiz-adv-x="1055" d="M1015 849h-377v-544q0 -127 113 -127q53 0 106 20v-184q-81 -29 -169 -29q-282 0 -282 302v562h-124q-128 0 -248 -95v195q86 75 270 75h711v-175z"/>
    <glyph glyph-name="phi" unicode="φ" horiz-adv-x="1480" d="M876 -24h-34v-457h-210v457h-28q-237 0 -378 144t-141 390q0 315 192 514h254q-219 -213 -219 -511q0 -166 81.5 -259t212.5 -93h26v501q0 386 319 386q197 0 320 -149t123 -401q0 -232 -141.5 -377t-376.5 -145zM842 161h29q130 0 212.5 94t82.5 256q0 158 -61.5 255 t-148.5 97q-114 0 -114 -114v-588z"/>
    <glyph glyph-name="underscoredbl" unicode="‗" horiz-adv-x="850" d="M0 -277v119h850v-119h-850zM0 -514v119h850v-119h-850z"/>
    <glyph glyph-name="exclamdbl" unicode="‼" horiz-adv-x="1075" d="M422 1434l-19 -1012h-190l-26 1012h235zM311 -20q-60 0 -102 38.5t-42 93.5q0 57 42 97t102 40q58 0 100.5 -40t42.5 -97q0 -55 -42.5 -93.5t-100.5 -38.5zM875 1434l-19 -1012h-190l-26 1012h235zM764 -20q-60 0 -102 38.5t-42 93.5q0 57 42 97t102 40q58 0 100.5 -40 t42.5 -97q0 -55 -42.5 -93.5t-100.5 -38.5z"/>
    <glyph glyph-name="uni207F" unicode="ⁿ" horiz-adv-x="852" d="M275 717h-165v719h163v-116h4q68 136 214 136q122 0 190 -74.5t68 -208.5v-456h-167v446q0 160 -134 160q-68 0 -120.5 -58.5t-52.5 -140.5v-407z"/>
    <glyph glyph-name="peseta" unicode="₧" horiz-adv-x="2457" d="M414 520v-520h-237v1434h362q498 0 498 -442q0 -214 -140.5 -343t-390.5 -129h-92zM414 1238v-524h82q292 0 292 269q0 255 -290 255h-84zM1669 10q-68 -33 -179 -33q-147 0 -212.5 69t-65.5 222v449h-139v172h139v250l223 54v-304h234v-172h-234v-388q0 -180 129 -180 q59 0 105 34v-173zM1733 32v206q129 -99 274 -99q147 0 147 104q0 38 -33 64.5t-268 128.5q-119 55 -119 186q0 127 98 203.5t253 76.5q146 0 234 -43v-189q-104 69 -228 69q-61 0 -98 -27t-37 -69q0 -53 117 -95q95 -38 161 -70t102.5 -85.5t36.5 -126.5q0 -135 -89.5 -212 t-245.5 -77q-192 0 -305 55z"/>
    <glyph glyph-name="IJ" unicode="Ĳ" horiz-adv-x="1404" d="M546 1434v-192h-131v-1050h131v-192h-500v192h131v1050h-131v192h500zM1241 514q0 -255 -126 -396.5t-336 -141.5q-98 0 -161 23v224q57 -39 147 -39q238 0 238 368v882h238v-920z"/>
    <glyph glyph-name="ij" unicode="ĳ" horiz-adv-x="1115" d="M268 1239q-57 0 -97.5 37t-40.5 94t40.5 95t97.5 38q59 0 100 -38t41 -95q0 -54 -41 -92.5t-100 -38.5zM383 0h-232v1024h232v-1024zM963 43q0 -252 -106 -388.5t-303 -136.5q-73 0 -142 32v199q65 -45 123 -45q196 0 196 346v974h232v-981zM849 1239q-57 0 -97.5 37 t-40.5 94t40.5 95t97.5 38q58 0 99 -38t41 -95q0 -54 -41 -92.5t-99 -38.5z"/>
    <glyph glyph-name="napostrophe" unicode="ŉ" horiz-adv-x="1241" d="M239 1462l-163 -445h-153l113 445h203zM1109 0h-232v577q0 287 -203 287q-106 0 -175 -79.5t-69 -200.5v-584h-233v1024h233v-170h4q115 194 332 194q167 0 255 -108.5t88 -313.5v-626z"/>
    <glyph glyph-name="minute" unicode="′" horiz-adv-x="528" d="M407 1442l-113 -445h-154l76 445h191z"/>
    <glyph glyph-name="second" unicode="″" horiz-adv-x="879" d="M751 1442l-115 -446h-154l76 446h193zM417 1442l-114 -445h-154l76 445h192z"/>
    <glyph glyph-name="uni2105" unicode="℅" horiz-adv-x="1706" d="M759 1257q-73 57 -157 57q-110 0 -177 -89.5t-67 -205.5q0 -171 152 -171q76 0 181 62l-32 -149q-106 -53 -201 -53q-130 0 -202.5 80t-72.5 215q0 193 117.5 322t307.5 129q114 0 187 -46zM1558 1434l-1233 -1434h-191l1233 1434h191zM1188 -20q-148 0 -226.5 83.5 t-78.5 218.5q0 177 114 309t286 132q137 0 217 -79.5t80 -218.5q0 -180 -112 -312.5t-280 -132.5zM1277 584q-94 0 -158.5 -95t-64.5 -208q0 -162 139 -162q91 0 153.5 91t62.5 215q0 159 -132 159z"/>
    <glyph glyph-name="uni2113" unicode="ℓ" horiz-adv-x="662" d="M14 422l178 236v454q0 226 61.5 302.5t172.5 76.5q100 0 159.5 -67.5t59.5 -171.5q0 -195 -285 -586v-416q0 -90 14 -110.5t44 -20.5q48 0 198 107v-162q-112 -88 -225 -88q-199 0 -199 241v225l-80 -98zM360 899q109 187 127.5 243.5t18.5 109.5q0 118 -76 118 q-29 0 -49.5 -31t-20.5 -213v-227z"/>
    <glyph glyph-name="uni25A1" unicode="□" horiz-adv-x="1237" d="M145 944h945v-944h-945v944zM221 868v-792h793v792h-793z"/>
    <glyph glyph-name="uni25AA" unicode="▪" horiz-adv-x="725" d="M594 907v-463h-463v463h463z"/>
    <glyph glyph-name="uni25AB" unicode="▫" horiz-adv-x="725" d="M131 907h463v-463h-463v463zM207 831v-311h311v311h-311z"/>
    <glyph glyph-name="uni25CF" unicode="●" horiz-adv-x="1237" d="M1059 578q0 -90 -34.5 -170t-94 -140.5t-139.5 -95.5t-171 -35t-171.5 34.5t-140.5 94t-95 140t-35 172.5q0 69 18 128t49.5 108t74 87t91.5 64t102 39.5t105 13.5q95 0 176 -37t140 -98.5t92 -141t33 -163.5z"/>
    <glyph glyph-name="openbullet" unicode="◦" horiz-adv-x="725" d="M363 426q-103 0 -177 74t-74 178q0 103 73 176q74 74 178 74q103 0 177 -74t74 -176q0 -106 -73 -179t-178 -73zM362 852q-72 0 -123 -52t-51 -122q0 -74 51 -125q53 -51 125 -51q73 0 124 51q50 52 50 125q0 70 -50 122q-51 52 -126 52z"/>
    <glyph glyph-name="Amacron" unicode="Ā" horiz-adv-x="1375" d="M1355 0h-261l-129 365h-564l-124 -365h-260l537 1434h268zM902 559l-199 572q-9 28 -19 90h-4q-9 -57 -20 -90l-197 -572h439zM957 1567h-543v137h543v-137z"/>
    <glyph glyph-name="amacron" unicode="ā" horiz-adv-x="1069" d="M937 0h-225v160h-4q-106 -184 -311 -184q-151 0 -236.5 82t-85.5 217q0 290 334 338l304 43q0 219 -208 219q-183 0 -330 -126v203q162 96 374 96q388 0 388 -382v-666zM713 503l-215 -30q-100 -13 -150.5 -48.5t-50.5 -124.5q0 -65 46.5 -106.5t124.5 -41.5 q106 0 175.5 74.5t69.5 187.5v89zM828 1204h-543v137h543v-137z"/>
    <glyph glyph-name="Ccircumflex" unicode="Ĉ" horiz-adv-x="1272" d="M1177 60q-162 -84 -403 -84q-312 0 -500 197t-188 517q0 344 211.5 556t534.5 212q208 0 345 -59v-236q-145 86 -320 86q-233 0 -377.5 -149t-144.5 -398q0 -237 135 -377.5t355 -140.5q203 0 352 96v-220zM1097 1567h-160l-161 211l-157 -211h-155l224 328h184z"/>
    <glyph glyph-name="ccircumflex" unicode="ĉ" horiz-adv-x="963" d="M884 47q-123 -71 -291 -71q-228 0 -368 142.5t-140 369.5q0 253 150.5 406.5t402.5 153.5q140 0 247 -49v-216q-107 80 -228 80q-147 0 -241 -99.5t-94 -260.5q0 -159 88.5 -251t237.5 -92q125 0 236 89v-202zM890 1204h-160l-161 211l-157 -211h-155l224 328h184z"/>
    <glyph glyph-name="Cdotaccent" unicode="Ċ" horiz-adv-x="1272" d="M1177 60q-162 -84 -403 -84q-312 0 -500 197t-188 517q0 344 211.5 556t534.5 212q208 0 345 -59v-236q-145 86 -320 86q-233 0 -377.5 -149t-144.5 -398q0 -237 135 -377.5t355 -140.5q203 0 352 96v-220zM790 1566q-50 0 -86.5 33.5t-36.5 82.5q0 48 36 81t87 33 t87 -32.5t36 -81.5q0 -48 -36 -82t-87 -34z"/>
    <glyph glyph-name="cdotaccent" unicode="ċ" horiz-adv-x="963" d="M884 47q-123 -71 -291 -71q-228 0 -368 142.5t-140 369.5q0 253 150.5 406.5t402.5 153.5q140 0 247 -49v-216q-107 80 -228 80q-147 0 -241 -99.5t-94 -260.5q0 -159 88.5 -251t237.5 -92q125 0 236 89v-202zM600 1203q-50 0 -86.5 33.5t-36.5 82.5q0 48 36 81t87 33 t87 -32.5t36 -81.5q0 -48 -36 -82t-87 -34z"/>
    <glyph glyph-name="Emacron" unicode="Ē" horiz-adv-x="1060" d="M982 0h-805v1434h773v-202h-535v-406h493v-201h-493v-424h567v-201zM841 1566h-543v137h543v-137z"/>
    <glyph glyph-name="emacron" unicode="ē" horiz-adv-x="1088" d="M1018 449h-698q4 -142 87.5 -219t229.5 -77q164 0 301 98v-187q-140 -88 -370 -88q-226 0 -354.5 139.5t-128.5 392.5q0 239 141.5 389.5t351.5 150.5t325 -135t115 -375v-89zM794 613q-1 125 -59 194.5t-160 69.5q-100 0 -169.5 -73t-85.5 -191h474zM841 1204h-543v137 h543v-137z"/>
    <glyph glyph-name="Ebreve" unicode="Ĕ" horiz-adv-x="1060" d="M982 0h-805v1434h773v-202h-535v-406h493v-201h-493v-424h567v-201zM872 1843q-11 -124 -97.5 -200t-209.5 -76q-130 0 -211.5 75.5t-87.5 200.5h136q12 -146 166 -146q65 0 111 39.5t56 106.5h137z"/>
    <glyph glyph-name="ebreve" unicode="ĕ" horiz-adv-x="1088" d="M1018 449h-698q4 -142 87.5 -219t229.5 -77q164 0 301 98v-187q-140 -88 -370 -88q-226 0 -354.5 139.5t-128.5 392.5q0 239 141.5 389.5t351.5 150.5t325 -135t115 -375v-89zM794 613q-1 125 -59 194.5t-160 69.5q-100 0 -169.5 -73t-85.5 -191h474zM867 1480 q-11 -124 -97.5 -200t-209.5 -76q-130 0 -211.5 75.5t-87.5 200.5h136q12 -146 166 -146q65 0 111 39.5t56 106.5h137z"/>
    <glyph glyph-name="Edotaccent" unicode="Ė" horiz-adv-x="1060" d="M982 0h-805v1434h773v-202h-535v-406h493v-201h-493v-424h567v-201zM566 1566q-50 0 -86.5 33.5t-36.5 82.5q0 48 36 81t87 33t87 -32.5t36 -81.5q0 -48 -36 -82t-87 -34z"/>
    <glyph glyph-name="edotaccent" unicode="ė" horiz-adv-x="1088" d="M1018 449h-698q4 -142 87.5 -219t229.5 -77q164 0 301 98v-187q-140 -88 -370 -88q-226 0 -354.5 139.5t-128.5 392.5q0 239 141.5 389.5t351.5 150.5t325 -135t115 -375v-89zM794 613q-1 125 -59 194.5t-160 69.5q-100 0 -169.5 -73t-85.5 -191h474zM584 1203 q-50 0 -86.5 33.5t-36.5 82.5q0 48 36 81t87 33t87 -32.5t36 -81.5q0 -48 -36 -82t-87 -34z"/>
    <glyph glyph-name="Gcircumflex" unicode="Ĝ" horiz-adv-x="1428" d="M1296 98q-224 -122 -499 -122q-318 0 -515 198t-197 524q0 333 215.5 546.5t547.5 213.5q239 0 402 -70v-245q-165 110 -393 110q-229 0 -375.5 -151t-146.5 -391q0 -247 126 -388.5t342 -141.5q148 0 256 57v341h-302v200h539v-681zM1121 1567h-160l-161 211l-157 -211 h-155l224 328h184z"/>
    <glyph glyph-name="gcircumflex" unicode="ĝ" horiz-adv-x="1234" d="M1083 82q0 -564 -567 -564q-200 0 -349 67v212q168 -96 319 -96q365 0 365 359v112h-4q-115 -196 -346 -196q-187 0 -301.5 136.5t-114.5 366.5q0 261 123 415t338 154q203 0 301 -166h4v142h232v-942zM853 469v133q0 108 -71.5 184.5t-178.5 76.5q-132 0 -206.5 -97.5 t-74.5 -272.5q0 -151 71.5 -241.5t189.5 -90.5q120 0 195 86.5t75 221.5zM922 1204h-160l-161 211l-157 -211h-155l224 328h184z"/>
    <glyph glyph-name="Gdotaccent" unicode="Ġ" horiz-adv-x="1428" d="M1296 98q-224 -122 -499 -122q-318 0 -515 198t-197 524q0 333 215.5 546.5t547.5 213.5q239 0 402 -70v-245q-165 110 -393 110q-229 0 -375.5 -151t-146.5 -391q0 -247 126 -388.5t342 -141.5q148 0 256 57v341h-302v200h539v-681zM806 1566q-50 0 -86.5 33.5 t-36.5 82.5q0 48 36 81t87 33t87 -32.5t36 -81.5q0 -48 -36 -82t-87 -34z"/>
    <glyph glyph-name="gdotaccent" unicode="ġ" horiz-adv-x="1234" d="M1083 82q0 -564 -567 -564q-200 0 -349 67v212q168 -96 319 -96q365 0 365 359v112h-4q-115 -196 -346 -196q-187 0 -301.5 136.5t-114.5 366.5q0 261 123 415t338 154q203 0 301 -166h4v142h232v-942zM853 469v133q0 108 -71.5 184.5t-178.5 76.5q-132 0 -206.5 -97.5 t-74.5 -272.5q0 -151 71.5 -241.5t189.5 -90.5q120 0 195 86.5t75 221.5zM600 1203q-50 0 -86.5 33.5t-36.5 82.5q0 48 36 81t87 33t87 -32.5t36 -81.5q0 -48 -36 -82t-87 -34z"/>
    <glyph glyph-name="Gcommaaccent" unicode="Ģ" horiz-adv-x="1428" d="M1296 98q-224 -122 -499 -122q-318 0 -515 198t-197 524q0 333 215.5 546.5t547.5 213.5q239 0 402 -70v-245q-165 110 -393 110q-229 0 -375.5 -151t-146.5 -391q0 -247 126 -388.5t342 -141.5q148 0 256 57v341h-302v200h539v-681zM924 -118l-167 -302h-155l105 302 h217z"/>
    <glyph glyph-name="gcommaaccent" unicode="ģ" horiz-adv-x="1234" d="M1083 82q0 -564 -567 -564q-200 0 -349 67v212q168 -96 319 -96q365 0 365 359v112h-4q-115 -196 -346 -196q-187 0 -301.5 136.5t-114.5 366.5q0 261 123 415t338 154q203 0 301 -166h4v142h232v-942zM853 469v133q0 108 -71.5 184.5t-178.5 76.5q-132 0 -206.5 -97.5 t-74.5 -272.5q0 -151 71.5 -241.5t189.5 -90.5q120 0 195 86.5t75 221.5zM465 1203l167 302h155l-105 -302h-217z"/>
    <glyph glyph-name="Hcircumflex" unicode="Ĥ" horiz-adv-x="1506" d="M1329 0h-239v622h-675v-622h-238v1434h238v-603h675v603h239v-1434zM1067 1566h-160l-161 211l-157 -211h-155l224 328h184z"/>
    <glyph glyph-name="hcircumflex" unicode="ĥ" horiz-adv-x="1192" d="M1061 0h-232v560q0 304 -203 304q-102 0 -172 -88t-70 -225v-551h-233v1516h233v-662h4q116 194 332 194q341 0 341 -417v-631zM956 1611h-160l-161 211l-157 -211h-155l224 328h184z"/>
    <glyph glyph-name="Hbar" unicode="Ħ" horiz-adv-x="1506" d="M1328 0h-238v622h-676v-622h-237v1023h-162v176h162v235h237v-235h676v235h238v-235h162v-176h-162v-1023zM414 1023v-193h676v193h-676z"/>
    <glyph glyph-name="hbar" unicode="ħ" horiz-adv-x="1205" d="M1076 0h-230v567q0 284 -205 284q-102 0 -171.5 -78.5t-69.5 -201.5v-571h-232v1192h-139v145h139v179h232v-179h331v-145h-331v-340h4q117 186 327 186q168 0 256.5 -107.5t88.5 -310.5v-620z"/>
    <glyph glyph-name="Itilde" unicode="Ĩ" horiz-adv-x="592" d="M546 1434v-192h-131v-1050h131v-192h-500v192h131v1050h-131v192h500zM635 1828q0 -116 -51.5 -189.5t-139.5 -73.5q-72 0 -165 48q-78 45 -121 45q-84 0 -84 -111h-115q0 119 51 190.5t143 71.5q68 0 157 -51q72 -44 125 -44q81 0 81 114h119z"/>
    <glyph glyph-name="itilde" unicode="ĩ" horiz-adv-x="535" d="M384 0h-233v1024h233v-1024zM601 1475q0 -116 -51.5 -189.5t-139.5 -73.5q-72 0 -165 48q-78 45 -121 45q-84 0 -84 -111h-115q0 119 51 190.5t143 71.5q68 0 157 -51q72 -44 125 -44q81 0 81 114h119z"/>
    <glyph glyph-name="Imacron" unicode="Ī" horiz-adv-x="592" d="M546 1434v-192h-131v-1050h131v-192h-500v192h131v1050h-131v192h500zM569 1566h-543v137h543v-137z"/>
    <glyph glyph-name="imacron" unicode="ī" horiz-adv-x="535" d="M384 0h-233v1024h233v-1024zM534 1204h-543v137h543v-137z"/>
    <glyph glyph-name="Ibreve" unicode="Ĭ" horiz-adv-x="592" d="M546 1434v-192h-131v-1050h131v-192h-500v192h131v1050h-131v192h500zM601 1842q-11 -124 -97.5 -200t-209.5 -76q-130 0 -211.5 75.5t-87.5 200.5h136q12 -146 166 -146q65 0 111 39.5t56 106.5h137z"/>
    <glyph glyph-name="ibreve" unicode="ĭ" horiz-adv-x="535" d="M384 0h-233v1024h233v-1024zM566 1480q-11 -124 -97.5 -200t-209.5 -76q-130 0 -211.5 75.5t-87.5 200.5h136q12 -146 166 -146q65 0 111 39.5t56 106.5h137z"/>
    <glyph glyph-name="Iogonek" unicode="Į" horiz-adv-x="592" d="M546 1434v-192h-131v-1050h131v-192h-500v192h131v1050h-131v192h500zM453 0q-151 -137 -151 -216q0 -68 65 -68q36 0 68 13v-121q-38 -16 -105 -16q-78 0 -125.5 42t-47.5 116q0 122 161 250h135z"/>
    <glyph glyph-name="iogonek" unicode="į" horiz-adv-x="535" d="M268 1239q-57 0 -97.5 37t-40.5 94t40.5 95t97.5 38q59 0 100 -38t41 -95q0 -54 -41 -92.5t-100 -38.5zM383 0h-232v1024h232v-1024zM383 0q-151 -137 -151 -216q0 -68 65 -68q36 0 68 13v-121q-38 -16 -105 -16q-78 0 -125.5 42t-47.5 116q0 122 161 250h135z"/>
    <glyph glyph-name="Jcircumflex" unicode="Ĵ" horiz-adv-x="812" d="M648 514q0 -255 -126 -396.5t-336 -141.5q-98 0 -161 23v224q57 -39 147 -39q238 0 238 368v882h238v-920zM845 1566h-160l-161 211l-157 -211h-155l224 328h184z"/>
    <glyph glyph-name="jcircumflex" unicode="ĵ" horiz-adv-x="535" d="M383 31q0 -246 -106 -379t-303 -133q-73 0 -142 31v196q68 -42 129 -42q190 0 190 302v1018h232v-993zM583 1204h-160l-161 211l-157 -211h-155l224 328h184z"/>
    <glyph glyph-name="Kcommaaccent" unicode="Ķ" horiz-adv-x="1251" d="M1262 0h-310l-499 656q-28 37 -34 50h-4v-706h-238v1434h238v-674h4q12 22 34 49l481 625h285l-563 -688zM782 -118l-167 -302h-155l105 302h217z"/>
    <glyph glyph-name="kcommaaccent" unicode="ķ" horiz-adv-x="1075" d="M1080 0h-294l-398 492h-4v-492h-233v1516h233v-961h4l376 469h279l-423 -494zM698 -118l-167 -302h-155l105 302h217z"/>
    <glyph glyph-name="kgreenlandic" unicode="ĸ" horiz-adv-x="1075" d="M1081 0h-295l-398 499h-4v-499h-233v1024h233v-471h4l376 471h284l-426 -488z"/>
    <glyph glyph-name="Lcommaaccent" unicode="Ļ" horiz-adv-x="1001" d="M971 0h-794v1434h238v-1233h556v-201zM798 -248q0 -194 -288 -194q-47 0 -81 3v111q44 -6 71 -6q133 0 133 82q0 74 -121 74q-10 0 -39 -4v182h136v-94q87 0 138 -40.5t51 -113.5z"/>
    <glyph glyph-name="lcommaaccent" unicode="ļ" horiz-adv-x="535" d="M384 0h-233v1516h233v-1516zM501 -248q0 -194 -288 -194q-47 0 -81 3v111q44 -6 71 -6q133 0 133 82q0 74 -121 74q-10 0 -39 -4v182h136v-94q87 0 138 -40.5t51 -113.5z"/>
    <glyph glyph-name="Ncommaaccent" unicode="Ņ" horiz-adv-x="1571" d="M1393 0h-260l-685 1054q-26 40 -43 83h-6q8 -46 8 -197v-940h-230v1434h277l662 -1029q42 -64 54 -88h4q-10 57 -10 193v924h229v-1434zM924 -118l-167 -302h-155l105 302h217z"/>
    <glyph glyph-name="ncommaaccent" unicode="ņ" horiz-adv-x="1195" d="M1063 0h-232v577q0 287 -203 287q-106 0 -175 -79.5t-69 -200.5v-584h-233v1024h233v-170h4q115 194 332 194q167 0 255 -108.5t88 -313.5v-626zM741 -118l-167 -302h-155l105 302h217z"/>
    <glyph glyph-name="Eng" unicode="Ŋ" horiz-adv-x="1571" d="M446 1054q-21 30 -43 83h-6q9 -49 9 -182v-955h-229v1434h276l662 -979q2 -2 53 -96h4q-9 66 -9 202v873h229v-1357q0 -499 -378 -499q-93 0 -167 32v203q77 -41 140 -41q174 0 174 229z"/>
    <glyph glyph-name="eng" unicode="ŋ" horiz-adv-x="1195" d="M1064 43q0 -465 -381 -465q-85 0 -154 31v202q72 -41 131 -41q172 0 172 254v539q0 301 -208 301q-103 0 -171.5 -79.5t-68.5 -200.5v-584h-233v1024h233v-170h4q116 194 332 194q344 0 344 -415v-590z"/>
    <glyph glyph-name="Omacron" unicode="Ō" horiz-adv-x="1548" d="M768 -24q-310 0 -496.5 201t-186.5 523q0 346 190 552t516 206q302 0 486.5 -200t184.5 -523q0 -351 -189 -555t-505 -204zM779 1249q-197 0 -320.5 -147t-123.5 -387q0 -239 120 -385t314 -146q206 0 325 139t119 389q0 257 -115.5 397t-318.5 140zM1048 1566h-543v137 h543v-137z"/>
    <glyph glyph-name="omacron" unicode="ō" horiz-adv-x="1223" d="M605 -24q-237 0 -378.5 143.5t-141.5 380.5q0 258 147.5 403t397.5 145q240 0 374 -141t134 -391q0 -245 -144.5 -392.5t-388.5 -147.5zM616 863q-136 0 -215 -95t-79 -262q0 -161 80 -253.5t214 -92.5q137 0 210.5 91t73.5 259q0 169 -73.5 261t-210.5 92zM888 1204 h-543v137h543v-137z"/>
    <glyph glyph-name="Obreve" unicode="Ŏ" horiz-adv-x="1548" d="M768 -24q-310 0 -496.5 201t-186.5 523q0 346 190 552t516 206q302 0 486.5 -200t184.5 -523q0 -351 -189 -555t-505 -204zM779 1249q-197 0 -320.5 -147t-123.5 -387q0 -239 120 -385t314 -146q206 0 325 139t119 389q0 257 -115.5 397t-318.5 140zM1082 1843 q-11 -124 -97.5 -200t-209.5 -76q-130 0 -211.5 75.5t-87.5 200.5h136q12 -146 166 -146q65 0 111 39.5t56 106.5h137z"/>
    <glyph glyph-name="obreve" unicode="ŏ" horiz-adv-x="1223" d="M605 -24q-237 0 -378.5 143.5t-141.5 380.5q0 258 147.5 403t397.5 145q240 0 374 -141t134 -391q0 -245 -144.5 -392.5t-388.5 -147.5zM616 863q-136 0 -215 -95t-79 -262q0 -161 80 -253.5t214 -92.5q137 0 210.5 91t73.5 259q0 169 -73.5 261t-210.5 92zM925 1480 q-11 -124 -97.5 -200t-209.5 -76q-130 0 -211.5 75.5t-87.5 200.5h136q12 -146 166 -146q65 0 111 39.5t56 106.5h137z"/>
    <glyph glyph-name="Rcommaaccent" unicode="Ŗ" horiz-adv-x="1275" d="M1285 0h-278l-229 384q-31 53 -60.5 90.5t-60 61.5t-66.5 35t-81 11h-96v-582h-237v1434h472q101 0 186 -24t148 -72.5t98.5 -121t35.5 -169.5q0 -76 -22.5 -139.5t-64 -113t-100 -84.5t-131.5 -54v-4q39 -22 68 -48.5t55 -54.5t51.5 -63.5t56.5 -82.5zM414 1241v-466 h198q55 0 101.5 17t80.5 49t53 78t19 103q0 103 -65 161t-187 58h-200zM801 -118l-167 -302h-155l105 302h217z"/>
    <glyph glyph-name="rcommaaccent" unicode="ŗ" horiz-adv-x="758" d="M745 803q-42 33 -121 33q-103 0 -172 -93t-69 -253v-490h-232v1024h232v-211h4q34 108 104.5 168.5t157.5 60.5q63 0 96 -19v-220zM562 -118l-167 -302h-155l105 302h217z"/>
    <glyph glyph-name="Scircumflex" unicode="Ŝ" horiz-adv-x="1115" d="M111 57v245q33 -30 78.5 -54t96.5 -40.5t102 -25.5t94 -9q150 0 223.5 50t73.5 145q0 51 -24.5 88.5t-68.5 68.5t-103.5 59.5t-127.5 59.5q-73 39 -136 79t-109.5 88.5t-73 109.5t-26.5 143q0 101 45.5 175.5t120 123t169.5 72t194 23.5q225 0 328 -51v-235 q-122 88 -314 88q-53 0 -105.5 -10t-94 -33t-67.5 -59t-26 -87q0 -48 20 -83t58.5 -64t94 -56.5t128.5 -59.5q75 -39 141.5 -82t117 -95t80 -115.5t29.5 -144.5q0 -109 -44 -184t-118.5 -122t-171.5 -68t-205 -21q-36 0 -88.5 5.5t-107.5 16t-104 25.5t-79 34zM886 1566 h-160l-161 211l-157 -211h-155l224 328h184z"/>
    <glyph glyph-name="scircumflex" unicode="ŝ" horiz-adv-x="883" d="M87 32v215q130 -99 287 -99q210 0 210 124q0 35 -18 59.5t-48.5 43.5t-72 34t-92.5 34q-63 25 -113.5 53t-84 63.5t-50.5 80.5t-17 105q0 74 35 130.5t94 95t134 58t155 19.5q142 0 254 -43v-203q-108 74 -248 74q-44 0 -79.5 -9t-60.5 -25t-39 -38.5t-14 -49.5 q0 -33 14 -56t41.5 -40.5t66 -32t88.5 -31.5q66 -27 118.5 -55t89.5 -63.5t57 -82t20 -110.5q0 -78 -36 -136t-96 -96t-138.5 -56.5t-165.5 -18.5q-168 0 -291 56zM762 1204h-160l-161 211l-157 -211h-155l224 328h184z"/>
    <glyph glyph-name="Tbar" unicode="Ŧ" horiz-adv-x="1130" d="M1097 1232h-412v-432h242v-205h-242v-595h-238v595h-244v205h244v432h-411v202h1061v-202z"/>
    <glyph glyph-name="tbar" unicode="ŧ" horiz-adv-x="740" d="M680 499h-235v-169q0 -91 32 -130t108 -39q59 0 105 32v-183q-68 -33 -179 -33q-298 0 -298 286v236h-155v166h155v177h-171v182h171v234q0 2 113 36l119 36v-306h245v-182h-245v-177h235v-166z"/>
    <glyph glyph-name="Utilde" unicode="Ũ" horiz-adv-x="1440" d="M1280 580q0 -604 -572 -604q-548 0 -548 581v877h238v-828q0 -422 328 -422q316 0 316 407v843h238v-854zM1059 1815q0 -116 -51.5 -189.5t-139.5 -73.5q-72 0 -165 48q-78 45 -121 45q-84 0 -84 -111h-115q0 119 51 190.5t143 71.5q68 0 157 -51q72 -44 125 -44 q81 0 81 114h119z"/>
    <glyph glyph-name="utilde" unicode="ũ" horiz-adv-x="1195" d="M1044 0h-232v162h-4q-101 -186 -314 -186q-363 0 -363 436v612h232v-588q0 -276 213 -276q103 0 169.5 76t66.5 199v589h232v-1024zM929 1475q0 -116 -51.5 -189.5t-139.5 -73.5q-72 0 -165 48q-78 45 -121 45q-84 0 -84 -111h-115q0 119 51 190.5t143 71.5q68 0 157 -51 q72 -44 125 -44q81 0 81 114h119z"/>
    <glyph glyph-name="Umacron" unicode="Ū" horiz-adv-x="1440" d="M1280 580q0 -604 -572 -604q-548 0 -548 581v877h238v-828q0 -422 328 -422q316 0 316 407v843h238v-854zM989 1566h-543v137h543v-137z"/>
    <glyph glyph-name="umacron" unicode="ū" horiz-adv-x="1195" d="M1044 0h-232v162h-4q-101 -186 -314 -186q-363 0 -363 436v612h232v-588q0 -276 213 -276q103 0 169.5 76t66.5 199v589h232v-1024zM860 1204h-543v137h543v-137z"/>
    <glyph glyph-name="Ubreve" unicode="Ŭ" horiz-adv-x="1440" d="M1280 580q0 -604 -572 -604q-548 0 -548 581v877h238v-828q0 -422 328 -422q316 0 316 407v843h238v-854zM1020 1842q-11 -124 -97.5 -200t-209.5 -76q-130 0 -211.5 75.5t-87.5 200.5h136q12 -146 166 -146q65 0 111 39.5t56 106.5h137z"/>
    <glyph glyph-name="ubreve" unicode="ŭ" horiz-adv-x="1195" d="M1044 0h-232v162h-4q-101 -186 -314 -186q-363 0 -363 436v612h232v-588q0 -276 213 -276q103 0 169.5 76t66.5 199v589h232v-1024zM891 1480q-11 -124 -97.5 -200t-209.5 -76q-130 0 -211.5 75.5t-87.5 200.5h136q12 -146 166 -146q65 0 111 39.5t56 106.5h137z"/>
    <glyph glyph-name="Uogonek" unicode="Ų" horiz-adv-x="1440" d="M1280 580q0 -604 -572 -604q-548 0 -548 581v877h238v-828q0 -422 328 -422q316 0 316 407v843h238v-854zM895 0q-151 -137 -151 -216q0 -68 65 -68q36 0 68 13v-121q-38 -16 -105 -16q-78 0 -125.5 42t-47.5 116q0 122 161 250h135z"/>
    <glyph glyph-name="uogonek" unicode="ų" horiz-adv-x="1195" d="M1044 0h-232v162h-4q-101 -186 -314 -186q-363 0 -363 436v612h232v-588q0 -276 213 -276q103 0 169.5 76t66.5 199v589h232v-1024zM949 0q-151 -137 -151 -216q0 -68 65 -68q36 0 68 13v-121q-38 -16 -105 -16q-78 0 -125.5 42t-47.5 116q0 122 161 250h135z"/>
    <glyph glyph-name="Wcircumflex" unicode="Ŵ" horiz-adv-x="1978" d="M1956 1434l-393 -1434h-269l-273 1003q-17 64 -21 140h-4q-5 -71 -24 -138l-274 -1005h-275l-401 1434h261l260 -1050q16 -66 20 -138h5q4 51 28 138l294 1050h245l272 -1058q14 -54 21 -128h4q3 50 23 132l255 1054h246zM1317 1566h-160l-161 211l-157 -211h-155 l224 328h184z"/>
    <glyph glyph-name="wcircumflex" unicode="ŵ" horiz-adv-x="1549" d="M1528 1024l-302 -1024h-243l-186 694q-11 40 -14 90h-4q-2 -34 -18 -88l-202 -696h-238l-301 1024h240l186 -738q9 -33 12 -88h7q3 42 16 90l207 736h218l184 -741q9 -35 13 -88h7q2 37 15 88l182 741h221zM1100 1204h-160l-161 211l-157 -211h-155l224 328h184z"/>
    <glyph glyph-name="Ycircumflex" unicode="Ŷ" horiz-adv-x="1182" d="M1176 1434l-470 -913v-521h-238v516l-458 918h271l282 -615q5 -11 30 -83h3q9 32 33 83l295 615h252zM910 1566h-160l-161 211l-157 -211h-155l224 328h184z"/>
    <glyph glyph-name="ycircumflex" unicode="ŷ" horiz-adv-x="1041" d="M1038 1024l-462 -1188q-144 -318 -404 -318q-73 0 -122 13v193q55 -18 100 -18q130 0 194 128l69 168l-407 1022h257l244 -744q4 -14 18 -74h5q5 23 18 72l256 746h234zM847 1204h-160l-161 211l-157 -211h-155l224 328h184z"/>
    <glyph glyph-name="longs" unicode="ſ" horiz-adv-x="548" d="M658 1328q-54 26 -112 26q-162 0 -162 -194v-1160h-233v1172q0 168 103 267q103 100 267 100q82 0 137 -19v-192z"/>
    <glyph glyph-name="Aringacute" unicode="Ǻ" horiz-adv-x="1375" d="M1355 0h-261l-129 365h-564l-124 -365h-260l537 1434h268zM902 559l-199 572q-9 28 -19 90h-4q-9 -57 -20 -90l-197 -572h439zM679 1333q-94 0 -155.5 54t-61.5 142q0 98 63 156t161 58q96 0 157.5 -58.5t61.5 -149.5q0 -87 -65.5 -144.5t-160.5 -57.5zM679 1643 q-45 0 -74.5 -30t-29.5 -74q0 -104 104 -104q48 0 79.5 29.5t31.5 74.5t-31.5 74.5t-79.5 29.5zM974 2133l-286 -328h-172l242 328h216z"/>
    <glyph glyph-name="aringacute" unicode="ǻ" horiz-adv-x="1069" d="M937 0h-225v160h-4q-106 -184 -311 -184q-151 0 -236.5 82t-85.5 217q0 290 334 338l304 43q0 219 -208 219q-183 0 -330 -126v203q162 96 374 96q388 0 388 -382v-666zM713 503l-215 -30q-100 -13 -150.5 -48.5t-50.5 -124.5q0 -65 46.5 -106.5t124.5 -41.5 q106 0 175.5 74.5t69.5 187.5v89zM541 1124q-94 0 -155.5 54t-61.5 142q0 98 63 156t161 58q96 0 157.5 -58.5t61.5 -149.5q0 -87 -65.5 -144.5t-160.5 -57.5zM541 1434q-45 0 -74.5 -30t-29.5 -74q0 -104 104 -104q48 0 79.5 29.5t31.5 74.5t-31.5 74.5t-79.5 29.5z M848 1950l-286 -328h-172l242 328h216z"/>
    <glyph glyph-name="AEacute" unicode="Ǽ" horiz-adv-x="1831" d="M1749 0h-804v365h-492l-172 -365h-275l710 1434h1000v-202h-534v-406h497v-201h-497v-424h567v-201zM945 559v673h-87l-317 -673h404zM1435 1908l-286 -328h-172l242 328h216z"/>
    <glyph glyph-name="aeacute" unicode="ǽ" horiz-adv-x="1700" d="M1630 449h-699q3 -142 85 -219.5t225 -77.5q171 0 310 99v-186q-135 -89 -367 -89q-275 0 -390 206h-4q-140 -206 -372 -206q-160 0 -251.5 82.5t-91.5 220.5q0 306 379 331l259 16q0 250 -201 250q-178 0 -336 -115v196q152 91 357 91q240 0 311 -170h4q114 170 349 170 q206 0 319.5 -135.5t113.5 -376.5v-87zM1406 613q-2 127 -59 195.5t-160 68.5q-98 0 -168.5 -72t-86.5 -192h474zM713 412v55l-177 -11q-121 -7 -180.5 -43t-59.5 -119q0 -64 46.5 -103t125.5 -39q103 0 174 74t71 186zM1159 1546l-286 -328h-172l242 328h216z"/>
    <glyph glyph-name="Oslashacute" unicode="Ǿ" horiz-adv-x="1548" d="M335 121l-148 -177l-99 83l154 184q-157 193 -157 489q0 343 189.5 550.5t517.5 207.5q233 0 401 -125l132 157l99 -81l-137 -162q176 -194 176 -512q0 -351 -189 -555t-506 -204q-261 0 -433 145zM1057 1171q-111 90 -276 90q-204 0 -330.5 -151.5t-126.5 -394.5 q0 -192 75 -321zM1136 1069l-659 -780q114 -117 291 -117q212 0 334 142.5t122 397.5q0 222 -88 357zM1095 1908l-286 -328h-172l242 328h216z"/>
    <glyph glyph-name="oslashacute" unicode="ǿ" horiz-adv-x="1223" d="M1188 1030l-155 -164q105 -137 105 -344q0 -252 -145.5 -399t-387.5 -147q-194 0 -322 95l-140 -151l-99 90l144 155q-103 137 -103 341q0 256 147 399.5t395 143.5q185 0 310 -91l151 163zM798 815q-67 59 -181 59q-141 0 -222.5 -97t-81.5 -268q0 -105 35 -178z M877 701l-456 -488q76 -62 194 -62q145 0 221 94.5t76 266.5q0 110 -35 189zM920 1546l-286 -328h-172l242 328h216z"/>
    <glyph glyph-name="anoteleia" unicode="·" horiz-adv-x="494" d="M246 499q-59 0 -101 40t-42 96q0 57 42 96.5t102 39.5t102.5 -39.5t42.5 -96.5q0 -56 -42.5 -96t-103.5 -40z"/>
    <glyph glyph-name="Wgrave" unicode="Ẁ" horiz-adv-x="1978" d="M1956 1434l-393 -1434h-269l-273 1003q-17 64 -21 140h-4q-5 -71 -24 -138l-274 -1005h-275l-401 1434h261l260 -1050q16 -66 20 -138h5q4 51 28 138l294 1050h245l272 -1058q14 -54 21 -128h4q3 50 23 132l255 1054h246zM1187 1566h-173l-262 328h214z"/>
    <glyph glyph-name="wgrave" unicode="ẁ" horiz-adv-x="1549" d="M1528 1024l-302 -1024h-243l-186 694q-11 40 -14 90h-4q-2 -34 -18 -88l-202 -696h-238l-301 1024h240l186 -738q9 -33 12 -88h7q3 42 16 90l207 736h218l184 -741q9 -35 13 -88h7q2 37 15 88l182 741h221zM981 1204h-173l-262 328h214z"/>
    <glyph glyph-name="Wacute" unicode="Ẃ" horiz-adv-x="1978" d="M1956 1434l-393 -1434h-269l-273 1003q-17 64 -21 140h-4q-5 -71 -24 -138l-274 -1005h-275l-401 1434h261l260 -1050q16 -66 20 -138h5q4 51 28 138l294 1050h245l272 -1058q14 -54 21 -128h4q3 50 23 132l255 1054h246zM1281 1908l-286 -328h-172l242 328h216z"/>
    <glyph glyph-name="wacute" unicode="ẃ" horiz-adv-x="1549" d="M1528 1024l-302 -1024h-243l-186 694q-11 40 -14 90h-4q-2 -34 -18 -88l-202 -696h-238l-301 1024h240l186 -738q9 -33 12 -88h7q3 42 16 90l207 736h218l184 -741q9 -35 13 -88h7q2 37 15 88l182 741h221zM1064 1546l-286 -328h-172l242 328h216z"/>
    <glyph glyph-name="Wdieresis" unicode="Ẅ" horiz-adv-x="1978" d="M1956 1434l-393 -1434h-269l-273 1003q-17 64 -21 140h-4q-5 -71 -24 -138l-274 -1005h-275l-401 1434h261l260 -1050q16 -66 20 -138h5q4 51 28 138l294 1050h245l272 -1058q14 -54 21 -128h4q3 50 23 132l255 1054h246zM1207 1566q-50 0 -86.5 33t-36.5 84q0 49 35 82 t85 33q53 0 89.5 -33.5t36.5 -81.5q0 -49 -35 -83t-88 -34zM791 1566q-52 0 -89 34.5t-37 82.5q0 49 35.5 82t86.5 33t88.5 -33.5t37.5 -81.5q0 -49 -36 -83t-86 -34z"/>
    <glyph glyph-name="wdieresis" unicode="ẅ" horiz-adv-x="1549" d="M1528 1024l-302 -1024h-243l-186 694q-11 40 -14 90h-4q-2 -34 -18 -88l-202 -696h-238l-301 1024h240l186 -738q9 -33 12 -88h7q3 42 16 90l207 736h218l184 -741q9 -35 13 -88h7q2 37 15 88l182 741h221zM998 1203q-50 0 -86.5 33t-36.5 84q0 49 35 82t85 33 q53 0 89.5 -33.5t36.5 -81.5q0 -49 -35 -83t-88 -34zM582 1203q-52 0 -89 34.5t-37 82.5q0 49 35.5 82t86.5 33t88.5 -33.5t37.5 -81.5q0 -49 -36 -83t-86 -34z"/>
    <glyph glyph-name="Ygrave" unicode="Ỳ" horiz-adv-x="1182" d="M1176 1434l-470 -913v-521h-238v516l-458 918h271l282 -615q5 -11 30 -83h3q9 32 33 83l295 615h252zM745 1566h-173l-262 328h214z"/>
    <glyph glyph-name="ygrave" unicode="ỳ" horiz-adv-x="1041" d="M1038 1024l-462 -1188q-144 -318 -404 -318q-73 0 -122 13v193q55 -18 100 -18q130 0 194 128l69 168l-407 1022h257l244 -744q4 -14 18 -74h5q5 23 18 72l256 746h234zM669 1204h-173l-262 328h214z"/>
    <glyph glyph-name="quotereversed" unicode="‛" horiz-adv-x="525" d="M427 1017h-151l-165 445h204z"/>
    <glyph glyph-name="uni203E" unicode="‾" horiz-adv-x="850" d="M850 1396h-850v120h850v-120z"/>
    <glyph glyph-name="lira" unicode="₤" horiz-adv-x="1137" d="M834 500h-283v-8q0 -220 -175 -307h678v-185h-932v176q207 65 207 287v37h-186v156h186v122h-186v157h186v88q0 191 116.5 313t301.5 122q124 0 223 -45v-201q-99 61 -210 61q-209 0 -209 -273v-65h283v-157h-283v-122h283v-156z"/>
    <glyph glyph-name="estimated" unicode="℮" horiz-adv-x="1229" d="M1144 530h-828l1 -370q120 -121 296 -121q255 0 395 245l72 -42q-104 -152 -213.5 -214.5t-252.5 -62.5q-238 0 -383.5 161.5t-145.5 403.5q0 254 148.5 410t376.5 156q216 0 368 -142t166 -424zM912 604v297q-130 123 -303 123q-175 0 -293 -123v-297h596z"/>
    <glyph glyph-name="oneeighth" unicode="⅛" horiz-adv-x="1928" d="M657 584h-531v139h181v541l-192 -48v149l361 90v-732h181v-139zM1446 1434l-875 -1434h-189l873 1434h191zM1628 449q166 -71 166 -221q0 -114 -84 -180t-237 -66q-127 0 -211.5 65t-84.5 172q0 150 162 229q-133 73 -133 197q0 102 78 164.5t211 62.5q122 0 198 -59.5 t76 -155.5q0 -131 -141 -208zM1487 521q117 50 117 122q0 95 -114 95q-52 0 -85 -26.5t-33 -67.5q0 -74 115 -123zM1480 377q-137 -48 -137 -151q0 -46 39 -77.5t100 -31.5q64 0 105.5 31.5t41.5 75.5q0 101 -149 153z"/>
    <glyph glyph-name="threeeighths" unicode="⅜" horiz-adv-x="1928" d="M130 616v160q104 -73 219 -73q75 0 118.5 33t43.5 89q0 124 -215 124h-82v140h78q192 0 192 117q0 106 -132 106q-97 0 -192 -67v155q92 54 225 54q122 0 194 -60.5t72 -157.5q0 -147 -144 -200v-4q174 -42 174 -200q0 -119 -90 -194t-241 -75q-140 0 -220 53zM1485 1434 l-875 -1434h-189l873 1434h191zM1667 448q166 -71 166 -221q0 -114 -84 -180t-237 -66q-127 0 -211.5 65t-84.5 172q0 150 162 229q-133 73 -133 197q0 102 78 164.5t211 62.5q122 0 198 -59.5t76 -155.5q0 -131 -141 -208zM1526 520q117 50 117 122q0 95 -114 95 q-52 0 -85 -26.5t-33 -67.5q0 -74 115 -123zM1519 376q-137 -48 -137 -151q0 -46 39 -77.5t100 -31.5q64 0 105.5 31.5t41.5 75.5q0 101 -149 153z"/>
    <glyph glyph-name="fiveeighths" unicode="⅝" horiz-adv-x="1936" d="M138 608v158q113 -66 199 -66q78 0 124 40t46 102q0 136 -189 136l-154 -10v469h475v-146h-322v-175q179 13 270.5 -61.5t91.5 -201.5q0 -128 -89.5 -209t-243.5 -81q-130 0 -208 45zM1485 1434l-875 -1434h-189l873 1434h191zM1669 449q166 -71 166 -221 q0 -114 -84 -180t-237 -66q-127 0 -211.5 65t-84.5 172q0 150 162 229q-133 73 -133 197q0 102 78 164.5t211 62.5q122 0 198 -59.5t76 -155.5q0 -131 -141 -208zM1528 521q117 50 117 122q0 95 -114 95q-52 0 -85 -26.5t-33 -67.5q0 -74 115 -123zM1521 377 q-137 -48 -137 -151q0 -46 39 -77.5t100 -31.5q64 0 105.5 31.5t41.5 75.5q0 101 -149 153z"/>
    <glyph glyph-name="seveneighths" unicode="⅞" horiz-adv-x="1858" d="M406 584h-180l314 713h-411v142h606v-73zM1375 1434l-875 -1434h-189l873 1434h191zM1558 449q166 -71 166 -221q0 -114 -84 -180t-237 -66q-127 0 -211.5 65t-84.5 172q0 150 162 229q-133 73 -133 197q0 102 78 164.5t211 62.5q122 0 198 -59.5t76 -155.5 q0 -131 -141 -208zM1417 521q117 50 117 122q0 95 -114 95q-52 0 -85 -26.5t-33 -67.5q0 -74 115 -123zM1410 377q-137 -48 -137 -151q0 -46 39 -77.5t100 -31.5q64 0 105.5 31.5t41.5 75.5q0 101 -149 153z"/>
    <glyph glyph-name="commaaccent" horiz-adv-x="900" d="M591 -118l-167 -302h-155l105 302h217z"/>
    <glyph glyph-name="undercommaaccent" horiz-adv-x="1025" d="M662 -115l-167 -302h-155l105 302h217z"/>
    <glyph glyph-name="uni037E" unicode=";" horiz-adv-x="494" d="M247 771q-59 0 -99.5 40.5t-40.5 96.5t40.5 95t99.5 39q57 0 98 -39t41 -95t-41 -96.5t-98 -40.5zM368 239l-152 -503h-177l109 503h220z"/>
    <glyph glyph-name="tonos" unicode="΄" horiz-adv-x="599" d="M515 1524l-189 -353h-128l99 353h218z"/>
    <glyph glyph-name="dieresistonos" unicode="΅" horiz-adv-x="683" d="M549 1564l-187 -367h-120l93 367h214zM625 1206q-49 0 -83.5 31.5t-34.5 79.5t34.5 80t82.5 32q50 0 85 -32.5t35 -79.5q0 -48 -35 -79.5t-84 -31.5zM83 1206q-48 0 -82.5 31.5t-34.5 79.5t34.5 80t82.5 32q49 0 84.5 -32.5t35.5 -79.5q0 -48 -35 -79.5t-85 -31.5z"/>
    <glyph glyph-name="Alphatonos" unicode="Ά" horiz-adv-x="1375" d="M1355 0h-261l-129 365h-564l-124 -365h-260l537 1434h268zM902 559l-199 572q-9 28 -19 90h-4q-9 -57 -20 -90l-197 -572h439zM322 1436l-189 -353h-128l99 353h218z"/>
    <glyph glyph-name="Epsilontonos" unicode="Έ" horiz-adv-x="1246" d="M1166 0h-805v1434h773v-202h-535v-406h493v-201h-493v-424h567v-201zM264 1436l-189 -353h-128l99 353h218z"/>
    <glyph glyph-name="Etatonos" unicode="Ή" horiz-adv-x="1691" d="M1513 0h-239v622h-675v-622h-238v1434h238v-603h675v603h239v-1434zM263 1436l-189 -353h-128l99 353h218z"/>
    <glyph glyph-name="Iotatonos" unicode="Ί" horiz-adv-x="868" d="M822 1434v-192h-131v-1050h131v-192h-500v192h131v1050h-131v192h500zM266 1436l-189 -353h-128l99 353h218z"/>
    <glyph glyph-name="Omicrontonos" unicode="Ό" horiz-adv-x="1681" d="M904 -24q-310 0 -496.5 201t-186.5 523q0 346 190 552t516 206q302 0 486.5 -200t184.5 -523q0 -351 -189 -555t-505 -204zM915 1249q-197 0 -320.5 -147t-123.5 -387q0 -239 120 -385t314 -146q206 0 325 139t119 389q0 257 -115.5 397t-318.5 140zM275 1436l-189 -353 h-128l99 353h218z"/>
    <glyph glyph-name="Upsilontonos" unicode="Ύ" horiz-adv-x="1470" d="M1462 1434l-470 -913v-521h-238v516l-458 918h271l282 -615q5 -11 30 -83h3q9 32 33 83l295 615h252zM243 1436l-189 -353h-128l99 353h218z"/>
    <glyph glyph-name="Omegatonos" unicode="Ώ" horiz-adv-x="1727" d="M1635 0h-556v198q308 235 308 584q0 217 -121.5 343.5t-313.5 126.5q-194 0 -317.5 -127t-123.5 -347q0 -346 307 -580v-198h-556v198h344q-343 224 -343 607q0 304 188 478.5t495 174.5q314 0 501.5 -173t187.5 -478q0 -383 -347 -609h347v-198zM270 1435l-189 -353 h-128l99 353h218z"/>
    <glyph glyph-name="iotadieresistonos" unicode="ΐ" horiz-adv-x="603" d="M580 12q-77 -27 -150 -27q-269 0 -269 303v736h231v-712q0 -135 96 -135q43 0 92 21v-186zM483 1564l-187 -367h-120l93 367h214zM559 1206q-49 0 -83.5 31.5t-34.5 79.5t34.5 80t82.5 32q50 0 85 -32.5t35 -79.5q0 -48 -35 -79.5t-84 -31.5zM17 1206q-48 0 -82.5 31.5 t-34.5 79.5t34.5 80t82.5 32q49 0 84.5 -32.5t35.5 -79.5q0 -48 -35 -79.5t-85 -31.5z"/>
    <glyph glyph-name="Alpha" unicode="Α" horiz-adv-x="1375" d="M1355 0h-261l-129 365h-564l-124 -365h-260l537 1434h268zM902 559l-199 572q-9 28 -19 90h-4q-9 -57 -20 -90l-197 -572h439z"/>
    <glyph glyph-name="Beta" unicode="Β" horiz-adv-x="1237" d="M177 0v1434h455q208 0 329.5 -91t121.5 -237q0 -122 -69 -212t-191 -128v-4q148 -17 236.5 -109.5t88.5 -240.5q0 -184 -145 -298t-366 -114h-460zM414 1243v-408h154q124 0 194.5 58.5t70.5 165.5q0 184 -246 184h-173zM414 644v-454h203q133 0 205.5 61.5t72.5 169.5 q0 223 -309 223h-172z"/>
    <glyph glyph-name="Epsilon" unicode="Ε" horiz-adv-x="1060" d="M982 0h-805v1434h773v-202h-535v-406h493v-201h-493v-424h567v-201z"/>
    <glyph glyph-name="Zeta" unicode="Ζ" horiz-adv-x="1202" d="M1155 1330l-786 -1129h776v-201h-1109v109l789 1123h-728v202h1058v-104z"/>
    <glyph glyph-name="Eta" unicode="Η" horiz-adv-x="1506" d="M1329 0h-239v622h-675v-622h-238v1434h238v-603h675v603h239v-1434z"/>
    <glyph glyph-name="Iota" unicode="Ι" horiz-adv-x="592" d="M546 1434v-192h-131v-1050h131v-192h-500v192h131v1050h-131v192h500z"/>
    <glyph glyph-name="Kappa" unicode="Κ" horiz-adv-x="1251" d="M1262 0h-310l-499 656q-28 37 -34 50h-4v-706h-238v1434h238v-674h4q12 22 34 49l481 625h285l-563 -688z"/>
    <glyph glyph-name="Lambda" unicode="Λ" horiz-adv-x="1347" d="M1325 0h-261l-363 1100q-16 47 -28 118h-5q-10 -62 -30 -117l-365 -1101h-255l518 1434h281z"/>
    <glyph glyph-name="Mu" unicode="Μ" horiz-adv-x="1893" d="M1717 0h-236v928q0 114 14 279h-4q-22 -94 -39 -135l-428 -1072h-164l-429 1064q-18 47 -38 143h-4q8 -86 8 -281v-926h-220v1434h335l377 -955q43 -110 56 -164h5q37 113 60 168l384 951h323v-1434z"/>
    <glyph glyph-name="Nu" unicode="Ν" horiz-adv-x="1571" d="M1393 0h-260l-685 1054q-26 40 -43 83h-6q8 -46 8 -197v-940h-230v1434h277l662 -1029q42 -64 54 -88h4q-10 57 -10 193v924h229v-1434z"/>
    <glyph glyph-name="Xi" unicode="Ξ" horiz-adv-x="1084" d="M1000 1225h-916v209h916v-209zM859 621h-634v203h634v-203zM1026 0h-968l1 211h967v-211z"/>
    <glyph glyph-name="Omicron" unicode="Ο" horiz-adv-x="1548" d="M768 -24q-310 0 -496.5 201t-186.5 523q0 346 190 552t516 206q302 0 486.5 -200t184.5 -523q0 -351 -189 -555t-505 -204zM779 1249q-197 0 -320.5 -147t-123.5 -387q0 -239 120 -385t314 -146q206 0 325 139t119 389q0 257 -115.5 397t-318.5 140z"/>
    <glyph glyph-name="Pi" unicode="Π" horiz-adv-x="1508" d="M1334 0h-239v1221h-680v-1221h-238v1434h1157v-1434z"/>
    <glyph glyph-name="Rho" unicode="Ρ" horiz-adv-x="1197" d="M414 520v-520h-237v1434h435q247 0 383 -115t136 -324t-142 -342t-384 -133h-191zM414 1238v-524h154q153 0 233 71t80 200q0 253 -294 253h-173z"/>
    <glyph glyph-name="Sigma" unicode="Σ" horiz-adv-x="1106" d="M1061 0h-1017v120l464 613l-429 568v133h920v-205h-581l368 -487l-404 -544h679v-198z"/>
    <glyph glyph-name="Tau" unicode="Τ" horiz-adv-x="1130" d="M1097 1232h-412v-1232h-238v1232h-411v202h1061v-202z"/>
    <glyph glyph-name="Upsilon" unicode="Υ" horiz-adv-x="1182" d="M1176 1434l-470 -913v-521h-238v516l-458 918h271l282 -615q5 -11 30 -83h3q9 32 33 83l295 615h252z"/>
    <glyph glyph-name="Chi" unicode="Χ" horiz-adv-x="1268" d="M1249 0h-285l-294 526q-13 24 -29 68h-4q-9 -22 -30 -68l-303 -526h-287l470 721l-432 713h291l259 -484q25 -48 45 -96h3q29 63 50 100l269 480h268l-442 -711z"/>
    <glyph glyph-name="Psi" unicode="Ψ" horiz-adv-x="1635" d="M923 1434v-858h42q317 0 317 333v525h218v-535q0 -232 -146 -379t-389 -147h-42v-373h-211v373h-43q-244 0 -389.5 147t-145.5 379v535h218v-525q0 -333 317 -333h43v858h211z"/>
    <glyph glyph-name="uni03A9" unicode="Ω" horiz-adv-x="1556" d="M1465 0h-556v198q308 235 308 584q0 217 -121.5 343.5t-313.5 126.5q-194 0 -317.5 -127t-123.5 -347q0 -346 307 -580v-198h-556v198h344q-343 224 -343 607q0 304 188 478.5t495 174.5q314 0 501.5 -173t187.5 -478q0 -383 -347 -609h347v-198z"/>
    <glyph glyph-name="Iotadieresis" unicode="Ϊ" horiz-adv-x="592" d="M546 1434v-192h-131v-1050h131v-192h-500v192h131v1050h-131v192h500zM510 1551q-50 0 -86.5 33t-36.5 84q0 49 35 82t85 33q53 0 89.5 -33.5t36.5 -81.5q0 -49 -35 -83t-88 -34zM94 1551q-52 0 -89 34.5t-37 82.5q0 49 35.5 82t86.5 33t88.5 -33.5t37.5 -81.5 q0 -49 -36 -83t-86 -34z"/>
    <glyph glyph-name="Upsilondieresis" unicode="Ϋ" horiz-adv-x="1182" d="M1176 1434l-470 -913v-521h-238v516l-458 918h271l282 -615q5 -11 30 -83h3q9 32 33 83l295 615h252zM798 1550q-50 0 -86.5 33t-36.5 84q0 49 35 82t85 33q53 0 89.5 -33.5t36.5 -81.5q0 -49 -35 -83t-88 -34zM382 1550q-52 0 -89 34.5t-37 82.5q0 49 35.5 82t86.5 33 t88.5 -33.5t37.5 -81.5q0 -49 -36 -83t-86 -34z"/>
    <glyph glyph-name="alphatonos" unicode="ά" horiz-adv-x="1279" d="M1252 8q-67 -19 -120 -19q-175 0 -236 264h-5q-141 -277 -395 -277q-188 0 -301 143.5t-113 362.5q0 250 129 408t349 158q119 0 212 -66t141 -186h4l76 228h238l-205 -510q34 -190 72 -258.5t99 -68.5q33 0 57 10zM837 522q-32 166 -98.5 254.5t-159.5 88.5 q-120 0 -191.5 -106.5t-71.5 -262.5q0 -141 62 -236t166 -95q88 0 160.5 81t120.5 238zM833 1524l-189 -353h-128l99 353h218z"/>
    <glyph glyph-name="epsilontonos" unicode="έ" horiz-adv-x="920" d="M852 21q-136 -46 -340 -46q-203 0 -320 81.5t-117 217.5q0 94 66.5 162.5t175.5 89.5v4q-82 18 -143 83t-61 148q0 136 111.5 212t297.5 76q151 0 285 -44v-195q-128 66 -270 66q-188 0 -188 -126q0 -65 70.5 -104.5t179.5 -39.5q73 0 118 4v-172q-73 4 -143 4 q-263 0 -263 -152q0 -65 62 -104t175 -39q164 0 304 70v-196zM735 1524l-189 -353h-128l99 353h218z"/>
    <glyph glyph-name="etatonos" unicode="ή" horiz-adv-x="1211" d="M1064 -436h-235v994q0 287 -205 287q-105 0 -173 -76.5t-68 -193.5v-575h-232v694q0 234 -38 330h238q30 -72 30 -169h4q109 193 335 193q344 0 344 -427v-1057zM840 1524l-189 -353h-128l99 353h218z"/>
    <glyph glyph-name="iotatonos" unicode="ί" horiz-adv-x="603" d="M580 12q-77 -27 -150 -27q-269 0 -269 303v736h231v-712q0 -135 96 -135q43 0 92 21v-186zM505 1524l-189 -353h-128l99 353h218z"/>
    <glyph glyph-name="upsilondieresistonos" unicode="ΰ" horiz-adv-x="1195" d="M165 688q0 82 -19 120t-70 38q-26 0 -56 -7v179q66 18 131 18q138 0 192 -73.5t54 -237.5v-255q0 -302 239 -302q109 0 170 77t61 218q0 296 -134 561h248q120 -248 120 -555q0 -228 -125.5 -361t-343.5 -133q-225 0 -346 119t-121 343v251zM776 1564l-187 -367h-120 l93 367h214zM852 1206q-49 0 -83.5 31.5t-34.5 79.5t34.5 80t82.5 32q50 0 85 -32.5t35 -79.5q0 -48 -35 -79.5t-84 -31.5zM310 1206q-48 0 -82.5 31.5t-34.5 79.5t34.5 80t82.5 32q49 0 84.5 -32.5t35.5 -79.5q0 -48 -35 -79.5t-85 -31.5z"/>
    <glyph glyph-name="beta" unicode="β" horiz-adv-x="1190" d="M383 36v-513h-232v1561q0 206 121.5 327.5t326.5 121.5q196 0 308.5 -96t112.5 -266q0 -117 -76.5 -218.5t-198.5 -139.5v-4q181 -28 276 -132.5t95 -266.5q0 -193 -127.5 -313.5t-335.5 -120.5q-148 0 -270 60zM526 709v171q113 15 186 92.5t73 174.5q0 200 -189 200 q-103 0 -158 -70t-55 -197v-842q127 -77 248 -77q117 0 182.5 65t65.5 182q0 266 -353 301z"/>
    <glyph glyph-name="gamma" unicode="γ" horiz-adv-x="1107" d="M621 -71q0 -318 -4 -410h-241q17 170 17 497q-40 215 -159.5 514.5t-242.5 493.5h267q228 -414 314 -821h3q135 227 186.5 387t51.5 313q0 58 -10 121h234q6 -53 6 -85q0 -134 -29.5 -263.5t-91.5 -256t-110 -197.5z"/>
    <glyph glyph-name="zeta" unicode="ζ" horiz-adv-x="927" d="M841 -309h-251q106 85 106 166q0 68 -59 100.5t-194 50.5q-372 48 -372 445q0 413 563 883v4h-412v176h642v-178q-554 -483 -554 -866q0 -237 267 -282q200 -36 271 -107.5t71 -186.5q0 -113 -78 -205z"/>
    <glyph glyph-name="eta" unicode="η" horiz-adv-x="1211" d="M1064 -436h-235v994q0 287 -205 287q-105 0 -173 -76.5t-68 -193.5v-575h-232v694q0 234 -38 330h238q30 -72 30 -169h4q109 193 335 193q344 0 344 -427v-1057z"/>
    <glyph glyph-name="theta" unicode="θ" horiz-adv-x="1224" d="M601 -24q-244 0 -380 202.5t-136 569.5q0 381 140 584t403 203q510 0 510 -764q0 -380 -140.5 -587.5t-396.5 -207.5zM898 854q-16 494 -284 494q-128 0 -204.5 -134t-85.5 -360h574zM898 679h-575q4 -252 80.5 -384.5t211.5 -132.5q131 0 205 134t78 383z"/>
    <glyph glyph-name="iota" unicode="ι" horiz-adv-x="603" d="M580 12q-77 -27 -150 -27q-269 0 -269 303v736h231v-712q0 -135 96 -135q43 0 92 21v-186z"/>
    <glyph glyph-name="kappa" unicode="κ" horiz-adv-x="1116" d="M1099 0h-277l-321 464l-118 -125v-339h-232v1024h232v-464l236 278q132 138 195.5 169t118.5 31q57 0 95 -10v-195q-34 10 -70 10q-74 1 -201 -129l-95 -103z"/>
    <glyph glyph-name="lambda" unicode="λ" horiz-adv-x="1067" d="M1041 0h-246l-243 773l-299 -773h-255l458 1016l-57 163q-52 135 -151 135q-58 0 -131 -27v209q79 18 161 18q127 0 205.5 -69t148.5 -263z"/>
    <glyph glyph-name="uni03BC" unicode="μ" horiz-adv-x="1228" d="M826 168q-80 -191 -262 -191q-125 0 -176 86h-4v-505h-233v1466h232v-609q0 -108 57 -176.5t151 -68.5q102 0 161 80t59 208v566h234l-1 -676q0 -166 107 -166q27 0 47 7v-183q-75 -17 -135 -17q-97 0 -151.5 43.5t-79.5 135.5h-6z"/>
    <glyph glyph-name="nu" unicode="ν" horiz-adv-x="1103" d="M622 0h-218l-408 1024h250l303 -824q224 298 224 572q0 146 -42 252h239q31 -80 31 -212q0 -366 -379 -812z"/>
    <glyph glyph-name="xi" unicode="ξ" horiz-adv-x="941" d="M842 -312h-251q106 78 106 162q0 55 -39 88.5t-176 52.5q-197 25 -304 132t-107 279q0 136 86 241.5t244 162.5q-103 28 -158.5 90t-55.5 147q0 100 83.5 179t225.5 114v8q-299 -5 -335 -5v177h654v-175q-186 -29 -297 -105.5t-111 -182.5q0 -63 37.5 -106.5t96.5 -61 t97 -17.5q24 0 76 4q51 3 81 3v-196q-54 3 -126 3q-154 0 -257 -70t-103 -187q0 -195 257 -235q200 -33 277.5 -104t77.5 -191q0 -117 -79 -207z"/>
    <glyph glyph-name="omicron" unicode="ο" horiz-adv-x="1223" d="M605 -24q-237 0 -378.5 143.5t-141.5 380.5q0 258 147.5 403t397.5 145q240 0 374 -141t134 -391q0 -245 -144.5 -392.5t-388.5 -147.5zM616 863q-136 0 -215 -95t-79 -262q0 -161 80 -253.5t214 -92.5q137 0 210.5 91t73.5 259q0 169 -73.5 261t-210.5 92z"/>
    <glyph glyph-name="rho" unicode="ρ" horiz-adv-x="1230" d="M382 85h-4v-480h-232v912q0 251 123.5 391t362.5 140q233 0 372.5 -148.5t139.5 -375.5q0 -259 -123 -403.5t-344 -144.5q-185 0 -295 109zM378 280q34 -52 104 -85.5t146 -33.5q278 0 278 355q0 152 -78 249t-198 97q-123 0 -187.5 -85.5t-64.5 -245.5v-251z"/>
    <glyph glyph-name="sigma1" unicode="ς" horiz-adv-x="968" d="M844 -312h-249q107 77 107 167q0 65 -51.5 94.5t-162.5 45.5q-197 25 -303 142t-106 297q0 279 156.5 447t400.5 168q135 0 243 -52v-212q-109 78 -233 78q-142 0 -235 -116t-93 -290q0 -62 17.5 -109t46.5 -73t59.5 -39.5t301.5 -95.5q180 -65 180 -251q0 -113 -79 -201 z"/>
    <glyph glyph-name="upsilon" unicode="υ" horiz-adv-x="1195" d="M165 688q0 82 -19 120t-70 38q-26 0 -56 -7v179q66 18 131 18q138 0 192 -73.5t54 -237.5v-255q0 -302 239 -302q109 0 170 77t61 218q0 296 -134 561h248q120 -248 120 -555q0 -228 -125.5 -361t-343.5 -133q-225 0 -346 119t-121 343v251z"/>
    <glyph glyph-name="chi" unicode="χ" horiz-adv-x="1117" d="M1112 -464q-54 -15 -116 -15q-92 0 -158.5 60.5t-143.5 215.5l-147 339l-301 -601h-251l446 813l-165 367q-62 138 -130 138q-51 0 -93 -19v199q39 15 122 15q89 0 144.5 -38t108.5 -138l139 -325l231 477h253l-375 -685l222 -484q64 -139 132 -139q39 0 82 19v-199z"/>
    <glyph glyph-name="psi" unicode="ψ" horiz-adv-x="1574" d="M1435 556q0 -268 -143 -423.5t-377 -155.5h-24v-459h-209v459h-24q-236 0 -378 155t-142 424v468h225v-467q0 -176 85 -283.5t214 -107.5h20v1165h209v-1165h20q128 0 214 107t86 284v467h224v-468z"/>
    <glyph glyph-name="omega" unicode="ω" horiz-adv-x="1677" d="M840 168h-4q-105 -191 -310 -191q-197 0 -308 130.5t-111 360.5q0 253 127 556h245q-147 -311 -147 -560q0 -143 52.5 -219t145.5 -76q197 0 197 299v282h223v-282q0 -299 196 -299q92 0 145 76t53 219q0 249 -147 560h244q129 -304 129 -556q0 -231 -111 -361t-311 -130 q-205 0 -308 191z"/>
    <glyph glyph-name="iotadieresis" unicode="ϊ" horiz-adv-x="603" d="M580 12q-77 -27 -150 -27q-269 0 -269 303v736h231v-712q0 -135 96 -135q43 0 92 21v-186zM507 1190q-50 0 -86.5 33t-36.5 84q0 49 35 82t85 33q53 0 89.5 -33.5t36.5 -81.5q0 -49 -35 -83t-88 -34zM91 1190q-52 0 -89 34.5t-37 82.5q0 49 35.5 82t86.5 33t88.5 -33.5 t37.5 -81.5q0 -49 -36 -83t-86 -34z"/>
    <glyph glyph-name="upsilondieresis" unicode="ϋ" horiz-adv-x="1195" d="M165 688q0 82 -19 120t-70 38q-26 0 -56 -7v179q66 18 131 18q138 0 192 -73.5t54 -237.5v-255q0 -302 239 -302q109 0 170 77t61 218q0 296 -134 561h248q120 -248 120 -555q0 -228 -125.5 -361t-343.5 -133q-225 0 -346 119t-121 343v251zM794 1190q-50 0 -86.5 33 t-36.5 84q0 49 35 82t85 33q53 0 89.5 -33.5t36.5 -81.5q0 -49 -35 -83t-88 -34zM378 1190q-52 0 -89 34.5t-37 82.5q0 49 35.5 82t86.5 33t88.5 -33.5t37.5 -81.5q0 -49 -36 -83t-86 -34z"/>
    <glyph glyph-name="omicrontonos" unicode="ό" horiz-adv-x="1223" d="M605 -24q-237 0 -378.5 143.5t-141.5 380.5q0 258 147.5 403t397.5 145q240 0 374 -141t134 -391q0 -245 -144.5 -392.5t-388.5 -147.5zM616 863q-136 0 -215 -95t-79 -262q0 -161 80 -253.5t214 -92.5q137 0 210.5 91t73.5 259q0 169 -73.5 261t-210.5 92zM815 1524 l-189 -353h-128l99 353h218z"/>
    <glyph glyph-name="upsilontonos" unicode="ύ" horiz-adv-x="1195" d="M165 688q0 82 -19 120t-70 38q-26 0 -56 -7v179q66 18 131 18q138 0 192 -73.5t54 -237.5v-255q0 -302 239 -302q109 0 170 77t61 218q0 296 -134 561h248q120 -248 120 -555q0 -228 -125.5 -361t-343.5 -133q-225 0 -346 119t-121 343v251zM791 1524l-189 -353h-128 l99 353h218z"/>
    <glyph glyph-name="omegatonos" unicode="ώ" horiz-adv-x="1677" d="M840 168h-4q-105 -191 -310 -191q-197 0 -308 130.5t-111 360.5q0 253 127 556h245q-147 -311 -147 -560q0 -143 52.5 -219t145.5 -76q197 0 197 299v282h223v-282q0 -299 196 -299q92 0 145 76t53 219q0 249 -147 560h244q129 -304 129 -556q0 -231 -111 -361t-311 -130 q-205 0 -308 191zM1033 1524l-189 -353h-128l99 353h218z"/>
    <glyph glyph-name="uni0401" unicode="Ё" horiz-adv-x="1060" d="M982 0h-805v1434h773v-202h-535v-406h493v-201h-493v-424h567v-201zM788 1551q-50 0 -86.5 33t-36.5 84q0 49 35 82t85 33q53 0 89.5 -33.5t36.5 -81.5q0 -49 -35 -83t-88 -34zM372 1551q-52 0 -89 34.5t-37 82.5q0 49 35.5 82t86.5 33t88.5 -33.5t37.5 -81.5 q0 -49 -36 -83t-86 -34z"/>
    <glyph glyph-name="uni0402" unicode="Ђ" horiz-adv-x="1484" d="M813 9v191q64 -31 154 -31q82 0 131 61t49 165q0 123 -75 191.5t-209 68.5h-221v-655h-238v1231h-368v203h1060v-203h-454v-388h252q226 0 357 -117t131 -329q0 -196 -102.5 -304.5t-289.5 -108.5q-99 0 -177 25z"/>
    <glyph glyph-name="uni0403" unicode="Ѓ" horiz-adv-x="1003" d="M971 1228h-556v-1228h-238v1434h794v-206zM891 1894l-286 -328h-172l242 328h216z"/>
    <glyph glyph-name="uni0404" unicode="Є" horiz-adv-x="1270" d="M1171 55q-161 -79 -400 -79q-310 0 -498 197t-188 515q0 348 200 559t517 211q216 0 369 -57v-232q-160 86 -360 86q-195 0 -321 -118t-148 -325h597v-198h-597q15 -204 139.5 -320.5t320.5 -116.5q217 0 369 95v-217z"/>
    <glyph glyph-name="uni0405" unicode="Ѕ" horiz-adv-x="1115" d="M111 57v245q33 -30 78.5 -54t96.5 -40.5t102 -25.5t94 -9q150 0 223.5 50t73.5 145q0 51 -24.5 88.5t-68.5 68.5t-103.5 59.5t-127.5 59.5q-73 39 -136 79t-109.5 88.5t-73 109.5t-26.5 143q0 101 45.5 175.5t120 123t169.5 72t194 23.5q225 0 328 -51v-235 q-122 88 -314 88q-53 0 -105.5 -10t-94 -33t-67.5 -59t-26 -87q0 -48 20 -83t58.5 -64t94 -56.5t128.5 -59.5q75 -39 141.5 -82t117 -95t80 -115.5t29.5 -144.5q0 -109 -44 -184t-118.5 -122t-171.5 -68t-205 -21q-36 0 -88.5 5.5t-107.5 16t-104 25.5t-79 34z"/>
    <glyph glyph-name="uni0407" unicode="Ї" horiz-adv-x="592" d="M546 1434v-192h-131v-1050h131v-192h-500v192h131v1050h-131v192h500zM511 1551q-50 0 -86.5 33t-36.5 84q0 49 35 82t85 33q53 0 89.5 -33.5t36.5 -81.5q0 -49 -35 -83t-88 -34zM95 1551q-52 0 -89 34.5t-37 82.5q0 49 35.5 82t86.5 33t88.5 -33.5t37.5 -81.5 q0 -49 -36 -83t-86 -34z"/>
    <glyph glyph-name="uni0409" unicode="Љ" horiz-adv-x="2058" d="M1252 852h273q216 0 334.5 -105.5t118.5 -301.5q0 -204 -132.5 -324.5t-363.5 -120.5h-468v1229h-348q-72 -519 -114 -733.5t-85 -316t-116 -151t-176 -49.5q-90 0 -156 24v206q50 -29 110 -29t113 71t107.5 369.5t121.5 813.5h781v-582zM1252 659v-465h204 q131 0 201.5 62.5t70.5 172.5q0 230 -272 230h-204z"/>
    <glyph glyph-name="uni040A" unicode="Њ" horiz-adv-x="2072" d="M1029 0v642h-615v-642h-237v1434h237v-585h615v585h237v-578h246q227 0 353.5 -106t126.5 -303q0 -207 -134.5 -327t-368.5 -120h-460zM1266 659v-464h205q130 0 200.5 62.5t70.5 173.5q0 228 -271 228h-205z"/>
    <glyph glyph-name="uni040B" unicode="Ћ" horiz-adv-x="1551" d="M1439 0h-237v376q0 265 -266 265h-251v-641h-238v1231h-411v203h1061v-203h-412v-386h278q476 0 476 -458v-387z"/>
    <glyph glyph-name="uni040C" unicode="Ќ" horiz-adv-x="1251" d="M1262 0h-310l-499 656q-28 37 -34 50h-4v-706h-238v1434h238v-674h4q12 22 34 49l481 625h285l-563 -688zM989 1908l-286 -328h-172l242 328h216z"/>
    <glyph glyph-name="uni040E" unicode="Ў" horiz-adv-x="1206" d="M1216 1434l-446 -993q-124 -271 -239.5 -368.5t-252.5 -97.5q-109 0 -182 31v227q87 -52 167 -52q71 0 130.5 54t128.5 190l-479 1009h271l296 -680q9 -21 35 -104h2q3 10 38 104l279 680h252zM1029 1888q-16 -150 -123.5 -236.5t-269.5 -86.5q-166 0 -270.5 86.5 t-114.5 236.5h193q14 -182 195 -182q80 0 132.5 48t64.5 134h193z"/>
    <glyph glyph-name="uni040F" unicode="Џ" horiz-adv-x="1503" d="M1329 0h-473v-387h-212v387h-467v1434h238v-1226h675v1226h239v-1434z"/>
    <glyph glyph-name="uni0410" unicode="А" horiz-adv-x="1375" d="M1355 0h-261l-129 365h-564l-124 -365h-260l537 1434h268zM902 559l-199 572q-9 28 -19 90h-4q-9 -57 -20 -90l-197 -572h439z"/>
    <glyph glyph-name="uni0411" unicode="Б" horiz-adv-x="1236" d="M177 0v1434h837v-203h-599v-392h274q220 0 342.5 -104t122.5 -295q0 -204 -130.5 -322t-355.5 -118h-491zM415 650v-460h215q131 0 202 62t71 173q0 225 -269 225h-219z"/>
    <glyph glyph-name="uni0412" unicode="В" horiz-adv-x="1237" d="M177 0v1434h455q208 0 329.5 -91t121.5 -237q0 -122 -69 -212t-191 -128v-4q148 -17 236.5 -109.5t88.5 -240.5q0 -184 -145 -298t-366 -114h-460zM414 1243v-408h154q124 0 194.5 58.5t70.5 165.5q0 184 -246 184h-173zM414 644v-454h203q133 0 205.5 61.5t72.5 169.5 q0 223 -309 223h-172z"/>
    <glyph glyph-name="uni0413" unicode="Г" horiz-adv-x="1003" d="M971 1228h-556v-1228h-238v1434h794v-206z"/>
    <glyph glyph-name="uni0414" unicode="Д" horiz-adv-x="1495" d="M1424 -387h-213v387h-974v-387h-212v589h121q135 253 229 590.5t106 641.5h745v-1232h198v-589zM988 202v1027h-310q-14 -224 -97 -525t-185 -502h592z"/>
    <glyph glyph-name="uni0415" unicode="Е" horiz-adv-x="1060" d="M982 0h-805v1434h773v-202h-535v-406h493v-201h-493v-424h567v-201z"/>
    <glyph glyph-name="uni0416" unicode="Ж" horiz-adv-x="1891" d="M1906 0h-305l-504 649q-21 28 -33 50h-4v-699h-230v699h-4q-13 -25 -33 -50l-504 -649h-306l608 746l-565 688h287l475 -612q23 -29 38 -56h4v668h230v-668h4q13 25 38 56l475 612h286l-564 -688z"/>
    <glyph glyph-name="uni0417" unicode="З" horiz-adv-x="1123" d="M85 56v228q169 -120 384 -120q141 0 224.5 65.5t83.5 175.5q0 240 -339 240h-165v186h155q144 0 223 60t79 169q0 94 -67 150.5t-184 56.5q-178 0 -347 -108v212q166 87 383 87q216 0 340 -98.5t124 -258.5q0 -277 -277 -350v-4q148 -17 235.5 -110t87.5 -230 q0 -197 -147 -314t-402 -117q-253 0 -391 80z"/>
    <glyph glyph-name="uni0418" unicode="И" horiz-adv-x="1572" d="M1393 0h-229v955q0 129 10 182h-6q-17 -45 -42 -83l-688 -1054h-261v1434h230v-912q0 -157 -8 -205h4q20 40 52 88l664 1029h274v-1434z"/>
    <glyph glyph-name="uni0419" unicode="Й" horiz-adv-x="1572" d="M1393 0h-229v955q0 129 10 182h-6q-17 -45 -42 -83l-688 -1054h-261v1434h230v-912q0 -157 -8 -205h4q20 40 52 88l664 1029h274v-1434zM1185 1888q-16 -150 -123.5 -236.5t-269.5 -86.5q-166 0 -270.5 86.5t-114.5 236.5h193q14 -182 195 -182q80 0 132.5 48t64.5 134 h193z"/>
    <glyph glyph-name="uni041A" unicode="К" horiz-adv-x="1251" d="M1262 0h-310l-499 656q-28 37 -34 50h-4v-706h-238v1434h238v-674h4q12 22 34 49l481 625h285l-563 -688z"/>
    <glyph glyph-name="uni041B" unicode="Л" horiz-adv-x="1431" d="M1252 0h-238v1229h-348q-73 -519 -115 -733.5t-85 -316t-117 -151t-177 -49.5q-88 0 -153 23v203q48 -25 107 -25q61 0 114 71t108.5 369.5t122.5 813.5h781v-1434z"/>
    <glyph glyph-name="uni041C" unicode="М" horiz-adv-x="1893" d="M1717 0h-236v928q0 114 14 279h-4q-22 -94 -39 -135l-428 -1072h-164l-429 1064q-18 47 -38 143h-4q8 -86 8 -281v-926h-220v1434h335l377 -955q43 -110 56 -164h5q37 113 60 168l384 951h323v-1434z"/>
    <glyph glyph-name="uni041D" unicode="Н" horiz-adv-x="1506" d="M1329 0h-239v622h-675v-622h-238v1434h238v-603h675v603h239v-1434z"/>
    <glyph glyph-name="uni041E" unicode="О" horiz-adv-x="1548" d="M768 -24q-310 0 -496.5 201t-186.5 523q0 346 190 552t516 206q302 0 486.5 -200t184.5 -523q0 -351 -189 -555t-505 -204zM779 1249q-197 0 -320.5 -147t-123.5 -387q0 -239 120 -385t314 -146q206 0 325 139t119 389q0 257 -115.5 397t-318.5 140z"/>
    <glyph glyph-name="uni041F" unicode="П" horiz-adv-x="1508" d="M1334 0h-239v1221h-680v-1221h-238v1434h1157v-1434z"/>
    <glyph glyph-name="uni0420" unicode="Р" horiz-adv-x="1197" d="M414 520v-520h-237v1434h435q247 0 383 -115t136 -324t-142 -342t-384 -133h-191zM414 1238v-524h154q153 0 233 71t80 200q0 253 -294 253h-173z"/>
    <glyph glyph-name="uni0421" unicode="С" horiz-adv-x="1272" d="M1177 60q-162 -84 -403 -84q-312 0 -500 197t-188 517q0 344 211.5 556t534.5 212q208 0 345 -59v-236q-145 86 -320 86q-233 0 -377.5 -149t-144.5 -398q0 -237 135 -377.5t355 -140.5q203 0 352 96v-220z"/>
    <glyph glyph-name="uni0422" unicode="Т" horiz-adv-x="1130" d="M1097 1232h-412v-1232h-238v1232h-411v202h1061v-202z"/>
    <glyph glyph-name="uni0423" unicode="У" horiz-adv-x="1206" d="M1216 1434l-446 -993q-124 -271 -239.5 -368.5t-252.5 -97.5q-109 0 -182 31v227q87 -52 167 -52q71 0 130.5 54t128.5 190l-479 1009h271l296 -680q9 -21 35 -104h2q3 10 38 104l279 680h252z"/>
    <glyph glyph-name="uni0424" unicode="Ф" horiz-adv-x="1591" d="M914 174v-178h-227v178h-28q-250 0 -413 165.5t-163 407.5q0 232 159 390.5t407 158.5h38v173h227v-173h30q254 0 413.5 -156t159.5 -393q0 -239 -163 -406t-413 -167h-27zM914 1110v-745h23q152 0 243 103t91 275q0 165 -91 266t-245 101h-21zM687 365v745h-22 q-151 0 -243.5 -102.5t-92.5 -264.5q0 -173 91.5 -275.5t242.5 -102.5h24z"/>
    <glyph glyph-name="uni0425" unicode="Х" horiz-adv-x="1268" d="M1249 0h-285l-294 526q-13 24 -29 68h-4q-9 -22 -30 -68l-303 -526h-287l470 721l-432 713h291l259 -484q25 -48 45 -96h3q29 63 50 100l269 480h268l-442 -711z"/>
    <glyph glyph-name="uni0426" unicode="Ц" horiz-adv-x="1593" d="M1526 -388h-213v388h-1136v1434h238v-1226h675v1226h239v-1226h197v-596z"/>
    <glyph glyph-name="uni0427" unicode="Ч" horiz-adv-x="1414" d="M1226 0h-238v611q-225 -116 -418 -116q-199 0 -307.5 100.5t-108.5 282.5v556h237v-513q0 -223 228 -223q162 0 369 104v632h238v-1434z"/>
    <glyph glyph-name="uni0428" unicode="Ш" horiz-adv-x="2001" d="M1822 0h-1645v1434h238v-1226h466v1226h237v-1226h466v1226h238v-1434z"/>
    <glyph glyph-name="uni0429" unicode="Щ" horiz-adv-x="2087" d="M2020 -388h-204v388h-1639v1434h238v-1226h466v1226h237v-1226h466v1226h238v-1226h198v-596z"/>
    <glyph glyph-name="uni042A" unicode="Ъ" horiz-adv-x="1493" d="M446 0v1230h-410v204h649v-577h245q227 0 354 -105.5t127 -302.5q0 -208 -133.5 -328.5t-363.5 -120.5h-468zM685 664v-470h205q129 0 200 63.5t71 175.5q0 231 -271 231h-205z"/>
    <glyph glyph-name="uni042B" unicode="Ы" horiz-adv-x="1710" d="M1532 0h-237v1434h237v-1434zM177 0v1434h237v-577h245q228 0 355 -106t127 -302q0 -208 -133.5 -328.5t-363.5 -120.5h-467zM414 664v-470h206q130 0 200.5 63t70.5 176q0 231 -271 231h-206z"/>
    <glyph glyph-name="uni042C" unicode="Ь" horiz-adv-x="1223" d="M177 0v1434h237v-577h245q228 0 355 -106t127 -302q0 -208 -133.5 -328.5t-363.5 -120.5h-467zM414 664v-470h206q130 0 200.5 63t70.5 176q0 231 -278 231h-199z"/>
    <glyph glyph-name="uni042D" unicode="Э" horiz-adv-x="1269" d="M96 55v217q152 -95 370 -95q196 0 320.5 115.5t139.5 321.5h-598v198h598q-24 210 -147 326.5t-320 116.5q-200 0 -363 -85v228q157 60 377 60q316 0 513 -205.5t197 -549.5q0 -322 -189.5 -524.5t-499.5 -202.5q-236 0 -398 79z"/>
    <glyph glyph-name="uni042E" unicode="Ю" horiz-adv-x="2128" d="M723 635h-309v-635h-237v1434h237v-594h315q30 291 206.5 454.5t459.5 163.5q294 0 470 -198.5t176 -528.5q0 -353 -180 -554t-490 -201q-289 0 -464.5 180.5t-183.5 478.5zM1390 1249q-197 0 -308.5 -141t-111.5 -388q0 -255 106 -395.5t298 -140.5q199 0 308 137.5 t109 388.5q0 261 -105 400t-296 139z"/>
    <glyph glyph-name="uni042F" unicode="Я" horiz-adv-x="1255" d="M1077 0h-238v586h-154q-59 0 -103.5 -33t-95.5 -147l-170 -406h-278l211 456q25 53 76.5 111.5t119.5 83.5v4q-148 31 -230.5 130.5t-82.5 241.5q0 184 137 295.5t360 111.5h448v-1434zM839 778v461h-199q-122 0 -189 -59t-67 -167q0 -109 71.5 -172t192.5 -63h191z"/>
    <glyph glyph-name="uni0430" unicode="а" horiz-adv-x="1069" d="M937 0h-225v160h-4q-106 -184 -311 -184q-151 0 -236.5 82t-85.5 217q0 290 334 338l304 43q0 219 -208 219q-183 0 -330 -126v203q162 96 374 96q388 0 388 -382v-666zM713 503l-215 -30q-100 -13 -150.5 -48.5t-50.5 -124.5q0 -65 46.5 -106.5t124.5 -41.5 q106 0 175.5 74.5t69.5 187.5v89z"/>
    <glyph glyph-name="uni0431" unicode="б" horiz-adv-x="1213" d="M994 1533v-197q-40 -27 -129 -40q-220 -31 -307.5 -59.5t-143.5 -121t-72 -270.5h4q114 154 326 154q205 0 330 -136.5t125 -360.5q0 -238 -138.5 -382t-373.5 -144q-248 0 -381.5 169t-133.5 483q0 242 49 410t136 253t193 117t364 75q102 22 152 50zM339 656v-128 q1 -71 21 -140.5t57 -122.5t88 -79t116 -26q120 0 194.5 91.5t74.5 234.5q0 153 -75.5 243.5t-204.5 90.5q-180 0 -271 -164z"/>
    <glyph glyph-name="uni0432" unicode="в" horiz-adv-x="1131" d="M151 0v1024h489q165 0 261 -67t96 -183q0 -196 -201 -238q239 -30 239 -236q0 -127 -101 -213.5t-251 -86.5h-532zM383 860v-255h205q174 0 174 135q0 120 -152 120h-227zM383 444v-279h238q178 0 178 144q0 135 -193 135h-223z"/>
    <glyph glyph-name="uni0433" unicode="г" horiz-adv-x="809" d="M765 839h-381v-839h-233v1024h614v-185z"/>
    <glyph glyph-name="uni0434" unicode="д" horiz-adv-x="1187" d="M1131 -373h-193v373h-729v-373h-191v550h91q245 362 249 847h616v-847h157v-550zM742 177v671h-195q-24 -372 -204 -671h399z"/>
    <glyph glyph-name="uni0435" unicode="е" horiz-adv-x="1088" d="M1018 449h-698q4 -142 87.5 -219t229.5 -77q164 0 301 98v-187q-140 -88 -370 -88q-226 0 -354.5 139.5t-128.5 392.5q0 239 141.5 389.5t351.5 150.5t325 -135t115 -375v-89zM794 613q-1 125 -59 194.5t-160 69.5q-100 0 -169.5 -73t-85.5 -191h474z"/>
    <glyph glyph-name="uni0436" unicode="ж" horiz-adv-x="1622" d="M1618 0h-290l-400 509h-4v-509h-226v509h-3l-401 -509h-288l454 532l-433 492h282l385 -482h4v482h226v-482h4l385 482h282l-434 -492z"/>
    <glyph glyph-name="uni0437" unicode="з" horiz-adv-x="945" d="M80 28v191q130 -72 304 -72q245 0 245 148t-289 148h-98v164h94q257 0 257 141q0 59 -54.5 94t-148.5 35q-143 0 -286 -68v182q173 58 318 58q407 0 407 -276q0 -89 -58.5 -153t-164.5 -85v-5q117 -9 188 -76t71 -170q0 -140 -122 -223t-336 -83t-327 50z"/>
    <glyph glyph-name="uni0438" unicode="и" horiz-adv-x="1233" d="M1081 0h-210v751q-20 -40 -61 -111l-431 -640h-228v1024h213v-736q11 26 47 90l437 646h233v-1024z"/>
    <glyph glyph-name="uni0439" unicode="й" horiz-adv-x="1233" d="M1081 0h-210v751q-20 -40 -61 -111l-431 -640h-228v1024h213v-736q11 26 47 90l437 646h233v-1024zM1014 1517q-16 -150 -123.5 -236.5t-269.5 -86.5q-166 0 -270.5 86.5t-114.5 236.5h193q14 -182 195 -182q80 0 132.5 48t64.5 134h193z"/>
    <glyph glyph-name="uni043A" unicode="к" horiz-adv-x="1075" d="M1081 0h-295l-398 499h-4v-499h-233v1024h233v-471h4l376 471h284l-426 -488z"/>
    <glyph glyph-name="uni043B" unicode="л" horiz-adv-x="1149" d="M998 0h-233v847h-209q-44 -475 -150.5 -667.5t-286.5 -192.5q-60 0 -103 17v173q35 -17 75 -17q215 0 276 864h631v-1024z"/>
    <glyph glyph-name="uni043C" unicode="м" horiz-adv-x="1507" d="M1356 0h-222v820q-20 -62 -61 -183l-231 -637h-206l-235 639q-19 52 -61 183v-822h-189v1024h302l235 -632q25 -69 64 -191l64 187l230 636h310v-1024z"/>
    <glyph glyph-name="uni043D" unicode="н" horiz-adv-x="1214" d="M1063 0h-233v448h-446v-448h-233v1024h233v-402h446v402h233v-1024z"/>
    <glyph glyph-name="uni043E" unicode="о" horiz-adv-x="1223" d="M605 -24q-237 0 -378.5 143.5t-141.5 380.5q0 258 147.5 403t397.5 145q240 0 374 -141t134 -391q0 -245 -144.5 -392.5t-388.5 -147.5zM616 863q-136 0 -215 -95t-79 -262q0 -161 80 -253.5t214 -92.5q137 0 210.5 91t73.5 259q0 169 -73.5 261t-210.5 92z"/>
    <glyph glyph-name="uni043F" unicode="п" horiz-adv-x="1214" d="M1063 0h-233v847h-446v-847h-233v1024h912v-1024z"/>
    <glyph glyph-name="uni0440" unicode="р" horiz-adv-x="1234" d="M387 151h-4v-622h-232v1495h232v-180h4q119 204 348 204q195 0 304 -137t109 -368q0 -256 -123 -410t-336 -154q-196 0 -302 172zM381 555v-127q0 -112 71.5 -190t181.5 -78q129 0 202.5 100.5t73.5 280.5q0 151 -68.5 236.5t-185.5 85.5q-124 0 -199.5 -88t-75.5 -220z "/>
    <glyph glyph-name="uni0441" unicode="с" horiz-adv-x="963" d="M884 47q-123 -71 -291 -71q-228 0 -368 142.5t-140 369.5q0 253 150.5 406.5t402.5 153.5q140 0 247 -49v-216q-107 80 -228 80q-147 0 -241 -99.5t-94 -260.5q0 -159 88.5 -251t237.5 -92q125 0 236 89v-202z"/>
    <glyph glyph-name="uni0442" unicode="т" horiz-adv-x="881" d="M849 839h-292v-839h-233v839h-294v185h819v-185z"/>
    <glyph glyph-name="uni0443" unicode="у" horiz-adv-x="1041" d="M1038 1024l-462 -1188q-144 -318 -404 -318q-73 0 -122 13v193q55 -18 100 -18q130 0 194 128l69 168l-407 1022h257l244 -744q4 -14 18 -74h5q5 23 18 72l256 746h234z"/>
    <glyph glyph-name="uni0444" unicode="ф" horiz-adv-x="1495" d="M854 -18v-460h-214v460h-34q-234 0 -378.5 144t-144.5 377q0 245 146 392t386 147h25v419h214v-419h23q242 0 388 -146t146 -393q0 -233 -143.5 -377t-376.5 -144h-37zM854 866v-709h19q137 0 219 94t82 255q0 169 -80.5 264.5t-215.5 95.5h-24zM640 157v709h-21 q-135 0 -217 -96t-82 -264q0 -159 82 -254t220 -95h18z"/>
    <glyph glyph-name="uni0445" unicode="х" horiz-adv-x="1026" d="M1007 1024l-341 -518l337 -506h-269l-180 317q-17 29 -40 74h-4q-4 -9 -42 -74l-183 -317h-268l348 502l-330 522h270l177 -333q20 -37 39 -76h3l229 409h254z"/>
    <glyph glyph-name="uni0446" unicode="ц" horiz-adv-x="1276" d="M1220 -373h-194v373h-875v1024h233v-847h446v847h233v-847h157v-550z"/>
    <glyph glyph-name="uni0447" unicode="ч" horiz-adv-x="1190" d="M1038 0h-232v386q-175 -95 -322 -95q-346 0 -346 376v357h227v-325q0 -217 170 -217q126 0 271 75v467h232v-1024z"/>
    <glyph glyph-name="uni0448" unicode="ш" horiz-adv-x="1695" d="M1544 0h-1393v1024h233v-847h347v847h233v-847h347v847h233v-1024z"/>
    <glyph glyph-name="uni0449" unicode="щ" horiz-adv-x="1759" d="M1702 -373h-194v373h-1357v1024h233v-847h347v847h233v-847h348v847h233v-847h157v-550z"/>
    <glyph glyph-name="uni044A" unicode="ъ" horiz-adv-x="1263" d="M329 0v839h-301v185h535v-378h280q159 0 252.5 -83t93.5 -233q0 -153 -102.5 -241.5t-258.5 -88.5h-499zM563 479v-312h204q184 0 184 161q0 151 -183 151h-205z"/>
    <glyph glyph-name="uni044B" unicode="ы" horiz-adv-x="1550" d="M1398 0h-232v1024h232v-1024zM151 0v1024h232v-378h280q159 0 253 -83.5t94 -232.5q0 -153 -97.5 -241.5t-245.5 -88.5h-516zM383 479v-312h212q176 0 176 161q0 151 -178 151h-210z"/>
    <glyph glyph-name="uni044C" unicode="ь" horiz-adv-x="1083" d="M151 0v1024h232v-378h273q163 0 258.5 -83.5t95.5 -232.5q0 -153 -95.5 -241.5t-241.5 -88.5h-522zM383 479v-312h212q176 0 176 161q0 151 -178 151h-210z"/>
    <glyph glyph-name="uni044D" unicode="э" horiz-adv-x="962" d="M83 44v186q112 -80 257 -80q133 0 215 76t89 205h-411v161h412q-11 131 -93 205.5t-218 74.5q-139 0 -241 -74v195q112 55 263 55q253 0 388.5 -142.5t135.5 -401.5q0 -241 -139 -384.5t-374 -143.5q-164 0 -284 68z"/>
    <glyph glyph-name="uni044E" unicode="ю" horiz-adv-x="1730" d="M638 444h-254v-444h-233v1024h233v-402h259q27 201 161.5 313.5t344.5 112.5q235 0 364.5 -137t129.5 -391q0 -251 -136.5 -397.5t-376.5 -146.5q-227 0 -354 123t-138 345zM1138 864q-266 0 -266 -351q0 -353 270 -353q264 0 264 354q0 350 -268 350z"/>
    <glyph glyph-name="uni044F" unicode="я" horiz-adv-x="1090" d="M940 0h-231v405h-119q-86 0 -156 -154l-122 -251h-263l162 304q69 118 166 156q-122 16 -186.5 87.5t-64.5 179.5q0 137 109.5 217t294.5 80h410v-1024zM709 565v291h-160q-188 0 -188 -143q0 -148 185 -148h163z"/>
    <glyph glyph-name="uni0451" unicode="ё" horiz-adv-x="1088" d="M1018 449h-698q4 -142 87.5 -219t229.5 -77q164 0 301 98v-187q-140 -88 -370 -88q-226 0 -354.5 139.5t-128.5 392.5q0 239 141.5 389.5t351.5 150.5t325 -135t115 -375v-89zM794 613q-1 125 -59 194.5t-160 69.5q-100 0 -169.5 -73t-85.5 -191h474zM776 1203 q-50 0 -86.5 33t-36.5 84q0 49 35 82t85 33q53 0 89.5 -33.5t36.5 -81.5q0 -49 -35 -83t-88 -34zM360 1203q-52 0 -89 34.5t-37 82.5q0 49 35.5 82t86.5 33t88.5 -33.5t37.5 -81.5q0 -49 -36 -83t-86 -34z"/>
    <glyph glyph-name="uni0452" unicode="ђ" horiz-adv-x="1220" d="M499 -403v196q63 -36 118 -36q129 0 189.5 140.5t60.5 474.5q0 463 -225 463q-101 0 -170 -79.5t-69 -197.5v-558h-232v1192h-137v145l138 -1v180h231v-179h332v-145h-332v-354h4q104 186 312 186q382 0 382 -647q0 -424 -115.5 -615.5t-360.5 -191.5q-59 0 -126 27z"/>
    <glyph glyph-name="uni0453" unicode="ѓ" horiz-adv-x="809" d="M765 839h-381v-839h-233v1024h614v-185zM736 1546l-286 -328h-172l242 328h216z"/>
    <glyph glyph-name="uni0454" unicode="є" horiz-adv-x="963" d="M881 44q-121 -68 -289 -68q-235 0 -371 141t-136 379q0 259 143.5 405.5t394.5 146.5q143 0 250 -50v-198q-97 72 -239 72q-135 0 -218.5 -76t-95.5 -204h412v-161h-412q7 -128 88 -204.5t216 -76.5q141 0 257 84v-190z"/>
    <glyph glyph-name="uni0455" unicode="ѕ" horiz-adv-x="883" d="M87 32v215q130 -99 287 -99q210 0 210 124q0 35 -18 59.5t-48.5 43.5t-72 34t-92.5 34q-63 25 -113.5 53t-84 63.5t-50.5 80.5t-17 105q0 74 35 130.5t94 95t134 58t155 19.5q142 0 254 -43v-203q-108 74 -248 74q-44 0 -79.5 -9t-60.5 -25t-39 -38.5t-14 -49.5 q0 -33 14 -56t41.5 -40.5t66 -32t88.5 -31.5q66 -27 118.5 -55t89.5 -63.5t57 -82t20 -110.5q0 -78 -36 -136t-96 -96t-138.5 -56.5t-165.5 -18.5q-168 0 -291 56z"/>
    <glyph glyph-name="uni0457" unicode="ї" horiz-adv-x="535" d="M384 0h-233v1024h233v-1024zM480 1203q-50 0 -86.5 33t-36.5 84q0 49 35 82t85 33q53 0 89.5 -33.5t36.5 -81.5q0 -49 -35 -83t-88 -34zM64 1203q-52 0 -89 34.5t-37 82.5q0 49 35.5 82t86.5 33t88.5 -33.5t37.5 -81.5q0 -49 -36 -83t-86 -34z"/>
    <glyph glyph-name="uni0459" unicode="љ" horiz-adv-x="1699" d="M765 0v847h-209q-44 -475 -150.5 -667.5t-286.5 -192.5q-60 0 -103 16v174q35 -17 75 -17q215 0 276 864h631v-384h272q163 0 259 -82.5t96 -230.5q0 -150 -98 -238.5t-246 -88.5h-516zM998 471v-303h203q185 0 185 156q0 147 -186 147h-202z"/>
    <glyph glyph-name="uni045A" unicode="њ" horiz-adv-x="1703" d="M764 0v459h-380v-459h-233v1024h233v-388h380v388h233v-388h272q167 0 260.5 -80.5t93.5 -228.5q0 -153 -96.5 -240t-246.5 -87h-516zM997 468v-300h205q183 0 183 156q0 144 -183 144h-205z"/>
    <glyph glyph-name="uni045B" unicode="ћ" horiz-adv-x="1207" d="M1079 0h-230v558q0 278 -204 278q-104 0 -173 -78.5t-69 -204.5v-553h-232v1192h-137v145h137v179h232v-179h332v-145h-332v-353h4q116 186 327 186q345 0 345 -418v-607z"/>
    <glyph glyph-name="uni045C" unicode="ќ" horiz-adv-x="1075" d="M1081 0h-295l-398 499h-4v-499h-233v1024h233v-471h4l376 471h284l-426 -488zM822 1546l-286 -328h-172l242 328h216z"/>
    <glyph glyph-name="uni045E" unicode="ў" horiz-adv-x="1041" d="M1038 1024l-462 -1188q-144 -318 -404 -318q-73 0 -122 13v193q55 -18 100 -18q130 0 194 128l69 168l-407 1022h257l244 -744q4 -14 18 -74h5q5 23 18 72l256 746h234zM925 1517q-16 -150 -123.5 -236.5t-269.5 -86.5q-166 0 -270.5 86.5t-114.5 236.5h193 q14 -182 195 -182q80 0 132.5 48t64.5 134h193z"/>
    <glyph glyph-name="uni045F" unicode="џ" horiz-adv-x="1214" d="M1063 0h-358v-373h-194v373h-360v1024h233v-847h446v847h233v-1024z"/>
    <glyph glyph-name="uni0490" unicode="Ґ" horiz-adv-x="1004" d="M971 1231h-556v-1231h-238v1434h591v259h203v-462z"/>
    <glyph glyph-name="uni0491" unicode="ґ" horiz-adv-x="840" d="M783 840h-400v-840h-232v1024h439v261h193v-445z"/>
    <glyph glyph-name="uni2015" unicode="―" horiz-adv-x="2048" d="M2048 474h-2048v171h2048v-171z"/>
    <glyph glyph-name="uni2116" unicode="№" horiz-adv-x="2373" d="M1872 604q-185 0 -288 112t-103 309q0 208 106 318.5t301 110.5q187 0 286.5 -108t99.5 -307t-107 -317t-295 -118zM1881 1286q-93 0 -145 -67.5t-52 -190.5q0 -254 195 -254q190 0 190 258q0 254 -188 254zM1322 0h-261l-616 1044q-29 51 -42 81h-6q9 -50 9 -211v-914 h-229v1434h277l642 -1106h4q-8 48 -8 203v903h230v-1434zM2243 281h-736v173h736v-173z"/>
    <glyph glyph-name="pi" unicode="π" horiz-adv-x="1344" d="M1268 846h-222v-533q0 -136 95 -136q35 0 90 21v-186q-73 -27 -146 -27q-272 0 -272 307v554h-325v-580q0 -182 -36 -266h-237q41 83 41 266v580q-122 -3 -242 -87v197q80 68 260 68h994v-178z"/>
    <glyph glyph-name="fournumerator" horiz-adv-x="781" d="M729 775h-110v-191h-169v191h-394v114l361 545h202v-529h110v-130zM454 1287h-5q-12 -31 -39 -74l-195 -308h235v300q0 30 4 82z"/>
    <glyph glyph-name="fivenumerator" horiz-adv-x="785" d="M129 608v158q113 -66 199 -66q78 0 124 40t46 102q0 136 -189 136l-154 -10v469h475v-146h-322v-175q179 13 270.5 -61.5t91.5 -201.5q0 -128 -89.5 -209t-243.5 -81q-130 0 -208 45z"/>
    <glyph glyph-name="sevennumerator" horiz-adv-x="776" d="M359 584h-180l314 713h-411v142h606v-73z"/>
    <glyph glyph-name="eightnumerator" horiz-adv-x="785" d="M532 1030q166 -71 166 -221q0 -114 -84 -180t-237 -66q-127 0 -211.5 65t-84.5 172q0 150 162 229q-133 73 -133 197q0 102 78 164.5t211 62.5q122 0 198 -59.5t76 -155.5q0 -131 -141 -208zM391 1102q117 50 117 122q0 95 -114 95q-52 0 -85 -26.5t-33 -67.5 q0 -74 115 -123zM384 958q-137 -48 -137 -151q0 -46 39 -77.5t100 -31.5q64 0 105.5 31.5t41.5 75.5q0 101 -149 153z"/>
    <glyph glyph-name="dotlessi.alt" horiz-adv-x="535" d="M384 0h-233v1024h233v-1024z"/>
    <glyph glyph-name="Scommaaccent" unicode="Ș" horiz-adv-x="1115" d="M111 57v245q33 -30 78.5 -54t96.5 -40.5t102 -25.5t94 -9q150 0 223.5 50t73.5 145q0 51 -24.5 88.5t-68.5 68.5t-103.5 59.5t-127.5 59.5q-73 39 -136 79t-109.5 88.5t-73 109.5t-26.5 143q0 101 45.5 175.5t120 123t169.5 72t194 23.5q225 0 328 -51v-235 q-122 88 -314 88q-53 0 -105.5 -10t-94 -33t-67.5 -59t-26 -87q0 -48 20 -83t58.5 -64t94 -56.5t128.5 -59.5q75 -39 141.5 -82t117 -95t80 -115.5t29.5 -144.5q0 -109 -44 -184t-118.5 -122t-171.5 -68t-205 -21q-36 0 -88.5 5.5t-107.5 16t-104 25.5t-79 34zM675 -118 l-167 -302h-155l105 302h217z"/>
    <glyph glyph-name="scommaaccent" unicode="ș" horiz-adv-x="883" d="M87 32v215q130 -99 287 -99q210 0 210 124q0 35 -18 59.5t-48.5 43.5t-72 34t-92.5 34q-63 25 -113.5 53t-84 63.5t-50.5 80.5t-17 105q0 74 35 130.5t94 95t134 58t155 19.5q142 0 254 -43v-203q-108 74 -248 74q-44 0 -79.5 -9t-60.5 -25t-39 -38.5t-14 -49.5 q0 -33 14 -56t41.5 -40.5t66 -32t88.5 -31.5q66 -27 118.5 -55t89.5 -63.5t57 -82t20 -110.5q0 -78 -36 -136t-96 -96t-138.5 -56.5t-165.5 -18.5q-168 0 -291 56zM560 -118l-167 -302h-155l105 302h217z"/>
    <glyph glyph-name="currency" unicode="¤" horiz-adv-x="1138" d="M1060 356l-114 -118l-140 139q-104 -71 -236 -71q-137 0 -241 68l-137 -136l-114 118l140 136q-72 111 -72 233q0 127 72 233l-140 138l114 118l141 -139q109 72 237 72t235 -72l141 139l114 -118l-139 -138q74 -110 74 -233q0 -119 -74 -233zM570 985q-109 0 -184 -76 t-75 -182t76 -182t183 -76q106 0 183 76t77 182t-78 182t-182 76z"/>
    <glyph glyph-name="Ohorn" unicode="Ơ" horiz-adv-x="1575" d="M1161 1356q48 -10 80 -10q204 0 204 131q0 67 -20 121h161q21 -54 21 -134q0 -110 -70 -178.5t-192 -68.5h-34q152 -192 152 -482q0 -351 -189.5 -555t-507.5 -204q-309 0 -495 201t-186 523q0 346 189.5 552t515.5 206q213 0 371 -102zM778 1249q-198 0 -321 -147.5 t-123 -386.5t120 -385t312 -146q208 0 327.5 139t119.5 389q0 257 -116 397t-319 140z"/>
    <glyph glyph-name="ohorn" unicode="ơ" horiz-adv-x="1253" d="M1047 1276h160q21 -55 21 -134q0 -198 -223 -239q133 -139 133 -387q0 -245 -144.5 -392.5t-387.5 -147.5q-237 0 -379 143.5t-142 380.5q0 258 146 403t394 145q45 0 126 -14q57 -10 160 -10q66 0 110.5 38t44.5 92q0 68 -19 122zM616 863q-135 0 -214 -95t-79 -262 q0 -161 80 -253.5t214 -92.5q137 0 210.5 91t73.5 259q0 169 -73.5 261t-211.5 92z"/>
    <glyph glyph-name="Uhorn" unicode="Ư" horiz-adv-x="1519" d="M1280 598q0 -622 -574 -622q-547 0 -547 603v855h238v-851q0 -399 327 -399q318 0 318 385v865h216q60 0 100 35.5t40 84.5q0 74 -19 132h161q18 -56 18 -136q0 -218 -278 -250v-702z"/>
    <glyph glyph-name="uhorn" unicode="ư" horiz-adv-x="1278" d="M1044 0h-232v159h-4q-100 -181 -318 -181q-359 0 -359 435v611h232v-588q0 -276 214 -276q103 0 169 76t66 199v589h197q56 0 94 39t38 94q0 66 -20 119h157q18 -53 18 -128q0 -212 -252 -250v-898z"/>
    <glyph glyph-name="hookabovecomb" unicode="̉" horiz-adv-x="622" d="M160 1570q39 4 85 4q94 0 154.5 -41.5t60.5 -112.5q0 -61 -39.5 -103t-98.5 -49v-50h-122v119q115 0 115 72q0 58 -89 58q-20 0 -66 -9v112z"/>
    <glyph glyph-name="dotbelowcomb" unicode="̣" horiz-adv-x="682" d="M340 -348q-51 0 -87.5 34t-36.5 82t37.5 80.5t86.5 32.5q51 0 87 -32.5t36 -80.5t-36 -82t-87 -34z"/>
    <glyph glyph-name="gravecomb" unicode="̀" horiz-adv-x="549" d="M472 1218h-158l-241 246h218z"/>
    <glyph glyph-name="acutecomb" unicode="́" horiz-adv-x="549" d="M77 1218l180 246h219l-239 -246h-160z"/>
    <glyph glyph-name="uni03020341" horiz-adv-x="1064" d="M594 1370l180 246h219l-241 -246h-158zM671 1218h-157l-158 143l-155 -143h-152l221 250h180z"/>
    <glyph glyph-name="uni03020340" horiz-adv-x="1064" d="M468 1370h-158l-241 246h219zM390 1218l221 250h181l221 -250h-152l-155 143l-159 -143h-157z"/>
    <glyph glyph-name="uni03020309" horiz-adv-x="1002" d="M605 1722q43 4 96 4q91 0 147.5 -42t56.5 -114q0 -60 -39 -102t-98 -49v-49h-123v119q116 0 116 70q0 60 -90 60q-20 0 -66 -9v112zM693 1218h-156l-158 143l-155 -143h-152l220 250h182z"/>
    <glyph glyph-name="uni03020303" horiz-adv-x="979" d="M825 1764q0 -103 -50 -163t-142 -60q-67 0 -152 37q-87 36 -128 36q-82 0 -82 -86h-116q0 222 196 222q63 0 144 -37t132 -37q80 0 80 88h118zM802 1218h-157l-159 143l-154 -143h-152l220 250h181z"/>
    <glyph glyph-name="uni03060341" horiz-adv-x="667" d="M229 1450l181 246h218l-241 -246h-158zM627 1470q-11 -113 -94.5 -182.5t-202.5 -69.5q-126 0 -205.5 69t-84.5 183h128q11 -119 166 -119q147 0 164 119h129z"/>
    <glyph glyph-name="uni03060340" horiz-adv-x="667" d="M447 1450h-159l-240 246h219zM51 1470h129q15 -119 166 -119q154 0 163 119h128q-4 -114 -85.5 -183t-206.5 -69q-118 0 -200.5 70t-93.5 182z"/>
    <glyph glyph-name="uni03060309" horiz-adv-x="667" d="M222 1797q39 4 84 4q97 0 156.5 -42t59.5 -114q0 -60 -41 -101.5t-97 -48.5v-49h-122v118q115 0 115 71q0 60 -88 60q-20 0 -67 -9v111zM627 1470q-11 -113 -94.5 -182.5t-202.5 -69.5q-126 0 -205.5 69t-84.5 183h128q11 -119 166 -119q147 0 164 119h129z"/>
    <glyph glyph-name="uni03060303" horiz-adv-x="980" d="M825 1764q0 -103 -50 -163t-142 -60q-67 0 -152 37q-87 36 -128 36q-82 0 -82 -86h-116q0 222 196 222q63 0 144 -37t132 -37q80 0 80 88h118zM784 1470q-11 -113 -94 -182.5t-201 -69.5q-127 0 -207 69t-85 183h129q10 -119 166 -119q146 0 163 119h129z"/>
    <glyph glyph-name="uni0309.cap" horiz-adv-x="622" d="M160 1570q39 4 85 4q94 0 154.5 -42.5t60.5 -113.5q0 -60 -39.5 -101.5t-98.5 -48.5v-50h-122v119q115 0 115 71q0 59 -89 59q-20 0 -66 -9v112z"/>
    <glyph glyph-name="uni03020303.cap" horiz-adv-x="979" d="M825 1764q0 -103 -50 -163t-142 -60q-67 0 -152 37q-87 36 -128 36q-82 0 -82 -86h-116q0 222 196 222q63 0 144 -37t132 -37q80 0 80 88h118zM802 1218h-157l-159 143l-154 -143h-152l220 250h181z"/>
    <glyph glyph-name="uni03060341.cap" horiz-adv-x="667" d="M229 1450l181 246h218l-241 -246h-158zM627 1470q-11 -113 -94.5 -182.5t-202.5 -69.5q-126 0 -205.5 69t-84.5 183h128q11 -119 166 -119q147 0 164 119h129z"/>
    <glyph glyph-name="uni03060340.cap" horiz-adv-x="667" d="M447 1450h-159l-240 246h219zM51 1470h129q15 -119 166 -119q154 0 163 119h128q-4 -114 -85.5 -183t-206.5 -69q-118 0 -200.5 70t-93.5 182z"/>
    <glyph glyph-name="uni03060309.cap" horiz-adv-x="667" d="M222 1797q39 4 84 4q97 0 156.5 -42t59.5 -114q0 -60 -41 -101.5t-97 -48.5v-49h-122v118q115 0 115 71q0 60 -88 60q-20 0 -67 -9v111zM627 1470q-11 -113 -94.5 -182.5t-202.5 -69.5q-126 0 -205.5 69t-84.5 183h128q11 -119 166 -119q147 0 164 119h129z"/>
    <glyph glyph-name="uni03060303.cap" horiz-adv-x="980" d="M825 1764q0 -103 -50 -163t-142 -60q-67 0 -152 37q-87 36 -128 36q-82 0 -82 -86h-116q0 222 196 222q63 0 144 -37t132 -37q80 0 80 88h118zM784 1470q-11 -113 -94 -182.5t-201 -69.5q-127 0 -207 69t-85 183h129q10 -119 166 -119q146 0 163 119h129z"/>
    <glyph glyph-name="uni03020309.cap" horiz-adv-x="1002" d="M605 1721q43 5 96 5q91 0 147.5 -42t56.5 -114q0 -60 -39 -102t-98 -49v-49h-123v119q116 0 116 71q0 59 -90 59q-20 0 -66 -9v111zM693 1218h-156l-158 143l-155 -143h-152l220 250h182z"/>
    <glyph glyph-name="Adotbelow" unicode="Ạ" horiz-adv-x="1375" d="M1355 0h-261l-129 365h-564l-124 -365h-260l537 1434h268zM902 559l-199 572q-9 28 -19 90h-4q-9 -57 -20 -90l-197 -572h439zM701 -348q-51 0 -87.5 34t-36.5 82t37.5 80.5t86.5 32.5q51 0 87 -32.5t36 -80.5t-36 -82t-87 -34z"/>
    <glyph glyph-name="adotbelow" unicode="ạ" horiz-adv-x="1069" d="M937 0h-225v160h-4q-106 -184 -311 -184q-151 0 -236.5 82t-85.5 217q0 290 334 338l304 43q0 219 -208 219q-183 0 -330 -126v203q162 96 374 96q388 0 388 -382v-666zM713 503l-215 -30q-100 -13 -150.5 -48.5t-50.5 -124.5q0 -65 46.5 -106.5t124.5 -41.5 q106 0 175.5 74.5t69.5 187.5v89zM537 -348q-51 0 -87.5 34t-36.5 82t37.5 80.5t86.5 32.5q51 0 87 -32.5t36 -80.5t-36 -82t-87 -34z"/>
    <glyph glyph-name="Ahookabove" unicode="Ả" horiz-adv-x="1375" d="M1355 0h-261l-129 365h-564l-124 -365h-260l537 1434h268zM902 559l-199 572q-9 28 -19 90h-4q-9 -57 -20 -90l-197 -572h439zM565 1920q39 4 85 4q94 0 154.5 -42.5t60.5 -113.5q0 -60 -39.5 -101.5t-98.5 -48.5v-50h-122v119q115 0 115 71q0 59 -89 59q-20 0 -66 -9 v112z"/>
    <glyph glyph-name="ahookabove" unicode="ả" horiz-adv-x="1069" d="M937 0h-225v160h-4q-106 -184 -311 -184q-151 0 -236.5 82t-85.5 217q0 290 334 338l304 43q0 219 -208 219q-183 0 -330 -126v203q162 96 374 96q388 0 388 -382v-666zM713 503l-215 -30q-100 -13 -150.5 -48.5t-50.5 -124.5q0 -65 46.5 -106.5t124.5 -41.5 q106 0 175.5 74.5t69.5 187.5v89zM420 1570q39 4 85 4q94 0 154.5 -41.5t60.5 -112.5q0 -61 -39.5 -103t-98.5 -49v-50h-122v119q115 0 115 72q0 58 -89 58q-20 0 -66 -9v112z"/>
    <glyph glyph-name="Acircumflexacute" unicode="Ấ" horiz-adv-x="1375" d="M1355 0h-261l-129 365h-564l-124 -365h-260l537 1434h268zM902 559l-199 572q-9 28 -19 90h-4q-9 -57 -20 -90l-197 -572h439zM909 1719l180 246h219l-241 -246h-158zM986 1567h-157l-158 143l-155 -143h-152l221 250h180z"/>
    <glyph glyph-name="acircumflexacute" unicode="ấ" horiz-adv-x="1069" d="M937 0h-225v160h-4q-106 -184 -311 -184q-151 0 -236.5 82t-85.5 217q0 290 334 338l304 43q0 219 -208 219q-183 0 -330 -126v203q162 96 374 96q388 0 388 -382v-666zM713 503l-215 -30q-100 -13 -150.5 -48.5t-50.5 -124.5q0 -65 46.5 -106.5t124.5 -41.5 q106 0 175.5 74.5t69.5 187.5v89zM779 1370l180 246h219l-241 -246h-158zM856 1218h-157l-158 143l-155 -143h-152l221 250h180z"/>
    <glyph glyph-name="Acircumflexgrave" unicode="Ầ" horiz-adv-x="1375" d="M1355 0h-261l-129 365h-564l-124 -365h-260l537 1434h268zM902 559l-199 572q-9 28 -19 90h-4q-9 -57 -20 -90l-197 -572h439zM446 1719h-158l-241 246h219zM368 1567l221 250h181l221 -250h-152l-155 143l-159 -143h-157z"/>
    <glyph glyph-name="acircumflexgrave" unicode="ầ" horiz-adv-x="1069" d="M937 0h-225v160h-4q-106 -184 -311 -184q-151 0 -236.5 82t-85.5 217q0 290 334 338l304 43q0 219 -208 219q-183 0 -330 -126v203q162 96 374 96q388 0 388 -382v-666zM713 503l-215 -30q-100 -13 -150.5 -48.5t-50.5 -124.5q0 -65 46.5 -106.5t124.5 -41.5 q106 0 175.5 74.5t69.5 187.5v89zM315 1370h-158l-241 246h219zM237 1218l221 250h181l221 -250h-152l-155 143l-159 -143h-157z"/>
    <glyph glyph-name="Acircumflexhookabove" unicode="Ẩ" horiz-adv-x="1375" d="M1355 0h-261l-129 365h-564l-124 -365h-260l537 1434h268zM902 559l-199 572q-9 28 -19 90h-4q-9 -57 -20 -90l-197 -572h439zM902 2071q43 5 96 5q91 0 147.5 -42t56.5 -114q0 -60 -39 -102t-98 -49v-49h-123v119q116 0 116 71q0 59 -90 59q-20 0 -66 -9v111zM990 1568 h-156l-158 143l-155 -143h-152l220 250h182z"/>
    <glyph glyph-name="acircumflexhookabove" unicode="ẩ" horiz-adv-x="1069" d="M937 0h-225v160h-4q-106 -184 -311 -184q-151 0 -236.5 82t-85.5 217q0 290 334 338l304 43q0 219 -208 219q-183 0 -330 -126v203q162 96 374 96q388 0 388 -382v-666zM713 503l-215 -30q-100 -13 -150.5 -48.5t-50.5 -124.5q0 -65 46.5 -106.5t124.5 -41.5 q106 0 175.5 74.5t69.5 187.5v89zM758 1722q43 4 96 4q91 0 147.5 -42t56.5 -114q0 -60 -39 -102t-98 -49v-49h-123v119q116 0 116 70q0 60 -90 60q-20 0 -66 -9v112zM846 1218h-156l-158 143l-155 -143h-152l220 250h182z"/>
    <glyph glyph-name="Acircumflextilde" unicode="Ẫ" horiz-adv-x="1375" d="M1355 0h-261l-129 365h-564l-124 -365h-260l537 1434h268zM902 559l-199 572q-9 28 -19 90h-4q-9 -57 -20 -90l-197 -572h439zM1011 2111q0 -103 -50 -163t-142 -60q-67 0 -152 37q-87 36 -128 36q-82 0 -82 -86h-116q0 222 196 222q63 0 144 -37t132 -37q80 0 80 88h118 zM988 1565h-157l-159 143l-154 -143h-152l220 250h181z"/>
    <glyph glyph-name="acircumflextilde" unicode="ẫ" horiz-adv-x="1069" d="M937 0h-225v160h-4q-106 -184 -311 -184q-151 0 -236.5 82t-85.5 217q0 290 334 338l304 43q0 219 -208 219q-183 0 -330 -126v203q162 96 374 96q388 0 388 -382v-666zM713 503l-215 -30q-100 -13 -150.5 -48.5t-50.5 -124.5q0 -65 46.5 -106.5t124.5 -41.5 q106 0 175.5 74.5t69.5 187.5v89zM885 1764q0 -103 -50 -163t-142 -60q-67 0 -152 37q-87 36 -128 36q-82 0 -82 -86h-116q0 222 196 222q63 0 144 -37t132 -37q80 0 80 88h118zM862 1218h-157l-159 143l-154 -143h-152l220 250h181z"/>
    <glyph glyph-name="Acircumflexdotbelow" unicode="Ậ" horiz-adv-x="1375" d="M1355 0h-261l-129 365h-564l-124 -365h-260l537 1434h268zM902 559l-199 572q-9 28 -19 90h-4q-9 -57 -20 -90l-197 -572h439zM998 1553h-160l-161 211l-157 -211h-155l224 328h184zM682 -348q-51 0 -87.5 34t-36.5 82t37.5 80.5t86.5 32.5q51 0 87 -32.5t36 -80.5 t-36 -82t-87 -34z"/>
    <glyph glyph-name="acircumflexdotbelow" unicode="ậ" horiz-adv-x="1069" d="M937 0h-225v160h-4q-106 -184 -311 -184q-151 0 -236.5 82t-85.5 217q0 290 334 338l304 43q0 219 -208 219q-183 0 -330 -126v203q162 96 374 96q388 0 388 -382v-666zM713 503l-215 -30q-100 -13 -150.5 -48.5t-50.5 -124.5q0 -65 46.5 -106.5t124.5 -41.5 q106 0 175.5 74.5t69.5 187.5v89zM859 1204h-160l-161 211l-157 -211h-155l224 328h184zM534 -348q-51 0 -87.5 34t-36.5 82t37.5 80.5t86.5 32.5q51 0 87 -32.5t36 -80.5t-36 -82t-87 -34z"/>
    <glyph glyph-name="Abreveacute" unicode="Ắ" horiz-adv-x="1375" d="M1355 0h-261l-129 365h-564l-124 -365h-260l537 1434h268zM902 559l-199 572q-9 28 -19 90h-4q-9 -57 -20 -90l-197 -572h439zM583 1797l181 246h218l-241 -246h-158zM981 1817q-11 -113 -94.5 -182.5t-202.5 -69.5q-126 0 -205.5 69t-84.5 183h128q11 -119 166 -119 q147 0 164 119h129z"/>
    <glyph glyph-name="abreveacute" unicode="ắ" horiz-adv-x="1069" d="M937 0h-225v160h-4q-106 -184 -311 -184q-151 0 -236.5 82t-85.5 217q0 290 334 338l304 43q0 219 -208 219q-183 0 -330 -126v203q162 96 374 96q388 0 388 -382v-666zM713 503l-215 -30q-100 -13 -150.5 -48.5t-50.5 -124.5q0 -65 46.5 -106.5t124.5 -41.5 q106 0 175.5 74.5t69.5 187.5v89zM458 1450l181 246h218l-241 -246h-158zM856 1470q-11 -113 -94.5 -182.5t-202.5 -69.5q-126 0 -205.5 69t-84.5 183h128q11 -119 166 -119q147 0 164 119h129z"/>
    <glyph glyph-name="Abrevegrave" unicode="Ằ" horiz-adv-x="1375" d="M1355 0h-261l-129 365h-564l-124 -365h-260l537 1434h268zM902 559l-199 572q-9 28 -19 90h-4q-9 -57 -20 -90l-197 -572h439zM782 1798h-159l-240 246h219zM386 1818h129q15 -119 166 -119q154 0 163 119h128q-4 -114 -85.5 -183t-206.5 -69q-118 0 -200.5 70t-93.5 182 z"/>
    <glyph glyph-name="abrevegrave" unicode="ằ" horiz-adv-x="1069" d="M937 0h-225v160h-4q-106 -184 -311 -184q-151 0 -236.5 82t-85.5 217q0 290 334 338l304 43q0 219 -208 219q-183 0 -330 -126v203q162 96 374 96q388 0 388 -382v-666zM713 503l-215 -30q-100 -13 -150.5 -48.5t-50.5 -124.5q0 -65 46.5 -106.5t124.5 -41.5 q106 0 175.5 74.5t69.5 187.5v89zM672 1450h-159l-240 246h219zM276 1470h129q15 -119 166 -119q154 0 163 119h128q-4 -114 -85.5 -183t-206.5 -69q-118 0 -200.5 70t-93.5 182z"/>
    <glyph glyph-name="Abrevehookabove" unicode="Ẳ" horiz-adv-x="1375" d="M1355 0h-261l-129 365h-564l-124 -365h-260l537 1434h268zM902 559l-199 572q-9 28 -19 90h-4q-9 -57 -20 -90l-197 -572h439zM578 2144q39 4 84 4q97 0 156.5 -42t59.5 -114q0 -60 -41 -101.5t-97 -48.5v-49h-122v118q115 0 115 71q0 60 -88 60q-20 0 -67 -9v111z M983 1817q-11 -113 -94.5 -182.5t-202.5 -69.5q-126 0 -205.5 69t-84.5 183h128q11 -119 166 -119q147 0 164 119h129z"/>
    <glyph glyph-name="abrevehookabove" unicode="ẳ" horiz-adv-x="1069" d="M937 0h-225v160h-4q-106 -184 -311 -184q-151 0 -236.5 82t-85.5 217q0 290 334 338l304 43q0 219 -208 219q-183 0 -330 -126v203q162 96 374 96q388 0 388 -382v-666zM713 503l-215 -30q-100 -13 -150.5 -48.5t-50.5 -124.5q0 -65 46.5 -106.5t124.5 -41.5 q106 0 175.5 74.5t69.5 187.5v89zM451 1797q39 4 84 4q97 0 156.5 -42t59.5 -114q0 -60 -41 -101.5t-97 -48.5v-49h-122v118q115 0 115 71q0 60 -88 60q-20 0 -67 -9v111zM856 1470q-11 -113 -94.5 -182.5t-202.5 -69.5q-126 0 -205.5 69t-84.5 183h128q11 -119 166 -119 q147 0 164 119h129z"/>
    <glyph glyph-name="Abrevetilde" unicode="Ẵ" horiz-adv-x="1375" d="M1355 0h-261l-129 365h-564l-124 -365h-260l537 1434h268zM902 559l-199 572q-9 28 -19 90h-4q-9 -57 -20 -90l-197 -572h439zM1025 2111q0 -103 -50 -163t-142 -60q-67 0 -152 37q-87 36 -128 36q-82 0 -82 -86h-116q0 222 196 222q63 0 144 -37t132 -37q80 0 80 88h118 zM984 1817q-11 -113 -94 -182.5t-201 -69.5q-127 0 -207 69t-85 183h129q10 -119 166 -119q146 0 163 119h129z"/>
    <glyph glyph-name="abrevetilde" unicode="ẵ" horiz-adv-x="1069" d="M937 0h-225v160h-4q-106 -184 -311 -184q-151 0 -236.5 82t-85.5 217q0 290 334 338l304 43q0 219 -208 219q-183 0 -330 -126v203q162 96 374 96q388 0 388 -382v-666zM713 503l-215 -30q-100 -13 -150.5 -48.5t-50.5 -124.5q0 -65 46.5 -106.5t124.5 -41.5 q106 0 175.5 74.5t69.5 187.5v89zM891 1764q0 -103 -50 -163t-142 -60q-67 0 -152 37q-87 36 -128 36q-82 0 -82 -86h-116q0 222 196 222q63 0 144 -37t132 -37q80 0 80 88h118zM850 1470q-11 -113 -94 -182.5t-201 -69.5q-127 0 -207 69t-85 183h129q10 -119 166 -119 q146 0 163 119h129z"/>
    <glyph glyph-name="Abrevedotbelow" unicode="Ặ" horiz-adv-x="1375" d="M1355 0h-261l-129 365h-564l-124 -365h-260l537 1434h268zM902 559l-199 572q-9 28 -19 90h-4q-9 -57 -20 -90l-197 -572h439zM989 1828q-11 -124 -97.5 -200t-209.5 -76q-130 0 -211.5 75.5t-87.5 200.5h136q12 -146 166 -146q65 0 111 39.5t56 106.5h137zM682 -348 q-51 0 -87.5 34t-36.5 82t37.5 80.5t86.5 32.5q51 0 87 -32.5t36 -80.5t-36 -82t-87 -34z"/>
    <glyph glyph-name="abrevedotbelow" unicode="ặ" horiz-adv-x="1069" d="M937 0h-225v160h-4q-106 -184 -311 -184q-151 0 -236.5 82t-85.5 217q0 290 334 338l304 43q0 219 -208 219q-183 0 -330 -126v203q162 96 374 96q388 0 388 -382v-666zM713 503l-215 -30q-100 -13 -150.5 -48.5t-50.5 -124.5q0 -65 46.5 -106.5t124.5 -41.5 q106 0 175.5 74.5t69.5 187.5v89zM855 1480q-11 -124 -97.5 -200t-209.5 -76q-130 0 -211.5 75.5t-87.5 200.5h136q12 -146 166 -146q65 0 111 39.5t56 106.5h137zM534 -348q-51 0 -87.5 34t-36.5 82t37.5 80.5t86.5 32.5q51 0 87 -32.5t36 -80.5t-36 -82t-87 -34z"/>
    <glyph glyph-name="Edotbelow" unicode="Ẹ" horiz-adv-x="1060" d="M982 0h-805v1434h773v-202h-535v-406h493v-201h-493v-424h567v-201zM594 -348q-51 0 -87.5 34t-36.5 82t37.5 80.5t86.5 32.5q51 0 87 -32.5t36 -80.5t-36 -82t-87 -34z"/>
    <glyph glyph-name="edotbelow" unicode="ẹ" horiz-adv-x="1088" d="M1018 449h-698q4 -142 87.5 -219t229.5 -77q164 0 301 98v-187q-140 -88 -370 -88q-226 0 -354.5 139.5t-128.5 392.5q0 239 141.5 389.5t351.5 150.5t325 -135t115 -375v-89zM794 613q-1 125 -59 194.5t-160 69.5q-100 0 -169.5 -73t-85.5 -191h474zM582 -348 q-51 0 -87.5 34t-36.5 82t37.5 80.5t86.5 32.5q51 0 87 -32.5t36 -80.5t-36 -82t-87 -34z"/>
    <glyph glyph-name="Ehookabove" unicode="Ẻ" horiz-adv-x="1060" d="M982 0h-805v1434h773v-202h-535v-406h493v-201h-493v-424h567v-201zM447 1918q39 4 85 4q94 0 154.5 -42.5t60.5 -113.5q0 -60 -39.5 -101.5t-98.5 -48.5v-50h-122v119q115 0 115 71q0 59 -89 59q-20 0 -66 -9v112z"/>
    <glyph glyph-name="ehookabove" unicode="ẻ" horiz-adv-x="1088" d="M1018 449h-698q4 -142 87.5 -219t229.5 -77q164 0 301 98v-187q-140 -88 -370 -88q-226 0 -354.5 139.5t-128.5 392.5q0 239 141.5 389.5t351.5 150.5t325 -135t115 -375v-89zM794 613q-1 125 -59 194.5t-160 69.5q-100 0 -169.5 -73t-85.5 -191h474zM450 1570q39 4 85 4 q94 0 154.5 -41.5t60.5 -112.5q0 -61 -39.5 -103t-98.5 -49v-50h-122v119q115 0 115 72q0 58 -89 58q-20 0 -66 -9v112z"/>
    <glyph glyph-name="Etilde" unicode="Ẽ" horiz-adv-x="1060" d="M982 0h-805v1434h773v-202h-535v-406h493v-201h-493v-424h567v-201zM917 1823q0 -116 -51.5 -189.5t-139.5 -73.5q-72 0 -165 48q-78 45 -121 45q-84 0 -84 -111h-115q0 119 51 190.5t143 71.5q68 0 157 -51q72 -44 125 -44q81 0 81 114h119z"/>
    <glyph glyph-name="etilde" unicode="ẽ" horiz-adv-x="1088" d="M1018 449h-698q4 -142 87.5 -219t229.5 -77q164 0 301 98v-187q-140 -88 -370 -88q-226 0 -354.5 139.5t-128.5 392.5q0 239 141.5 389.5t351.5 150.5t325 -135t115 -375v-89zM794 613q-1 125 -59 194.5t-160 69.5q-100 0 -169.5 -73t-85.5 -191h474zM903 1475 q0 -116 -51.5 -189.5t-139.5 -73.5q-72 0 -165 48q-78 45 -121 45q-84 0 -84 -111h-115q0 119 51 190.5t143 71.5q68 0 157 -51q72 -44 125 -44q81 0 81 114h119z"/>
    <glyph glyph-name="Ecircumflexacute" unicode="Ế" horiz-adv-x="1060" d="M982 0h-805v1434h773v-202h-535v-406h493v-201h-493v-424h567v-201zM807 1717l180 246h219l-241 -246h-158zM884 1565h-157l-158 143l-155 -143h-152l221 250h180z"/>
    <glyph glyph-name="ecircumflexacute" unicode="ế" horiz-adv-x="1088" d="M1018 449h-698q4 -142 87.5 -219t229.5 -77q164 0 301 98v-187q-140 -88 -370 -88q-226 0 -354.5 139.5t-128.5 392.5q0 239 141.5 389.5t351.5 150.5t325 -135t115 -375v-89zM794 613q-1 125 -59 194.5t-160 69.5q-100 0 -169.5 -73t-85.5 -191h474zM793 1370l180 246 h219l-241 -246h-158zM870 1218h-157l-158 143l-155 -143h-152l221 250h180z"/>
    <glyph glyph-name="Ecircumflexgrave" unicode="Ề" horiz-adv-x="1060" d="M982 0h-805v1434h773v-202h-535v-406h493v-201h-493v-424h567v-201zM353 1719h-158l-241 246h219zM275 1567l221 250h181l221 -250h-152l-155 143l-159 -143h-157z"/>
    <glyph glyph-name="ecircumflexgrave" unicode="ề" horiz-adv-x="1088" d="M1018 449h-698q4 -142 87.5 -219t229.5 -77q164 0 301 98v-187q-140 -88 -370 -88q-226 0 -354.5 139.5t-128.5 392.5q0 239 141.5 389.5t351.5 150.5t325 -135t115 -375v-89zM794 613q-1 125 -59 194.5t-160 69.5q-100 0 -169.5 -73t-85.5 -191h474zM355 1370h-158 l-241 246h219zM277 1218l221 250h181l221 -250h-152l-155 143l-159 -143h-157z"/>
    <glyph glyph-name="Ecircumflexhookabove" unicode="Ể" horiz-adv-x="1060" d="M982 0h-805v1434h773v-202h-535v-406h493v-201h-493v-424h567v-201zM802 2069q43 5 96 5q91 0 147.5 -42t56.5 -114q0 -60 -39 -102t-98 -49v-49h-123v119q116 0 116 71q0 59 -90 59q-20 0 -66 -9v111zM890 1566h-156l-158 143l-155 -143h-152l220 250h182z"/>
    <glyph glyph-name="ecircumflexhookabove" unicode="ể" horiz-adv-x="1088" d="M1018 449h-698q4 -142 87.5 -219t229.5 -77q164 0 301 98v-187q-140 -88 -370 -88q-226 0 -354.5 139.5t-128.5 392.5q0 239 141.5 389.5t351.5 150.5t325 -135t115 -375v-89zM794 613q-1 125 -59 194.5t-160 69.5q-100 0 -169.5 -73t-85.5 -191h474zM813 1722q43 4 96 4 q91 0 147.5 -42t56.5 -114q0 -60 -39 -102t-98 -49v-49h-123v119q116 0 116 70q0 60 -90 60q-20 0 -66 -9v112zM901 1218h-156l-158 143l-155 -143h-152l220 250h182z"/>
    <glyph glyph-name="Ecircumflextilde" unicode="Ễ" horiz-adv-x="1060" d="M982 0h-805v1434h773v-202h-535v-406h493v-201h-493v-424h567v-201zM908 2112q0 -103 -50 -163t-142 -60q-67 0 -152 37q-87 36 -128 36q-82 0 -82 -86h-116q0 222 196 222q63 0 144 -37t132 -37q80 0 80 88h118zM885 1566h-157l-159 143l-154 -143h-152l220 250h181z "/>
    <glyph glyph-name="ecircumflextilde" unicode="ễ" horiz-adv-x="1088" d="M1018 449h-698q4 -142 87.5 -219t229.5 -77q164 0 301 98v-187q-140 -88 -370 -88q-226 0 -354.5 139.5t-128.5 392.5q0 239 141.5 389.5t351.5 150.5t325 -135t115 -375v-89zM794 613q-1 125 -59 194.5t-160 69.5q-100 0 -169.5 -73t-85.5 -191h474zM904 1764 q0 -103 -50 -163t-142 -60q-67 0 -152 37q-87 36 -128 36q-82 0 -82 -86h-116q0 222 196 222q63 0 144 -37t132 -37q80 0 80 88h118zM881 1218h-157l-159 143l-154 -143h-152l220 250h181z"/>
    <glyph glyph-name="Ecircumflexdotbelow" unicode="Ệ" horiz-adv-x="1060" d="M982 0h-805v1434h773v-202h-535v-406h493v-201h-493v-424h567v-201zM889 1553h-160l-161 211l-157 -211h-155l224 328h184zM589 -348q-51 0 -87.5 34t-36.5 82t37.5 80.5t86.5 32.5q51 0 87 -32.5t36 -80.5t-36 -82t-87 -34z"/>
    <glyph glyph-name="ecircumflexdotbelow" unicode="ệ" horiz-adv-x="1088" d="M1018 449h-698q4 -142 87.5 -219t229.5 -77q164 0 301 98v-187q-140 -88 -370 -88q-226 0 -354.5 139.5t-128.5 392.5q0 239 141.5 389.5t351.5 150.5t325 -135t115 -375v-89zM794 613q-1 125 -59 194.5t-160 69.5q-100 0 -169.5 -73t-85.5 -191h474zM885 1204h-160 l-161 211l-157 -211h-155l224 328h184zM590 -348q-51 0 -87.5 34t-36.5 82t37.5 80.5t86.5 32.5q51 0 87 -32.5t36 -80.5t-36 -82t-87 -34z"/>
    <glyph glyph-name="Ihookabove" unicode="Ỉ" horiz-adv-x="592" d="M546 1434v-192h-131v-1050h131v-192h-500v192h131v1050h-131v192h500zM161 1918q39 4 85 4q94 0 154.5 -42.5t60.5 -113.5q0 -60 -39.5 -101.5t-98.5 -48.5v-50h-122v119q115 0 115 71q0 59 -89 59q-20 0 -66 -9v112z"/>
    <glyph glyph-name="ihookabove" unicode="ỉ" horiz-adv-x="535" d="M384 0h-233v1024h233v-1024zM144 1570q39 4 85 4q94 0 154.5 -41.5t60.5 -112.5q0 -61 -39.5 -103t-98.5 -49v-50h-122v119q115 0 115 72q0 58 -89 58q-20 0 -66 -9v112z"/>
    <glyph glyph-name="Idotbelow" unicode="Ị" horiz-adv-x="592" d="M546 1434v-192h-131v-1050h131v-192h-500v192h131v1050h-131v192h500zM300 -348q-51 0 -87.5 34t-36.5 82t37.5 80.5t86.5 32.5q51 0 87 -32.5t36 -80.5t-36 -82t-87 -34z"/>
    <glyph glyph-name="idotbelow" unicode="ị" horiz-adv-x="535" d="M268 1239q-57 0 -97.5 37t-40.5 94t40.5 95t97.5 38q59 0 100 -38t41 -95q0 -54 -41 -92.5t-100 -38.5zM383 0h-232v1024h232v-1024zM269 -348q-51 0 -87.5 34t-36.5 82t37.5 80.5t86.5 32.5q51 0 87 -32.5t36 -80.5t-36 -82t-87 -34z"/>
    <glyph glyph-name="Odotbelow" unicode="Ọ" horiz-adv-x="1548" d="M768 -24q-310 0 -496.5 201t-186.5 523q0 346 190 552t516 206q302 0 486.5 -200t184.5 -523q0 -351 -189 -555t-505 -204zM779 1249q-197 0 -320.5 -147t-123.5 -387q0 -239 120 -385t314 -146q206 0 325 139t119 389q0 257 -115.5 397t-318.5 140zM769 -348 q-51 0 -87.5 34t-36.5 82t37.5 80.5t86.5 32.5q51 0 87 -32.5t36 -80.5t-36 -82t-87 -34z"/>
    <glyph glyph-name="odotbelow" unicode="ọ" horiz-adv-x="1223" d="M605 -24q-237 0 -378.5 143.5t-141.5 380.5q0 258 147.5 403t397.5 145q240 0 374 -141t134 -391q0 -245 -144.5 -392.5t-388.5 -147.5zM616 863q-136 0 -215 -95t-79 -262q0 -161 80 -253.5t214 -92.5q137 0 210.5 91t73.5 259q0 169 -73.5 261t-210.5 92zM611 -348 q-51 0 -87.5 34t-36.5 82t37.5 80.5t86.5 32.5q51 0 87 -32.5t36 -80.5t-36 -82t-87 -34z"/>
    <glyph glyph-name="Ohookabove" unicode="Ỏ" horiz-adv-x="1548" d="M768 -24q-310 0 -496.5 201t-186.5 523q0 346 190 552t516 206q302 0 486.5 -200t184.5 -523q0 -351 -189 -555t-505 -204zM779 1249q-197 0 -320.5 -147t-123.5 -387q0 -239 120 -385t314 -146q206 0 325 139t119 389q0 257 -115.5 397t-318.5 140zM663 1918q39 4 85 4 q94 0 154.5 -42.5t60.5 -113.5q0 -60 -39.5 -101.5t-98.5 -48.5v-50h-122v119q115 0 115 71q0 59 -89 59q-20 0 -66 -9v112z"/>
    <glyph glyph-name="ohookabove" unicode="ỏ" horiz-adv-x="1223" d="M605 -24q-237 0 -378.5 143.5t-141.5 380.5q0 258 147.5 403t397.5 145q240 0 374 -141t134 -391q0 -245 -144.5 -392.5t-388.5 -147.5zM616 863q-136 0 -215 -95t-79 -262q0 -161 80 -253.5t214 -92.5q137 0 210.5 91t73.5 259q0 169 -73.5 261t-210.5 92zM492 1570 q39 4 85 4q94 0 154.5 -41.5t60.5 -112.5q0 -61 -39.5 -103t-98.5 -49v-50h-122v119q115 0 115 72q0 58 -89 58q-20 0 -66 -9v112z"/>
    <glyph glyph-name="Ocircumflexacute" unicode="Ố" horiz-adv-x="1548" d="M768 -24q-310 0 -496.5 201t-186.5 523q0 346 190 552t516 206q302 0 486.5 -200t184.5 -523q0 -351 -189 -555t-505 -204zM779 1249q-197 0 -320.5 -147t-123.5 -387q0 -239 120 -385t314 -146q206 0 325 139t119 389q0 257 -115.5 397t-318.5 140zM1019 1719l180 246 h219l-241 -246h-158zM1096 1567h-157l-158 143l-155 -143h-152l221 250h180z"/>
    <glyph glyph-name="ocircumflexacute" unicode="ố" horiz-adv-x="1223" d="M605 -24q-237 0 -378.5 143.5t-141.5 380.5q0 258 147.5 403t397.5 145q240 0 374 -141t134 -391q0 -245 -144.5 -392.5t-388.5 -147.5zM616 863q-136 0 -215 -95t-79 -262q0 -161 80 -253.5t214 -92.5q137 0 210.5 91t73.5 259q0 169 -73.5 261t-210.5 92zM860 1370 l180 246h219l-241 -246h-158zM937 1218h-157l-158 143l-155 -143h-152l221 250h180z"/>
    <glyph glyph-name="Ocircumflexgrave" unicode="Ồ" horiz-adv-x="1548" d="M768 -24q-310 0 -496.5 201t-186.5 523q0 346 190 552t516 206q302 0 486.5 -200t184.5 -523q0 -351 -189 -555t-505 -204zM779 1249q-197 0 -320.5 -147t-123.5 -387q0 -239 120 -385t314 -146q206 0 325 139t119 389q0 257 -115.5 397t-318.5 140zM548 1719h-158 l-241 246h219zM470 1567l221 250h181l221 -250h-152l-155 143l-159 -143h-157z"/>
    <glyph glyph-name="ocircumflexgrave" unicode="ồ" horiz-adv-x="1223" d="M605 -24q-237 0 -378.5 143.5t-141.5 380.5q0 258 147.5 403t397.5 145q240 0 374 -141t134 -391q0 -245 -144.5 -392.5t-388.5 -147.5zM616 863q-136 0 -215 -95t-79 -262q0 -161 80 -253.5t214 -92.5q137 0 210.5 91t73.5 259q0 169 -73.5 261t-210.5 92zM387 1370 h-158l-241 246h219zM309 1218l221 250h181l221 -250h-152l-155 143l-159 -143h-157z"/>
    <glyph glyph-name="Ocircumflexhookabove" unicode="Ổ" horiz-adv-x="1548" d="M768 -24q-310 0 -496.5 201t-186.5 523q0 346 190 552t516 206q302 0 486.5 -200t184.5 -523q0 -351 -189 -555t-505 -204zM779 1249q-197 0 -320.5 -147t-123.5 -387q0 -239 120 -385t314 -146q206 0 325 139t119 389q0 257 -115.5 397t-318.5 140zM999 2069q43 5 96 5 q91 0 147.5 -42t56.5 -114q0 -60 -39 -102t-98 -49v-49h-123v119q116 0 116 71q0 59 -90 59q-20 0 -66 -9v111zM1087 1566h-156l-158 143l-155 -143h-152l220 250h182z"/>
    <glyph glyph-name="ocircumflexhookabove" unicode="ổ" horiz-adv-x="1223" d="M605 -24q-237 0 -378.5 143.5t-141.5 380.5q0 258 147.5 403t397.5 145q240 0 374 -141t134 -391q0 -245 -144.5 -392.5t-388.5 -147.5zM616 863q-136 0 -215 -95t-79 -262q0 -161 80 -253.5t214 -92.5q137 0 210.5 91t73.5 259q0 169 -73.5 261t-210.5 92zM845 1722 q43 4 96 4q91 0 147.5 -42t56.5 -114q0 -60 -39 -102t-98 -49v-49h-123v119q116 0 116 70q0 60 -90 60q-20 0 -66 -9v112zM933 1218h-156l-158 143l-155 -143h-152l220 250h182z"/>
    <glyph glyph-name="Ocircumflextilde" unicode="Ỗ" horiz-adv-x="1548" d="M768 -24q-310 0 -496.5 201t-186.5 523q0 346 190 552t516 206q302 0 486.5 -200t184.5 -523q0 -351 -189 -555t-505 -204zM779 1249q-197 0 -320.5 -147t-123.5 -387q0 -239 120 -385t314 -146q206 0 325 139t119 389q0 257 -115.5 397t-318.5 140zM1122 2112 q0 -103 -50 -163t-142 -60q-67 0 -152 37q-87 36 -128 36q-82 0 -82 -86h-116q0 222 196 222q63 0 144 -37t132 -37q80 0 80 88h118zM1099 1566h-157l-159 143l-154 -143h-152l220 250h181z"/>
    <glyph glyph-name="ocircumflextilde" unicode="ỗ" horiz-adv-x="1223" d="M605 -24q-237 0 -378.5 143.5t-141.5 380.5q0 258 147.5 403t397.5 145q240 0 374 -141t134 -391q0 -245 -144.5 -392.5t-388.5 -147.5zM616 863q-136 0 -215 -95t-79 -262q0 -161 80 -253.5t214 -92.5q137 0 210.5 91t73.5 259q0 169 -73.5 261t-210.5 92zM953 1764 q0 -103 -50 -163t-142 -60q-67 0 -152 37q-87 36 -128 36q-82 0 -82 -86h-116q0 222 196 222q63 0 144 -37t132 -37q80 0 80 88h118zM930 1218h-157l-159 143l-154 -143h-152l220 250h181z"/>
    <glyph glyph-name="Ocircumflexdotbelow" unicode="Ộ" horiz-adv-x="1548" d="M768 -24q-310 0 -496.5 201t-186.5 523q0 346 190 552t516 206q302 0 486.5 -200t184.5 -523q0 -351 -189 -555t-505 -204zM779 1249q-197 0 -320.5 -147t-123.5 -387q0 -239 120 -385t314 -146q206 0 325 139t119 389q0 257 -115.5 397t-318.5 140zM1109 1553h-160 l-161 211l-157 -211h-155l224 328h184zM770 -348q-51 0 -87.5 34t-36.5 82t37.5 80.5t86.5 32.5q51 0 87 -32.5t36 -80.5t-36 -82t-87 -34z"/>
    <glyph glyph-name="ocircumflexdotbelow" unicode="ộ" horiz-adv-x="1223" d="M605 -24q-237 0 -378.5 143.5t-141.5 380.5q0 258 147.5 403t397.5 145q240 0 374 -141t134 -391q0 -245 -144.5 -392.5t-388.5 -147.5zM616 863q-136 0 -215 -95t-79 -262q0 -161 80 -253.5t214 -92.5q137 0 210.5 91t73.5 259q0 169 -73.5 261t-210.5 92zM945 1204 h-160l-161 211l-157 -211h-155l224 328h184zM606 -348q-51 0 -87.5 34t-36.5 82t37.5 80.5t86.5 32.5q51 0 87 -32.5t36 -80.5t-36 -82t-87 -34z"/>
    <glyph glyph-name="Ohornacute" unicode="Ớ" horiz-adv-x="1575" d="M1161 1356q48 -10 80 -10q204 0 204 131q0 67 -20 121h161q21 -54 21 -134q0 -110 -70 -178.5t-192 -68.5h-34q152 -192 152 -482q0 -351 -189.5 -555t-507.5 -204q-309 0 -495 201t-186 523q0 346 189.5 552t515.5 206q213 0 371 -102zM778 1249q-198 0 -321 -147.5 t-123 -386.5t120 -385t312 -146q208 0 327.5 139t119.5 389q0 257 -116 397t-319 140zM1103 1895l-286 -328h-172l242 328h216z"/>
    <glyph glyph-name="ohornacute" unicode="ớ" horiz-adv-x="1253" d="M1047 1276h160q21 -55 21 -134q0 -198 -223 -239q133 -139 133 -387q0 -245 -144.5 -392.5t-387.5 -147.5q-237 0 -379 143.5t-142 380.5q0 258 146 403t394 145q45 0 126 -14q57 -10 160 -10q66 0 110.5 38t44.5 92q0 68 -19 122zM616 863q-135 0 -214 -95t-79 -262 q0 -161 80 -253.5t214 -92.5q137 0 210.5 91t73.5 259q0 169 -73.5 261t-211.5 92zM927 1546l-286 -328h-172l242 328h216z"/>
    <glyph glyph-name="Ohorngrave" unicode="Ờ" horiz-adv-x="1575" d="M1161 1356q48 -10 80 -10q204 0 204 131q0 67 -20 121h161q21 -54 21 -134q0 -110 -70 -178.5t-192 -68.5h-34q152 -192 152 -482q0 -351 -189.5 -555t-507.5 -204q-309 0 -495 201t-186 523q0 346 189.5 552t515.5 206q213 0 371 -102zM778 1249q-198 0 -321 -147.5 t-123 -386.5t120 -385t312 -146q208 0 327.5 139t119.5 389q0 257 -116 397t-319 140zM983 1553h-173l-262 328h214z"/>
    <glyph glyph-name="ohorngrave" unicode="ờ" horiz-adv-x="1253" d="M1047 1276h160q21 -55 21 -134q0 -198 -223 -239q133 -139 133 -387q0 -245 -144.5 -392.5t-387.5 -147.5q-237 0 -379 143.5t-142 380.5q0 258 146 403t394 145q45 0 126 -14q57 -10 160 -10q66 0 110.5 38t44.5 92q0 68 -19 122zM616 863q-135 0 -214 -95t-79 -262 q0 -161 80 -253.5t214 -92.5q137 0 210.5 91t73.5 259q0 169 -73.5 261t-211.5 92zM794 1204h-173l-262 328h214z"/>
    <glyph glyph-name="Ohornhookabove" unicode="Ở" horiz-adv-x="1575" d="M1161 1356q48 -10 80 -10q204 0 204 131q0 67 -20 121h161q21 -54 21 -134q0 -110 -70 -178.5t-192 -68.5h-34q152 -192 152 -482q0 -351 -189.5 -555t-507.5 -204q-309 0 -495 201t-186 523q0 346 189.5 552t515.5 206q213 0 371 -102zM778 1249q-198 0 -321 -147.5 t-123 -386.5t120 -385t312 -146q208 0 327.5 139t119.5 389q0 257 -116 397t-319 140zM689 1918q39 4 85 4q94 0 154.5 -42.5t60.5 -113.5q0 -60 -39.5 -101.5t-98.5 -48.5v-50h-122v119q115 0 115 71q0 59 -89 59q-20 0 -66 -9v112z"/>
    <glyph glyph-name="ohornhookabove" unicode="ở" horiz-adv-x="1253" d="M1047 1276h160q21 -55 21 -134q0 -198 -223 -239q133 -139 133 -387q0 -245 -144.5 -392.5t-387.5 -147.5q-237 0 -379 143.5t-142 380.5q0 258 146 403t394 145q45 0 126 -14q57 -10 160 -10q66 0 110.5 38t44.5 92q0 68 -19 122zM616 863q-135 0 -214 -95t-79 -262 q0 -161 80 -253.5t214 -92.5q137 0 210.5 91t73.5 259q0 169 -73.5 261t-211.5 92zM494 1570q39 4 85 4q94 0 154.5 -41.5t60.5 -112.5q0 -61 -39.5 -103t-98.5 -49v-50h-122v119q115 0 115 72q0 58 -89 58q-20 0 -66 -9v112z"/>
    <glyph glyph-name="Ohorntilde" unicode="Ỡ" horiz-adv-x="1575" d="M1161 1356q48 -10 80 -10q204 0 204 131q0 67 -20 121h161q21 -54 21 -134q0 -110 -70 -178.5t-192 -68.5h-34q152 -192 152 -482q0 -351 -189.5 -555t-507.5 -204q-309 0 -495 201t-186 523q0 346 189.5 552t515.5 206q213 0 371 -102zM778 1249q-198 0 -321 -147.5 t-123 -386.5t120 -385t312 -146q208 0 327.5 139t119.5 389q0 257 -116 397t-319 140zM1129 1823q0 -116 -51.5 -189.5t-139.5 -73.5q-72 0 -165 48q-78 45 -121 45q-84 0 -84 -111h-115q0 119 51 190.5t143 71.5q68 0 157 -51q72 -44 125 -44q81 0 81 114h119z"/>
    <glyph glyph-name="ohorntilde" unicode="ỡ" horiz-adv-x="1253" d="M1047 1276h160q21 -55 21 -134q0 -198 -223 -239q133 -139 133 -387q0 -245 -144.5 -392.5t-387.5 -147.5q-237 0 -379 143.5t-142 380.5q0 258 146 403t394 145q45 0 126 -14q57 -10 160 -10q66 0 110.5 38t44.5 92q0 68 -19 122zM616 863q-135 0 -214 -95t-79 -262 q0 -161 80 -253.5t214 -92.5q137 0 210.5 91t73.5 259q0 169 -73.5 261t-211.5 92zM954 1475q0 -116 -51.5 -189.5t-139.5 -73.5q-72 0 -165 48q-78 45 -121 45q-84 0 -84 -111h-115q0 119 51 190.5t143 71.5q68 0 157 -51q72 -44 125 -44q81 0 81 114h119z"/>
    <glyph glyph-name="Ohorndotbelow" unicode="Ợ" horiz-adv-x="1575" d="M1161 1356q48 -10 80 -10q204 0 204 131q0 67 -20 121h161q21 -54 21 -134q0 -110 -70 -178.5t-192 -68.5h-34q152 -192 152 -482q0 -351 -189.5 -555t-507.5 -204q-309 0 -495 201t-186 523q0 346 189.5 552t515.5 206q213 0 371 -102zM778 1249q-198 0 -321 -147.5 t-123 -386.5t120 -385t312 -146q208 0 327.5 139t119.5 389q0 257 -116 397t-319 140zM768 -348q-51 0 -87.5 34t-36.5 82t37.5 80.5t86.5 32.5q51 0 87 -32.5t36 -80.5t-36 -82t-87 -34z"/>
    <glyph glyph-name="ohorndotbelow" unicode="ợ" horiz-adv-x="1253" d="M1047 1276h160q21 -55 21 -134q0 -198 -223 -239q133 -139 133 -387q0 -245 -144.5 -392.5t-387.5 -147.5q-237 0 -379 143.5t-142 380.5q0 258 146 403t394 145q45 0 126 -14q57 -10 160 -10q66 0 110.5 38t44.5 92q0 68 -19 122zM616 863q-135 0 -214 -95t-79 -262 q0 -161 80 -253.5t214 -92.5q137 0 210.5 91t73.5 259q0 169 -73.5 261t-211.5 92zM607 -348q-51 0 -87.5 34t-36.5 82t37.5 80.5t86.5 32.5q51 0 87 -32.5t36 -80.5t-36 -82t-87 -34z"/>
    <glyph glyph-name="Udotbelow" unicode="Ụ" horiz-adv-x="1440" d="M1280 580q0 -604 -572 -604q-548 0 -548 581v877h238v-828q0 -422 328 -422q316 0 316 407v843h238v-854zM712 -348q-51 0 -87.5 34t-36.5 82t37.5 80.5t86.5 32.5q51 0 87 -32.5t36 -80.5t-36 -82t-87 -34z"/>
    <glyph glyph-name="udotbelow" unicode="ụ" horiz-adv-x="1195" d="M1044 0h-232v162h-4q-101 -186 -314 -186q-363 0 -363 436v612h232v-588q0 -276 213 -276q103 0 169.5 76t66.5 199v589h232v-1024zM571 -348q-51 0 -87.5 34t-36.5 82t37.5 80.5t86.5 32.5q51 0 87 -32.5t36 -80.5t-36 -82t-87 -34z"/>
    <glyph glyph-name="Uhookabove" unicode="Ủ" horiz-adv-x="1440" d="M1280 580q0 -604 -572 -604q-548 0 -548 581v877h238v-828q0 -422 328 -422q316 0 316 407v843h238v-854zM585 1918q39 4 85 4q94 0 154.5 -42.5t60.5 -113.5q0 -60 -39.5 -101.5t-98.5 -48.5v-50h-122v119q115 0 115 71q0 59 -89 59q-20 0 -66 -9v112z"/>
    <glyph glyph-name="uhookabove" unicode="ủ" horiz-adv-x="1195" d="M1044 0h-232v162h-4q-101 -186 -314 -186q-363 0 -363 436v612h232v-588q0 -276 213 -276q103 0 169.5 76t66.5 199v589h232v-1024zM462 1570q39 4 85 4q94 0 154.5 -41.5t60.5 -112.5q0 -61 -39.5 -103t-98.5 -49v-50h-122v119q115 0 115 72q0 58 -89 58q-20 0 -66 -9 v112z"/>
    <glyph glyph-name="Uhornacute" unicode="Ứ" horiz-adv-x="1519" d="M1280 598q0 -622 -574 -622q-547 0 -547 603v855h238v-851q0 -399 327 -399q318 0 318 385v865h216q60 0 100 35.5t40 84.5q0 74 -19 132h161q18 -56 18 -136q0 -218 -278 -250v-702zM1026 1895l-286 -328h-172l242 328h216z"/>
    <glyph glyph-name="uhornacute" unicode="ứ" horiz-adv-x="1278" d="M1044 0h-232v159h-4q-100 -181 -318 -181q-359 0 -359 435v611h232v-588q0 -276 214 -276q103 0 169 76t66 199v589h197q56 0 94 39t38 94q0 66 -20 119h157q18 -53 18 -128q0 -212 -252 -250v-898zM907 1546l-286 -328h-172l242 328h216z"/>
    <glyph glyph-name="Uhorngrave" unicode="Ừ" horiz-adv-x="1519" d="M1280 598q0 -622 -574 -622q-547 0 -547 603v855h238v-851q0 -399 327 -399q318 0 318 385v865h216q60 0 100 35.5t40 84.5q0 74 -19 132h161q18 -56 18 -136q0 -218 -278 -250v-702zM900 1553h-173l-262 328h214z"/>
    <glyph glyph-name="uhorngrave" unicode="ừ" horiz-adv-x="1278" d="M1044 0h-232v159h-4q-100 -181 -318 -181q-359 0 -359 435v611h232v-588q0 -276 214 -276q103 0 169 76t66 199v589h197q56 0 94 39t38 94q0 66 -20 119h157q18 -53 18 -128q0 -212 -252 -250v-898zM723 1204h-173l-262 328h214z"/>
    <glyph glyph-name="Uhornhookabove" unicode="Ử" horiz-adv-x="1519" d="M1280 598q0 -622 -574 -622q-547 0 -547 603v855h238v-851q0 -399 327 -399q318 0 318 385v865h216q60 0 100 35.5t40 84.5q0 74 -19 132h161q18 -56 18 -136q0 -218 -278 -250v-702zM594 1918q39 4 85 4q94 0 154.5 -42.5t60.5 -113.5q0 -60 -39.5 -101.5t-98.5 -48.5 v-50h-122v119q115 0 115 71q0 59 -89 59q-20 0 -66 -9v112z"/>
    <glyph glyph-name="uhornhookabove" unicode="ử" horiz-adv-x="1278" d="M1044 0h-232v159h-4q-100 -181 -318 -181q-359 0 -359 435v611h232v-588q0 -276 214 -276q103 0 169 76t66 199v589h197q56 0 94 39t38 94q0 66 -20 119h157q18 -53 18 -128q0 -212 -252 -250v-898zM464 1570q39 4 85 4q94 0 154.5 -41.5t60.5 -112.5q0 -61 -39.5 -103 t-98.5 -49v-50h-122v119q115 0 115 72q0 58 -89 58q-20 0 -66 -9v112z"/>
    <glyph glyph-name="Uhorntilde" unicode="Ữ" horiz-adv-x="1519" d="M1280 598q0 -622 -574 -622q-547 0 -547 603v855h238v-851q0 -399 327 -399q318 0 318 385v865h216q60 0 100 35.5t40 84.5q0 74 -19 132h161q18 -56 18 -136q0 -218 -278 -250v-702zM1067 1823q0 -116 -51.5 -189.5t-139.5 -73.5q-72 0 -165 48q-78 45 -121 45 q-84 0 -84 -111h-115q0 119 51 190.5t143 71.5q68 0 157 -51q72 -44 125 -44q81 0 81 114h119z"/>
    <glyph glyph-name="uhorntilde" unicode="ữ" horiz-adv-x="1278" d="M1044 0h-232v159h-4q-100 -181 -318 -181q-359 0 -359 435v611h232v-588q0 -276 214 -276q103 0 169 76t66 199v589h197q56 0 94 39t38 94q0 66 -20 119h157q18 -53 18 -128q0 -212 -252 -250v-898zM932 1475q0 -116 -51.5 -189.5t-139.5 -73.5q-72 0 -165 48 q-78 45 -121 45q-84 0 -84 -111h-115q0 119 51 190.5t143 71.5q68 0 157 -51q72 -44 125 -44q81 0 81 114h119z"/>
    <glyph glyph-name="Uhorndotbelow" unicode="Ự" horiz-adv-x="1519" d="M1280 598q0 -622 -574 -622q-547 0 -547 603v855h238v-851q0 -399 327 -399q318 0 318 385v865h216q60 0 100 35.5t40 84.5q0 74 -19 132h161q18 -56 18 -136q0 -218 -278 -250v-702zM711 -348q-51 0 -87.5 34t-36.5 82t37.5 80.5t86.5 32.5q51 0 87 -32.5t36 -80.5 t-36 -82t-87 -34z"/>
    <glyph glyph-name="uhorndotbelow" unicode="ự" horiz-adv-x="1278" d="M1044 0h-232v159h-4q-100 -181 -318 -181q-359 0 -359 435v611h232v-588q0 -276 214 -276q103 0 169 76t66 199v589h197q56 0 94 39t38 94q0 66 -20 119h157q18 -53 18 -128q0 -212 -252 -250v-898zM578 -348q-51 0 -87.5 34t-36.5 82t37.5 80.5t86.5 32.5q51 0 87 -32.5 t36 -80.5t-36 -82t-87 -34z"/>
    <glyph glyph-name="Ydotbelow" unicode="Ỵ" horiz-adv-x="1182" d="M1176 1434l-470 -913v-521h-238v516l-458 918h271l282 -615q5 -11 30 -83h3q9 32 33 83l295 615h252zM589 -348q-51 0 -87.5 34t-36.5 82t37.5 80.5t86.5 32.5q51 0 87 -32.5t36 -80.5t-36 -82t-87 -34z"/>
    <glyph glyph-name="ydotbelow" unicode="ỵ" horiz-adv-x="1041" d="M1038 1024l-462 -1188q-144 -318 -404 -318q-73 0 -122 13v193q55 -18 100 -18q130 0 194 128l69 168l-407 1022h257l244 -744q4 -14 18 -74h5q5 23 18 72l256 746h234zM835 -348q-51 0 -87.5 34t-36.5 82t37.5 80.5t86.5 32.5q51 0 87 -32.5t36 -80.5t-36 -82t-87 -34z "/>
    <glyph glyph-name="Yhookabove" unicode="Ỷ" horiz-adv-x="1182" d="M1176 1434l-470 -913v-521h-238v516l-458 918h271l282 -615q5 -11 30 -83h3q9 32 33 83l295 615h252zM469 1918q39 4 85 4q94 0 154.5 -42.5t60.5 -113.5q0 -60 -39.5 -101.5t-98.5 -48.5v-50h-122v119q115 0 115 71q0 59 -89 59q-20 0 -66 -9v112z"/>
    <glyph glyph-name="yhookabove" unicode="ỷ" horiz-adv-x="1041" d="M1038 1024l-462 -1188q-144 -318 -404 -318q-73 0 -122 13v193q55 -18 100 -18q130 0 194 128l69 168l-407 1022h257l244 -744q4 -14 18 -74h5q5 23 18 72l256 746h234zM392 1570q39 4 85 4q94 0 154.5 -41.5t60.5 -112.5q0 -61 -39.5 -103t-98.5 -49v-50h-122v119 q115 0 115 72q0 58 -89 58q-20 0 -66 -9v112z"/>
    <glyph glyph-name="Ytilde" unicode="Ỹ" horiz-adv-x="1182" d="M1176 1434l-470 -913v-521h-238v516l-458 918h271l282 -615q5 -11 30 -83h3q9 32 33 83l295 615h252zM933 1823q0 -116 -51.5 -189.5t-139.5 -73.5q-72 0 -165 48q-78 45 -121 45q-84 0 -84 -111h-115q0 119 51 190.5t143 71.5q68 0 157 -51q72 -44 125 -44q81 0 81 114 h119z"/>
    <glyph glyph-name="ytilde" unicode="ỹ" horiz-adv-x="1041" d="M1038 1024l-462 -1188q-144 -318 -404 -318q-73 0 -122 13v193q55 -18 100 -18q130 0 194 128l69 168l-407 1022h257l244 -744q4 -14 18 -74h5q5 23 18 72l256 746h234zM859 1475q0 -116 -51.5 -189.5t-139.5 -73.5q-72 0 -165 48q-78 45 -121 45q-84 0 -84 -111h-115 q0 119 51 190.5t143 71.5q68 0 157 -51q72 -44 125 -44q81 0 81 114h119z"/>
    <glyph glyph-name="uni021A" unicode="Ț" horiz-adv-x="1130" d="M1097 1232h-412v-1232h-238v1232h-411v202h1061v-202zM707 -118l-167 -302h-155l105 302h217z"/>
    <glyph glyph-name="uni021B" unicode="ț" horiz-adv-x="740" d="M691 11q-68 -34 -179 -34q-298 0 -298 286v579h-171v182h171v237l232 66v-303h245v-182h-245v-512q0 -91 33 -130t110 -39q59 0 102 34v-184zM591 -118l-167 -302h-155l105 302h217z"/>
    <glyph glyph-name="uni0400" unicode="Ѐ" horiz-adv-x="1060" d="M982 0h-805v1434h773v-202h-535v-406h493v-201h-493v-424h567v-201zM728 1553h-173l-262 328h214z"/>
    <glyph glyph-name="uni0450" unicode="ѐ" horiz-adv-x="1088" d="M1018 449h-698q4 -142 87.5 -219t229.5 -77q164 0 301 98v-187q-140 -88 -370 -88q-226 0 -354.5 139.5t-128.5 392.5q0 239 141.5 389.5t351.5 150.5t325 -135t115 -375v-89zM794 613q-1 125 -59 194.5t-160 69.5q-100 0 -169.5 -73t-85.5 -191h474zM725 1204h-173 l-262 328h214z"/>
    <glyph glyph-name="uni040D" unicode="Ѝ" horiz-adv-x="1572" d="M1393 0h-229v955q0 129 10 182h-6q-17 -45 -42 -83l-688 -1054h-261v1434h230v-912q0 -157 -8 -205h4q20 40 52 88l664 1029h274v-1434zM919 1553h-173l-262 328h214z"/>
    <glyph glyph-name="uni045D" unicode="ѝ" horiz-adv-x="1233" d="M1081 0h-210v751q-20 -40 -61 -111l-431 -640h-228v1024h213v-736q11 26 47 90l437 646h233v-1024zM768 1204h-173l-262 328h214z"/>
    <glyph glyph-name="uni0406" unicode="І" horiz-adv-x="592" d="M546 1434v-192h-131v-1050h131v-192h-500v192h131v1050h-131v192h500z"/>
    <glyph glyph-name="uni0408" unicode="Ј" horiz-adv-x="812" d="M648 514q0 -255 -126 -396.5t-336 -141.5q-98 0 -161 23v224q57 -39 147 -39q238 0 238 368v882h238v-920z"/>
    <glyph glyph-name="uni0456" unicode="і" horiz-adv-x="535" d="M268 1239q-57 0 -97.5 37t-40.5 94t40.5 95t97.5 38q59 0 100 -38t41 -95q0 -54 -41 -92.5t-100 -38.5zM383 0h-232v1024h232v-1024z"/>
    <glyph glyph-name="uni0458" unicode="ј" horiz-adv-x="535" d="M383 43q0 -252 -106 -388.5t-303 -136.5q-73 0 -142 32v199q65 -45 123 -45q196 0 196 346v974h232v-981zM269 1239q-57 0 -97.5 37t-40.5 94t40.5 95t97.5 38q58 0 99 -38t41 -95q0 -54 -41 -92.5t-99 -38.5z"/>
    <glyph glyph-name="uni0492" unicode="Ғ" horiz-adv-x="1097" d="M1062 1230h-556v-404h345v-202h-345v-624h-238v624h-232v202h232v608h794v-204z"/>
    <glyph glyph-name="uni0493" unicode="ғ" horiz-adv-x="875" d="M846 839h-381v-252h246v-180h-246v-407h-233v407h-203v180h203v437h614v-185z"/>
    <glyph glyph-name="uni0496" unicode="Җ" horiz-adv-x="1986" d="M1923 -357h-203v357h-119l-504 649q-21 28 -33 50h-4v-699h-230v699h-4q-13 -25 -33 -50l-504 -649h-306l608 746l-565 688h287l480 -619q21 -27 33 -49h4v668h230v-668h4q12 22 33 49l480 619h286l-564 -688l443 -539h181v-564z"/>
    <glyph glyph-name="uni0497" unicode="җ" horiz-adv-x="1706" d="M1642 -318h-184v318h-130l-400 509h-4v-509h-226v509h-4l-400 -509h-288l454 532l-433 492h282l385 -482h4v482h226v-482h4l385 482h282l-434 -492l316 -361h165v-489z"/>
    <glyph glyph-name="uni049A" unicode="Қ" horiz-adv-x="1345" d="M1282 -357h-204v357h-125l-496 641q-21 27 -38 63h-4v-704h-238v1434h238v-676h4q7 13 39 63l473 613h288l-563 -687l442 -540h184v-564z"/>
    <glyph glyph-name="uni049B" unicode="қ" horiz-adv-x="1161" d="M1097 -373h-193v373h-124l-392 494h-4v-494h-233v1024h233v-473h4l376 473h290l-432 -492l313 -361h162v-544z"/>
    <glyph glyph-name="uni049C" unicode="Ҝ" horiz-adv-x="1251" d="M1262 0h-310l-368 494v-265h-84v371l-48 65q-33 47 -33 50h-5v-715h-237v1434h237v-681h5q12 22 33 48l48 62v347h84v-240l347 464h288l-538 -687z"/>
    <glyph glyph-name="uni049D" unicode="ҝ" horiz-adv-x="1090" d="M1093 0h-292l-256 330v-216h-79v301l-78 79h-4v-494h-233v1024h233v-474h4l78 81v264h79v-181l240 310h286l-423 -492z"/>
    <glyph glyph-name="uni04A2" unicode="Ң" horiz-adv-x="1590" d="M1526 -387h-213v387h-223v622h-675v-622h-238v1434h238v-602h675v602h239v-1226h197v-595z"/>
    <glyph glyph-name="uni04A3" unicode="ң" horiz-adv-x="1283" d="M1220 -373h-194v373h-196v448h-445v-448h-234v1024h234v-402h445v402h233v-847h157v-550z"/>
    </font>
</defs>
</svg>
