<?xml version="1.0" standalone="no"?>
<!DOCTYPE svg PUBLIC "-//W3C//DTD SVG 1.1//EN" "http://www.w3.org/Graphics/SVG/1.1/DTD/svg11.dtd" >
<svg>
<metadata>
Created by FontForge 20090622 at Tue May 26 14:03:49 2015
 By deploy user
</metadata>
<defs>
<font id="Aller-Italic" horiz-adv-x="450" >
  <font-face 
    font-family="Aller"
    font-weight="400"
    font-style="italic"
    font-stretch="normal"
    units-per-em="1000"
    panose-1="2 0 5 3 4 0 0 9 0 4"
    ascent="800"
    descent="-200"
    x-height="513"
    cap-height="723"
    bbox="-220 -245 1380 965"
    underline-thickness="50"
    underline-position="-50"
    slope="-12"
    unicode-range="U+0020-U+FB04"
  />
<missing-glyph horiz-adv-x="475" 
 />
    <glyph glyph-name="ff" unicode="ff" horiz-adv-x="633" 
d="M177 434h-83q0 20 2.5 38.5t10.5 40.5h83l11 54q36 176 197 176q25 0 45.5 -4t34.5 -10q-6 -25 -12 -42.5t-16 -36.5q-10 4 -22.5 7.5t-29.5 3.5q-21 0 -37 -5.5t-28.5 -19.5t-22 -37t-17.5 -59l-6 -27h199l12 54q39 176 200 176q25 0 44.5 -3.5t35.5 -8.5
q-6 -26 -12.5 -43.5t-16.5 -36.5q-11 4 -23.5 7t-27.5 3q-21 0 -38 -5.5t-30.5 -19.5t-24 -37t-16.5 -59l-5 -27h123q0 -21 -3 -39t-11 -40h-122l-77 -434q-12 -68 -30 -114.5t-43.5 -75t-60 -41.5t-80.5 -13t-75 13q4 23 9.5 41.5t15.5 36.5q11 -4 23.5 -6.5t24.5 -2.5
q22 0 40 5.5t31.5 20.5t24 42.5t18.5 71.5l81 456h-199l-88 -492q-9 -52 -27 -87.5t-43.5 -57.5t-59 -31.5t-73.5 -9.5q-22 0 -42 3.5t-35 9.5q4 23 10 41.5t16 36.5q10 -4 22.5 -6.5t25.5 -2.5q22 0 40 5.5t32 20.5t25 42.5t19 71.5z" />
    <glyph glyph-name="fi" unicode="fi" horiz-adv-x="576" 
d="M177 434h-83q0 20 2.5 38.5t10.5 40.5h83l5 29q20 100 72.5 150.5t143.5 50.5q23 0 46 -3t43.5 -8t36.5 -10.5t25 -9.5q-5 -24 -12 -42.5t-18 -36.5q-21 10 -54.5 19t-65.5 9q-47 0 -75 -25.5t-44 -95.5l-6 -27h296l-90 -513q-12 -2 -26 -2.5t-25 -0.5t-23.5 0.5
t-23.5 2.5l77 434h-198l-75 -428q-12 -69 -29 -117t-42.5 -77.5t-61 -42.5t-83.5 -13q-22 0 -42 3.5t-35 9.5q4 23 10 41.5t16 36.5q10 -4 22.5 -6.5t25.5 -2.5q27 0 45.5 6.5t32 25t24 53t20.5 90.5z" />
    <glyph glyph-name="fl" unicode="fl" horiz-adv-x="617" 
d="M177 434h-83q0 20 2.5 38.5t10.5 40.5h83l11 51q39 179 210 179q25 0 53 -3.5t54 -8.5t49 -11.5t40 -12.5q3 -20 3 -37q0 -23 -5.5 -59.5t-11.5 -69.5l-72 -395q-3 -17 -3 -27q0 -16 4.5 -25.5t11.5 -14t15.5 -5.5t16.5 -1q9 0 20.5 2t19.5 4q9 -26 9 -62q0 -4 -0.5 -7.5
t-0.5 -6.5q-15 -5 -36.5 -7.5t-42.5 -2.5q-26 0 -47.5 5t-37 18t-24 34.5t-8.5 53.5q0 19 4 40l8 41l58 316q8 45 13 80t8 64q-20 7 -46 11.5t-51 4.5q-24 0 -42.5 -5.5t-33 -19.5t-25 -37t-18.5 -59l-6 -27h123q0 -21 -2.5 -39t-10.5 -40h-123l-77 -437q-12 -67 -29.5 -113
t-43.5 -74.5t-60.5 -41t-80.5 -12.5q-22 0 -42 3.5t-35 9.5q4 23 10 41.5t16 36.5q10 -4 22.5 -6.5t25.5 -2.5q24 0 42 6t32.5 24t25.5 50t20 85z" />
    <glyph glyph-name="ffi" unicode="ffi" horiz-adv-x="875" 
d="M177 434h-83q0 20 2.5 38.5t10.5 40.5h83l5 29q20 100 68 150.5t135 50.5q25 0 45.5 -4t34.5 -10q-6 -25 -12 -42.5t-16 -36.5q-10 4 -22.5 7.5t-29.5 3.5q-21 0 -37.5 -5.5t-28.5 -19t-21.5 -37t-17.5 -59.5l-6 -27h201l6 29q20 100 72 150.5t144 50.5q22 0 45 -3
t43.5 -8t36.5 -10.5t25 -9.5q-4 -24 -11.5 -42.5t-18.5 -36.5q-20 10 -53.5 19t-66.5 9q-47 0 -76.5 -25.5t-42.5 -95.5l-5 -27h295l-90 -513q-11 -2 -25.5 -2.5t-25.5 -0.5t-23 0.5t-23 2.5l76 434h-197l-76 -428q-12 -69 -29.5 -116.5t-43 -77.5t-60.5 -43t-83 -13
q-44 0 -78 13q5 23 10.5 41.5t15.5 36.5q11 -4 23.5 -6.5t24.5 -2.5q22 0 40.5 5.5t32.5 20.5t25 42.5t19 71.5l81 456h-201l-89 -496q-9 -50 -27 -85t-43.5 -56.5t-58.5 -31t-73 -9.5q-22 0 -42 3.5t-35 9.5q4 23 10 41.5t16 36.5q10 -4 22.5 -6.5t25.5 -2.5q22 0 40 5.5
t32 20.5t25 42.5t19 71.5z" />
    <glyph glyph-name="ffl" unicode="ffl" horiz-adv-x="921" 
d="M177 434h-83q0 20 2.5 38.5t10.5 40.5h83l11 54q36 176 197 176q25 0 45.5 -4t34.5 -10q-6 -25 -12 -42.5t-16 -36.5q-10 4 -22.5 7.5t-29.5 3.5q-21 0 -37.5 -5.5t-29.5 -19t-22.5 -37t-15.5 -59.5q-2 -7 -3 -13.5t-3 -13.5h206l6 29q1 7 2.5 13t3.5 12q42 176 210 176
q25 0 52.5 -3.5t53.5 -8.5t49.5 -11.5t40.5 -12.5q2 -10 2 -18.5v-18.5q0 -23 -5 -59.5t-11 -69.5l-74 -395q-3 -17 -3 -27q0 -16 4.5 -25.5t11.5 -14t15.5 -5.5t16.5 -1q9 0 20.5 2t19.5 4q9 -26 9 -62q0 -4 -0.5 -7.5t-0.5 -6.5q-15 -5 -36.5 -7.5t-42.5 -2.5
q-64 0 -89 29.5t-25 82.5q0 36 9 80q7 48 19.5 110.5l25.5 126.5t23 123t12 100q-20 7 -45.5 11.5t-51.5 4.5q-24 0 -43 -5.5t-33.5 -19t-25 -37t-17.5 -59.5l-5 -27h122q0 -21 -2.5 -39t-10.5 -40h-123l-76 -434q-12 -68 -29 -115t-42 -75.5t-60.5 -41t-83.5 -12.5
q-44 0 -78 13q5 23 10.5 41.5t15.5 36.5q10 -4 23 -6.5t25 -2.5q22 0 40.5 5.5t32.5 20.5t25 42.5t19 71.5l81 456h-206l-88 -492q-9 -52 -27 -87.5t-43.5 -57.5t-59 -31.5t-73.5 -9.5q-22 0 -42 3.5t-35 9.5q4 23 10 41.5t16 36.5q10 -4 22.5 -6.5t25.5 -2.5q22 0 40 5.5
t32 20.5t25 42.5t19 71.5z" />
    <glyph glyph-name=".notdef" horiz-adv-x="475" 
 />
    <glyph glyph-name=".null" horiz-adv-x="0" 
 />
    <glyph glyph-name="nonmarkingreturn" horiz-adv-x="475" 
 />
    <glyph glyph-name="space" unicode=" " horiz-adv-x="225" 
 />
    <glyph glyph-name="exclam" unicode="!" horiz-adv-x="277" 
d="M213 719q27 3 52 3q26 0 55 -3l-96 -504q-26 -3 -48 -3q-25 0 -47 3zM84 0q0 57 19 111q14 2 27 3t27 1q13 0 26.5 -1t25.5 -3q0 -29 -5 -55.5t-13 -55.5q-14 -2 -27.5 -3t-26.5 -1q-14 0 -27.5 1t-25.5 3z" />
    <glyph glyph-name="quotedbl" unicode="&#x22;" horiz-adv-x="389" 
d="M360 718q11 2 24 3t25 1q27 0 46 -4l-47 -274q-24 -3 -48 -3q-27 0 -48 3zM170 718q11 2 24 3t25 1q27 0 46 -4l-47 -274q-24 -3 -48 -3q-27 0 -48 3z" />
    <glyph glyph-name="numbersign" unicode="#" horiz-adv-x="714" 
d="M90 236q2 13 5 25.5t6 26.5h126l43 165h-120l4.5 39.5t9.5 38.5h127l41 159q14 2 24.5 2.5t23.5 0.5h20.5t21.5 -2l-41 -160h162l41 159q14 2 25 2.5t22 0.5h21.5t22.5 -2l-41 -160h113q-3 -20 -5.5 -38.5t-8.5 -39.5h-119l-43 -165h112q0 -37 -13 -79h-119l-46 -180
q-14 -2 -25 -2.5t-23 -0.5q-10 0 -21 0.5t-21 2.5l46 180h-162l-46 -180q-14 -2 -24.5 -2.5t-23.5 -0.5q-22 0 -44 3l23.5 90l22.5 90h-120zM481 288l42 165h-162l-42 -165h162z" />
    <glyph glyph-name="dollar" unicode="$" horiz-adv-x="600" 
d="M250 -12h-4q-48 0 -95 9.5t-78 23.5q4 22 10.5 44.5t17.5 45.5q36 -15 72 -24t84 -9q79 0 124.5 35t45.5 95q0 44 -28 72.5t-85 58.5q-32 17 -59 34.5t-46 38.5t-29.5 46.5t-10.5 60.5q0 83 55 136t155 63l15 89q16 4 35 4q8 0 17.5 -1t17.5 -3l-15 -86q42 -2 75 -10.5
t63 -19.5q-3 -21 -10 -43t-20 -42q-26 13 -60.5 22t-79.5 9q-29 0 -55 -5.5t-45 -18t-30 -31.5t-11 -46q0 -38 27.5 -64.5t81.5 -55.5q37 -20 66 -39t48.5 -41t29.5 -48t10 -61q0 -44 -14.5 -82.5t-42.5 -69t-68.5 -51t-92.5 -29.5l-19 -113q-16 -4 -35 -4q-20 0 -35 4z" />
    <glyph glyph-name="percent" unicode="%" horiz-adv-x="986" 
d="M772 708q12 2 27 3t28 1t27 -1t25 -3l-554 -707q-14 -2 -26 -3t-24 -1q-13 0 -28.5 1t-27.5 3zM778 61q30 0 51 17.5t34.5 44.5t20 58.5t6.5 59.5q0 99 -69 99q-30 0 -50.5 -18t-34 -45t-19.5 -59t-6 -60q0 -97 67 -97zM769 -11q-78 0 -114.5 47t-36.5 119q0 47 13 93
t39.5 83t66.5 59.5t94 22.5q39 0 68 -12.5t47.5 -34.5t27.5 -53t9 -67q0 -50 -14 -96t-41 -82t-67 -57.5t-92 -21.5zM274 367q30 0 51 17.5t34.5 44.5t20 58.5t6.5 59.5q0 99 -69 99q-30 0 -50.5 -18t-34 -45t-19.5 -59t-6 -60q0 -97 67 -97zM265 295q-78 0 -114.5 47
t-36.5 119q0 47 13 93t39.5 83t66.5 59.5t94 22.5q39 0 68 -12.5t47.5 -34.5t27.5 -53t9 -67q0 -50 -14 -96t-41 -82t-67 -57.5t-92 -21.5z" />
    <glyph glyph-name="ampersand" unicode="&#x26;" horiz-adv-x="722" 
d="M579 460q5 26 9 53t4 56v16q20 10 48 15t48 5q1 -9 1.5 -18t0.5 -19q0 -31 -8 -77l-6 -31h102q-2 -22 -5.5 -41t-9.5 -40h-101l-23 -129q-25 -138 -102 -200t-210 -62q-52 0 -95 11.5t-74.5 35.5t-49 61t-17.5 88q0 42 12.5 78.5t34.5 66.5t51.5 52t64.5 34
q-11 6 -24.5 16t-24.5 25t-18.5 35.5t-7.5 46.5q0 48 20 84t52 60t72.5 36t82.5 12q34 0 66 -4.5t60 -15.5q-3 -22 -8.5 -40t-16.5 -36q-25 8 -49 12.5t-53 4.5q-54 0 -89 -28t-35 -79q0 -45 29.5 -64.5t69.5 -19.5h199zM564 379h-170q-90 0 -141 -50t-51 -133
q0 -55 33.5 -87.5t105.5 -32.5q54 0 89.5 14.5t59 40.5t36 61.5t19.5 76.5z" />
    <glyph glyph-name="quotesingle" unicode="'" horiz-adv-x="199" 
d="M170 718q11 2 24 3t25 1q27 0 46 -4l-47 -274q-24 -3 -48 -3q-27 0 -48 3z" />
    <glyph glyph-name="parenleft" unicode="(" horiz-adv-x="331" 
d="M172 -166q-20 47 -35 123.5t-15 170.5q0 62 9 127t24.5 128.5t36.5 123.5t45 111t49.5 91.5t50.5 65.5q8 2 19.5 3t27.5 1q14 0 27.5 -1t24.5 -3q-32 -45 -69.5 -110t-69.5 -147.5t-53 -180.5t-21 -209q0 -56 5 -103t12.5 -84.5t15.5 -64.5t14 -42q-13 -2 -26.5 -3
t-27.5 -1q-13 0 -24.5 1t-19.5 3z" />
    <glyph glyph-name="parenright" unicode=")" horiz-adv-x="338" 
d="M-8 -166q32 45 69 109.5t69 146.5t53 180.5t21 209.5q0 56 -5 103.5t-12.5 85t-15.5 64.5t-14 42q13 2 26.5 3t27.5 1q13 0 24 -1t19 -3q20 -47 35.5 -124t15.5 -171q0 -93 -19.5 -191.5t-50.5 -187t-69.5 -159t-75.5 -108.5q-11 -2 -22 -3t-25 -1t-27.5 1t-23.5 3z" />
    <glyph glyph-name="asterisk" unicode="*" horiz-adv-x="476" 
d="M331 719q15 3 31 3q14 0 31 -3l-15 -130q-11 -2 -20.5 -2.5t-19.5 -0.5t-19.5 0.5t-18.5 2.5zM127 550q10 30 31 59l119 -33q-7 -20 -16 -38.5t-20 -35.5zM245 481q14 -8 28.5 -19.5t26.5 -25.5l-101 -101q-13 8 -24 16.5t-19 20.5zM396 576l131 33q9 -24 9 -51v-8
l-130 -48q-5 15 -7.5 32t-2.5 34v8zM323 436q35 28 71 45l51 -109q-13 -12 -27 -20.5t-30 -16.5z" />
    <glyph glyph-name="plus" unicode="+" horiz-adv-x="600" 
d="M303 307h-164q0 20 3 42.5t11 45.5h166l32 182q11 2 22.5 3t23.5 1q11 0 23 -1t23 -3l-32 -182h164q0 -22 -3 -43t-11 -45h-166l-32 -182q-20 -4 -46 -4q-12 0 -23.5 1t-22.5 3z" />
    <glyph glyph-name="comma" unicode="," horiz-adv-x="236" 
d="M106 109q12 3 24.5 4t24.5 1q13 0 26 -1t24 -4l-98 -221q-13 -2 -25.5 -3t-23.5 -1q-27 0 -47 4z" />
    <glyph glyph-name="hyphen" unicode="-" horiz-adv-x="348" 
d="M365 334q0 -21 -4.5 -46t-11.5 -46h-252q2 47 16 92h252z" />
    <glyph glyph-name="period" unicode="." horiz-adv-x="235" 
d="M61 0q0 28 5.5 55.5t13.5 55.5q14 2 28 3t28 1t28 -1t27 -3q0 -29 -5 -55.5t-13 -55.5q-16 -2 -29.5 -3t-27.5 -1t-27.5 1t-27.5 3z" />
    <glyph glyph-name="slash" unicode="/" horiz-adv-x="372" 
d="M380 719q23 4 49 4q12 0 25.5 -1t25.5 -3l-358 -719q-13 -2 -27 -3t-26 -1q-11 0 -23 1t-23 3z" />
    <glyph glyph-name="zero" unicode="0" horiz-adv-x="600" 
d="M301 -12q-59 0 -99 20t-64 52.5t-34.5 74t-10.5 84.5q0 81 20.5 159t60.5 139.5t99 99.5t136 38q59 0 99 -20t64 -53t34.5 -74.5t10.5 -84.5q0 -81 -20.5 -159t-60.5 -139.5t-99 -99t-136 -37.5zM310 75q47 0 84.5 30t64 79t40.5 112.5t14 129.5q0 28 -5.5 53.5t-18.5 45
t-34.5 31t-54.5 11.5q-48 0 -85.5 -29.5t-63.5 -78.5t-40 -112.5t-14 -130.5q0 -27 5.5 -52.5t18.5 -45t34.5 -31.5t54.5 -12z" />
    <glyph glyph-name="one" unicode="1" horiz-adv-x="600" 
d="M290 85l73 421l-140 -63q-12 20 -19.5 39.5t-9.5 40.5l277 127h19l-100 -565h145q0 -20 -4 -42.5t-10 -42.5h-399q0 21 4 44t10 41h154z" />
    <glyph glyph-name="two" unicode="2" horiz-adv-x="600" 
d="M278 232l66.5 67.5t52 62t34 61t12.5 62.5q0 37 -25 59.5t-79 22.5q-43 0 -77.5 -12t-67.5 -26q-19 37 -21 84q38 15 83.5 28.5t102.5 13.5q91 0 142.5 -41.5t51.5 -116.5q0 -42 -14.5 -80t-39.5 -74.5t-58.5 -72t-72.5 -72.5l-115 -111h263q0 -22 -4.5 -45t-10.5 -42
h-441q-2 8 -4 12z" />
    <glyph glyph-name="three" unicode="3" horiz-adv-x="600" 
d="M209 299l215 257h-253q0 22 4.5 45.5t10.5 43.5h399l5 -12l-228 -271q86 -5 127.5 -52.5t41.5 -118.5q0 -62 -23 -111t-63.5 -83t-95 -52t-116.5 -18q-45 0 -93.5 8.5t-86.5 26.5q5 20 13.5 41t19.5 41q29 -14 69.5 -22.5t79.5 -8.5q40 0 74.5 11t60 33t40.5 54t15 74
q0 31 -10.5 51.5t-27.5 33t-40 17.5t-48 5q-20 0 -41 -1.5t-42 -6.5z" />
    <glyph glyph-name="four" unicode="4" horiz-adv-x="600" 
d="M57 89l372 575q23 -3 45 -13t37 -24l-297 -461h192l35 198q11 2 25 3t26 1q11 0 24.5 -1t23.5 -3l-35 -198h87q0 -22 -4 -45.5t-11 -42.5h-87l-25 -137q-11 -2 -25 -2.5t-25 -0.5q-12 0 -25.5 0.5t-23.5 2.5l25 137h-329z" />
    <glyph glyph-name="five" unicode="5" horiz-adv-x="600" 
d="M174 291l76 354h328q0 -22 -4.5 -45.5t-10.5 -43.5h-237l-38 -181q19 4 35 5t27 1q45 0 79 -13.5t57.5 -36.5t35.5 -54.5t12 -68.5q0 -68 -25 -120t-67.5 -88t-98.5 -54.5t-118 -18.5q-48 0 -88 8.5t-72 22.5q5 21 13 43.5t19 41.5q29 -11 59.5 -20t75.5 -9q39 0 74 11
t61.5 33.5t42 56.5t15.5 79q0 50 -30.5 77.5t-93.5 27.5q-38 0 -66 -5t-51 -14z" />
    <glyph glyph-name="six" unicode="6" horiz-adv-x="600" 
d="M569 728q6 -23 6 -47q0 -8 -0.5 -15.5t-2.5 -21.5q-59 -5 -110.5 -23.5t-93.5 -50t-73 -76t-49 -101.5q26 31 67.5 52.5t99.5 21.5q37 0 68.5 -11.5t54.5 -34t36 -56t13 -78.5q0 -68 -22.5 -123.5t-60.5 -94.5t-88 -60t-105 -21q-53 0 -91.5 16.5t-63 45.5t-36 69
t-11.5 87q0 91 30 180t88.5 161.5t144.5 121t199 59.5zM319 73q39 0 69.5 17.5t51.5 46t31.5 64.5t10.5 72q0 56 -28 83t-81 27q-31 0 -60 -13.5t-51.5 -39t-36 -61t-13.5 -80.5q0 -48 25.5 -82t81.5 -34z" />
    <glyph glyph-name="seven" unicode="7" horiz-adv-x="600" 
d="M483 556h-318q0 21 4 46.5t11 42.5h457l4 -8l-415 -712q-31 8 -51 17.5t-38 26.5z" />
    <glyph glyph-name="eight" unicode="8" horiz-adv-x="600" 
d="M273 382q-15 9 -30 21t-27.5 29.5t-20.5 39.5t-8 51q0 41 18.5 76.5t50.5 62t75 42t91 15.5q37 0 70.5 -9t58.5 -28t40 -47t15 -66q0 -33 -11.5 -61.5t-31 -52.5t-45.5 -42.5t-56 -32.5q22 -12 42 -27t35.5 -35.5t24.5 -46t9 -57.5q0 -53 -22 -95t-59 -71t-86 -44.5
t-102 -15.5q-44 0 -82.5 9t-67.5 28.5t-45.5 51.5t-16.5 77q0 40 14.5 74.5t39 63t57.5 51t70 39.5zM354 340q-33 -11 -61.5 -28t-49.5 -39t-33 -48t-12 -56q0 -51 31.5 -74t82.5 -23q36 0 65 10.5t49 29t31 44t11 54.5q0 47 -33 78.5t-81 51.5zM381 420q59 21 92.5 54.5
t33.5 83.5q0 42 -27.5 62t-64.5 20q-31 0 -55 -9.5t-40.5 -25.5t-25 -37t-8.5 -45q0 -23 10 -40.5t24.5 -29.5t31 -20t29.5 -13z" />
    <glyph glyph-name="nine" unicode="9" horiz-adv-x="600" 
d="M127 0q123 15 210 75t122 176q-26 -32 -68 -53t-102 -21q-36 0 -66.5 12.5t-53.5 36t-36 57t-13 76.5q0 67 22 121t59.5 92.5t87 59.5t103.5 21q53 0 91.5 -16.5t63.5 -45.5t37 -68.5t12 -86.5q0 -57 -11.5 -116.5t-35.5 -116t-61.5 -106.5t-89 -89t-118.5 -63.5
t-150 -29.5q-6 24 -6 53q0 17 3 32zM330 260q31 0 60.5 13.5t52.5 38t37 60.5t14 81q0 24 -6.5 44.5t-20 36t-33.5 24.5t-48 9q-40 0 -70.5 -16.5t-51 -44.5t-31 -63.5t-10.5 -72.5q0 -57 28 -83.5t79 -26.5z" />
    <glyph glyph-name="colon" unicode=":" horiz-adv-x="235" 
d="M126 370q0 28 5.5 55.5t13.5 55.5q14 2 28 3t28 1t28 -1t27 -3q0 -29 -5 -55.5t-13 -55.5q-16 -2 -29.5 -3t-27.5 -1t-27.5 1t-27.5 3zM61 0q0 28 5.5 55.5t13.5 55.5q14 2 28 3t28 1t28 -1t27 -3q0 -29 -5 -55.5t-13 -55.5q-16 -2 -29.5 -3t-27.5 -1t-27.5 1t-27.5 3z
" />
    <glyph glyph-name="semicolon" unicode=";" horiz-adv-x="236" 
d="M87 109q12 3 24.5 4t24.5 1q13 0 26 -1t24 -4l-98 -221q-13 -2 -25.5 -3t-23.5 -1q-27 0 -47 4zM137 370q0 28 5.5 55.5t13.5 55.5q14 2 28 3t28 1t28 -1t27 -3q0 -29 -5 -55.5t-13 -55.5q-16 -2 -29.5 -3t-27.5 -1t-27.5 1t-27.5 3z" />
    <glyph glyph-name="less" unicode="&#x3c;" horiz-adv-x="600" 
d="M610 567q0 -28 -5 -56.5t-11 -45.5l-341 -124l297 -126q0 -26 -5.5 -51t-12.5 -42l-377 169q0 59 18 106z" />
    <glyph glyph-name="equal" unicode="=" horiz-adv-x="600" 
d="M556 294q0 -22 -3 -43.5t-11 -44.5h-416q0 41 14 88h416zM590 487q0 -20 -3 -42t-12 -46h-416q0 20 3 42t12 46h416z" />
    <glyph glyph-name="greater" unicode="&#x3e;" horiz-adv-x="600" 
d="M481 349l-296 123q0 23 4 47t13 47l378 -169q0 -23 -4.5 -52.5t-14.5 -53.5l-437 -170q0 10 1 23.5t3.5 28t5.5 28t6 22.5z" />
    <glyph glyph-name="question" unicode="?" horiz-adv-x="466" 
d="M226 376l37 10q28 8 54 22t46 34t31.5 45.5t11.5 56.5q0 46 -32 70t-86 24q-38 0 -65.5 -6.5t-59.5 -17.5q-7 17 -12 40.5t-5 43.5q46 17 85.5 22t78.5 5q50 0 88.5 -12.5t64 -35t38.5 -53t13 -66.5q0 -44 -16.5 -82.5t-45 -69.5t-65.5 -54t-77 -35l-17 -103
q-26 -3 -48 -3q-12 0 -24 0.5t-23 2.5zM152 1q1 29 5.5 57t14.5 54q14 2 28 3.5t28 1.5q13 0 27 -1.5t28 -3.5q-1 -30 -5.5 -57t-14.5 -54q-14 -2 -28 -3t-28 -1t-27.5 1t-27.5 3z" />
    <glyph glyph-name="at" unicode="@" horiz-adv-x="988" 
d="M686 142q10 -8 24.5 -10.5t28.5 -2.5q42 0 74 24.5t54.5 63t34 85t11.5 91.5q0 127 -75 193t-211 66q-104 0 -185 -36.5t-136.5 -97.5t-84.5 -139t-29 -161q0 -78 22.5 -134t61.5 -91.5t92 -52.5t114 -17q48 0 91.5 7.5t78.5 20.5q6 -14 11.5 -31.5t10.5 -38.5
q-35 -17 -89.5 -25.5t-119.5 -8.5q-76 0 -142.5 22t-116.5 67.5t-79 114.5t-29 163q0 90 32 181.5t98 166t167.5 121.5t241.5 47q76 0 142.5 -20.5t115.5 -62.5t77.5 -105.5t28.5 -148.5q0 -62 -18.5 -122t-53.5 -108t-85 -77.5t-113 -29.5q-35 0 -62.5 7.5t-47.5 23.5
q-29 -17 -65 -27t-80 -10q-69 0 -111.5 42.5t-42.5 116.5q0 68 23 125.5t62 99t91.5 65t111.5 23.5q40 0 76.5 -6t71.5 -17zM651 436q-13 3 -24 4.5t-23 1.5q-40 0 -73.5 -16.5t-58 -45.5t-38 -68t-13.5 -84q0 -51 22.5 -75t67.5 -24q23 0 42 4t42 15z" />
    <glyph glyph-name="A" unicode="A" horiz-adv-x="599" 
d="M362 719q13 2 31.5 2.5t32.5 0.5q15 0 30.5 -0.5t27.5 -2.5l98 -719q-29 -3 -58 -3q-24 0 -49 3l-19 169h-242l-73 -169q-24 -3 -54 -3q-14 0 -27.5 0.5t-24.5 2.5zM446 257l-41 347l-152 -347h193z" />
    <glyph glyph-name="B" unicode="B" horiz-adv-x="579" 
d="M219 719q25 4 67.5 7.5t79.5 3.5q51 0 92.5 -8.5t71 -27.5t46 -48t16.5 -71q0 -37 -12 -69t-32 -56.5t-45.5 -41t-52.5 -23.5q54 -9 89 -49t35 -102q0 -66 -25.5 -113t-69.5 -76.5t-102.5 -43t-124.5 -13.5q-38 0 -79.5 3.5t-79.5 8.5zM208 78q12 -2 29 -3t36 -1
q33 0 67.5 6.5t63 23.5t46.5 47t18 77q0 30 -10 50.5t-28 33t-43 18t-55 5.5h-78zM338 419q67 0 108 37t41 103q0 50 -31 70.5t-86 20.5q-17 0 -34 -1t-28 -3l-40 -227h70z" />
    <glyph glyph-name="C" unicode="C" horiz-adv-x="577" 
d="M543 106q19 -36 22 -85q-20 -9 -43 -15t-47 -10t-47.5 -6t-42.5 -2q-131 0 -201.5 74t-70.5 204q0 90 25 174t74.5 148.5t122.5 103.5t169 39q53 0 90.5 -7.5t63.5 -18.5q-5 -23 -11.5 -42t-19.5 -42q-29 11 -57 16t-63 5q-74 0 -128 -31t-88.5 -82.5t-51 -117.5
t-16.5 -136q0 -97 47.5 -147t137.5 -50q38 0 70.5 7t64.5 21z" />
    <glyph glyph-name="D" unicode="D" horiz-adv-x="684" 
d="M219 719q16 2 36 4t41 3.5t41 2.5t38 1q84 0 145 -21t100 -59.5t57.5 -92.5t18.5 -120q0 -95 -27.5 -176.5t-81.5 -142.5t-134.5 -95.5t-186.5 -34.5q-54 0 -98.5 3.5t-74.5 8.5zM210 84q13 -2 36.5 -3.5t45.5 -1.5q69 0 124 26t93 72t58 109t20 137q0 106 -49 162
t-159 56q-20 0 -37.5 -1.5t-34.5 -3.5z" />
    <glyph glyph-name="E" unicode="E" horiz-adv-x="524" 
d="M218 719h381q0 -45 -16 -90h-278l-36 -205h222q0 -46 -16 -90h-222l-21.5 -122.5l-21.5 -122.5h286q-3 -26 -5 -45t-11 -44h-388z" />
    <glyph glyph-name="F" unicode="F" horiz-adv-x="496" 
d="M218 719h363q-3 -26 -5 -46.5t-11 -43.5h-260l-37 -211h218q-2 -47 -16 -90h-218l-57 -328q-26 -3 -52 -3q-14 0 -27 0.5t-24 2.5z" />
    <glyph glyph-name="G" unicode="G" horiz-adv-x="657" 
d="M546 371q12 2 25.5 3t25.5 1q14 0 26.5 -1t24.5 -3l-31.5 -174.5l-30.5 -174.5q-39 -16 -94 -25t-106 -9q-65 0 -116 20t-86 56.5t-53 88t-18 113.5q0 92 24.5 176t74 148.5t122.5 102.5t171 38q50 0 88.5 -8t64.5 -19q-5 -23 -11.5 -42t-19.5 -42q-28 11 -56 16t-65 5
q-74 0 -127.5 -31t-88 -82.5t-51 -117.5t-16.5 -136q0 -100 48 -148t133 -48q25 0 49.5 3.5t42.5 10.5z" />
    <glyph glyph-name="H" unicode="H" horiz-adv-x="666" 
d="M219 719q12 2 25 3t27 1q12 0 25.5 -1t25.5 -3l-52 -296h276l51 296q12 2 25 3t27 1q12 0 26 -1t25 -3l-126 -719q-12 -2 -25.5 -3t-27.5 -1t-26.5 1t-23.5 3l58 333h-275l-58 -333q-12 -2 -26 -3t-27 -1q-14 0 -26.5 1t-23.5 3z" />
    <glyph glyph-name="I" unicode="I" horiz-adv-x="288" 
d="M219 719q13 2 26 3t26 1q14 0 26.5 -1t24.5 -3l-126 -719q-14 -2 -26.5 -3t-26.5 -1t-26.5 1t-23.5 3z" />
    <glyph glyph-name="J" unicode="J" horiz-adv-x="394" 
d="M314 630h-120q0 22 3.5 45t11.5 44h222l-91 -519q-11 -60 -28 -101t-43 -65.5t-62 -35t-85 -10.5q-28 0 -50 3.5t-41 9.5q2 23 6 45t15 42q11 -3 28.5 -7t37.5 -4q21 0 39.5 3t33.5 13.5t26 30.5t17 53z" />
    <glyph glyph-name="K" unicode="K" horiz-adv-x="583" 
d="M219 719q25 3 52 3q26 0 50 -3l-126 -719q-26 -3 -52 -3q-28 0 -50 3zM290 365l275 354q15 2 28.5 2.5t25.5 0.5q13 0 30 -0.5t31 -2.5l-278 -353l172 -366q-32 -3 -57 -3q-24 0 -54 3z" />
    <glyph glyph-name="L" unicode="L" horiz-adv-x="490" 
d="M218 719q12 2 25.5 3t27.5 1q13 0 25 -1t24 -3l-110 -629h268q-2 -26 -5 -47t-12 -43h-369z" />
    <glyph glyph-name="M" unicode="M" horiz-adv-x="801" 
d="M238 719q13 2 28.5 3t29.5 1t27 -1t25 -3l98 -445l255 445q11 2 26 3t29 1t28 -1t25 -3l-92 -719q-13 -2 -25.5 -3t-25.5 -1q-14 0 -26 1t-22 3l74 547l-230 -398q-23 -3 -41 -3q-20 0 -39 3l-90 400l-117 -549q-11 -2 -23 -3t-25 -1q-12 0 -24 1t-23 3z" />
    <glyph glyph-name="N" unicode="N" horiz-adv-x="669" 
d="M218 719q11 2 24.5 2.5t24.5 0.5q25 0 45 -3l202 -542l94 542l19.5 2t19.5 1h24l32 -3l-126 -719q-11 -2 -23.5 -2.5t-24.5 -0.5q-11 0 -22.5 0.5t-22.5 2.5l-203 539l-93 -539q-20 -3 -39 -3h-25l-32 3z" />
    <glyph glyph-name="O" unicode="O" horiz-adv-x="701" 
d="M349 -12q-60 0 -104.5 19t-74 53.5t-44 83.5t-14.5 108q0 92 24 178.5t70.5 153t114.5 107t155 40.5q60 0 105 -20t74 -55t43.5 -84t14.5 -107q0 -94 -24.5 -180t-71 -152t-114 -105.5t-154.5 -39.5zM360 76q59 0 104.5 34.5t77 90t48 125t16.5 138.5q0 81 -33.5 129
t-108.5 48q-60 0 -106 -34t-77 -89t-47 -124.5t-16 -140.5q0 -84 34.5 -130.5t107.5 -46.5z" />
    <glyph glyph-name="P" unicode="P" horiz-adv-x="566" 
d="M219 720q31 4 71 7.5t75 3.5q47 0 91 -9t78 -31t54.5 -59t20.5 -93q0 -68 -23 -120t-63 -87.5t-95.5 -54t-119.5 -18.5q-40 0 -67 3l-46 -262q-26 -3 -52 -3t-50 3zM257 351q14 -2 27 -3t31 -1q40 0 74 10.5t59 32t39 56t14 82.5q0 67 -38 91.5t-103 24.5q-13 0 -26 -1
t-27 -3z" />
    <glyph glyph-name="Q" unicode="Q" horiz-adv-x="701" 
d="M656 -65q-2 -23 -9 -45.5t-16 -39.5l-222 41q2 21 8.5 42.5t17.5 41.5zM349 -12q-60 0 -104.5 19t-74 53.5t-44 83.5t-14.5 108q0 92 24 178.5t70.5 153t114.5 107t155 40.5q60 0 105 -20t74 -55t43.5 -84t14.5 -107q0 -94 -24.5 -180t-71 -152t-114 -105.5t-154.5 -39.5
zM360 76q59 0 104.5 34.5t77 90t48 125t16.5 138.5q0 81 -33.5 129t-108.5 48q-60 0 -106 -34t-77 -89t-47 -124.5t-16 -140.5q0 -84 34.5 -130.5t107.5 -46.5z" />
    <glyph glyph-name="R" unicode="R" horiz-adv-x="575" 
d="M219 720q38 6 73 8.5t69 2.5q45 0 88 -9t76.5 -30t53.5 -55.5t20 -86.5q0 -53 -17 -93t-42.5 -69.5t-56 -49.5t-56.5 -32l131 -306q-30 -3 -58 -3q-29 0 -54 3l-139 335l10 3q6 1 21.5 7t35 17t40.5 26.5t38.5 37t28.5 48t11 59.5q0 60 -34 86t-94 26q-16 0 -28.5 -1
t-28.5 -3l-113 -641q-12 -1 -25.5 -2t-26.5 -1q-12 0 -25.5 0.5t-24.5 2.5z" />
    <glyph glyph-name="S" unicode="S" horiz-adv-x="532" 
d="M81 109q37 -13 73 -22t79 -9q85 0 130.5 37.5t45.5 100.5q0 41 -26.5 69t-80.5 57q-33 18 -60 36.5t-46 39.5t-29.5 47t-10.5 59q0 47 18 85t51.5 65t80.5 42t105 15q54 0 93 -8t74 -22q-4 -21 -11.5 -43t-20.5 -42q-26 12 -58.5 21t-74.5 9q-32 0 -59 -6t-47 -18
t-31.5 -31.5t-11.5 -46.5q0 -40 24 -66.5t74 -53.5q37 -20 66.5 -39t50 -41t31.5 -49t11 -63q0 -55 -20.5 -100t-58.5 -77t-92 -49.5t-122 -17.5q-55 0 -99 8.5t-81 22.5q8 44 33 90z" />
    <glyph glyph-name="T" unicode="T" horiz-adv-x="515" 
d="M313 630h-178q0 22 4 44t12 45h459q0 -23 -4 -44.5t-12 -44.5h-178l-110 -630q-26 -3 -53 -3q-13 0 -26 0.5t-24 2.5z" />
    <glyph glyph-name="U" unicode="U" horiz-adv-x="663" 
d="M212 719q13 2 26.5 3t26.5 1t25.5 -1t24.5 -3l-72 -408q-12 -69 -12 -117q0 -61 25.5 -87.5t88.5 -26.5q43 0 73.5 14.5t51.5 43.5t35 72.5t24 100.5l71 408q14 2 26.5 3t26.5 1q12 0 25.5 -1t24.5 -3l-76 -433q-13 -72 -34.5 -128t-56 -93.5t-85 -57t-121.5 -19.5
q-103 0 -153.5 49t-50.5 152q0 23 3 49t8 55z" />
    <glyph glyph-name="V" unicode="V" horiz-adv-x="610" 
d="M152 719q12 2 27 3t30 1q13 0 26.5 -1t25.5 -3l70 -603l264 603q12 2 26.5 3t28.5 1t28.5 -1t25.5 -3l-330 -719q-14 -2 -32 -3t-32 -1q-15 0 -30.5 1t-28.5 3z" />
    <glyph glyph-name="W" unicode="W" horiz-adv-x="892" 
d="M159 719q14 2 31 2.5t34 0.5q22 0 42 -3l13 -586l236 586q13 2 28.5 2.5t28.5 0.5q11 0 25 -0.5t25 -2.5l39 -592l214 592q24 3 52 3q13 0 27 -0.5t25 -2.5l-284 -719q-12 -2 -28.5 -2.5t-30.5 -0.5t-30 0.5t-29 2.5l-39 551l-229 -551q-13 -2 -30.5 -2.5t-31.5 -0.5
q-12 0 -27.5 0.5t-26.5 2.5z" />
    <glyph glyph-name="X" unicode="X" horiz-adv-x="607" 
d="M260 377l-92 342q28 3 57 3q23 0 49 -3l88 -345l-221 -374q-15 -2 -31 -2.5t-29 -0.5q-28 0 -55 3zM370 374l205 345q27 3 54 3q30 0 57 -3l-212 -343l118 -376q-29 -3 -55 -3q-24 0 -52 3z" />
    <glyph glyph-name="Y" unicode="Y" horiz-adv-x="549" 
d="M270 262l-137 457q14 2 32.5 2.5t35.5 0.5q21 0 41 -3l96 -353l206 353q27 3 57 3q13 0 27.5 -0.5t25.5 -2.5l-283 -460l-45 -259q-27 -3 -53 -3q-28 0 -50 3z" />
    <glyph glyph-name="Z" unicode="Z" horiz-adv-x="530" 
d="M32 8l420 621h-291q0 47 16 90h438l4 -10l-419 -620h304q0 -25 -4 -47t-12 -42h-451z" />
    <glyph glyph-name="bracketleft" unicode="[" horiz-adv-x="342" 
d="M219 760h210q0 -20 -3.5 -41.5t-10.5 -39.5h-113l-134 -766h112q-1 -19 -4 -40t-10 -41h-210z" />
    <glyph glyph-name="backslash" unicode="\" horiz-adv-x="409" 
d="M137 719q14 2 25.5 3t24.5 1q12 0 24 -1t24 -3l160 -719q-23 -4 -49 -4q-12 0 -24.5 1t-24.5 3z" />
    <glyph glyph-name="bracketright" unicode="]" horiz-adv-x="329" 
d="M129 -86l135 765h-112q0 39 14 81h210l-163 -928h-210q0 20 3.5 41.5t10.5 40.5h112z" />
    <glyph glyph-name="asciicircum" unicode="^" horiz-adv-x="528" 
d="M332 718q13 2 26 3t25 1q14 0 27 -1t26 -3l91 -350q-14 -2 -25.5 -2.5t-22.5 -0.5t-22.5 0.5t-22.5 2.5l-66 259l-155 -260q-11 -2 -24.5 -2h-24.5q-10 0 -21.5 0.5t-24.5 2.5z" />
    <glyph glyph-name="underscore" unicode="_" horiz-adv-x="486" 
d="M477 -14q0 -22 -3.5 -39.5t-8.5 -34.5h-473q0 2 -0.5 5t-0.5 5q0 14 2.5 30t9.5 34h474z" />
    <glyph glyph-name="grave" unicode="`" horiz-adv-x="500" 
d="M250 721q15 2 30 3t32 1t33.5 -1t31.5 -3l92 -127q-23 -4 -48 -4q-15 0 -28 1t-24 3z" />
    <glyph glyph-name="a" unicode="a" horiz-adv-x="554" 
d="M455 437q-12 3 -25 4t-29 1q-50 0 -89.5 -23t-68 -61.5t-43.5 -87t-15 -99.5q0 -48 17 -74.5t51 -26.5q31 0 60 20t53 55.5t41.5 83t27.5 101.5zM512 218q-11 -60 -17.5 -103t-6.5 -75q0 -13 0.5 -20.5t2.5 -18.5q-11 -2 -24 -3t-24 -1q-10 0 -22 1t-23 3q-2 11 -3 22.5
t-1 28.5q0 11 2.5 30t5.5 34q-11 -22 -29 -44.5t-41.5 -41t-53 -30.5t-63.5 -12q-66 0 -99.5 43.5t-33.5 118.5q0 71 22 138.5t65 120t107 84.5t149 32q36 0 72.5 -5.5t64.5 -15.5z" />
    <glyph glyph-name="b" unicode="b" horiz-adv-x="571" 
d="M194 78q11 -3 27 -5t30 -2q46 0 85.5 19t68 52.5t45 79.5t16.5 100t-22.5 85.5t-66.5 31.5q-26 0 -50 -11t-44.5 -35t-36.5 -62.5t-25 -94.5zM175 528q9 55 15 95.5t6 72.5v20t-1 17q11 2 26.5 3t26.5 1q10 0 22.5 -0.5t23.5 -2.5q1 -10 1.5 -18.5t0.5 -18.5
q0 -23 -5 -60t-11 -69l-23 -131q13 18 28.5 34t35.5 28t45 19t57 7q69 0 109 -48.5t40 -136.5q0 -71 -21.5 -134.5t-65 -112t-109 -77t-153.5 -28.5q-38 0 -76 7t-63 17z" />
    <glyph glyph-name="c" unicode="c" horiz-adv-x="459" 
d="M421 90q8 -14 12.5 -33.5t4.5 -44.5q-29 -12 -67 -18t-69 -6q-110 0 -162 54t-52 151q0 60 19.5 119.5t58 107t94 76.5t127.5 29q33 0 63 -6t52 -14q-1 -19 -8 -41.5t-18 -39.5q-20 8 -43.5 13.5t-49.5 5.5q-49 0 -85 -21.5t-60 -56t-35.5 -77.5t-11.5 -85
q0 -68 33.5 -100.5t92.5 -32.5q26 0 51.5 4.5t52.5 15.5z" />
    <glyph glyph-name="d" unicode="d" horiz-adv-x="552" 
d="M456 437q-12 3 -25 4t-29 1q-50 0 -89.5 -23t-68 -61.5t-43.5 -87t-15 -99.5q0 -48 17 -74.5t51 -26.5q31 0 60 20t53 55.5t42 83t28 101.5zM514 218q-11 -60 -17 -103t-6 -75v-20.5t2 -18.5q-11 -2 -23.5 -3t-23.5 -1t-23 1t-22 3q-2 8 -3.5 17.5t-1.5 26.5
q0 12 2.5 33.5t7.5 39.5q-12 -22 -30 -45t-42 -42t-53.5 -31t-63.5 -12q-66 0 -100 43.5t-34 118.5q0 71 22 138.5t65 120t107.5 84.5t148.5 32q11 0 23 -1t20 -2q11 58 17 100t6 74v20t-1 17q11 2 26.5 3t26.5 1q10 0 22.5 -0.5t22.5 -2.5q3 -20 3 -37q0 -23 -4.5 -59
t-10.5 -69z" />
    <glyph glyph-name="e" unicode="e" horiz-adv-x="498" 
d="M186 204q3 -67 34 -101t96 -34q40 0 76 9.5t65 20.5q9 -15 13 -36t4 -42q-15 -7 -36.5 -13t-45 -10.5t-47.5 -7t-44 -2.5q-59 0 -99.5 15.5t-66 43t-37 65t-11.5 81.5q0 61 20.5 120.5t59 106.5t92 76t119.5 29t104.5 -32.5t38.5 -86.5q0 -44 -21.5 -76.5t-59.5 -55.5
t-89.5 -38t-112.5 -24zM249 288q51 9 84.5 20.5t53.5 25t28 28.5t8 33q0 23 -16 37.5t-46 14.5q-32 0 -59 -14.5t-48.5 -38t-36.5 -54t-23 -62.5z" />
    <glyph glyph-name="f" unicode="f" horiz-adv-x="336" 
d="M177 434h-83q0 20 2.5 38.5t10.5 40.5h83l5 29q17 101 66.5 151t139.5 50q26 0 45 -3.5t35 -8.5q-6 -26 -12.5 -43.5t-16.5 -36.5q-11 4 -23 7t-28 3q-21 0 -38 -5.5t-30.5 -19t-23.5 -37t-16 -59.5q-2 -7 -3 -13.5t-3 -13.5h123q0 -21 -2.5 -39t-10.5 -40h-123l-77 -437
q-12 -67 -29.5 -113t-43.5 -74.5t-60.5 -41t-80.5 -12.5q-22 0 -42 3.5t-35 9.5q4 23 10 41.5t16 36.5q10 -4 22.5 -6.5t25.5 -2.5q23 0 41.5 6t32.5 24t25.5 50.5t20.5 84.5z" />
    <glyph glyph-name="g" unicode="g" horiz-adv-x="550" 
d="M403 116q-11 -22 -29 -44.5t-42 -41t-53.5 -30.5t-63.5 -12q-66 0 -99.5 43.5t-33.5 118.5q0 71 22 138.5t65 120t107 84.5t149 32q36 0 73.5 -5.5t65.5 -15.5l-44.5 -250l-44.5 -250q-12 -68 -40 -115t-69 -76.5t-93 -43t-112 -13.5q-34 0 -68 6t-56 15q1 43 22 80
q20 -5 47 -10.5t59 -5.5q45 0 80 9t62 30t45.5 55t29.5 85zM455 436q-24 6 -54 6q-50 0 -90 -23t-68 -61.5t-43.5 -87t-15.5 -99.5q0 -48 18 -74.5t51 -26.5q32 0 60.5 20t52 55t41 82.5t28.5 102.5z" />
    <glyph glyph-name="h" unicode="h" horiz-adv-x="567" 
d="M174 527q10 56 16 96.5t6 72.5q0 12 -0.5 19t-1.5 18q11 2 27 3t27 1q10 0 22.5 -1t22.5 -3q3 -18 3 -37q0 -11 -1.5 -26.5t-3.5 -32.5t-5 -35t-6 -34q-7 -34 -13 -67.5l-12 -67.5q28 37 72 64t100 27q61 0 95.5 -32t34.5 -99q0 -15 -2 -33t-5 -36l-57 -324
q-11 -2 -25.5 -2.5t-25.5 -0.5t-24.5 0.5t-23.5 2.5l27 154l27 154l4 30t2 26q0 38 -20.5 56t-52.5 18q-23 0 -47 -10t-45.5 -34.5t-39.5 -66t-29 -104.5q-11 -57 -20.5 -112l-19.5 -111q-14 -2 -29 -2.5t-29 -0.5q-5 0 -18 0.5t-23 2.5z" />
    <glyph glyph-name="i" unicode="i" horiz-adv-x="285" 
d="M180 434h-62q0 20 2.5 39t10.5 40h160l-90 -513q-11 -2 -25.5 -2.5t-25.5 -0.5t-23 0.5t-23 2.5zM179 619q0 29 5 55t13 53q14 2 30 3t28 1t27.5 -1t28.5 -3q-1 -29 -6 -55.5t-13 -52.5q-14 -2 -30 -2.5t-28 -0.5q-11 0 -27 0.5t-28 2.5z" />
    <glyph glyph-name="j" unicode="j" horiz-adv-x="284" 
d="M180 434h-62q0 20 2.5 38.5t10.5 40.5h160l-102 -582q-31 -175 -191 -175q-24 0 -45.5 3.5t-38.5 9.5q0 16 5.5 38t13.5 38q11 -4 27.5 -6.5t30.5 -2.5q37 0 64.5 22t37.5 79zM179 619q0 29 5 55t13 53q14 2 30 3t28 1t27.5 -1t28.5 -3q-1 -29 -6 -55.5t-13 -52.5
q-14 -2 -30 -2.5t-28 -0.5q-11 0 -27 0.5t-28 2.5z" />
    <glyph glyph-name="k" unicode="k" horiz-adv-x="504" 
d="M261 266l105 131q28 35 46 64t23 52q14 2 26 3t26 1t28 -1t27 -3q-4 -23 -17 -44.5t-36 -52.5l-61.5 -74l-62.5 -74l122 -268q-29 -3 -52 -3q-26 0 -54 3zM175 527q10 56 15.5 96.5t5.5 72.5v19t-1 18q11 2 26.5 3t26.5 1t23 -1t23 -3q1 -9 1.5 -18t0.5 -19
q0 -18 -3 -44.5t-8 -55.5l-105 -596q-11 -2 -25.5 -2.5t-25.5 -0.5t-24 0.5t-23 2.5z" />
    <glyph glyph-name="l" unicode="l" horiz-adv-x="297" 
d="M173 527q10 56 15.5 96.5t6.5 72.5v19t-1 18q11 2 26.5 3t26.5 1q10 0 22.5 -1t23.5 -3q2 -9 2 -18v-19q0 -11 -1.5 -26.5t-3.5 -32.5t-5 -35t-6 -34l-78 -422q-3 -17 -3 -27q0 -16 4.5 -25.5t11.5 -14t15.5 -5.5t16.5 -1q9 0 20.5 2t19.5 4q9 -26 9 -62q0 -4 -0.5 -7.5
t-0.5 -6.5q-15 -5 -36.5 -7.5t-42.5 -2.5q-26 0 -47.5 5t-37 18t-24 34.5t-8.5 53.5q0 19 4 40l8 41z" />
    <glyph glyph-name="m" unicode="m" horiz-adv-x="843" 
d="M134 297q11 60 17.5 103t6.5 75v20.5t-2 18.5q11 2 24 3t24 1q10 0 22 -1t23 -3q2 -8 3 -17.5t1 -26.5q0 -12 -1 -23t-3 -23q26 42 71 71.5t101 29.5q54 0 82.5 -26.5t33.5 -77.5q30 46 76 75t101 29q118 0 118 -130q0 -15 -2 -33.5t-5 -36.5l-57 -325q-11 -2 -25 -3
t-25 -1t-24.5 1t-23.5 3l54 308q3 16 4.5 31.5t1.5 26.5q0 38 -15 55.5t-48 17.5q-21 0 -43.5 -10t-43 -34t-37.5 -63t-27 -97l-41 -235q-12 -2 -26 -3t-25 -1t-24.5 1t-23.5 3l54 308q3 16 4.5 31.5t1.5 26.5q0 38 -15 55.5t-48 17.5q-21 0 -43.5 -10t-43 -35t-38 -66.5
t-28.5 -104.5l-40 -223q-12 -2 -26 -3t-25 -1t-24 1t-23 3z" />
    <glyph glyph-name="n" unicode="n" horiz-adv-x="575" 
d="M142 297q11 60 17.5 103t6.5 75q0 13 -0.5 20.5t-2.5 18.5q11 2 24 3t24 1q10 0 22.5 -1t22.5 -3q2 -8 3 -18.5t1 -27.5q0 -19 -2.5 -36t-5.5 -33q10 21 28 43.5t42 40.5t53.5 30t62.5 12q60 0 93.5 -32t33.5 -99q0 -15 -2 -33.5t-5 -35.5l-57 -325q-12 -2 -26 -3t-25 -1
t-24.5 1t-23.5 3l54 308q3 16 4.5 31t1.5 26q0 40 -18.5 57t-49.5 17q-27 0 -53 -16.5t-49 -48.5t-41.5 -79t-29.5 -108l-33 -187q-12 -2 -26 -3t-25 -1t-24.5 1t-23.5 3z" />
    <glyph glyph-name="o" unicode="o" horiz-adv-x="557" 
d="M276 -12q-93 0 -140 51.5t-47 145.5q0 55 17 115.5t52.5 110t89 82t126.5 32.5q94 0 141 -52t47 -146q0 -56 -17 -116t-52 -109.5t-89 -81.5t-128 -32zM286 67q47 0 80.5 25.5t54.5 64.5t31 84.5t10 85.5q0 57 -25.5 87t-72.5 30t-80 -26t-54 -65t-30.5 -84.5t-9.5 -84.5
q0 -57 24.5 -87t71.5 -30z" />
    <glyph glyph-name="p" unicode="p" horiz-adv-x="571" 
d="M194 78q11 -4 27 -5.5t30 -1.5q46 0 85.5 19t68 52.5t45 79.5t16.5 100t-23 85.5t-66 31.5q-26 0 -50 -11t-44.5 -35t-36.5 -62.5t-25 -94.5zM134 297q11 60 17.5 103t6.5 75q0 13 -0.5 20.5t-1.5 18.5q11 2 23.5 3t23.5 1q10 0 22.5 -1t23.5 -3q2 -8 3 -17.5t1 -26.5
q0 -12 -1 -21.5t-3 -21.5q27 42 70 70t104 28q69 0 109 -48.5t40 -136.5q0 -71 -21.5 -134.5t-64.5 -112t-107 -77t-149 -28.5q-16 0 -28.5 1t-23.5 3l-39 -228q-12 -2 -26 -3t-24 -1q-11 0 -24.5 1t-25.5 3z" />
    <glyph glyph-name="q" unicode="q" horiz-adv-x="551" 
d="M397 105q-12 -20 -29.5 -40.5t-40 -37.5t-50 -28t-59.5 -11q-66 0 -99.5 44t-33.5 119q0 71 22 138t65 119.5t107 84.5t148 32q37 0 73 -6t65 -14l-130 -741q-11 -2 -25 -3t-24 -1q-11 0 -24.5 1t-24.5 3zM457 437q-11 3 -24.5 4t-29.5 1q-50 0 -89.5 -23t-68 -61
t-43.5 -86.5t-15 -99.5q0 -48 17.5 -75t50.5 -27q31 0 60 20t53 55.5t41.5 83t27.5 101.5z" />
    <glyph glyph-name="r" unicode="r" horiz-adv-x="365" 
d="M81 0q11 63 24.5 133t25 135.5t19.5 120t8 86.5q0 13 -0.5 20.5t-2.5 18.5q11 2 24 2.5t24 0.5q10 0 22.5 -0.5t22.5 -2.5q2 -8 3 -17.5t1 -26.5q0 -23 -3 -45q13 18 28.5 34t34.5 29t42 20.5t51 7.5q8 0 17.5 -1t15.5 -3q0 -20 -4.5 -45.5t-15.5 -43.5q-4 1 -12.5 2
t-16.5 1q-67 0 -108.5 -48t-59.5 -148l-41 -230q-21 -3 -41 -3h-25z" />
    <glyph glyph-name="s" unicode="s" horiz-adv-x="434" 
d="M214 241q-15 6 -32 15t-31 23t-23.5 35.5t-9.5 51.5q0 37 15 66.5t42 50t64.5 31.5t83.5 11q41 0 78 -9t58 -20q-8 -39 -29 -75q-17 8 -47 16.5t-64 8.5q-43 0 -71.5 -15t-28.5 -52q0 -23 13.5 -38.5t48.5 -29.5l22 -10l39.5 -19t37 -24.5t27 -35t10.5 -50.5
q0 -48 -18 -82.5t-49.5 -57t-73 -33.5t-89.5 -11q-40 0 -78.5 7t-63.5 18q2 22 7.5 42t16.5 38q26 -11 61 -17.5t65 -6.5q25 0 47 4.5t38 14t25.5 25.5t9.5 40q0 31 -18 46.5t-51 28.5z" />
    <glyph glyph-name="t" unicode="t" horiz-adv-x="350" 
d="M171 434h-81q0 20 3 38.5t11 40.5h80q5 26 9 53t4 56v16q20 10 48 15t48 5q1 -9 1.5 -18t0.5 -19q0 -31 -8 -77l-6 -31h129q0 -22 -3 -40.5t-10 -38.5h-128l-39 -217q-5 -23 -9 -47.5t-4 -44.5q0 -30 15.5 -41.5t41.5 -11.5q17 0 31 2.5t28 6.5q3 -10 5 -22t2 -26v-14.5
t-1 -15.5q-13 -4 -34 -7.5t-45 -3.5q-32 0 -58.5 4.5t-45.5 17t-29.5 34t-10.5 56.5q0 19 3.5 40.5l7.5 44.5z" />
    <glyph glyph-name="u" unicode="u" horiz-adv-x="568" 
d="M166 513q11 2 25.5 3t25.5 1t24 -1t24 -3l-54 -308q-6 -32 -6 -57q0 -40 18.5 -57t49.5 -17q27 0 53 16.5t49 48.5t41.5 79t29.5 108l33 187q12 2 26 3t25 1t24.5 -1t23.5 -3l-53 -297q-11 -60 -17.5 -103t-6.5 -75q0 -13 0.5 -20.5t1.5 -18.5q-11 -2 -23.5 -3t-23.5 -1
q-10 0 -22.5 1t-22.5 3q-4 13 -4 46q0 19 2.5 36t5.5 33q-10 -21 -28 -43.5t-42 -40.5t-53.5 -30t-62.5 -12q-60 0 -93.5 32t-33.5 99q0 15 2 33.5t5 35.5z" />
    <glyph glyph-name="v" unicode="v" horiz-adv-x="500" 
d="M99 513q12 2 25.5 3t26.5 1q15 0 28.5 -1t25.5 -3l58 -412l129 259q23 47 37 85.5t15 60.5v7q13 2 27 3t28 1q15 0 29.5 -1t26.5 -3v-5q0 -16 -5 -33.5t-19 -45.5l-116.5 -215.5l-118.5 -213.5q-27 -3 -52 -3q-11 0 -26.5 0.5t-26.5 2.5z" />
    <glyph glyph-name="w" unicode="w" horiz-adv-x="764" 
d="M108 513q14 2 27 3t27 1q29 0 52 -4l39 -398l160 398q11 2 24 3t24 1q13 0 25 -1t24 -3l49 -399l125 303q12 29 16.5 51.5t4.5 35.5v9q12 2 24.5 3t26.5 1q32 0 55 -4v-4q0 -22 -8.5 -46.5t-26.5 -61.5l-186 -401q-13 -2 -27.5 -3t-28.5 -1q-12 0 -25 1t-24 3l-50 369
l-152 -369q-13 -2 -27.5 -3t-27.5 -1q-12 0 -25.5 1t-24.5 3z" />
    <glyph glyph-name="x" unicode="x" horiz-adv-x="490" 
d="M124 513q11 2 24 3t27 1t24 -1t24 -3l69 -247l-128 -187q-16 -23 -24 -42t-8 -37q-17 -2 -30.5 -2.5t-23.5 -0.5q-12 0 -21.5 0.5t-26.5 2.5q1 3 1 6.5t2 7.5q2 21 19.5 52t42 65.5l52 70l49.5 65.5zM408 428q17 26 23 48.5t6 36.5q17 3 28 3.5t21 0.5q24 0 47 -4
q0 -23 -7.5 -48.5t-27.5 -54.5l-50 -69.5l-50 -69.5l81 -271q-15 -2 -28 -3t-27 -1q-12 0 -24.5 1t-23.5 3l-38.5 133l-37.5 133z" />
    <glyph glyph-name="y" unicode="y" horiz-adv-x="500" 
d="M260 50l57 126l45.5 105l37 88l30.5 76q6 16 9 31t3 23q0 5 -0.5 8t-0.5 6q19 3 42 3h63q1 -4 1 -8v-8q0 -24 -10 -52t-22 -56l-96.5 -207.5l-115.5 -244.5q-28 -59 -54 -95t-51.5 -56t-51.5 -27t-56 -7q-35 0 -68 10q1 22 6 42t16 35q9 -3 22 -5.5t24 -2.5q15 0 31 4.5
t33.5 21.5t37.5 50t44 90q-8 -1 -17 -1h-18h-15t-14 1l-33.5 256l-33.5 257q14 2 25.5 3t25.5 1t27 -1t26 -3z" />
    <glyph glyph-name="z" unicode="z" horiz-adv-x="449" 
d="M31 14l321 420h-222q0 20 2.5 39t11.5 40h363l3 -13l-322 -422h243q0 -20 -3 -40.5t-11 -37.5h-383z" />
    <glyph glyph-name="braceleft" unicode="{" horiz-adv-x="380" 
d="M160 134q3 25 3 46q0 38 -16 65.5t-53 50.5l2 11q26 13 45 26t33 29t23.5 36.5t16.5 48.5l31.5 137.5t35.5 100t60 61t107 20.5q7 0 13.5 -0.5t13.5 -1.5q0 -18 -4.5 -40t-10.5 -39h-11q-32 0 -52.5 -8.5t-33 -26t-20.5 -45t-15 -66.5q-2 -8 -2 -12l-8 -43
q-9 -45 -18.5 -75.5t-22.5 -51t-30.5 -34t-40.5 -25.5q28 -17 41.5 -40.5t13.5 -67.5q0 -18 -4 -47.5t-9.5 -61t-9.5 -59.5t-4 -43q0 -38 19.5 -52t69.5 -14q0 -18 -3 -38t-10 -40q-4 0 -7.5 -0.5t-6.5 -0.5q-85 0 -122.5 34t-37.5 104q0 15 2 32t5 35z" />
    <glyph glyph-name="bar" unicode="|" horiz-adv-x="333" 
d="M260 776q12 2 25 3t25 1q13 0 25 -1t22 -3l-166 -944q-11 -2 -23 -3t-25 -1q-14 0 -26 1t-23 3z" />
    <glyph glyph-name="braceright" unicode="}" horiz-adv-x="376" 
d="M36 -84q32 0 52.5 8.5t33 26t20.5 45t15 66.5q2 8 2 12l8 43q9 45 18.5 75.5t22.5 51t30.5 34t40.5 25.5q-28 17 -41.5 40.5t-13.5 67.5q0 18 4 47.5t9.5 61t9.5 59.5t4 43q0 38 -19.5 52t-69.5 14q0 18 3 38t10 40q4 0 7.5 0.5t6.5 0.5q85 0 122.5 -34t37.5 -104
q0 -15 -2 -32t-5 -35l-17 -95q-3 -26 -3 -46q0 -38 16 -65.5t53 -50.5l-2 -11q-26 -13 -45 -26t-33 -29t-23.5 -36.5t-16.5 -48.5l-31.5 -137.5t-35.5 -100t-60 -61t-107 -20.5q-7 0 -13.5 0.5t-13.5 1.5q0 18 4.5 40t10.5 39h11z" />
    <glyph glyph-name="asciitilde" unicode="~" horiz-adv-x="479" 
d="M94 408q11 11 28 21.5t36 19t39.5 13.5t39.5 5q24 0 44 -6.5t39 -14t39 -13.5t43 -6q18 0 38 8t46 30q14 -17 22.5 -32.5t15.5 -36.5q-27 -23 -62.5 -37.5t-74.5 -14.5q-23 0 -43 6t-40 13.5t-39.5 14t-40.5 6.5q-20 0 -43 -9t-48 -30q-14 14 -24 29t-15 34z" />
    <glyph glyph-name="exclamdown" unicode="&#xa1;" horiz-adv-x="282" 
d="M145 302q25 3 48 3q24 0 47 -3l-84 -504q-27 -3 -52 -3q-27 0 -55 3zM160 406q0 29 5 55.5t13 55.5q14 2 27.5 3t26.5 1q14 0 27.5 -1t25.5 -3q0 -57 -19 -111q-14 -2 -27 -3t-27 -1q-13 0 -26.5 1t-25.5 3z" />
    <glyph glyph-name="cent" unicode="&#xa2;" horiz-adv-x="600" 
d="M315 -8q-82 13 -120.5 65t-38.5 135q0 55 16.5 110t48.5 100.5t78.5 77t107.5 40.5l21 116q9 2 17.5 3.5t17.5 1.5t17.5 -1.5t17.5 -3.5l-10 -56l-10 -57q26 -2 50 -7t41 -11q-1 -19 -7.5 -42t-17.5 -40q-20 8 -44 13.5t-51 5.5q-48 0 -84 -22.5t-59.5 -57t-35.5 -77.5
t-12 -83q0 -68 33.5 -100t93.5 -32q50 0 104 19q7 -14 12 -33.5t5 -43.5q-26 -11 -60.5 -16.5t-61.5 -6.5l-18 -107q-16 -4 -35 -4q-10 0 -18.5 1t-16.5 3z" />
    <glyph glyph-name="sterling" unicode="&#xa3;" horiz-adv-x="600" 
d="M103 11q5 5 10.5 9t11.5 9q54 45 84 109.5t30 142.5q0 6 -0.5 11.5t-0.5 11.5h-90q0 38 14 78h72q-2 19 -3 37t-1 35q0 55 14.5 103t45.5 84t78.5 57t112.5 21q59 0 99 -11t64 -22q-5 -20 -13.5 -39t-22.5 -42q-26 11 -58.5 20t-70.5 9q-41 0 -68.5 -13t-45 -36.5
t-25 -56.5t-7.5 -73q0 -16 1.5 -34.5t3.5 -38.5h187q0 -39 -14 -78h-169q0 -53 -13 -109t-56 -105h283q0 -26 -5 -49t-10 -41h-436z" />
    <glyph glyph-name="currency" unicode="&#xa4;" horiz-adv-x="600" 
d="M176 230q-17 25 -26 55t-9 63q0 34 10 64t28 56l-79 80q11 22 26 36t35 23l79 -80q25 17 54.5 26t62.5 9t62.5 -9t55.5 -26l80 80q18 -11 33.5 -25.5t25.5 -32.5l-79 -79q19 -26 29.5 -57t10.5 -65t-10.5 -64t-27.5 -56l76 -76q-22 -38 -57 -59l-79 78q-53 -36 -120 -36
q-68 0 -121 36l-77 -77q-22 10 -36 25.5t-23 34.5zM357 215q28 0 51.5 10.5t40.5 28.5t27 42t10 52t-10 52t-27 42t-40.5 28.5t-51.5 10.5q-27 0 -50.5 -10.5t-40.5 -28.5t-26.5 -42t-9.5 -52t9.5 -52t26.5 -42t40.5 -28.5t50.5 -10.5z" />
    <glyph glyph-name="yen" unicode="&#xa5;" horiz-adv-x="600" 
d="M274 165h-181q0 18 2 34.5t10 35.5h182l13 78h-182q0 21 3.5 37.5t9.5 32.5h144l-118 330q13 2 28.5 3t29.5 1t27 -1t24 -3l99 -304l194 304q15 2 32 2.5t33 0.5q10 0 22.5 -0.5t22.5 -2.5l-218 -330h155q0 -17 -2 -33.5t-10 -36.5h-192l-14 -78h192q0 -20 -3.5 -37
t-8.5 -33h-192l-29 -165q-26 -3 -52 -3q-28 0 -50 3z" />
    <glyph glyph-name="brokenbar" unicode="&#xa6;" horiz-adv-x="235" 
d="M204 776q12 2 24.5 3t24.5 1q13 0 25 -1t23 -3l-58 -333q-11 -2 -23.5 -3t-25.5 -1t-25 1t-23 3zM97 165q12 2 24.5 3t24.5 1q13 0 25 -1t23 -3l-58 -333q-12 -2 -24 -3t-25 -1t-25 1t-23 3z" />
    <glyph glyph-name="section" unicode="&#xa7;" horiz-adv-x="546" 
d="M211 242q-42 14 -62.5 37.5t-20.5 61.5q0 42 22 76.5t58 65.5q-9 13 -15.5 29.5t-6.5 37.5q0 43 18 75t48.5 53t71 31t85.5 10q48 0 91 -9t72 -22q-5 -21 -14.5 -39.5t-20.5 -35.5q-23 11 -57.5 19t-67.5 8q-20 0 -41.5 -3t-39.5 -10.5t-29.5 -21t-11.5 -34.5
q0 -29 20.5 -42.5t46.5 -22.5l104 -37q39 -14 63.5 -36.5t24.5 -61.5q0 -40 -21.5 -75t-54.5 -66q30 -32 30 -74q0 -43 -18.5 -75t-49 -53t-71 -31t-84.5 -10q-24 0 -49 2.5t-47.5 6.5t-41.5 9.5t-32 11.5q5 21 14 40t20 36q23 -11 60 -19.5t71 -8.5q18 0 39.5 2.5t40.5 10
t31.5 22t12.5 37.5q0 26 -19.5 40t-45.5 23zM415 270q14 14 26 31.5t12 37.5q0 16 -15 28.5t-37.5 22t-50 18.5t-51.5 18l-36 14q-15 -13 -27.5 -30.5t-12.5 -37.5t13 -31t42 -21l54.5 -19.5t55.5 -20.5z" />
    <glyph glyph-name="dieresis" unicode="&#xa8;" horiz-adv-x="500" 
d="M194 604q1 26 5 50.5t13 49.5q13 2 26.5 3t24.5 1t25 -1t26 -3q-1 -26 -5 -50.5t-13 -49.5q-26 -3 -51 -3q-11 0 -25 0.5t-26 2.5zM398 604q1 26 4.5 50.5t13.5 49.5q12 2 25.5 3t25.5 1q11 0 25 -1t26 -3q-2 -26 -6 -50t-12 -50q-26 -3 -51 -3q-11 0 -25 0.5t-26 2.5z
" />
    <glyph glyph-name="copyright" unicode="&#xa9;" horiz-adv-x="846" 
d="M582 238q17 -29 21 -67q-23 -11 -50.5 -16t-56.5 -5q-46 0 -82.5 15.5t-61.5 43.5t-38 66t-13 83t13.5 84t38 67.5t60 45t80.5 16.5q36 0 57.5 -4t45.5 -12q-1 -18 -4 -35.5t-11 -33.5q-23 7 -40.5 9.5t-39.5 2.5q-57 0 -86.5 -37.5t-29.5 -102.5q0 -67 32 -101.5
t86 -34.5q22 0 40.5 3.5t38.5 12.5zM481 52q70 0 125 24t93.5 65.5t59 97.5t20.5 120t-20.5 120t-59 97.5t-93.5 65.5t-125 24q-69 0 -124.5 -24t-94 -65.5t-59 -97.5t-20.5 -120t20.5 -120t59 -97.5t94 -65.5t124.5 -24zM481 -13q-83 0 -151.5 28.5t-117 78t-75.5 117.5
t-27 148q0 79 27 147.5t75.5 118t117 78t151.5 28.5t151.5 -28t117 -78t75.5 -118t27 -148t-27 -148t-75.5 -117.5t-117 -78t-151.5 -28.5z" />
    <glyph glyph-name="ordfeminine" unicode="&#xaa;" horiz-adv-x="500" 
d="M432 645q-9 2 -18.5 2.5t-20.5 0.5q-38 0 -69 -18t-53 -47.5t-33.5 -67t-11.5 -77.5q0 -36 12 -57t38 -21q24 0 46 16t40.5 43.5t32.5 65t22 80.5zM481 447q-12 -72 -12 -112v-16.5t1 -16.5q-10 -1 -23 -1.5t-21 -0.5t-18.5 0.5t-19.5 1.5q-4 16 -4 42q0 7 1 17.5t3 24.5
q-22 -37 -57 -65.5t-84 -28.5q-56 0 -84 33.5t-28 93.5q0 56 17.5 109.5t52.5 95.5t86.5 67.5t119.5 25.5q29 0 60.5 -5t54.5 -13z" />
    <glyph glyph-name="guillemotleft" unicode="&#xab;" horiz-adv-x="585" 
d="M323 271l209 217q12 2 27 3t28 1q14 0 30 -1t30 -3l-211 -223l129 -220q-14 -2 -28 -3t-28 -1q-13 0 -25.5 1t-24.5 3zM86 271l209 217q12 2 27 3t28 1q14 0 30 -1t30 -3l-211 -223l129 -220q-14 -2 -28 -3t-28 -1q-13 0 -25.5 1t-24.5 3z" />
    <glyph glyph-name="logicalnot" unicode="&#xac;" horiz-adv-x="600" 
d="M555 386v-279q-9 -2 -21.5 -3t-23.5 -1t-24 1t-23 3v187h-326q-2 9 -2.5 21.5t-0.5 23.5t0.5 24t2.5 23h418z" />
    <glyph glyph-name="uni00AD" unicode="&#xad;" horiz-adv-x="359" 
d="M365 334q0 -21 -4.5 -46t-11.5 -46h-252q2 47 16 92h252z" />
    <glyph glyph-name="registered" unicode="&#xae;" horiz-adv-x="846" 
d="M358 558q25 3 49.5 5t54.5 2q36 0 66 -7t51.5 -21t34 -37t12.5 -54q0 -23 -6.5 -41t-16.5 -32t-22.5 -23.5t-24.5 -16.5l104 -159q-14 -2 -25.5 -2.5t-22.5 -0.5q-21 0 -39 3l-114 178l20 9q24 11 46 29.5t22 47.5t-21 45t-56 16q-8 0 -17 -0.5t-20 -2.5v-323
q-15 -3 -37 -3t-38 3v385zM481 52q69 0 124.5 24t94 65t59 97t20.5 121q0 64 -20.5 120t-59 97t-94 65t-124.5 24q-70 0 -125 -24t-93.5 -65t-59 -97t-20.5 -120q0 -65 20.5 -121t59 -97t93.5 -65t125 -24zM481 -13q-83 0 -151.5 28.5t-117 78t-75.5 117.5t-27 148
q0 79 27 147.5t75.5 118t117 78t151.5 28.5t151.5 -28t117 -78t75.5 -118t27 -148t-27 -148t-75.5 -117.5t-117 -78t-151.5 -28.5z" />
    <glyph glyph-name="macron" unicode="&#xaf;" horiz-adv-x="500" 
d="M482 694q0 -20 -2.5 -38.5t-9.5 -39.5h-270q0 20 2 39t10 39h270z" />
    <glyph glyph-name="degree" unicode="&#xb0;" horiz-adv-x="370" 
d="M115 580q0 31 11.5 57.5t31 46t46.5 31t57 11.5t56.5 -11.5t46.5 -31t31.5 -46t11.5 -57.5q0 -30 -11.5 -56.5t-31.5 -46t-46.5 -31t-56.5 -11.5t-57 11.5t-46.5 31t-31 46t-11.5 56.5zM261 502q32 0 53.5 22t21.5 56t-21.5 56.5t-53.5 22.5t-53.5 -22.5t-21.5 -56.5
t21.5 -56t53.5 -22z" />
    <glyph glyph-name="plusminus" unicode="&#xb1;" horiz-adv-x="600" 
d="M523 92v-7q0 -23 -4 -44t-11 -40h-424q0 24 4 46t12 45h423zM303 307h-164q0 20 3 42.5t11 45.5h166l32 182q11 2 22.5 3t23.5 1q11 0 23 -1t23 -3l-32 -182h164q0 -22 -3 -43t-11 -45h-166l-32 -182q-20 -4 -46 -4q-12 0 -23.5 1t-22.5 3z" />
    <glyph glyph-name="twosuperior" unicode="&#xb2;" 
d="M104 318l159 149q31 29 55 56.5t24 62.5q0 54 -57 54q-23 0 -48 -7t-45 -16q-6 14 -11.5 30.5t-6.5 34.5q29 13 62 21.5t70 8.5q59 0 93 -30t34 -81q0 -27 -8.5 -50t-22.5 -43t-34 -39l-42 -40l-56 -51h148q0 -35 -13 -72h-299z" />
    <glyph glyph-name="threesuperior" unicode="&#xb3;" 
d="M218 505l115 133h-144q0 17 2.5 34t8.5 35h249l5 -15l-121 -144q47 -6 68.5 -35t21.5 -64q0 -37 -14.5 -66t-39 -48.5t-57.5 -30t-69 -10.5q-40 0 -71.5 6.5t-53.5 16.5q6 33 29 64q25 -8 47.5 -13.5t46.5 -5.5q18 0 35 4t30.5 13t21.5 24t8 36q0 29 -18.5 43.5
t-49.5 14.5q-8 0 -19 -1t-22 -3z" />
    <glyph glyph-name="acute" unicode="&#xb4;" horiz-adv-x="500" 
d="M351 721q16 2 32 3t33 1t32 -1t30 -3l-124 -127q-11 -2 -24.5 -3t-28.5 -1q-11 0 -23 1t-24 3z" />
    <glyph glyph-name="mu" unicode="&#xb5;" horiz-adv-x="580" 
d="M158 513q11 2 24.5 3t24.5 1t24.5 -1t24.5 -3l-47 -268q-3 -19 -5 -38.5t-2 -36.5q0 -50 21.5 -75.5t70.5 -25.5q22 0 45 9t43 27t35.5 45.5t21.5 64.5l51 298q11 2 24.5 3t24.5 1t24.5 -1t24.5 -3l-88 -513q-8 -2 -18 -3t-21 -1t-22.5 1t-19.5 3v11q0 13 0.5 27t2.5 26
q-26 -35 -61 -55.5t-85 -20.5q-35 0 -63 14t-40 37l-46 -275q-11 -2 -25 -3t-25 -1t-24 1t-23 3z" />
    <glyph glyph-name="paragraph" unicode="&#xb6;" horiz-adv-x="575" 
d="M308 313q-38 3 -73 14t-61 32t-41.5 53t-15.5 77q0 67 24.5 112.5t69.5 73t107.5 39t139.5 11.5l-125 -730h-17q-15 0 -31 1t-31 5zM534 725q26 0 46.5 -1.5t31.5 -5.5l-123 -718q-27 -6 -80 -6z" />
    <glyph glyph-name="periodcentered" unicode="&#xb7;" horiz-adv-x="241" 
d="M105 225q0 28 5.5 55.5t13.5 55.5q14 2 28 3t28 1t28 -1t27 -3q0 -29 -5 -55.5t-13 -55.5q-16 -2 -29.5 -3t-27.5 -1t-27.5 1t-27.5 3z" />
    <glyph glyph-name="cedilla" unicode="&#xb8;" horiz-adv-x="500" 
d="M163 -109l69 132h59l-43 -81q3 1 7.5 1.5t12.5 0.5q40 0 62.5 -22t22.5 -56q0 -31 -12 -51.5t-31.5 -33t-44.5 -17.5t-51 -5q-30 0 -53 6t-34 13q3 13 8.5 28.5t14.5 26.5q14 -5 31 -9.5t32 -4.5q10 0 21 1t21 5t16.5 12t6.5 22q0 19 -15.5 26.5t-41.5 7.5
q-13 0 -26.5 -2t-27.5 -5z" />
    <glyph glyph-name="onesuperior" unicode="&#xb9;" 
d="M243 377l40 228l-94 -38q-20 27 -23 65l194 79h26l-58 -334h92q0 -18 -2.5 -35.5t-10.5 -35.5h-267q0 18 2.5 35.5t11.5 35.5h89z" />
    <glyph glyph-name="ordmasculine" unicode="&#xba;" horiz-adv-x="500" 
d="M292 292q-76 0 -115.5 41t-39.5 116q0 43 13 90.5t41 87.5t72 65.5t105 25.5q77 0 115.5 -41.5t38.5 -117.5q0 -44 -13 -91t-41 -86t-71.5 -64.5t-104.5 -25.5zM298 360q36 0 61.5 19.5t41.5 49.5t23.5 65t7.5 65q0 44 -19 66.5t-53 22.5q-36 0 -61 -20t-40.5 -50
t-23 -65t-7.5 -65q0 -88 70 -88z" />
    <glyph glyph-name="guillemotright" unicode="&#xbb;" horiz-adv-x="606" 
d="M495 273l-131 215q14 2 28 3t28 1q13 0 25.5 -1t24.5 -3l136 -228l-210 -215q-12 -2 -26.5 -3t-28.5 -1t-29.5 1t-29.5 3zM259 273l-131 215q14 2 28 3t28 1q13 0 25.5 -1t24.5 -3l136 -228l-210 -215q-12 -2 -26.5 -3t-28.5 -1t-29.5 1t-29.5 3z" />
    <glyph glyph-name="onequarter" unicode="&#xbc;" horiz-adv-x="1050" 
d="M818 708q12 2 27 3t28 1t27 -1t25 -3l-554 -707q-14 -2 -26 -3t-24 -1q-13 0 -28.5 1t-27.5 3zM243 377l40 228l-94 -38q-20 27 -23 65l194 79h26l-58 -334h92q0 -18 -2.5 -35.5t-10.5 -35.5h-267q0 18 2.5 35.5t11.5 35.5h89zM629 92l213 324q20 -3 38.5 -10t31.5 -16
l-162 -244h98l15 82q9 2 17.5 2.5t19.5 0.5q20 0 37 -3l-14 -82h46q0 -15 -2.5 -33.5t-8.5 -33.5h-46l-14 -79q-8 -1 -16 -1.5t-18 -0.5q-11 0 -20 0.5t-20 2.5l13 78h-203z" />
    <glyph glyph-name="onehalf" unicode="&#xbd;" horiz-adv-x="1050" 
d="M806 708q12 2 27 3t28 1t27 -1t25 -3l-554 -707q-14 -2 -26 -3t-24 -1q-13 0 -28.5 1t-27.5 3zM243 377l40 228l-94 -38q-20 27 -23 65l194 79h26l-58 -334h92q0 -18 -2.5 -35.5t-10.5 -35.5h-267q0 18 2.5 35.5t11.5 35.5h89zM656 13l159 149q31 29 55 56.5t24 62.5
q0 54 -57 54q-23 0 -48 -7t-45 -16q-6 14 -11.5 30.5t-6.5 34.5q29 13 62 21.5t70 8.5q59 0 93 -30t34 -81q0 -27 -8.5 -50t-22.5 -43t-34 -39l-42 -40l-56 -51h148q0 -35 -13 -72h-299z" />
    <glyph glyph-name="threequarters" unicode="&#xbe;" horiz-adv-x="1050" 
d="M800 708q12 2 27 3t28 1t27 -1t25 -3l-554 -707q-14 -2 -26 -3t-24 -1q-13 0 -28.5 1t-27.5 3zM616 92l213 324q20 -3 38.5 -10t31.5 -16l-162 -244h98l15 82q9 2 17.5 2.5t19.5 0.5q20 0 37 -3l-14 -82h46q0 -15 -2.5 -33.5t-8.5 -33.5h-46l-14 -79q-8 -1 -16 -1.5
t-18 -0.5q-11 0 -20 0.5t-20 2.5l13 78h-203zM225 505l115 133h-144q0 17 2.5 34t8.5 35h249l5 -15l-121 -144q47 -6 68.5 -35t21.5 -64q0 -37 -14.5 -66t-39 -48.5t-57.5 -30t-69 -10.5q-40 0 -71.5 6.5t-53.5 16.5q6 33 29 64q25 -8 47.5 -13.5t46.5 -5.5q18 0 35 4
t30.5 13t21.5 24t8 36q0 29 -18.5 43.5t-49.5 14.5q-8 0 -19 -1t-22 -3z" />
    <glyph glyph-name="questiondown" unicode="&#xbf;" horiz-adv-x="453" 
d="M292 304q25 3 48 3q12 0 24 -0.5t23 -2.5l-28 -162l-37 -10q-29 -8 -54.5 -22t-45.5 -34t-31.5 -45.5t-11.5 -56.5q0 -46 32 -70t86 -24q38 0 65.5 6.5t59.5 17.5q7 -17 12 -40.5t5 -43.5q-46 -17 -85.5 -22t-78.5 -5q-50 0 -88.5 12.5t-64 35t-38.5 53t-13 66.5
q0 44 16.5 82.5t45 69.5t65 54t77.5 35zM302 406q1 30 5.5 57t14.5 54q14 2 28 3t28 1t27.5 -1t27.5 -3q-1 -29 -5.5 -57t-14.5 -54q-14 -2 -28 -3.5t-28 -1.5q-13 0 -27 1.5t-28 3.5z" />
    <glyph glyph-name="Agrave" unicode="&#xc0;" horiz-adv-x="599" 
d="M362 719q13 2 31.5 2.5t32.5 0.5q15 0 30.5 -0.5t27.5 -2.5l98 -719q-29 -3 -58 -3q-24 0 -49 3l-19 169h-242l-73 -169q-24 -3 -54 -3q-14 0 -27.5 0.5t-24.5 2.5zM446 257l-41 347l-152 -347h193zM272 891q12 2 31.5 3t38.5 1q17 0 33 -1t27 -3l91 -113q-8 -2 -22 -3.5
t-28 -1.5q-16 0 -29 1t-22 3z" />
    <glyph glyph-name="Aacute" unicode="&#xc1;" horiz-adv-x="599" 
d="M362 719q13 2 31.5 2.5t32.5 0.5q15 0 30.5 -0.5t27.5 -2.5l98 -719q-29 -3 -58 -3q-24 0 -49 3l-19 169h-242l-73 -169q-24 -3 -54 -3q-14 0 -27.5 0.5t-24.5 2.5zM446 257l-41 347l-152 -347h193zM469 887q12 2 28.5 3t33.5 1q18 0 37 -1t30 -3l-145 -110
q-10 -2 -25.5 -2.5t-31.5 -0.5q-14 0 -27.5 1t-21.5 3z" />
    <glyph glyph-name="Acircumflex" unicode="&#xc2;" horiz-adv-x="599" 
d="M362 719q13 2 31.5 2.5t32.5 0.5q15 0 30.5 -0.5t27.5 -2.5l98 -719q-29 -3 -58 -3q-24 0 -49 3l-19 169h-242l-73 -169q-24 -3 -54 -3q-14 0 -27.5 0.5t-24.5 2.5zM446 257l-41 347l-152 -347h193zM394 889q13 2 29.5 3t30.5 1q10 0 24.5 -1t27.5 -3l82 -110
q-11 -2 -23 -3t-25 -1q-11 0 -24.5 1t-26.5 4l-45 60l-69 -61q-13 -2 -28.5 -3t-27.5 -1q-14 0 -27.5 1t-24.5 3z" />
    <glyph glyph-name="Atilde" unicode="&#xc3;" horiz-adv-x="599" 
d="M362 719q13 2 31.5 2.5t32.5 0.5q15 0 30.5 -0.5t27.5 -2.5l98 -719q-29 -3 -58 -3q-24 0 -49 3l-19 169h-242l-73 -169q-24 -3 -54 -3q-14 0 -27.5 0.5t-24.5 2.5zM446 257l-41 347l-152 -347h193zM265 848q19 20 45.5 35t58.5 15q21 0 38 -5.5t33 -12.5t32.5 -12.5
t36.5 -5.5q17 0 30.5 5.5t33.5 22.5q8 -10 17.5 -26t11.5 -30q-20 -18 -46.5 -33t-58.5 -15q-21 0 -38 5.5t-33 12t-32.5 12t-34.5 5.5q-19 0 -32.5 -6t-32.5 -21q-9 10 -18 25t-11 29z" />
    <glyph glyph-name="Adieresis" unicode="&#xc4;" horiz-adv-x="599" 
d="M362 719q13 2 31.5 2.5t32.5 0.5q15 0 30.5 -0.5t27.5 -2.5l98 -719q-29 -3 -58 -3q-24 0 -49 3l-19 169h-242l-73 -169q-24 -3 -54 -3q-14 0 -27.5 0.5t-24.5 2.5zM446 257l-41 347l-152 -347h193zM267 778q0 52 17 101q14 2 27.5 3t25.5 1q13 0 27 -1t25 -3
q0 -52 -17 -101q-14 -2 -27.5 -3t-26.5 -1q-12 0 -25.5 1t-25.5 3zM481 778q0 50 17 101q13 2 27 3t26 1q13 0 26.5 -1t25.5 -3q-2 -51 -17 -101q-14 -2 -27.5 -3t-26.5 -1q-12 0 -26 1t-25 3z" />
    <glyph glyph-name="Aring" unicode="&#xc5;" horiz-adv-x="605" 
d="M363 717q-22 13 -33.5 35.5t-11.5 50.5t10 52.5t27.5 42.5t41.5 28t53 10q51 0 78 -30.5t27 -75.5q0 -38 -19 -68t-51 -45l98 -717q-23 -3 -53 -3q-28 0 -53 3l-10 84l-10 85h-241l-74 -169q-20 -3 -42 -3h-27l-37 3zM447 257l-41 347l-152 -347h193zM430 753
q29 0 45 21.5t16 50.5q0 24 -10.5 40.5t-36.5 16.5q-30 0 -46.5 -20.5t-16.5 -50.5q0 -26 11.5 -42t37.5 -16z" />
    <glyph glyph-name="AE" unicode="&#xc6;" horiz-adv-x="877" 
d="M497 719h454q0 -42 -15 -90h-278l-36 -205h222q0 -21 -4 -44t-12 -46h-222l-43 -245h285q0 -22 -4 -44.5t-11 -44.5h-388l29 168h-242l-119 -168q-14 -2 -29.5 -3t-30.5 -1q-14 0 -27.5 1t-25.5 3zM490 256l67 381h-6l-258 -381h197z" />
    <glyph glyph-name="Ccedilla" unicode="&#xc7;" horiz-adv-x="577" 
d="M339 -9q-109 13 -167 85t-58 190q0 90 25 174t74.5 148.5t122.5 103.5t168 39q53 0 91 -7.5t64 -18.5q-5 -23 -11.5 -42t-19.5 -42q-29 11 -57 16t-64 5q-74 0 -128 -31t-88.5 -82.5t-51 -117.5t-16.5 -136q0 -97 48 -147t137 -50q38 0 70.5 7t65.5 21q9 -17 14 -39
t7 -46q-35 -16 -81 -23.5t-85 -9.5l-26 -46q10 2 21 2q42 0 64.5 -22t22.5 -56q0 -31 -12 -51.5t-32 -33t-45.5 -17.5t-52.5 -5q-31 0 -54.5 6t-34.5 13q2 13 8 28.5t14 26.5q15 -5 33 -9.5t33 -4.5q10 0 21.5 1t21.5 5t16.5 12t6.5 22q0 19 -15.5 26.5t-42.5 7.5
q-14 0 -27.5 -2t-27.5 -5l-5 5z" />
    <glyph glyph-name="Egrave" unicode="&#xc8;" horiz-adv-x="524" 
d="M218 719h381q0 -45 -16 -90h-278l-36 -205h222q0 -46 -16 -90h-222l-21.5 -122.5l-21.5 -122.5h286q-3 -26 -5 -45t-11 -44h-388zM273 891q12 2 31.5 3t38.5 1q17 0 33 -1t27 -3l91 -113q-8 -2 -22 -3.5t-28 -1.5q-16 0 -29 1t-22 3z" />
    <glyph glyph-name="Eacute" unicode="&#xc9;" horiz-adv-x="524" 
d="M218 719h381q0 -45 -16 -90h-278l-36 -205h222q0 -46 -16 -90h-222l-21.5 -122.5l-21.5 -122.5h286q-3 -26 -5 -45t-11 -44h-388zM467 887q12 2 28.5 3t33.5 1q18 0 37 -1t30 -3l-145 -110q-10 -2 -25.5 -2.5t-31.5 -0.5q-14 0 -27.5 1t-21.5 3z" />
    <glyph glyph-name="Ecircumflex" unicode="&#xca;" horiz-adv-x="524" 
d="M218 719h381q0 -45 -16 -90h-278l-36 -205h222q0 -46 -16 -90h-222l-21.5 -122.5l-21.5 -122.5h286q-3 -26 -5 -45t-11 -44h-388zM382 889q13 2 29.5 3t30.5 1q10 0 24.5 -1t27.5 -3l82 -110q-11 -2 -23 -3t-25 -1q-11 0 -24.5 1t-26.5 4l-45 60l-69 -61q-13 -2 -28.5 -3
t-27.5 -1q-14 0 -27.5 1t-24.5 3z" />
    <glyph glyph-name="Edieresis" unicode="&#xcb;" horiz-adv-x="524" 
d="M218 719h381q0 -45 -16 -90h-278l-36 -205h222q0 -46 -16 -90h-222l-21.5 -122.5l-21.5 -122.5h286q-3 -26 -5 -45t-11 -44h-388zM261 778q0 52 17 101q14 2 27.5 3t25.5 1q13 0 27 -1t25 -3q0 -52 -17 -101q-14 -2 -27.5 -3t-26.5 -1q-12 0 -25.5 1t-25.5 3zM475 778
q0 50 17 101q13 2 27 3t26 1q13 0 26.5 -1t25.5 -3q-2 -51 -17 -101q-14 -2 -27.5 -3t-26.5 -1q-12 0 -26 1t-25 3z" />
    <glyph glyph-name="Igrave" unicode="&#xcc;" horiz-adv-x="288" 
d="M219 719q13 2 26 3t26 1q14 0 26.5 -1t24.5 -3l-126 -719q-14 -2 -26.5 -3t-26.5 -1t-26.5 1t-23.5 3zM136 891q12 2 31.5 3t38.5 1q17 0 33 -1t27 -3l91 -113q-8 -2 -22 -3.5t-28 -1.5q-16 0 -29 1t-22 3z" />
    <glyph glyph-name="Iacute" unicode="&#xcd;" horiz-adv-x="288" 
d="M219 719q13 2 26 3t26 1q14 0 26.5 -1t24.5 -3l-126 -719q-14 -2 -26.5 -3t-26.5 -1t-26.5 1t-23.5 3zM314 887q12 2 28.5 3t33.5 1q18 0 37 -1t30 -3l-145 -110q-10 -2 -25.5 -2.5t-31.5 -0.5q-14 0 -27.5 1t-21.5 3z" />
    <glyph glyph-name="Icircumflex" unicode="&#xce;" horiz-adv-x="288" 
d="M219 719q13 2 26 3t26 1q14 0 26.5 -1t24.5 -3l-126 -719q-14 -2 -26.5 -3t-26.5 -1t-26.5 1t-23.5 3zM247 889q13 2 29.5 3t30.5 1q10 0 24.5 -1t27.5 -3l82 -110q-11 -2 -23 -3t-25 -1q-11 0 -24.5 1t-26.5 4l-45 60l-69 -61q-13 -2 -28.5 -3t-27.5 -1q-14 0 -27.5 1
t-24.5 3z" />
    <glyph glyph-name="Idieresis" unicode="&#xcf;" horiz-adv-x="288" 
d="M219 719q13 2 26 3t26 1q14 0 26.5 -1t24.5 -3l-126 -719q-14 -2 -26.5 -3t-26.5 -1t-26.5 1t-23.5 3zM121 778q0 52 17 101q14 2 27.5 3t25.5 1q13 0 27 -1t25 -3q0 -52 -17 -101q-14 -2 -27.5 -3t-26.5 -1q-12 0 -25.5 1t-25.5 3zM335 778q0 50 17 101q13 2 27 3t26 1
q13 0 26.5 -1t25.5 -3q-2 -51 -17 -101q-14 -2 -27.5 -3t-26.5 -1q-12 0 -26 1t-25 3z" />
    <glyph glyph-name="Eth" unicode="&#xd0;" horiz-adv-x="696" 
d="M165 338h-75q0 20 2.5 38.5t9.5 36.5h76l54 306q16 2 36 4t41 3.5t41 2.5t38 1q84 0 145 -21t100 -59.5t57.5 -92.5t18.5 -120q0 -95 -28 -176.5t-82.5 -142.5t-134.5 -95.5t-185 -34.5q-54 0 -98.5 3.5t-74.5 8.5zM223 84q13 -2 36.5 -3.5t45.5 -1.5q69 0 124 26
t93.5 72t58.5 109t20 137q0 106 -48 162t-158 56q-20 0 -39 -1.5t-35 -3.5l-40 -223h172q0 -19 -2.5 -38t-9.5 -37h-173z" />
    <glyph glyph-name="Ntilde" unicode="&#xd1;" horiz-adv-x="669" 
d="M218 719q11 2 24.5 2.5t24.5 0.5q25 0 45 -3l202 -542l94 542l19.5 2t19.5 1h24l32 -3l-126 -719q-11 -2 -23.5 -2.5t-24.5 -0.5q-11 0 -22.5 0.5t-22.5 2.5l-203 539l-93 -539q-20 -3 -39 -3h-25l-32 3zM310 848q19 20 45.5 35t58.5 15q21 0 38 -5.5t33 -12.5
t32.5 -12.5t36.5 -5.5q17 0 30.5 5.5t33.5 22.5q8 -10 17.5 -26t11.5 -30q-20 -18 -46.5 -33t-58.5 -15q-21 0 -38 5.5t-33 12t-32.5 12t-34.5 5.5q-19 0 -32.5 -6t-32.5 -21q-9 10 -18 25t-11 29z" />
    <glyph glyph-name="Ograve" unicode="&#xd2;" horiz-adv-x="701" 
d="M349 -12q-60 0 -104.5 19t-74 53.5t-44 83.5t-14.5 108q0 92 24 178.5t70.5 153t114.5 107t155 40.5q60 0 105 -20t74 -55t43.5 -84t14.5 -107q0 -94 -24.5 -180t-71 -152t-114 -105.5t-154.5 -39.5zM360 76q59 0 104.5 34.5t77 90t48 125t16.5 138.5q0 81 -33.5 129
t-108.5 48q-60 0 -106 -34t-77 -89t-47 -124.5t-16 -140.5q0 -84 34.5 -130.5t107.5 -46.5zM365 891q12 2 31.5 3t38.5 1q17 0 33 -1t27 -3l91 -113q-8 -2 -22 -3.5t-28 -1.5q-16 0 -29 1t-22 3z" />
    <glyph glyph-name="Oacute" unicode="&#xd3;" horiz-adv-x="701" 
d="M349 -12q-60 0 -104.5 19t-74 53.5t-44 83.5t-14.5 108q0 92 24 178.5t70.5 153t114.5 107t155 40.5q60 0 105 -20t74 -55t43.5 -84t14.5 -107q0 -94 -24.5 -180t-71 -152t-114 -105.5t-154.5 -39.5zM360 76q59 0 104.5 34.5t77 90t48 125t16.5 138.5q0 81 -33.5 129
t-108.5 48q-60 0 -106 -34t-77 -89t-47 -124.5t-16 -140.5q0 -84 34.5 -130.5t107.5 -46.5zM517 887q12 2 28.5 3t33.5 1q18 0 37 -1t30 -3l-145 -110q-10 -2 -25.5 -2.5t-31.5 -0.5q-14 0 -27.5 1t-21.5 3z" />
    <glyph glyph-name="Ocircumflex" unicode="&#xd4;" horiz-adv-x="701" 
d="M349 -12q-60 0 -104.5 19t-74 53.5t-44 83.5t-14.5 108q0 92 24 178.5t70.5 153t114.5 107t155 40.5q60 0 105 -20t74 -55t43.5 -84t14.5 -107q0 -94 -24.5 -180t-71 -152t-114 -105.5t-154.5 -39.5zM360 76q59 0 104.5 34.5t77 90t48 125t16.5 138.5q0 81 -33.5 129
t-108.5 48q-60 0 -106 -34t-77 -89t-47 -124.5t-16 -140.5q0 -84 34.5 -130.5t107.5 -46.5zM447 889q13 2 29.5 3t30.5 1q10 0 24.5 -1t27.5 -3l82 -110q-11 -2 -23 -3t-25 -1q-11 0 -24.5 1t-26.5 4l-45 60l-69 -61q-13 -2 -28.5 -3t-27.5 -1q-14 0 -27.5 1t-24.5 3z" />
    <glyph glyph-name="Otilde" unicode="&#xd5;" horiz-adv-x="701" 
d="M349 -12q-60 0 -104.5 19t-74 53.5t-44 83.5t-14.5 108q0 92 24 178.5t70.5 153t114.5 107t155 40.5q60 0 105 -20t74 -55t43.5 -84t14.5 -107q0 -94 -24.5 -180t-71 -152t-114 -105.5t-154.5 -39.5zM360 76q59 0 104.5 34.5t77 90t48 125t16.5 138.5q0 81 -33.5 129
t-108.5 48q-60 0 -106 -34t-77 -89t-47 -124.5t-16 -140.5q0 -84 34.5 -130.5t107.5 -46.5zM332 848q19 20 45.5 35t58.5 15q21 0 38 -5.5t33 -12.5t32.5 -12.5t36.5 -5.5q17 0 30.5 5.5t33.5 22.5q8 -10 17.5 -26t11.5 -30q-20 -18 -46.5 -33t-58.5 -15q-21 0 -38 5.5
t-33 12t-32.5 12t-34.5 5.5q-19 0 -32.5 -6t-32.5 -21q-9 10 -18 25t-11 29z" />
    <glyph glyph-name="Odieresis" unicode="&#xd6;" horiz-adv-x="701" 
d="M349 -12q-60 0 -104.5 19t-74 53.5t-44 83.5t-14.5 108q0 92 24 178.5t70.5 153t114.5 107t155 40.5q60 0 105 -20t74 -55t43.5 -84t14.5 -107q0 -94 -24.5 -180t-71 -152t-114 -105.5t-154.5 -39.5zM360 76q59 0 104.5 34.5t77 90t48 125t16.5 138.5q0 81 -33.5 129
t-108.5 48q-60 0 -106 -34t-77 -89t-47 -124.5t-16 -140.5q0 -84 34.5 -130.5t107.5 -46.5zM329 778q0 52 17 101q14 2 27.5 3t25.5 1q13 0 27 -1t25 -3q0 -52 -17 -101q-14 -2 -27.5 -3t-26.5 -1q-12 0 -25.5 1t-25.5 3zM543 778q0 50 17 101q13 2 27 3t26 1q13 0 26.5 -1
t25.5 -3q-2 -51 -17 -101q-14 -2 -27.5 -3t-26.5 -1q-12 0 -26 1t-25 3z" />
    <glyph glyph-name="multiply" unicode="&#xd7;" horiz-adv-x="600" 
d="M298 357l-97 118q16 17 34.5 33.5t40.5 30.5l97 -119l141 121q17 -14 32.5 -33t25.5 -38l-141 -121l96 -116q-15 -18 -34.5 -34t-39.5 -28l-96 116l-144 -122q-18 13 -32.5 32t-25.5 39z" />
    <glyph glyph-name="Oslash" unicode="&#xd8;" horiz-adv-x="701" 
d="M156 80q-44 66 -44 172q0 92 24 178.5t70.5 153t114.5 107t155 40.5q93 0 150 -48l35 45q8 2 19.5 3t21.5 1q23 0 39 -4l-72 -92q44 -68 44 -171q0 -94 -24.5 -180t-71 -152t-114 -105.5t-154.5 -39.5q-92 0 -149 45l-38 -48q-16 -4 -38 -4q-10 0 -22 1t-20 3zM261 113
q35 -37 99 -37q59 0 104.5 34.5t77 90t48 125t16.5 138.5q0 45 -11 77zM564 603q-36 38 -100 38q-60 0 -106 -34t-77 -89t-47 -124.5t-16 -140.5q0 -45 12 -78z" />
    <glyph glyph-name="Ugrave" unicode="&#xd9;" horiz-adv-x="663" 
d="M212 719q13 2 26.5 3t26.5 1t25.5 -1t24.5 -3l-72 -408q-12 -69 -12 -117q0 -61 25.5 -87.5t88.5 -26.5q43 0 73.5 14.5t51.5 43.5t35 72.5t24 100.5l71 408q14 2 26.5 3t26.5 1q12 0 25.5 -1t24.5 -3l-76 -433q-13 -72 -34.5 -128t-56 -93.5t-85 -57t-121.5 -19.5
q-103 0 -153.5 49t-50.5 152q0 23 3 49t8 55zM326 891q12 2 31.5 3t38.5 1q17 0 33 -1t27 -3l91 -113q-8 -2 -22 -3.5t-28 -1.5q-16 0 -29 1t-22 3z" />
    <glyph glyph-name="Uacute" unicode="&#xda;" horiz-adv-x="663" 
d="M212 719q13 2 26.5 3t26.5 1t25.5 -1t24.5 -3l-72 -408q-12 -69 -12 -117q0 -61 25.5 -87.5t88.5 -26.5q43 0 73.5 14.5t51.5 43.5t35 72.5t24 100.5l71 408q14 2 26.5 3t26.5 1q12 0 25.5 -1t24.5 -3l-76 -433q-13 -72 -34.5 -128t-56 -93.5t-85 -57t-121.5 -19.5
q-103 0 -153.5 49t-50.5 152q0 23 3 49t8 55zM508 887q12 2 28.5 3t33.5 1q18 0 37 -1t30 -3l-145 -110q-10 -2 -25.5 -2.5t-31.5 -0.5q-14 0 -27.5 1t-21.5 3z" />
    <glyph glyph-name="Ucircumflex" unicode="&#xdb;" horiz-adv-x="663" 
d="M212 719q13 2 26.5 3t26.5 1t25.5 -1t24.5 -3l-72 -408q-12 -69 -12 -117q0 -61 25.5 -87.5t88.5 -26.5q43 0 73.5 14.5t51.5 43.5t35 72.5t24 100.5l71 408q14 2 26.5 3t26.5 1q12 0 25.5 -1t24.5 -3l-76 -433q-13 -72 -34.5 -128t-56 -93.5t-85 -57t-121.5 -19.5
q-103 0 -153.5 49t-50.5 152q0 23 3 49t8 55zM434 889q13 2 29.5 3t30.5 1q10 0 24.5 -1t27.5 -3l82 -110q-11 -2 -23 -3t-25 -1q-11 0 -24.5 1t-26.5 4l-45 60l-69 -61q-13 -2 -28.5 -3t-27.5 -1q-14 0 -27.5 1t-24.5 3z" />
    <glyph glyph-name="Udieresis" unicode="&#xdc;" horiz-adv-x="663" 
d="M212 719q13 2 26.5 3t26.5 1t25.5 -1t24.5 -3l-72 -408q-12 -69 -12 -117q0 -61 25.5 -87.5t88.5 -26.5q43 0 73.5 14.5t51.5 43.5t35 72.5t24 100.5l71 408q14 2 26.5 3t26.5 1q12 0 25.5 -1t24.5 -3l-76 -433q-13 -72 -34.5 -128t-56 -93.5t-85 -57t-121.5 -19.5
q-103 0 -153.5 49t-50.5 152q0 23 3 49t8 55zM314 778q0 52 17 101q14 2 27.5 3t25.5 1q13 0 27 -1t25 -3q0 -52 -17 -101q-14 -2 -27.5 -3t-26.5 -1q-12 0 -25.5 1t-25.5 3zM528 778q0 50 17 101q13 2 27 3t26 1q13 0 26.5 -1t25.5 -3q-2 -51 -17 -101q-14 -2 -27.5 -3
t-26.5 -1q-12 0 -26 1t-25 3z" />
    <glyph glyph-name="Yacute" unicode="&#xdd;" horiz-adv-x="549" 
d="M270 262l-137 457q14 2 32.5 2.5t35.5 0.5q21 0 41 -3l96 -353l206 353q27 3 57 3q13 0 27.5 -0.5t25.5 -2.5l-283 -460l-45 -259q-27 -3 -53 -3q-28 0 -50 3zM454 887q12 2 28.5 3t33.5 1q18 0 37 -1t30 -3l-145 -110q-10 -2 -25.5 -2.5t-31.5 -0.5q-14 0 -27.5 1
t-21.5 3z" />
    <glyph glyph-name="Thorn" unicode="&#xde;" horiz-adv-x="577" 
d="M222 719q24 3 49 3q14 0 28 -0.5t25 -2.5l-20 -112q13 1 24 1h22q48 0 91.5 -10t76.5 -33.5t52.5 -61t19.5 -92.5q0 -65 -22 -116t-62 -86t-96 -53.5t-124 -18.5q-20 0 -33.5 1t-29.5 2l-25 -140q-16 -2 -29.5 -2.5t-28.5 -0.5q-11 0 -23 1t-21 2zM238 228q14 -2 26 -2.5
t35 -0.5q40 0 74 10.5t58 32.5t37.5 56t13.5 81q0 36 -11.5 58.5t-30 35t-43 17.5t-50.5 5h-16.5t-13 -0.5l-13 -1t-16.5 -1.5z" />
    <glyph glyph-name="germandbls" unicode="&#xdf;" horiz-adv-x="578" 
d="M171 523q10 60 28 101.5t46 67.5t67 38t90 12q44 0 76.5 -11t53.5 -30.5t31.5 -45t10.5 -55.5q0 -48 -20.5 -81.5t-45 -60l-45 -50.5t-20.5 -53q0 -25 18.5 -43.5l41 -39.5t41.5 -49t19 -71q0 -37 -14 -67.5t-39 -52t-60 -33t-77 -11.5q-38 0 -69.5 6t-55.5 17
q5 18 13.5 38t19.5 40q20 -9 44.5 -14.5t48.5 -5.5q36 0 64 18.5t28 56.5q0 32 -19 51.5t-41.5 38t-41.5 42t-19 63.5q0 39 21 68.5t46 57t46 57t21 67.5q0 35 -25.5 53.5t-64.5 18.5q-27 0 -47 -7t-34 -24t-23.5 -45t-16.5 -69l-95 -546q-11 -60 -29 -100.5t-44.5 -66
t-60.5 -36.5t-77 -11q-22 0 -41.5 3.5t-35.5 8.5q4 24 10 42.5t16 36.5q10 -4 22.5 -6.5t25.5 -2.5q22 0 40.5 5t33 20t25 42.5t18.5 72.5z" />
    <glyph glyph-name="agrave" unicode="&#xe0;" horiz-adv-x="554" 
d="M455 437q-12 3 -25 4t-29 1q-50 0 -89.5 -23t-68 -61.5t-43.5 -87t-15 -99.5q0 -48 17 -74.5t51 -26.5q31 0 60 20t53 55.5t41.5 83t27.5 101.5zM512 218q-11 -60 -17.5 -103t-6.5 -75q0 -13 0.5 -20.5t2.5 -18.5q-11 -2 -24 -3t-24 -1q-10 0 -22 1t-23 3q-2 11 -3 22.5
t-1 28.5q0 11 2.5 30t5.5 34q-11 -22 -29 -44.5t-41.5 -41t-53 -30.5t-63.5 -12q-66 0 -99.5 43.5t-33.5 118.5q0 71 22 138.5t65 120t107 84.5t149 32q36 0 72.5 -5.5t64.5 -15.5zM276 721q15 2 30 3t32 1t33.5 -1t31.5 -3l92 -127q-23 -4 -48 -4q-15 0 -28 1t-24 3z" />
    <glyph glyph-name="aacute" unicode="&#xe1;" horiz-adv-x="554" 
d="M455 437q-12 3 -25 4t-29 1q-50 0 -89.5 -23t-68 -61.5t-43.5 -87t-15 -99.5q0 -48 17 -74.5t51 -26.5q31 0 60 20t53 55.5t41.5 83t27.5 101.5zM512 218q-11 -60 -17.5 -103t-6.5 -75q0 -13 0.5 -20.5t2.5 -18.5q-11 -2 -24 -3t-24 -1q-10 0 -22 1t-23 3q-2 11 -3 22.5
t-1 28.5q0 11 2.5 30t5.5 34q-11 -22 -29 -44.5t-41.5 -41t-53 -30.5t-63.5 -12q-66 0 -99.5 43.5t-33.5 118.5q0 71 22 138.5t65 120t107 84.5t149 32q36 0 72.5 -5.5t64.5 -15.5zM445 721q16 2 32 3t33 1t32 -1t30 -3l-124 -127q-11 -2 -24.5 -3t-28.5 -1q-11 0 -23 1
t-24 3z" />
    <glyph glyph-name="acircumflex" unicode="&#xe2;" horiz-adv-x="554" 
d="M455 437q-12 3 -25 4t-29 1q-50 0 -89.5 -23t-68 -61.5t-43.5 -87t-15 -99.5q0 -48 17 -74.5t51 -26.5q31 0 60 20t53 55.5t41.5 83t27.5 101.5zM512 218q-11 -60 -17.5 -103t-6.5 -75q0 -13 0.5 -20.5t2.5 -18.5q-11 -2 -24 -3t-24 -1q-10 0 -22 1t-23 3q-2 11 -3 22.5
t-1 28.5q0 11 2.5 30t5.5 34q-11 -22 -29 -44.5t-41.5 -41t-53 -30.5t-63.5 -12q-66 0 -99.5 43.5t-33.5 118.5q0 71 22 138.5t65 120t107 84.5t149 32q36 0 72.5 -5.5t64.5 -15.5zM370 721q12 2 28.5 3t30.5 1q11 0 28 -1t30 -4l74 -126q-9 -2 -20.5 -3t-24.5 -1
q-12 0 -26 1t-26 3l-41 79l-70 -79q-12 -2 -27.5 -3t-27.5 -1q-14 0 -28 1t-24 3z" />
    <glyph glyph-name="atilde" unicode="&#xe3;" horiz-adv-x="554" 
d="M455 437q-12 3 -25 4t-29 1q-50 0 -89.5 -23t-68 -61.5t-43.5 -87t-15 -99.5q0 -48 17 -74.5t51 -26.5q31 0 60 20t53 55.5t41.5 83t27.5 101.5zM512 218q-11 -60 -17.5 -103t-6.5 -75q0 -13 0.5 -20.5t2.5 -18.5q-11 -2 -24 -3t-24 -1q-10 0 -22 1t-23 3q-2 11 -3 22.5
t-1 28.5q0 11 2.5 30t5.5 34q-11 -22 -29 -44.5t-41.5 -41t-53 -30.5t-63.5 -12q-66 0 -99.5 43.5t-33.5 118.5q0 71 22 138.5t65 120t107 84.5t149 32q36 0 72.5 -5.5t64.5 -15.5zM243 660q19 20 45.5 35t58.5 15q21 0 38 -5.5t33 -12t32.5 -12t36.5 -5.5q17 0 31 5t34 22
q8 -10 17 -25.5t11 -30.5q-19 -18 -46 -33t-59 -15q-21 0 -38 5.5t-33 12.5t-32.5 12.5t-34.5 5.5q-19 0 -32.5 -6.5t-32.5 -21.5q-9 10 -18 25t-11 29z" />
    <glyph glyph-name="adieresis" unicode="&#xe4;" horiz-adv-x="554" 
d="M455 437q-12 3 -25 4t-29 1q-50 0 -89.5 -23t-68 -61.5t-43.5 -87t-15 -99.5q0 -48 17 -74.5t51 -26.5q31 0 60 20t53 55.5t41.5 83t27.5 101.5zM512 218q-11 -60 -17.5 -103t-6.5 -75q0 -13 0.5 -20.5t2.5 -18.5q-11 -2 -24 -3t-24 -1q-10 0 -22 1t-23 3q-2 11 -3 22.5
t-1 28.5q0 11 2.5 30t5.5 34q-11 -22 -29 -44.5t-41.5 -41t-53 -30.5t-63.5 -12q-66 0 -99.5 43.5t-33.5 118.5q0 71 22 138.5t65 120t107 84.5t149 32q36 0 72.5 -5.5t64.5 -15.5zM251 604q1 26 5 50.5t13 49.5q13 2 26.5 3t24.5 1t25 -1t26 -3q-1 -26 -5 -50.5t-13 -49.5
q-26 -3 -51 -3q-11 0 -25 0.5t-26 2.5zM455 604q1 26 4.5 50.5t13.5 49.5q12 2 25.5 3t25.5 1q11 0 25 -1t26 -3q-2 -26 -6 -50t-12 -50q-26 -3 -51 -3q-11 0 -25 0.5t-26 2.5z" />
    <glyph glyph-name="aring" unicode="&#xe5;" horiz-adv-x="554" 
d="M455 437q-12 3 -25 4t-29 1q-50 0 -89.5 -23t-68 -61.5t-43.5 -87t-15 -99.5q0 -48 17 -74.5t51 -26.5q31 0 60 20t53 55.5t41.5 83t27.5 101.5zM512 218q-11 -60 -17.5 -103t-6.5 -75q0 -13 0.5 -20.5t2.5 -18.5q-11 -2 -24 -3t-24 -1q-10 0 -22 1t-23 3q-2 11 -3 22.5
t-1 28.5q0 11 2.5 30t5.5 34q-11 -22 -29 -44.5t-41.5 -41t-53 -30.5t-63.5 -12q-66 0 -99.5 43.5t-33.5 118.5q0 71 22 138.5t65 120t107 84.5t149 32q36 0 72.5 -5.5t64.5 -15.5zM333 681q0 24 8 45.5t23 38t36 26.5t47 10q45 0 71 -26.5t26 -72.5q0 -24 -8.5 -45.5
t-24 -37t-36.5 -24.5t-46 -9q-45 0 -70.5 26t-25.5 69zM434 637q23 0 36.5 17t13.5 46q0 23 -9.5 36.5t-31.5 13.5q-25 0 -38 -19t-13 -44q0 -23 10 -36.5t32 -13.5z" />
    <glyph glyph-name="ae" unicode="&#xe6;" horiz-adv-x="825" 
d="M454 436q-24 6 -54 6q-50 0 -89.5 -23.5t-68 -61.5t-43.5 -86.5t-15 -99.5q0 -48 17.5 -74.5t50.5 -26.5q32 0 61 20t53 55t41.5 82.5t27.5 102.5zM576 287q51 8 84.5 19.5t53 25t27.5 28.5t8 32q0 24 -16.5 39.5t-46.5 15.5q-32 0 -59 -14t-48 -37.5t-35.5 -54
t-22.5 -63.5zM513 204q0 -61 31 -98t97 -37q40 0 76 9.5t65 20.5q10 -15 13.5 -36t3.5 -42q-15 -7 -36.5 -13t-45 -10.5t-47.5 -7t-44 -2.5q-47 0 -81.5 10t-58.5 28t-38 42.5t-21 53.5q-39 -64 -90 -99t-114 -35q-72 0 -106.5 43.5t-34.5 118.5q0 70 22 137.5t64.5 120.5
t106 85t146.5 32q32 0 65 -5.5t61 -14.5q-3 -14 -5.5 -28.5t-4.5 -28.5q31 33 74 55t99 22q63 0 100.5 -32.5t37.5 -86.5q0 -44 -21.5 -76.5t-59.5 -55.5t-89.5 -38t-112.5 -24z" />
    <glyph glyph-name="ccedilla" unicode="&#xe7;" horiz-adv-x="459" 
d="M250 -8q-84 12 -123 64t-39 137q0 60 19.5 119.5t58 107t94 76.5t127.5 29q33 0 63 -6t52 -14q-1 -19 -8 -41.5t-18 -39.5q-20 8 -43.5 13.5t-49.5 5.5q-49 0 -85 -21.5t-60 -56t-35.5 -77.5t-11.5 -85q0 -68 33.5 -100.5t92.5 -32.5q26 0 51.5 4.5t52.5 15.5
q8 -14 12.5 -33.5t4.5 -44.5q-28 -11 -63.5 -17t-66.5 -7l-25 -46q4 1 8.5 1.5t11.5 0.5q42 0 64.5 -22t22.5 -56q0 -31 -12 -51.5t-32 -33t-45.5 -17.5t-52.5 -5q-31 0 -54.5 6t-34.5 13q3 13 8.5 28.5t14.5 26.5q14 -5 32 -9.5t34 -4.5q10 0 21.5 1t21.5 5t16.5 12t6.5 22
q0 19 -16 26.5t-42 7.5q-14 0 -28 -2t-27 -5l-5 5z" />
    <glyph glyph-name="egrave" unicode="&#xe8;" horiz-adv-x="498" 
d="M186 204q3 -67 34 -101t96 -34q40 0 76 9.5t65 20.5q9 -15 13 -36t4 -42q-15 -7 -36.5 -13t-45 -10.5t-47.5 -7t-44 -2.5q-59 0 -99.5 15.5t-66 43t-37 65t-11.5 81.5q0 61 20.5 120.5t59 106.5t92 76t119.5 29t104.5 -32.5t38.5 -86.5q0 -44 -21.5 -76.5t-59.5 -55.5
t-89.5 -38t-112.5 -24zM249 288q51 9 84.5 20.5t53.5 25t28 28.5t8 33q0 23 -16 37.5t-46 14.5q-32 0 -59 -14.5t-48.5 -38t-36.5 -54t-23 -62.5zM239 721q15 2 30 3t32 1t33.5 -1t31.5 -3l92 -127q-23 -4 -48 -4q-15 0 -28 1t-24 3z" />
    <glyph glyph-name="eacute" unicode="&#xe9;" horiz-adv-x="498" 
d="M186 204q3 -67 34 -101t96 -34q40 0 76 9.5t65 20.5q9 -15 13 -36t4 -42q-15 -7 -36.5 -13t-45 -10.5t-47.5 -7t-44 -2.5q-59 0 -99.5 15.5t-66 43t-37 65t-11.5 81.5q0 61 20.5 120.5t59 106.5t92 76t119.5 29t104.5 -32.5t38.5 -86.5q0 -44 -21.5 -76.5t-59.5 -55.5
t-89.5 -38t-112.5 -24zM249 288q51 9 84.5 20.5t53.5 25t28 28.5t8 33q0 23 -16 37.5t-46 14.5q-32 0 -59 -14.5t-48.5 -38t-36.5 -54t-23 -62.5zM397 721q16 2 32 3t33 1t32 -1t30 -3l-124 -127q-11 -2 -24.5 -3t-28.5 -1q-11 0 -23 1t-24 3z" />
    <glyph glyph-name="ecircumflex" unicode="&#xea;" horiz-adv-x="498" 
d="M186 204q3 -67 34 -101t96 -34q40 0 76 9.5t65 20.5q9 -15 13 -36t4 -42q-15 -7 -36.5 -13t-45 -10.5t-47.5 -7t-44 -2.5q-59 0 -99.5 15.5t-66 43t-37 65t-11.5 81.5q0 61 20.5 120.5t59 106.5t92 76t119.5 29t104.5 -32.5t38.5 -86.5q0 -44 -21.5 -76.5t-59.5 -55.5
t-89.5 -38t-112.5 -24zM249 288q51 9 84.5 20.5t53.5 25t28 28.5t8 33q0 23 -16 37.5t-46 14.5q-32 0 -59 -14.5t-48.5 -38t-36.5 -54t-23 -62.5zM331 721q12 2 28.5 3t30.5 1q11 0 28 -1t30 -4l74 -126q-9 -2 -20.5 -3t-24.5 -1q-12 0 -26 1t-26 3l-41 79l-70 -79
q-12 -2 -27.5 -3t-27.5 -1q-14 0 -28 1t-24 3z" />
    <glyph glyph-name="edieresis" unicode="&#xeb;" horiz-adv-x="498" 
d="M186 204q3 -67 34 -101t96 -34q40 0 76 9.5t65 20.5q9 -15 13 -36t4 -42q-15 -7 -36.5 -13t-45 -10.5t-47.5 -7t-44 -2.5q-59 0 -99.5 15.5t-66 43t-37 65t-11.5 81.5q0 61 20.5 120.5t59 106.5t92 76t119.5 29t104.5 -32.5t38.5 -86.5q0 -44 -21.5 -76.5t-59.5 -55.5
t-89.5 -38t-112.5 -24zM249 288q51 9 84.5 20.5t53.5 25t28 28.5t8 33q0 23 -16 37.5t-46 14.5q-32 0 -59 -14.5t-48.5 -38t-36.5 -54t-23 -62.5zM209 604q1 26 5 50.5t13 49.5q13 2 26.5 3t24.5 1t25 -1t26 -3q-1 -26 -5 -50.5t-13 -49.5q-26 -3 -51 -3q-11 0 -25 0.5
t-26 2.5zM413 604q1 26 4.5 50.5t13.5 49.5q12 2 25.5 3t25.5 1q11 0 25 -1t26 -3q-2 -26 -6 -50t-12 -50q-26 -3 -51 -3q-11 0 -25 0.5t-26 2.5z" />
    <glyph glyph-name="igrave" unicode="&#xec;" horiz-adv-x="285" 
d="M105 721q15 2 30 3t32 1t33.5 -1t31.5 -3l92 -127q-23 -4 -48 -4q-15 0 -28 1t-24 3zM180 434h-62q0 20 2.5 39t10.5 40h160l-90 -513q-11 -2 -25.5 -2.5t-25.5 -0.5t-23 0.5t-23 2.5z" />
    <glyph glyph-name="iacute" unicode="&#xed;" horiz-adv-x="285" 
d="M250 721q16 2 32 3t33 1t32 -1t30 -3l-124 -127q-11 -2 -24.5 -3t-28.5 -1q-11 0 -23 1t-24 3zM180 434h-62q0 20 2.5 39t10.5 40h160l-90 -513q-11 -2 -25.5 -2.5t-25.5 -0.5t-23 0.5t-23 2.5z" />
    <glyph glyph-name="icircumflex" unicode="&#xee;" horiz-adv-x="285" 
d="M180 434h-62q0 20 2.5 39t10.5 40h160l-90 -513q-11 -2 -25.5 -2.5t-25.5 -0.5t-23 0.5t-23 2.5zM195 721q12 2 28.5 3t30.5 1q11 0 28 -1t30 -4l74 -126q-9 -2 -20.5 -3t-24.5 -1q-12 0 -26 1t-26 3l-41 79l-70 -79q-12 -2 -27.5 -3t-27.5 -1q-14 0 -28 1t-24 3z" />
    <glyph glyph-name="idieresis" unicode="&#xef;" horiz-adv-x="285" 
d="M77 604q1 26 5 50.5t13 49.5q13 2 26.5 3t24.5 1t25 -1t26 -3q-1 -26 -5 -50.5t-13 -49.5q-26 -3 -51 -3q-11 0 -25 0.5t-26 2.5zM281 604q1 26 4.5 50.5t13.5 49.5q12 2 25.5 3t25.5 1q11 0 25 -1t26 -3q-2 -26 -6 -50t-12 -50q-26 -3 -51 -3q-11 0 -25 0.5t-26 2.5z
M180 434h-62q0 20 2.5 39t10.5 40h160l-90 -513q-11 -2 -25.5 -2.5t-25.5 -0.5t-23 0.5t-23 2.5z" />
    <glyph glyph-name="eth" unicode="&#xf0;" horiz-adv-x="565" 
d="M367 629q-44 25 -99 28q0 17 4.5 37t17.5 43q51 -3 93.5 -17.5t71.5 -37.5l100 55q11 -10 19 -24.5t11 -29.5l-83 -46q36 -45 53 -110t17 -139q0 -69 -15 -140t-49.5 -128.5t-91 -94.5t-138.5 -37q-50 0 -86.5 15t-59.5 41.5t-34 63t-11 78.5q0 54 16 108t47.5 96.5
t79 69.5t110.5 27q45 0 80.5 -18.5t55.5 -47.5q-2 53 -17 95t-41 71l-103 -58q-11 10 -19 25t-10 29zM290 66q40 0 70.5 19.5t51.5 49.5t32 67t11 73q0 64 -27 99.5t-84 35.5q-42 0 -71.5 -21.5t-48.5 -54.5t-27.5 -72t-8.5 -73q0 -56 23 -89.5t79 -33.5z" />
    <glyph glyph-name="ntilde" unicode="&#xf1;" horiz-adv-x="575" 
d="M142 297q11 60 17.5 103t6.5 75q0 13 -0.5 20.5t-2.5 18.5q11 2 24 3t24 1q10 0 22.5 -1t22.5 -3q2 -8 3 -18.5t1 -27.5q0 -19 -2.5 -36t-5.5 -33q10 21 28 43.5t42 40.5t53.5 30t62.5 12q60 0 93.5 -32t33.5 -99q0 -15 -2 -33.5t-5 -35.5l-57 -325q-12 -2 -26 -3t-25 -1
t-24.5 1t-23.5 3l54 308q3 16 4.5 31t1.5 26q0 40 -18.5 57t-49.5 17q-27 0 -53 -16.5t-49 -48.5t-41.5 -79t-29.5 -108l-33 -187q-12 -2 -26 -3t-25 -1t-24.5 1t-23.5 3zM222 660q19 20 45.5 35t58.5 15q21 0 38 -5.5t33 -12t32.5 -12t36.5 -5.5q17 0 31 5t34 22
q8 -10 17 -25.5t11 -30.5q-19 -18 -46 -33t-59 -15q-21 0 -38 5.5t-33 12.5t-32.5 12.5t-34.5 5.5q-19 0 -32.5 -6.5t-32.5 -21.5q-9 10 -18 25t-11 29z" />
    <glyph glyph-name="ograve" unicode="&#xf2;" horiz-adv-x="557" 
d="M276 -12q-93 0 -140 51.5t-47 145.5q0 55 17 115.5t52.5 110t89 82t126.5 32.5q94 0 141 -52t47 -146q0 -56 -17 -116t-52 -109.5t-89 -81.5t-128 -32zM286 67q47 0 80.5 25.5t54.5 64.5t31 84.5t10 85.5q0 57 -25.5 87t-72.5 30t-80 -26t-54 -65t-30.5 -84.5t-9.5 -84.5
q0 -57 24.5 -87t71.5 -30zM275 721q15 2 30 3t32 1t33.5 -1t31.5 -3l92 -127q-23 -4 -48 -4q-15 0 -28 1t-24 3z" />
    <glyph glyph-name="oacute" unicode="&#xf3;" horiz-adv-x="557" 
d="M276 -12q-93 0 -140 51.5t-47 145.5q0 55 17 115.5t52.5 110t89 82t126.5 32.5q94 0 141 -52t47 -146q0 -56 -17 -116t-52 -109.5t-89 -81.5t-128 -32zM286 67q47 0 80.5 25.5t54.5 64.5t31 84.5t10 85.5q0 57 -25.5 87t-72.5 30t-80 -26t-54 -65t-30.5 -84.5t-9.5 -84.5
q0 -57 24.5 -87t71.5 -30zM402 721q16 2 32 3t33 1t32 -1t30 -3l-124 -127q-11 -2 -24.5 -3t-28.5 -1q-11 0 -23 1t-24 3z" />
    <glyph glyph-name="ocircumflex" unicode="&#xf4;" horiz-adv-x="557" 
d="M276 -12q-93 0 -140 51.5t-47 145.5q0 55 17 115.5t52.5 110t89 82t126.5 32.5q94 0 141 -52t47 -146q0 -56 -17 -116t-52 -109.5t-89 -81.5t-128 -32zM286 67q47 0 80.5 25.5t54.5 64.5t31 84.5t10 85.5q0 57 -25.5 87t-72.5 30t-80 -26t-54 -65t-30.5 -84.5t-9.5 -84.5
q0 -57 24.5 -87t71.5 -30zM348 721q12 2 28.5 3t30.5 1q11 0 28 -1t30 -4l74 -126q-9 -2 -20.5 -3t-24.5 -1q-12 0 -26 1t-26 3l-41 79l-70 -79q-12 -2 -27.5 -3t-27.5 -1q-14 0 -28 1t-24 3z" />
    <glyph glyph-name="otilde" unicode="&#xf5;" horiz-adv-x="557" 
d="M276 -12q-93 0 -140 51.5t-47 145.5q0 55 17 115.5t52.5 110t89 82t126.5 32.5q94 0 141 -52t47 -146q0 -56 -17 -116t-52 -109.5t-89 -81.5t-128 -32zM286 67q47 0 80.5 25.5t54.5 64.5t31 84.5t10 85.5q0 57 -25.5 87t-72.5 30t-80 -26t-54 -65t-30.5 -84.5t-9.5 -84.5
q0 -57 24.5 -87t71.5 -30zM215 660q19 20 45.5 35t58.5 15q21 0 38 -5.5t33 -12t32.5 -12t36.5 -5.5q17 0 31 5t34 22q8 -10 17 -25.5t11 -30.5q-19 -18 -46 -33t-59 -15q-21 0 -38 5.5t-33 12.5t-32.5 12.5t-34.5 5.5q-19 0 -32.5 -6.5t-32.5 -21.5q-9 10 -18 25t-11 29z
" />
    <glyph glyph-name="odieresis" unicode="&#xf6;" horiz-adv-x="557" 
d="M276 -12q-93 0 -140 51.5t-47 145.5q0 55 17 115.5t52.5 110t89 82t126.5 32.5q94 0 141 -52t47 -146q0 -56 -17 -116t-52 -109.5t-89 -81.5t-128 -32zM286 67q47 0 80.5 25.5t54.5 64.5t31 84.5t10 85.5q0 57 -25.5 87t-72.5 30t-80 -26t-54 -65t-30.5 -84.5t-9.5 -84.5
q0 -57 24.5 -87t71.5 -30zM232 604q1 26 5 50.5t13 49.5q13 2 26.5 3t24.5 1t25 -1t26 -3q-1 -26 -5 -50.5t-13 -49.5q-26 -3 -51 -3q-11 0 -25 0.5t-26 2.5zM436 604q1 26 4.5 50.5t13.5 49.5q12 2 25.5 3t25.5 1q11 0 25 -1t26 -3q-2 -26 -6 -50t-12 -50q-26 -3 -51 -3
q-11 0 -25 0.5t-26 2.5z" />
    <glyph glyph-name="divide" unicode="&#xf7;" horiz-adv-x="600" 
d="M267 166q0 32 22.5 54t54.5 22q29 0 45.5 -16.5t16.5 -46.5q0 -29 -21.5 -51.5t-55.5 -22.5q-30 0 -46 18.5t-16 42.5zM327 528q0 32 22.5 54t54.5 22q29 0 45.5 -16.5t16.5 -46.5q0 -29 -21.5 -52t-55.5 -23q-30 0 -46 19t-16 43zM591 398q0 -22 -4 -46.5t-12 -44.5
h-423q0 22 4.5 46t11.5 45h423z" />
    <glyph glyph-name="oslash" unicode="&#xf8;" horiz-adv-x="557" 
d="M124 53q-36 49 -36 132q0 55 17.5 115t52.5 110t89 82.5t127 32.5q65 0 111 -29l27 34q12 3 34 3t37 -3l-58 -71q37 -51 37 -133q0 -56 -17 -115.5t-52.5 -109t-89.5 -81.5t-127 -32q-34 0 -62 7.5t-50 20.5l-11 -16t-11.5 -12t-16.5 -8t-26 -3q-22 0 -35 3zM223 88
q24 -21 62 -21q47 0 80.5 25.5t54.5 64.5t31 84.5t10 84.5q0 13 -2 24t-5 20zM425 423q-24 21 -62 21q-47 0 -80 -26t-54 -65t-30.5 -85t-9.5 -85q0 -21 5 -43z" />
    <glyph glyph-name="ugrave" unicode="&#xf9;" horiz-adv-x="568" 
d="M166 513q11 2 25.5 3t25.5 1t24 -1t24 -3l-54 -308q-6 -32 -6 -57q0 -40 18.5 -57t49.5 -17q27 0 53 16.5t49 48.5t41.5 79t29.5 108l33 187q12 2 26 3t25 1t24.5 -1t23.5 -3l-53 -297q-11 -60 -17.5 -103t-6.5 -75q0 -13 0.5 -20.5t1.5 -18.5q-11 -2 -23.5 -3t-23.5 -1
q-10 0 -22.5 1t-22.5 3q-4 13 -4 46q0 19 2.5 36t5.5 33q-10 -21 -28 -43.5t-42 -40.5t-53.5 -30t-62.5 -12q-60 0 -93.5 32t-33.5 99q0 15 2 33.5t5 35.5zM239 721q15 2 30 3t32 1t33.5 -1t31.5 -3l92 -127q-23 -4 -48 -4q-15 0 -28 1t-24 3z" />
    <glyph glyph-name="uacute" unicode="&#xfa;" horiz-adv-x="568" 
d="M166 513q11 2 25.5 3t25.5 1t24 -1t24 -3l-54 -308q-6 -32 -6 -57q0 -40 18.5 -57t49.5 -17q27 0 53 16.5t49 48.5t41.5 79t29.5 108l33 187q12 2 26 3t25 1t24.5 -1t23.5 -3l-53 -297q-11 -60 -17.5 -103t-6.5 -75q0 -13 0.5 -20.5t1.5 -18.5q-11 -2 -23.5 -3t-23.5 -1
q-10 0 -22.5 1t-22.5 3q-4 13 -4 46q0 19 2.5 36t5.5 33q-10 -21 -28 -43.5t-42 -40.5t-53.5 -30t-62.5 -12q-60 0 -93.5 32t-33.5 99q0 15 2 33.5t5 35.5zM422 721q16 2 32 3t33 1t32 -1t30 -3l-124 -127q-11 -2 -24.5 -3t-28.5 -1q-11 0 -23 1t-24 3z" />
    <glyph glyph-name="ucircumflex" unicode="&#xfb;" horiz-adv-x="568" 
d="M166 513q11 2 25.5 3t25.5 1t24 -1t24 -3l-54 -308q-6 -32 -6 -57q0 -40 18.5 -57t49.5 -17q27 0 53 16.5t49 48.5t41.5 79t29.5 108l33 187q12 2 26 3t25 1t24.5 -1t23.5 -3l-53 -297q-11 -60 -17.5 -103t-6.5 -75q0 -13 0.5 -20.5t1.5 -18.5q-11 -2 -23.5 -3t-23.5 -1
q-10 0 -22.5 1t-22.5 3q-4 13 -4 46q0 19 2.5 36t5.5 33q-10 -21 -28 -43.5t-42 -40.5t-53.5 -30t-62.5 -12q-60 0 -93.5 32t-33.5 99q0 15 2 33.5t5 35.5zM346 721q12 2 28.5 3t30.5 1q11 0 28 -1t30 -4l74 -126q-9 -2 -20.5 -3t-24.5 -1q-12 0 -26 1t-26 3l-41 79l-70 -79
q-12 -2 -27.5 -3t-27.5 -1q-14 0 -28 1t-24 3z" />
    <glyph glyph-name="udieresis" unicode="&#xfc;" horiz-adv-x="568" 
d="M166 513q11 2 25.5 3t25.5 1t24 -1t24 -3l-54 -308q-6 -32 -6 -57q0 -40 18.5 -57t49.5 -17q27 0 53 16.5t49 48.5t41.5 79t29.5 108l33 187q12 2 26 3t25 1t24.5 -1t23.5 -3l-53 -297q-11 -60 -17.5 -103t-6.5 -75q0 -13 0.5 -20.5t1.5 -18.5q-11 -2 -23.5 -3t-23.5 -1
q-10 0 -22.5 1t-22.5 3q-4 13 -4 46q0 19 2.5 36t5.5 33q-10 -21 -28 -43.5t-42 -40.5t-53.5 -30t-62.5 -12q-60 0 -93.5 32t-33.5 99q0 15 2 33.5t5 35.5zM232 604q1 26 5 50.5t13 49.5q13 2 26.5 3t24.5 1t25 -1t26 -3q-1 -26 -5 -50.5t-13 -49.5q-26 -3 -51 -3
q-11 0 -25 0.5t-26 2.5zM436 604q1 26 4.5 50.5t13.5 49.5q12 2 25.5 3t25.5 1q11 0 25 -1t26 -3q-2 -26 -6 -50t-12 -50q-26 -3 -51 -3q-11 0 -25 0.5t-26 2.5z" />
    <glyph glyph-name="yacute" unicode="&#xfd;" horiz-adv-x="500" 
d="M260 50l57 126l45.5 105l37 88l30.5 76q6 16 9 31t3 23q0 5 -0.5 8t-0.5 6q19 3 42 3h63q1 -4 1 -8v-8q0 -24 -10 -52t-22 -56l-96.5 -207.5l-115.5 -244.5q-28 -59 -54 -95t-51.5 -56t-51.5 -27t-56 -7q-35 0 -68 10q1 22 6 42t16 35q9 -3 22 -5.5t24 -2.5q15 0 31 4.5
t33.5 21.5t37.5 50t44 90q-8 -1 -17 -1h-18h-15t-14 1l-33.5 256l-33.5 257q14 2 25.5 3t25.5 1t27 -1t26 -3zM366 721q16 2 32 3t33 1t32 -1t30 -3l-124 -127q-11 -2 -24.5 -3t-28.5 -1q-11 0 -23 1t-24 3z" />
    <glyph glyph-name="thorn" unicode="&#xfe;" horiz-adv-x="566" 
d="M191 77q11 -3 27 -4.5t31 -1.5q45 0 83.5 17.5t67.5 50t45.5 77.5t16.5 101q0 53 -21.5 87t-66.5 34q-25 0 -49 -10.5t-44.5 -34.5t-37 -62.5t-25.5 -94.5zM136 -236q-12 -2 -26 -2.5t-24 -0.5q-11 0 -24.5 0.5t-24.5 2.5l66 375.5l67 375.5q11 60 17.5 103t6.5 75
q0 13 -0.5 21t-1.5 18q11 2 23.5 3t23.5 1q10 0 25 -0.5t26 -2.5q2 -8 3 -18t1 -27q0 -9 -3 -37.5t-9 -63.5l-29 -159q27 41 66.5 69t100.5 28q69 0 109 -48.5t40 -136.5q0 -71 -21.5 -134.5t-64.5 -112t-107 -77t-149 -28.5q-15 0 -28 1.5t-24 3.5z" />
    <glyph glyph-name="ydieresis" unicode="&#xff;" horiz-adv-x="500" 
d="M260 50l57 126l45.5 105l37 88l30.5 76q6 16 9 31t3 23q0 5 -0.5 8t-0.5 6q19 3 42 3h63q1 -4 1 -8v-8q0 -24 -10 -52t-22 -56l-96.5 -207.5l-115.5 -244.5q-28 -59 -54 -95t-51.5 -56t-51.5 -27t-56 -7q-35 0 -68 10q1 22 6 42t16 35q9 -3 22 -5.5t24 -2.5q15 0 31 4.5
t33.5 21.5t37.5 50t44 90q-8 -1 -17 -1h-18h-15t-14 1l-33.5 256l-33.5 257q14 2 25.5 3t25.5 1t27 -1t26 -3zM184 604q1 26 5 50.5t13 49.5q13 2 26.5 3t24.5 1t25 -1t26 -3q-1 -26 -5 -50.5t-13 -49.5q-26 -3 -51 -3q-11 0 -25 0.5t-26 2.5zM388 604q1 26 4.5 50.5
t13.5 49.5q12 2 25.5 3t25.5 1q11 0 25 -1t26 -3q-2 -26 -6 -50t-12 -50q-26 -3 -51 -3q-11 0 -25 0.5t-26 2.5z" />
    <glyph glyph-name="Amacron" unicode="&#x100;" horiz-adv-x="599" 
d="M362 719q13 2 31.5 2.5t32.5 0.5q15 0 30.5 -0.5t27.5 -2.5l98 -719q-29 -3 -58 -3q-24 0 -49 3l-19 169h-242l-73 -169q-24 -3 -54 -3q-14 0 -27.5 0.5t-24.5 2.5zM446 257l-41 347l-152 -347h193zM288 801q0 36 12 66h284v-8q0 -17 -3 -35t-10 -35h-283v12z" />
    <glyph glyph-name="amacron" unicode="&#x101;" horiz-adv-x="554" 
d="M455 437q-12 3 -25 4t-29 1q-50 0 -89.5 -23t-68 -61.5t-43.5 -87t-15 -99.5q0 -48 17 -74.5t51 -26.5q31 0 60 20t53 55.5t41.5 83t27.5 101.5zM512 218q-11 -60 -17.5 -103t-6.5 -75q0 -13 0.5 -20.5t2.5 -18.5q-11 -2 -24 -3t-24 -1q-10 0 -22 1t-23 3q-2 11 -3 22.5
t-1 28.5q0 11 2.5 30t5.5 34q-11 -22 -29 -44.5t-41.5 -41t-53 -30.5t-63.5 -12q-66 0 -99.5 43.5t-33.5 118.5q0 71 22 138.5t65 120t107 84.5t149 32q36 0 72.5 -5.5t64.5 -15.5zM561 694q0 -20 -2.5 -38.5t-9.5 -39.5h-270q0 20 2 39t10 39h270z" />
    <glyph glyph-name="Abreve" unicode="&#x102;" horiz-adv-x="599" 
d="M362 719q13 2 31.5 2.5t32.5 0.5q15 0 30.5 -0.5t27.5 -2.5l98 -719q-29 -3 -58 -3q-24 0 -49 3l-19 169h-242l-73 -169q-24 -3 -54 -3q-14 0 -27.5 0.5t-24.5 2.5zM446 257l-41 347l-152 -347h193zM291 889q11 2 21 3.5t21 1.5t20.5 -1.5t20.5 -3.5q1 -11 3.5 -21
t9.5 -17.5t19.5 -12t32.5 -4.5q19 0 32.5 3.5t22.5 10.5t15 17t11 24q12 2 22 3.5t22 1.5q11 0 20.5 -1.5t19.5 -3.5q-9 -37 -28 -60.5t-42 -36.5t-49 -18t-50 -5q-26 0 -52 5.5t-46.5 19t-33 37t-12.5 58.5z" />
    <glyph glyph-name="abreve" unicode="&#x103;" horiz-adv-x="554" 
d="M455 437q-12 3 -25 4t-29 1q-50 0 -89.5 -23t-68 -61.5t-43.5 -87t-15 -99.5q0 -48 17 -74.5t51 -26.5q31 0 60 20t53 55.5t41.5 83t27.5 101.5zM512 218q-11 -60 -17.5 -103t-6.5 -75q0 -13 0.5 -20.5t2.5 -18.5q-11 -2 -24 -3t-24 -1q-10 0 -22 1t-23 3q-2 11 -3 22.5
t-1 28.5q0 11 2.5 30t5.5 34q-11 -22 -29 -44.5t-41.5 -41t-53 -30.5t-63.5 -12q-66 0 -99.5 43.5t-33.5 118.5q0 71 22 138.5t65 120t107 84.5t149 32q36 0 72.5 -5.5t64.5 -15.5zM272 722q10 3 21.5 4t22.5 1t19 -1t19 -4q0 -12 2.5 -24t10 -21.5t20 -16t32.5 -6.5
q21 0 35 5.5t23 15t14 22t9 25.5q12 2 22 3.5t21 1.5t22 -1t21 -4q-9 -41 -27.5 -67t-41.5 -41t-50 -20.5t-54 -5.5q-25 0 -50 5.5t-45.5 20.5t-33 40t-12.5 64v4z" />
    <glyph glyph-name="Aogonek" unicode="&#x104;" horiz-adv-x="599" 
d="M362 719q13 2 31.5 2.5t32.5 0.5q15 0 30.5 -0.5t27.5 -2.5l98 -719q-14 -10 -32 -25.5t-34 -34t-27.5 -38.5t-11.5 -39q0 -39 47 -39q8 0 20.5 1.5t29.5 6.5q10 -20 10 -46q0 -10 -1 -15q-17 -6 -41.5 -9.5t-48.5 -3.5q-23 0 -43 4.5t-35 14t-24 25.5t-9 39t9.5 44.5
t24.5 41.5t34.5 38t40.5 33l-16 2l-19 169h-242l-73 -169q-24 -3 -54 -3q-14 0 -27.5 0.5t-24.5 2.5zM446 257l-41 347l-152 -347h193z" />
    <glyph glyph-name="aogonek" unicode="&#x105;" horiz-adv-x="554" 
d="M512 218q-11 -60 -17.5 -103t-6.5 -75q0 -13 1 -20.5t3 -18.5q-14 -10 -32 -26t-34.5 -34.5t-28 -38.5t-11.5 -39q0 -39 47 -39q9 0 21.5 1.5t29.5 6.5q4 -9 6.5 -21t2.5 -25q0 -10 -1 -15q-17 -6 -41.5 -9.5t-48.5 -3.5q-22 0 -42 4.5t-35.5 14t-24.5 25.5t-9 39
q0 24 9.5 46t24.5 42t34 38t39 34q-2 11 -3 22.5t-1 28.5q0 11 2.5 30t5.5 34q-11 -22 -29 -44.5t-41.5 -41t-53 -30.5t-63.5 -12q-66 0 -99.5 43.5t-33.5 118.5q0 71 22 138.5t65 120t107 84.5t149 32q36 0 72.5 -5.5t64.5 -15.5zM455 437q-12 3 -25 4t-29 1
q-50 0 -89.5 -23t-68 -61.5t-43.5 -87t-15 -99.5q0 -48 17 -74.5t51 -26.5q31 0 60 20t53 55.5t41.5 83t27.5 101.5z" />
    <glyph glyph-name="Cacute" unicode="&#x106;" horiz-adv-x="577" 
d="M543 106q19 -36 22 -85q-20 -9 -43 -15t-47 -10t-47.5 -6t-42.5 -2q-131 0 -201.5 74t-70.5 204q0 90 25 174t74.5 148.5t122.5 103.5t169 39q53 0 90.5 -7.5t63.5 -18.5q-5 -23 -11.5 -42t-19.5 -42q-29 11 -57 16t-63 5q-74 0 -128 -31t-88.5 -82.5t-51 -117.5
t-16.5 -136q0 -97 47.5 -147t137.5 -50q38 0 70.5 7t64.5 21zM503 887q12 2 28.5 3t33.5 1q18 0 37 -1t30 -3l-145 -110q-10 -2 -25.5 -2.5t-31.5 -0.5q-14 0 -27.5 1t-21.5 3z" />
    <glyph glyph-name="cacute" unicode="&#x107;" horiz-adv-x="459" 
d="M421 90q8 -14 12.5 -33.5t4.5 -44.5q-29 -12 -67 -18t-69 -6q-110 0 -162 54t-52 151q0 60 19.5 119.5t58 107t94 76.5t127.5 29q33 0 63 -6t52 -14q-1 -19 -8 -41.5t-18 -39.5q-20 8 -43.5 13.5t-49.5 5.5q-49 0 -85 -21.5t-60 -56t-35.5 -77.5t-11.5 -85
q0 -68 33.5 -100.5t92.5 -32.5q26 0 51.5 4.5t52.5 15.5zM391 721q16 2 32 3t33 1t32 -1t30 -3l-124 -127q-11 -2 -24.5 -3t-28.5 -1q-11 0 -23 1t-24 3z" />
    <glyph glyph-name="Ccircumflex" unicode="&#x108;" horiz-adv-x="577" 
d="M543 106q19 -36 22 -85q-20 -9 -43 -15t-47 -10t-47.5 -6t-42.5 -2q-131 0 -201.5 74t-70.5 204q0 90 25 174t74.5 148.5t122.5 103.5t169 39q53 0 90.5 -7.5t63.5 -18.5q-5 -23 -11.5 -42t-19.5 -42q-29 11 -57 16t-63 5q-74 0 -128 -31t-88.5 -82.5t-51 -117.5
t-16.5 -136q0 -97 47.5 -147t137.5 -50q38 0 70.5 7t64.5 21zM451 889q13 2 29.5 3t30.5 1q10 0 24.5 -1t27.5 -3l82 -110q-11 -2 -23 -3t-25 -1q-11 0 -24.5 1t-26.5 4l-45 60l-69 -61q-13 -2 -28.5 -3t-27.5 -1q-14 0 -27.5 1t-24.5 3z" />
    <glyph glyph-name="ccircumflex" unicode="&#x109;" horiz-adv-x="459" 
d="M421 90q8 -14 12.5 -33.5t4.5 -44.5q-29 -12 -67 -18t-69 -6q-110 0 -162 54t-52 151q0 60 19.5 119.5t58 107t94 76.5t127.5 29q33 0 63 -6t52 -14q-1 -19 -8 -41.5t-18 -39.5q-20 8 -43.5 13.5t-49.5 5.5q-49 0 -85 -21.5t-60 -56t-35.5 -77.5t-11.5 -85
q0 -68 33.5 -100.5t92.5 -32.5q26 0 51.5 4.5t52.5 15.5zM335 721q12 2 28.5 3t30.5 1q11 0 28 -1t30 -4l74 -126q-9 -2 -20.5 -3t-24.5 -1q-12 0 -26 1t-26 3l-41 79l-70 -79q-12 -2 -27.5 -3t-27.5 -1q-14 0 -28 1t-24 3z" />
    <glyph glyph-name="Cdotaccent" unicode="&#x10a;" horiz-adv-x="577" 
d="M543 106q19 -36 22 -85q-20 -9 -43 -15t-47 -10t-47.5 -6t-42.5 -2q-131 0 -201.5 74t-70.5 204q0 90 25 174t74.5 148.5t122.5 103.5t169 39q53 0 90.5 -7.5t63.5 -18.5q-5 -23 -11.5 -42t-19.5 -42q-29 11 -57 16t-63 5q-74 0 -128 -31t-88.5 -82.5t-51 -117.5
t-16.5 -136q0 -97 47.5 -147t137.5 -50q38 0 70.5 7t64.5 21zM440 773q0 29 4.5 55t12.5 53q14 2 30.5 3t28.5 1q11 0 26.5 -1t28.5 -3q-2 -56 -19 -108q-14 -1 -30 -1.5t-27 -0.5q-12 0 -28 0.5t-27 1.5z" />
    <glyph glyph-name="cdotaccent" unicode="&#x10b;" horiz-adv-x="459" 
d="M421 90q8 -14 12.5 -33.5t4.5 -44.5q-29 -12 -67 -18t-69 -6q-110 0 -162 54t-52 151q0 60 19.5 119.5t58 107t94 76.5t127.5 29q33 0 63 -6t52 -14q-1 -19 -8 -41.5t-18 -39.5q-20 8 -43.5 13.5t-49.5 5.5q-49 0 -85 -21.5t-60 -56t-35.5 -77.5t-11.5 -85
q0 -68 33.5 -100.5t92.5 -32.5q26 0 51.5 4.5t52.5 15.5zM325 607q0 29 4.5 55.5t12.5 52.5q14 2 30.5 3t28.5 1q11 0 26.5 -1t28.5 -3q-2 -56 -19 -108q-14 -1 -30 -1.5t-27 -0.5q-12 0 -28 0.5t-27 1.5z" />
    <glyph glyph-name="Ccaron" unicode="&#x10c;" horiz-adv-x="577" 
d="M543 106q19 -36 22 -85q-20 -9 -43 -15t-47 -10t-47.5 -6t-42.5 -2q-131 0 -201.5 74t-70.5 204q0 90 25 174t74.5 148.5t122.5 103.5t169 39q53 0 90.5 -7.5t63.5 -18.5q-5 -23 -11.5 -42t-19.5 -42q-29 11 -57 16t-63 5q-74 0 -128 -31t-88.5 -82.5t-51 -117.5
t-16.5 -136q0 -97 47.5 -147t137.5 -50q38 0 70.5 7t64.5 21zM373 889q11 2 23 3t25 1q11 0 25.5 -1t27.5 -3l39 -60l68 60q13 2 29 3t28 1q14 0 27.5 -1t24.5 -3l-128 -110q-12 -2 -28 -3t-30 -1q-10 0 -25 1t-28 3z" />
    <glyph glyph-name="ccaron" unicode="&#x10d;" horiz-adv-x="459" 
d="M421 90q8 -14 12.5 -33.5t4.5 -44.5q-29 -12 -67 -18t-69 -6q-110 0 -162 54t-52 151q0 60 19.5 119.5t58 107t94 76.5t127.5 29q33 0 63 -6t52 -14q-1 -19 -8 -41.5t-18 -39.5q-20 8 -43.5 13.5t-49.5 5.5q-49 0 -85 -21.5t-60 -56t-35.5 -77.5t-11.5 -85
q0 -68 33.5 -100.5t92.5 -32.5q26 0 51.5 4.5t52.5 15.5zM242 720q20 5 45 5q12 0 27.5 -1.5t26.5 -3.5l44 -79l71 79q12 2 28 3.5t29 1.5q24 0 47 -5l-122 -127q-13 -2 -31 -2.5t-32 -0.5q-11 0 -26.5 1t-29.5 3z" />
    <glyph glyph-name="Dcaron" unicode="&#x10e;" horiz-adv-x="684" 
d="M219 719q16 2 36 4t41 3.5t41 2.5t38 1q84 0 145 -21t100 -59.5t57.5 -92.5t18.5 -120q0 -95 -27.5 -176.5t-81.5 -142.5t-134.5 -95.5t-186.5 -34.5q-54 0 -98.5 3.5t-74.5 8.5zM210 84q13 -2 36.5 -3.5t45.5 -1.5q69 0 124 26t93 72t58 109t20 137q0 106 -49 162
t-159 56q-20 0 -37.5 -1.5t-34.5 -3.5zM298 889q11 2 23 3t25 1q11 0 25.5 -1t27.5 -3l39 -60l68 60q13 2 29 3t28 1q14 0 27.5 -1t24.5 -3l-128 -110q-12 -2 -28 -3t-30 -1q-10 0 -25 1t-28 3z" />
    <glyph glyph-name="dcaron" unicode="&#x10f;" horiz-adv-x="621" 
d="M456 437q-12 3 -25 4t-29 1q-50 0 -89.5 -23t-68 -61.5t-43.5 -87t-15 -99.5q0 -48 17 -74.5t51 -26.5q31 0 60 20t53 55.5t42 83t28 101.5zM514 218q-11 -60 -17 -103t-6 -75v-20.5t2 -18.5q-11 -2 -23.5 -3t-23.5 -1t-23 1t-22 3q-2 8 -3.5 17.5t-1.5 26.5
q0 12 2.5 33.5t7.5 39.5q-12 -22 -30 -45t-42 -42t-53.5 -31t-63.5 -12q-66 0 -100 43.5t-34 118.5q0 71 22 138.5t65 120t107.5 84.5t148.5 32q11 0 23 -1t20 -2q11 58 17 100t6 74v20t-1 17q11 2 26.5 3t26.5 1q10 0 22.5 -0.5t22.5 -2.5q3 -20 3 -37q0 -23 -4.5 -59
t-10.5 -69zM674 735q6 1 19 1.5t31 0.5q12 0 25 -0.5t21 -1.5l-47 -202q-17 -3 -40 -3q-26 0 -44 3z" />
    <glyph glyph-name="Dcroat" unicode="&#x110;" horiz-adv-x="696" 
d="M165 338h-75q0 20 2.5 38.5t9.5 36.5h76l54 306q16 2 36 4t41 3.5t41 2.5t38 1q84 0 145 -21t100 -59.5t57.5 -92.5t18.5 -120q0 -95 -28 -176.5t-82.5 -142.5t-134.5 -95.5t-185 -34.5q-54 0 -98.5 3.5t-74.5 8.5zM223 84q13 -2 36.5 -3.5t45.5 -1.5q69 0 124 26
t93.5 72t58.5 109t20 137q0 106 -48 162t-158 56q-20 0 -39 -1.5t-35 -3.5l-40 -223h172q0 -19 -2.5 -38t-9.5 -37h-173z" />
    <glyph glyph-name="dcroat" unicode="&#x111;" horiz-adv-x="552" 
d="M477 573h-140q0 17 2.5 33.5t9.5 34.5h138l1 7q2 17 3 28t1 20q0 12 -0.5 19t-1.5 18q11 2 27 3t27 1q10 0 22.5 -1t22.5 -3q3 -18 3 -37q0 -8 -1.5 -22.5l-3.5 -32.5h60q0 -36 -11 -68h-59l-63 -355q-11 -60 -17.5 -103.5t-6.5 -75.5q0 -12 0.5 -20t1.5 -19
q-11 -1 -23.5 -1.5t-23.5 -0.5q-10 0 -22 0.5t-23 1.5q-2 8 -3 17.5t-1 26.5q0 11 2.5 33t6.5 40q-11 -21 -29.5 -44t-42.5 -42t-53.5 -31t-63.5 -12q-66 0 -99.5 43.5t-33.5 118.5q0 70 21 133.5t63 111.5t105.5 76t148.5 28q10 0 22 -1t21 -3zM451 410q-24 6 -54 6
q-50 0 -89 -19.5t-66 -52.5t-41.5 -77.5t-14.5 -95.5q0 -48 17 -74.5t50 -26.5q31 0 60 20t53 55t42 82.5t28 102.5z" />
    <glyph glyph-name="Emacron" unicode="&#x112;" horiz-adv-x="524" 
d="M218 719h381q0 -45 -16 -90h-278l-36 -205h222q0 -46 -16 -90h-222l-21.5 -122.5l-21.5 -122.5h286q-3 -26 -5 -45t-11 -44h-388zM277 801q0 36 12 66h284v-8q0 -17 -3 -35t-10 -35h-283v12z" />
    <glyph glyph-name="emacron" unicode="&#x113;" horiz-adv-x="498" 
d="M186 204q3 -67 34 -101t96 -34q40 0 76 9.5t65 20.5q9 -15 13 -36t4 -42q-15 -7 -36.5 -13t-45 -10.5t-47.5 -7t-44 -2.5q-59 0 -99.5 15.5t-66 43t-37 65t-11.5 81.5q0 61 20.5 120.5t59 106.5t92 76t119.5 29t104.5 -32.5t38.5 -86.5q0 -44 -21.5 -76.5t-59.5 -55.5
t-89.5 -38t-112.5 -24zM249 288q51 9 84.5 20.5t53.5 25t28 28.5t8 33q0 23 -16 37.5t-46 14.5q-32 0 -59 -14.5t-48.5 -38t-36.5 -54t-23 -62.5zM523 694q0 -20 -2.5 -38.5t-9.5 -39.5h-270q0 20 2 39t10 39h270z" />
    <glyph glyph-name="Ebreve" unicode="&#x114;" horiz-adv-x="524" 
d="M218 719h381q0 -45 -16 -90h-278l-36 -205h222q0 -46 -16 -90h-222l-21.5 -122.5l-21.5 -122.5h286q-3 -26 -5 -45t-11 -44h-388zM272 889q11 2 21 3.5t21 1.5t20.5 -1.5t20.5 -3.5q1 -11 3.5 -21t9.5 -17.5t19.5 -12t32.5 -4.5q19 0 32.5 3.5t22.5 10.5t15 17t11 24
q12 2 22 3.5t22 1.5q11 0 20.5 -1.5t19.5 -3.5q-9 -37 -28 -60.5t-42 -36.5t-49 -18t-50 -5q-26 0 -52 5.5t-46.5 19t-33 37t-12.5 58.5z" />
    <glyph glyph-name="ebreve" unicode="&#x115;" horiz-adv-x="498" 
d="M186 204q3 -67 34 -101t96 -34q40 0 76 9.5t65 20.5q9 -15 13 -36t4 -42q-15 -7 -36.5 -13t-45 -10.5t-47.5 -7t-44 -2.5q-59 0 -99.5 15.5t-66 43t-37 65t-11.5 81.5q0 61 20.5 120.5t59 106.5t92 76t119.5 29t104.5 -32.5t38.5 -86.5q0 -44 -21.5 -76.5t-59.5 -55.5
t-89.5 -38t-112.5 -24zM249 288q51 9 84.5 20.5t53.5 25t28 28.5t8 33q0 23 -16 37.5t-46 14.5q-32 0 -59 -14.5t-48.5 -38t-36.5 -54t-23 -62.5zM233 722q10 3 21.5 4t22.5 1t19 -1t19 -4q0 -12 2.5 -24t10 -21.5t20 -16t32.5 -6.5q21 0 35 5.5t23 15t14 22t9 25.5
q12 2 22 3.5t21 1.5t22 -1t21 -4q-9 -41 -27.5 -67t-41.5 -41t-50 -20.5t-54 -5.5q-25 0 -50 5.5t-45.5 20.5t-33 40t-12.5 64v4z" />
    <glyph glyph-name="Edotaccent" unicode="&#x116;" horiz-adv-x="524" 
d="M218 719h381q0 -45 -16 -90h-278l-36 -205h222q0 -46 -16 -90h-222l-21.5 -122.5l-21.5 -122.5h286q-3 -26 -5 -45t-11 -44h-388zM365 773q0 29 4.5 55t12.5 53q14 2 30.5 3t28.5 1q11 0 26.5 -1t28.5 -3q-2 -56 -19 -108q-14 -1 -30 -1.5t-27 -0.5q-12 0 -28 0.5
t-27 1.5z" />
    <glyph glyph-name="edotaccent" unicode="&#x117;" horiz-adv-x="498" 
d="M186 204q3 -67 34 -101t96 -34q40 0 76 9.5t65 20.5q9 -15 13 -36t4 -42q-15 -7 -36.5 -13t-45 -10.5t-47.5 -7t-44 -2.5q-59 0 -99.5 15.5t-66 43t-37 65t-11.5 81.5q0 61 20.5 120.5t59 106.5t92 76t119.5 29t104.5 -32.5t38.5 -86.5q0 -44 -21.5 -76.5t-59.5 -55.5
t-89.5 -38t-112.5 -24zM249 288q51 9 84.5 20.5t53.5 25t28 28.5t8 33q0 23 -16 37.5t-46 14.5q-32 0 -59 -14.5t-48.5 -38t-36.5 -54t-23 -62.5zM310 607q0 29 4.5 55.5t12.5 52.5q14 2 30.5 3t28.5 1q11 0 26.5 -1t28.5 -3q-2 -56 -19 -108q-14 -1 -30 -1.5t-27 -0.5
q-12 0 -28 0.5t-27 1.5z" />
    <glyph glyph-name="Eogonek" unicode="&#x118;" horiz-adv-x="524" 
d="M218 719h381q0 -45 -16 -90h-278l-36 -205h222q0 -46 -16 -90h-222l-21.5 -122.5l-21.5 -122.5h286q-3 -26 -5 -45t-11 -44h-46q-14 -10 -32 -25.5t-34.5 -34t-28 -38.5t-11.5 -38q0 -39 48 -39q8 0 20.5 1.5t29.5 6.5q4 -10 6.5 -22t2.5 -24q0 -10 -1 -15
q-17 -6 -41 -10t-49 -4q-22 0 -42 4.5t-35 14t-24 25.5t-9 39q0 24 9.5 46t25.5 42t36 38t41 33h-254z" />
    <glyph glyph-name="eogonek" unicode="&#x119;" horiz-adv-x="498" 
d="M301 -12q-59 0 -99.5 15.5t-66 43t-37 65t-11.5 81.5q0 61 20.5 120.5t59 106.5t92 76t119.5 29t104.5 -32.5t38.5 -86.5q0 -44 -21.5 -76.5t-59.5 -55.5t-89.5 -38t-112.5 -24l-52 -8q3 -67 34 -101t96 -34q40 0 76 9.5t65 20.5q9 -15 13 -36t4 -42q-14 -6 -20 -9
l-10 -5q-15 -8 -38 -22t-44 -32.5t-36 -41t-15 -47.5q0 -39 47 -39q9 0 21.5 1.5t29.5 6.5q4 -10 6.5 -22t2.5 -25q0 -10 -1 -14q-17 -6 -41.5 -10t-48.5 -4q-23 0 -43 4.5t-35 14t-24 25.5t-9 39q0 43 28.5 80.5t66.5 66.5h-10zM249 288q51 9 84.5 20.5t53.5 25t28 28.5
t8 33q0 23 -16 37.5t-46 14.5q-32 0 -59 -14.5t-48.5 -38t-36.5 -54t-23 -62.5z" />
    <glyph glyph-name="Ecaron" unicode="&#x11a;" horiz-adv-x="524" 
d="M218 719h381q0 -45 -16 -90h-278l-36 -205h222q0 -46 -16 -90h-222l-21.5 -122.5l-21.5 -122.5h286q-3 -26 -5 -45t-11 -44h-388zM284 889q11 2 23 3t25 1q11 0 25.5 -1t27.5 -3l39 -60l68 60q13 2 29 3t28 1q14 0 27.5 -1t24.5 -3l-128 -110q-12 -2 -28 -3t-30 -1
q-10 0 -25 1t-28 3z" />
    <glyph glyph-name="ecaron" unicode="&#x11b;" horiz-adv-x="498" 
d="M186 204q3 -67 34 -101t96 -34q40 0 76 9.5t65 20.5q9 -15 13 -36t4 -42q-15 -7 -36.5 -13t-45 -10.5t-47.5 -7t-44 -2.5q-59 0 -99.5 15.5t-66 43t-37 65t-11.5 81.5q0 61 20.5 120.5t59 106.5t92 76t119.5 29t104.5 -32.5t38.5 -86.5q0 -44 -21.5 -76.5t-59.5 -55.5
t-89.5 -38t-112.5 -24zM249 288q51 9 84.5 20.5t53.5 25t28 28.5t8 33q0 23 -16 37.5t-46 14.5q-32 0 -59 -14.5t-48.5 -38t-36.5 -54t-23 -62.5zM242 720q20 5 45 5q12 0 27.5 -1.5t26.5 -3.5l44 -79l71 79q12 2 28 3.5t29 1.5q24 0 47 -5l-122 -127q-13 -2 -31 -2.5
t-32 -0.5q-11 0 -26.5 1t-29.5 3z" />
    <glyph glyph-name="Gcircumflex" unicode="&#x11c;" horiz-adv-x="657" 
d="M546 371q12 2 25.5 3t25.5 1q14 0 26.5 -1t24.5 -3l-31.5 -174.5l-30.5 -174.5q-39 -16 -94 -25t-106 -9q-65 0 -116 20t-86 56.5t-53 88t-18 113.5q0 92 24.5 176t74 148.5t122.5 102.5t171 38q50 0 88.5 -8t64.5 -19q-5 -23 -11.5 -42t-19.5 -42q-28 11 -56 16t-65 5
q-74 0 -127.5 -31t-88 -82.5t-51 -117.5t-16.5 -136q0 -100 48 -148t133 -48q25 0 49.5 3.5t42.5 10.5zM458 889q13 2 29.5 3t30.5 1q10 0 24.5 -1t27.5 -3l82 -110q-11 -2 -23 -3t-25 -1q-11 0 -24.5 1t-26.5 4l-45 60l-69 -61q-13 -2 -28.5 -3t-27.5 -1q-14 0 -27.5 1
t-24.5 3z" />
    <glyph glyph-name="gcircumflex" unicode="&#x11d;" horiz-adv-x="550" 
d="M403 116q-11 -22 -29 -44.5t-42 -41t-53.5 -30.5t-63.5 -12q-66 0 -99.5 43.5t-33.5 118.5q0 71 22 138.5t65 120t107 84.5t149 32q36 0 73.5 -5.5t65.5 -15.5l-44.5 -250l-44.5 -250q-12 -68 -40 -115t-69 -76.5t-93 -43t-112 -13.5q-34 0 -68 6t-56 15q1 43 22 80
q20 -5 47 -10.5t59 -5.5q45 0 80 9t62 30t45.5 55t29.5 85zM455 436q-24 6 -54 6q-50 0 -90 -23t-68 -61.5t-43.5 -87t-15.5 -99.5q0 -48 18 -74.5t51 -26.5q32 0 60.5 20t52 55t41 82.5t28.5 102.5zM358 721q12 2 28.5 3t30.5 1q11 0 28 -1t30 -4l74 -126q-9 -2 -20.5 -3
t-24.5 -1q-12 0 -26 1t-26 3l-41 79l-70 -79q-12 -2 -27.5 -3t-27.5 -1q-14 0 -28 1t-24 3z" />
    <glyph glyph-name="Gbreve" unicode="&#x11e;" horiz-adv-x="657" 
d="M546 371q12 2 25.5 3t25.5 1q14 0 26.5 -1t24.5 -3l-31.5 -174.5l-30.5 -174.5q-39 -16 -94 -25t-106 -9q-65 0 -116 20t-86 56.5t-53 88t-18 113.5q0 92 24.5 176t74 148.5t122.5 102.5t171 38q50 0 88.5 -8t64.5 -19q-5 -23 -11.5 -42t-19.5 -42q-28 11 -56 16t-65 5
q-74 0 -127.5 -31t-88 -82.5t-51 -117.5t-16.5 -136q0 -100 48 -148t133 -48q25 0 49.5 3.5t42.5 10.5zM356 889q11 2 21 3.5t21 1.5t20.5 -1.5t20.5 -3.5q1 -11 3.5 -21t9.5 -17.5t19.5 -12t32.5 -4.5q19 0 32.5 3.5t22.5 10.5t15 17t11 24q12 2 22 3.5t22 1.5
q11 0 20.5 -1.5t19.5 -3.5q-9 -37 -28 -60.5t-42 -36.5t-49 -18t-50 -5q-26 0 -52 5.5t-46.5 19t-33 37t-12.5 58.5z" />
    <glyph glyph-name="gbreve" unicode="&#x11f;" horiz-adv-x="550" 
d="M404 116q-11 -22 -29 -44.5t-42 -41t-53.5 -30.5t-63.5 -12q-66 0 -99.5 43.5t-33.5 118.5q0 71 22 138.5t65 120t107 84.5t149 32q36 0 73.5 -5.5t65.5 -15.5l-44.5 -250l-44.5 -250q-12 -68 -40 -115t-69 -76.5t-93 -43t-112 -13.5q-34 0 -68 6t-56 15q1 43 22 80
q20 -5 47 -10.5t59 -5.5q45 0 80 9t62 30t45.5 55t29.5 85zM456 436q-24 6 -54 6q-50 0 -90 -23t-68 -61.5t-43.5 -87t-15.5 -99.5q0 -48 18 -74.5t51 -26.5q32 0 60.5 20t52 55t41 82.5t28.5 102.5zM261 722q10 3 21.5 4t22.5 1t19 -1t19 -4q0 -12 2.5 -24t10 -21.5t20 -16
t32.5 -6.5q21 0 35 5.5t23 15t14 22t9 25.5q12 2 22 3.5t21 1.5t22 -1t21 -4q-9 -41 -27.5 -67t-41.5 -41t-50 -20.5t-54 -5.5q-25 0 -50 5.5t-45.5 20.5t-33 40t-12.5 64v4z" />
    <glyph glyph-name="Gdotaccent" unicode="&#x120;" horiz-adv-x="657" 
d="M546 371q12 2 25.5 3t25.5 1q14 0 26.5 -1t24.5 -3l-31.5 -174.5l-30.5 -174.5q-39 -16 -94 -25t-106 -9q-65 0 -116 20t-86 56.5t-53 88t-18 113.5q0 92 24.5 176t74 148.5t122.5 102.5t171 38q50 0 88.5 -8t64.5 -19q-5 -23 -11.5 -42t-19.5 -42q-28 11 -56 16t-65 5
q-74 0 -127.5 -31t-88 -82.5t-51 -117.5t-16.5 -136q0 -100 48 -148t133 -48q25 0 49.5 3.5t42.5 10.5zM445 773q0 29 4.5 55t12.5 53q14 2 30.5 3t28.5 1q11 0 26.5 -1t28.5 -3q-2 -56 -19 -108q-14 -1 -30 -1.5t-27 -0.5q-12 0 -28 0.5t-27 1.5z" />
    <glyph glyph-name="gdotaccent" unicode="&#x121;" horiz-adv-x="550" 
d="M403 116q-11 -22 -29 -44.5t-42 -41t-53.5 -30.5t-63.5 -12q-66 0 -99.5 43.5t-33.5 118.5q0 71 22 138.5t65 120t107 84.5t149 32q36 0 73.5 -5.5t65.5 -15.5l-44.5 -250l-44.5 -250q-12 -68 -40 -115t-69 -76.5t-93 -43t-112 -13.5q-34 0 -68 6t-56 15q1 43 22 80
q20 -5 47 -10.5t59 -5.5q45 0 80 9t62 30t45.5 55t29.5 85zM455 436q-24 6 -54 6q-50 0 -90 -23t-68 -61.5t-43.5 -87t-15.5 -99.5q0 -48 18 -74.5t51 -26.5q32 0 60.5 20t52 55t41 82.5t28.5 102.5zM357 607q0 29 4.5 55.5t12.5 52.5q14 2 30.5 3t28.5 1q11 0 26.5 -1
t28.5 -3q-2 -56 -19 -108q-14 -1 -30 -1.5t-27 -0.5q-12 0 -28 0.5t-27 1.5z" />
    <glyph glyph-name="Gcommaaccent" unicode="&#x122;" horiz-adv-x="657" 
d="M546 371q12 2 25.5 3t25.5 1q14 0 26.5 -1t24.5 -3l-31.5 -174.5l-30.5 -174.5q-39 -16 -94 -25t-106 -9q-65 0 -116 20t-86 56.5t-53 88t-18 113.5q0 92 24.5 176t74 148.5t122.5 102.5t171 38q50 0 88.5 -8t64.5 -19q-5 -23 -11.5 -42t-19.5 -42q-28 11 -56 16t-65 5
q-74 0 -127.5 -31t-88 -82.5t-51 -117.5t-16.5 -136q0 -100 48 -148t133 -48q25 0 49.5 3.5t42.5 10.5zM319 -65q12 2 26 3t26 1q14 0 26 -1t26 -3l-84 -174q-11 -2 -23.5 -3t-23.5 -1t-22 1t-22 3z" />
    <glyph glyph-name="gcommaaccent" unicode="&#x123;" horiz-adv-x="550" 
d="M403 116q-11 -22 -29 -44.5t-42 -41t-53.5 -30.5t-63.5 -12q-66 0 -99.5 43.5t-33.5 118.5q0 71 22 138.5t65 120t107 84.5t149 32q36 0 73.5 -5.5t65.5 -15.5l-44.5 -250l-44.5 -250q-12 -68 -40 -115t-69 -76.5t-93 -43t-112 -13.5q-34 0 -68 6t-56 15q1 43 22 80
q20 -5 47 -10.5t59 -5.5q45 0 80 9t62 30t45.5 55t29.5 85zM455 436q-24 6 -54 6q-50 0 -90 -23t-68 -61.5t-43.5 -87t-15.5 -99.5q0 -48 18 -74.5t51 -26.5q32 0 60.5 20t52 55t41 82.5t28.5 102.5zM421 722q12 2 24 3t23 1q26 0 49 -4l-74 -143q-13 -3 -25 -4t-24 -1
q-14 0 -27.5 1t-28.5 4z" />
    <glyph glyph-name="Hcircumflex" unicode="&#x124;" horiz-adv-x="666" 
d="M219 719q12 2 25 3t27 1q12 0 25.5 -1t25.5 -3l-52 -296h276l51 296q12 2 25 3t27 1q12 0 26 -1t25 -3l-126 -719q-12 -2 -25.5 -3t-27.5 -1t-26.5 1t-23.5 3l58 333h-275l-58 -333q-12 -2 -26 -3t-27 -1q-14 0 -26.5 1t-23.5 3zM442 889q13 2 29.5 3t30.5 1
q10 0 24.5 -1t27.5 -3l82 -110q-11 -2 -23 -3t-25 -1q-11 0 -24.5 1t-26.5 4l-45 60l-69 -61q-13 -2 -28.5 -3t-27.5 -1q-14 0 -27.5 1t-24.5 3z" />
    <glyph glyph-name="hcircumflex" unicode="&#x125;" horiz-adv-x="567" 
d="M174 527q10 56 16 96.5t6 72.5q0 12 -0.5 19t-1.5 18q11 2 27 3t27 1q10 0 22.5 -1t22.5 -3q3 -18 3 -37q0 -11 -1.5 -26.5t-3.5 -32.5t-5 -35t-6 -34q-7 -34 -13 -67.5l-12 -67.5q28 37 72 64t100 27q61 0 95.5 -32t34.5 -99q0 -15 -2 -33t-5 -36l-57 -324
q-11 -2 -25.5 -2.5t-25.5 -0.5t-24.5 0.5t-23.5 2.5l27 154l27 154l4 30t2 26q0 38 -20.5 56t-52.5 18q-23 0 -47 -10t-45.5 -34.5t-39.5 -66t-29 -104.5q-11 -57 -20.5 -112l-19.5 -111q-14 -2 -29 -2.5t-29 -0.5q-5 0 -18 0.5t-23 2.5zM275 889q13 2 29.5 3t30.5 1
q10 0 24.5 -1t27.5 -3l82 -110q-11 -2 -23 -3t-25 -1q-11 0 -24.5 1t-26.5 4l-45 60l-69 -61q-13 -2 -28.5 -3t-27.5 -1q-14 0 -27.5 1t-24.5 3z" />
    <glyph glyph-name="Hbar" unicode="&#x126;" horiz-adv-x="693" 
d="M202 545h-66q0 20 2.5 38.5t9.5 36.5h67l17 99q13 2 25.5 3t26.5 1q12 0 26 -1t25 -3l-17 -99h275l18 99q11 2 24.5 3t26.5 1t26.5 -1t24.5 -3l-17 -99h63q0 -19 -2.5 -38t-9.5 -37h-65l-95 -545q-12 -2 -25.5 -3t-27.5 -1q-13 0 -25.5 1t-23.5 3l58 333h-276l-58 -333
q-12 -2 -26 -3t-27 -1q-14 0 -26.5 1t-23.5 3zM559 423l21 122h-276l-21 -122h276z" />
    <glyph glyph-name="hbar" unicode="&#x127;" horiz-adv-x="567" 
d="M183 574h-57q0 17 2.5 33.5t9.5 34.5h53q2 15 3.5 28t1.5 26q0 12 -0.5 19t-1.5 18q11 2 27 3t27 1q10 0 22.5 -1t22.5 -3q3 -18 3 -37q0 -11 -1.5 -24.5t-3.5 -29.5h145q0 -17 -2 -33.5t-9 -34.5h-145l-32 -173q28 37 72 64t100 27q62 0 96 -32t34 -99q0 -15 -2 -33
t-5 -36l-50 -292q-11 -2 -25.5 -2.5t-25.5 -0.5t-24.5 0.5t-23.5 2.5l48 276l4 29.5t2 25.5q0 40 -20.5 57.5t-52.5 17.5q-23 0 -47.5 -10t-46 -34.5t-39.5 -66t-29 -105.5l-33 -190q-14 -2 -29 -2.5t-29 -0.5q-5 0 -18 0.5t-23 2.5z" />
    <glyph glyph-name="Itilde" unicode="&#x128;" horiz-adv-x="288" 
d="M219 719q13 2 26 3t26 1q14 0 26.5 -1t24.5 -3l-126 -719q-14 -2 -26.5 -3t-26.5 -1t-26.5 1t-23.5 3zM121 848q19 20 45.5 35t58.5 15q21 0 38 -5.5t33 -12.5t32.5 -12.5t36.5 -5.5q17 0 30.5 5.5t33.5 22.5q8 -10 17.5 -26t11.5 -30q-20 -18 -46.5 -33t-58.5 -15
q-21 0 -38 5.5t-33 12t-32.5 12t-34.5 5.5q-19 0 -32.5 -6t-32.5 -21q-9 10 -18 25t-11 29z" />
    <glyph glyph-name="itilde" unicode="&#x129;" horiz-adv-x="285" 
d="M71 660q19 20 45.5 35t58.5 15q21 0 38 -5.5t33 -12t32.5 -12t36.5 -5.5q17 0 31 5t34 22q8 -10 17 -25.5t11 -30.5q-19 -18 -46 -33t-59 -15q-21 0 -38 5.5t-33 12.5t-32.5 12.5t-34.5 5.5q-19 0 -32.5 -6.5t-32.5 -21.5q-9 10 -18 25t-11 29zM180 434h-62q0 20 2.5 39
t10.5 40h160l-90 -513q-11 -2 -25.5 -2.5t-25.5 -0.5t-23 0.5t-23 2.5z" />
    <glyph glyph-name="Imacron" unicode="&#x12a;" horiz-adv-x="288" 
d="M219 719q13 2 26 3t26 1q14 0 26.5 -1t24.5 -3l-126 -719q-14 -2 -26.5 -3t-26.5 -1t-26.5 1t-23.5 3zM137 801q0 36 12 66h284v-8q0 -17 -3 -35t-10 -35h-283v12z" />
    <glyph glyph-name="imacron" unicode="&#x12b;" horiz-adv-x="285" 
d="M376 694q0 -20 -2.5 -38.5t-9.5 -39.5h-270q0 20 2 39t10 39h270zM180 434h-62q0 20 2.5 39t10.5 40h160l-90 -513q-11 -2 -25.5 -2.5t-25.5 -0.5t-23 0.5t-23 2.5z" />
    <glyph glyph-name="Ibreve" unicode="&#x12c;" horiz-adv-x="288" 
d="M219 719q13 2 26 3t26 1q14 0 26.5 -1t24.5 -3l-126 -719q-14 -2 -26.5 -3t-26.5 -1t-26.5 1t-23.5 3zM138 889q11 2 21 3.5t21 1.5t20.5 -1.5t20.5 -3.5q1 -11 3.5 -21t9.5 -17.5t19.5 -12t32.5 -4.5q19 0 32.5 3.5t22.5 10.5t15 17t11 24q12 2 22 3.5t22 1.5
q11 0 20.5 -1.5t19.5 -3.5q-9 -37 -28 -60.5t-42 -36.5t-49 -18t-50 -5q-26 0 -52 5.5t-46.5 19t-33 37t-12.5 58.5z" />
    <glyph glyph-name="ibreve" unicode="&#x12d;" horiz-adv-x="285" 
d="M98 722q10 3 21.5 4t22.5 1t19 -1t19 -4q0 -12 2.5 -24t10 -21.5t20 -16t32.5 -6.5q21 0 35 5.5t23 15t14 22t9 25.5q12 2 22 3.5t21 1.5t22 -1t21 -4q-9 -41 -27.5 -67t-41.5 -41t-50 -20.5t-54 -5.5q-25 0 -50 5.5t-45.5 20.5t-33 40t-12.5 64v4zM180 434h-62
q0 20 2.5 39t10.5 40h160l-90 -513q-11 -2 -25.5 -2.5t-25.5 -0.5t-23 0.5t-23 2.5z" />
    <glyph glyph-name="Iogonek" unicode="&#x12e;" horiz-adv-x="288" 
d="M219 719q13 2 26 3t26 1q14 0 26.5 -1t24.5 -3l-126 -719q-14 -10 -32 -25.5t-34 -34t-27.5 -38.5t-11.5 -39q0 -39 47 -39q8 0 20.5 1.5t29.5 6.5q6 -12 8.5 -28.5t0.5 -32.5q-17 -6 -41.5 -9.5t-48.5 -3.5q-23 0 -43 4.5t-35 14t-24 25.5t-9 39t9.5 45t24.5 42t34.5 38
t40.5 33l-12 1z" />
    <glyph glyph-name="iogonek" unicode="&#x12f;" horiz-adv-x="285" 
d="M180 434h-62q0 20 2.5 39t10.5 40h160l-90 -513q-14 -10 -32 -25.5t-34 -34t-27.5 -38.5t-11.5 -39q0 -39 48 -39q8 0 20.5 1.5t29.5 6.5q4 -9 6.5 -21t2.5 -25q0 -10 -1 -15q-17 -6 -41 -9.5t-49 -3.5q-22 0 -42 4.5t-35.5 14t-24.5 25.5t-9 39t9.5 45t25.5 42t35.5 38
t40.5 33l-8 1zM195 607q0 29 5 55t13 53q14 2 30 3t28 1t27.5 -1t28.5 -3q-1 -29 -6 -55.5t-13 -52.5q-14 -2 -30 -2.5t-28 -0.5q-11 0 -27 0.5t-28 2.5z" />
    <glyph glyph-name="Idotaccent" unicode="&#x130;" horiz-adv-x="288" 
d="M219 719q13 2 26 3t26 1q14 0 26.5 -1t24.5 -3l-126 -719q-14 -2 -26.5 -3t-26.5 -1t-26.5 1t-23.5 3zM226 773q0 29 4.5 55t12.5 53q14 2 30.5 3t28.5 1q11 0 26.5 -1t28.5 -3q-2 -56 -19 -108q-14 -1 -30 -1.5t-27 -0.5q-12 0 -28 0.5t-27 1.5z" />
    <glyph glyph-name="dotlessi" unicode="&#x131;" horiz-adv-x="285" 
d="M180 434h-62q0 20 2.5 39t10.5 40h160l-90 -513q-11 -2 -25.5 -2.5t-25.5 -0.5t-23 0.5t-23 2.5z" />
    <glyph glyph-name="IJ" unicode="&#x132;" horiz-adv-x="666" 
d="M214 719q13 2 26 3t26 1q14 0 26.5 -1t24.5 -3l-126 -719q-14 -2 -26.5 -3t-26.5 -1t-26.5 1t-23.5 3zM587 630h-120q0 22 3.5 45t11.5 44h222l-91 -519q-11 -60 -28 -101t-43 -65.5t-62 -35t-85 -10.5q-28 0 -50 3.5t-41 9.5q2 23 6 45t15 42q11 -3 28.5 -7t37.5 -4
q21 0 39.5 3t33.5 13.5t26 30.5t17 53z" />
    <glyph glyph-name="ij" unicode="&#x133;" horiz-adv-x="571" 
d="M180 434h-62q0 20 2.5 39t10.5 40h160l-90 -513q-11 -2 -25.5 -2.5t-25.5 -0.5t-23 0.5t-23 2.5zM179 619q0 29 5 55t13 53q14 2 30 3t28 1t27.5 -1t28.5 -3q-1 -29 -6 -55.5t-13 -52.5q-14 -2 -30 -2.5t-28 -0.5q-11 0 -27 0.5t-28 2.5zM464 434h-62q0 20 2.5 38.5
t10.5 40.5h160l-102 -582q-31 -175 -191 -175q-24 0 -45.5 3.5t-38.5 9.5q0 16 5.5 38t13.5 38q11 -4 27.5 -6.5t30.5 -2.5q37 0 64.5 22t37.5 79zM463 619q0 29 5 55t13 53q14 2 30 3t28 1t27.5 -1t28.5 -3q-1 -29 -6 -55.5t-13 -52.5q-14 -2 -30 -2.5t-28 -0.5
q-11 0 -27 0.5t-28 2.5z" />
    <glyph glyph-name="Jcircumflex" unicode="&#x134;" horiz-adv-x="394" 
d="M314 630h-120q0 22 3.5 45t11.5 44h222l-91 -519q-11 -60 -28 -101t-43 -65.5t-62 -35t-85 -10.5q-28 0 -50 3.5t-41 9.5q2 23 6 45t15 42q11 -3 28.5 -7t37.5 -4q21 0 39.5 3t33.5 13.5t26 30.5t17 53zM301 889q13 2 29.5 3t30.5 1q10 0 24.5 -1t27.5 -3l82 -110
q-11 -2 -23 -3t-25 -1q-11 0 -24.5 1t-26.5 4l-45 60l-69 -61q-13 -2 -28.5 -3t-27.5 -1q-14 0 -27.5 1t-24.5 3z" />
    <glyph glyph-name="jcircumflex" unicode="&#x135;" horiz-adv-x="284" 
d="M182 434h-63q0 17 3 37.5t11 41.5h159l-102 -582q-31 -175 -191 -175q-24 0 -45.5 3.5t-38.5 9.5q0 15 5.5 38t13.5 38q11 -4 27.5 -6.5t30.5 -2.5q37 0 64.5 22t37.5 79zM191 721q12 2 28.5 3t30.5 1q11 0 28 -1t30 -4l74 -126q-9 -2 -20.5 -3t-24.5 -1q-12 0 -26 1
t-26 3l-41 79l-70 -79q-12 -2 -27.5 -3t-27.5 -1q-14 0 -28 1t-24 3z" />
    <glyph glyph-name="Kcommaaccent" unicode="&#x136;" horiz-adv-x="583" 
d="M219 719q25 3 52 3q26 0 50 -3l-126 -719q-26 -3 -52 -3q-28 0 -50 3zM290 365l275 354q15 2 28.5 2.5t25.5 0.5q13 0 30 -0.5t31 -2.5l-278 -353l172 -366q-32 -3 -57 -3q-24 0 -54 3zM275 -65q12 2 26 3t26 1q14 0 26 -1t26 -3l-84 -174q-11 -2 -23.5 -3t-23.5 -1
t-22 1t-22 3z" />
    <glyph glyph-name="kcommaaccent" unicode="&#x137;" horiz-adv-x="504" 
d="M261 266l105 131q28 35 46 64t23 52q14 2 26 3t26 1t28 -1t27 -3q-4 -23 -17 -44.5t-36 -52.5l-61.5 -74l-62.5 -74l122 -268q-29 -3 -52 -3q-26 0 -54 3zM175 527q10 56 15.5 96.5t5.5 72.5v19t-1 18q11 2 26.5 3t26.5 1t23 -1t23 -3q1 -9 1.5 -18t0.5 -19
q0 -18 -3 -44.5t-8 -55.5l-105 -596q-11 -2 -25.5 -2.5t-25.5 -0.5t-24 0.5t-23 2.5zM225 -65q13 2 26.5 3t25.5 1q14 0 26 -1t26 -3l-84 -174q-11 -2 -23.5 -3t-23.5 -1t-22 1t-22 3z" />
    <glyph glyph-name="kgreenlandic" unicode="&#x138;" horiz-adv-x="509" 
d="M261 266l105 131q28 35 46 64t23 52q14 2 26 3t26 1t28 -1t27 -3q-4 -23 -17 -44.5t-36 -52.5l-124 -148l122 -268q-29 -3 -52 -3q-26 0 -54 3zM172 513q11 2 25.5 3t27.5 1q11 0 22.5 -1t22.5 -3l-90 -513q-11 -2 -25.5 -2.5t-25.5 -0.5t-24 0.5t-23 2.5z" />
    <glyph glyph-name="Lacute" unicode="&#x139;" horiz-adv-x="490" 
d="M218 719q12 2 25.5 3t27.5 1q13 0 25 -1t24 -3l-110 -629h268q-2 -26 -5 -47t-12 -43h-369zM314 887q12 2 28.5 3t33.5 1q18 0 37 -1t30 -3l-145 -110q-10 -2 -25.5 -2.5t-31.5 -0.5q-14 0 -27.5 1t-21.5 3z" />
    <glyph glyph-name="lacute" unicode="&#x13a;" horiz-adv-x="297" 
d="M173 527q10 56 15.5 96.5t6.5 72.5v19t-1 18q11 2 26.5 3t26.5 1q10 0 22.5 -1t23.5 -3q2 -9 2 -18v-19q0 -11 -1.5 -26.5t-3.5 -32.5t-5 -35t-6 -34l-78 -422q-3 -17 -3 -27q0 -16 4.5 -25.5t11.5 -14t15.5 -5.5t16.5 -1q9 0 20.5 2t19.5 4q9 -26 9 -62q0 -4 -0.5 -7.5
t-0.5 -6.5q-15 -5 -36.5 -7.5t-42.5 -2.5q-26 0 -47.5 5t-37 18t-24 34.5t-8.5 53.5q0 19 4 40l8 41zM280 887q12 2 28.5 3t33.5 1q18 0 37 -1t30 -3l-145 -110q-10 -2 -25.5 -2.5t-31.5 -0.5q-14 0 -27.5 1t-21.5 3z" />
    <glyph glyph-name="Lcommaaccent" unicode="&#x13b;" horiz-adv-x="490" 
d="M218 719q12 2 25.5 3t27.5 1q13 0 25 -1t24 -3l-110 -629h268q-2 -26 -5 -47t-12 -43h-369zM222 -65q12 2 26 3t26 1q14 0 26 -1t26 -3l-84 -174q-11 -2 -23.5 -3t-23.5 -1t-22 1t-22 3z" />
    <glyph glyph-name="lcommaaccent" unicode="&#x13c;" horiz-adv-x="297" 
d="M173 527q10 56 15.5 96.5t6.5 72.5v19t-1 18q11 2 26.5 3t26.5 1q10 0 22.5 -1t23.5 -3q2 -9 2 -18v-19q0 -11 -1.5 -26.5t-3.5 -32.5t-5 -35t-6 -34l-78 -422q-3 -17 -3 -27q0 -16 4.5 -25.5t11.5 -14t15.5 -5.5t16.5 -1q9 0 20.5 2t19.5 4q9 -26 9 -62q0 -4 -0.5 -7.5
t-0.5 -6.5q-15 -5 -36.5 -7.5t-42.5 -2.5q-26 0 -47.5 5t-37 18t-24 34.5t-8.5 53.5q0 19 4 40l8 41zM123 -65q13 2 26.5 3t25.5 1q14 0 26 -1t26 -3l-84 -174q-11 -2 -23.5 -3t-23.5 -1t-22 1t-22 3z" />
    <glyph glyph-name="Lcaron" unicode="&#x13d;" horiz-adv-x="490" 
d="M218 719q12 2 25.5 3t27.5 1q13 0 25 -1t24 -3l-110 -629h268q-2 -26 -5 -47t-12 -43h-369zM431 722q6 1 19 1.5t31 0.5q12 0 25 -0.5t21 -1.5l-47 -202q-17 -3 -40 -3q-26 0 -44 3z" />
    <glyph glyph-name="lcaron" unicode="&#x13e;" horiz-adv-x="324" 
d="M173 527q10 56 15.5 96.5t6.5 72.5v19t-1 18q11 2 26.5 3t26.5 1q10 0 22.5 -1t23.5 -3q2 -9 2 -18v-19q0 -11 -1.5 -26.5t-3.5 -32.5t-5 -35t-6 -34l-78 -422q-3 -17 -3 -27q0 -16 4.5 -25.5t11.5 -14t15.5 -5.5t16.5 -1q9 0 20.5 2t19.5 4q9 -26 9 -62q0 -4 -0.5 -7.5
t-0.5 -6.5q-15 -5 -36.5 -7.5t-42.5 -2.5q-26 0 -47.5 5t-37 18t-24 34.5t-8.5 53.5q0 19 4 40l8 41zM372 735q6 1 19 1.5t31 0.5q12 0 25 -0.5t21 -1.5l-47 -202q-17 -3 -40 -3q-26 0 -44 3z" />
    <glyph glyph-name="Ldot" unicode="&#x13f;" horiz-adv-x="490" 
d="M218 719q12 2 25.5 3t27.5 1q13 0 25 -1t24 -3l-110 -629h268q-2 -26 -5 -47t-12 -43h-369zM384 305q0 29 4.5 55.5t12.5 52.5q14 2 30.5 3t28.5 1q11 0 26.5 -1t28.5 -3q-2 -56 -19 -108q-14 -1 -30 -1.5t-27 -0.5q-12 0 -28 0.5t-27 1.5z" />
    <glyph glyph-name="ldot" unicode="&#x140;" horiz-adv-x="332" 
d="M173 527q10 56 15.5 96.5t6.5 72.5v19t-1 18q11 2 26.5 3t26.5 1q10 0 22.5 -1t23.5 -3q2 -9 2 -18v-19q0 -11 -1.5 -26.5t-3.5 -32.5t-5 -35t-6 -34l-78 -422q-3 -17 -3 -27q0 -16 4.5 -25.5t11.5 -14t15.5 -5.5t16.5 -1q9 0 20.5 2t19.5 4q9 -26 9 -62q0 -4 -0.5 -7.5
t-0.5 -6.5q-15 -5 -36.5 -7.5t-42.5 -2.5q-26 0 -47.5 5t-37 18t-24 34.5t-8.5 53.5q0 19 4 40l8 41zM287 307q0 29 4.5 55.5t12.5 52.5q14 2 30.5 3t28.5 1q11 0 26.5 -1t28.5 -3q-2 -56 -19 -108q-14 -1 -30 -1.5t-27 -0.5q-12 0 -28 0.5t-27 1.5z" />
    <glyph glyph-name="Lslash" unicode="&#x141;" horiz-adv-x="489" 
d="M144 295l-93 -38q0 3 -0.5 6.5t-0.5 6.5q0 38 16 78l94 39l58 332q12 2 25 3t27 1t26 -1t24 -3l-54 -301l148 62q0 -5 0.5 -9t0.5 -9q0 -38 -14 -74l-150 -62l-42 -236h268q0 -26 -4 -47t-12 -43h-369z" />
    <glyph glyph-name="lslash" unicode="&#x142;" horiz-adv-x="303" 
d="M143 330l-71 -38q-1 5 -1 10v10q0 16 2.5 33.5t8.5 33.5l39 21l39 21q14 88 27.5 159.5t13.5 115.5q0 12 -0.5 19t-1.5 18q11 2 27 3t27 1q10 0 22.5 -1t22.5 -3q3 -18 3 -37q0 -20 -4 -50t-10 -62l-23 -125l75 41q1 -5 1 -10v-10q0 -35 -12 -68l-40.5 -22l-40.5 -22
l-32 -174q-4 -19 -7.5 -40t-3.5 -35q0 -16 4.5 -25.5t11.5 -14t15.5 -5.5t16.5 -1t20 2t20 4q4 -14 6 -30.5t2 -45.5q-12 -3 -29.5 -6.5t-37.5 -3.5q-39 0 -63.5 7.5t-38.5 22t-19.5 34.5t-5.5 44q0 20 3 43t8 49z" />
    <glyph glyph-name="Nacute" unicode="&#x143;" horiz-adv-x="669" 
d="M218 719q11 2 24.5 2.5t24.5 0.5q25 0 45 -3l202 -542l94 542l19.5 2t19.5 1h24l32 -3l-126 -719q-11 -2 -23.5 -2.5t-24.5 -0.5q-11 0 -22.5 0.5t-22.5 2.5l-203 539l-93 -539q-20 -3 -39 -3h-25l-32 3zM520 887q12 2 28.5 3t33.5 1q18 0 37 -1t30 -3l-145 -110
q-10 -2 -25.5 -2.5t-31.5 -0.5q-14 0 -27.5 1t-21.5 3z" />
    <glyph glyph-name="nacute" unicode="&#x144;" horiz-adv-x="575" 
d="M142 297q11 60 17.5 103t6.5 75q0 13 -0.5 20.5t-2.5 18.5q11 2 24 3t24 1q10 0 22.5 -1t22.5 -3q2 -8 3 -18.5t1 -27.5q0 -19 -2.5 -36t-5.5 -33q10 21 28 43.5t42 40.5t53.5 30t62.5 12q60 0 93.5 -32t33.5 -99q0 -15 -2 -33.5t-5 -35.5l-57 -325q-12 -2 -26 -3t-25 -1
t-24.5 1t-23.5 3l54 308q3 16 4.5 31t1.5 26q0 40 -18.5 57t-49.5 17q-27 0 -53 -16.5t-49 -48.5t-41.5 -79t-29.5 -108l-33 -187q-12 -2 -26 -3t-25 -1t-24.5 1t-23.5 3zM434 721q16 2 32 3t33 1t32 -1t30 -3l-124 -127q-11 -2 -24.5 -3t-28.5 -1q-11 0 -23 1t-24 3z" />
    <glyph glyph-name="Ncommaaccent" unicode="&#x145;" horiz-adv-x="669" 
d="M218 719q11 2 24.5 2.5t24.5 0.5q25 0 45 -3l202 -542l94 542l19.5 2t19.5 1h24l32 -3l-126 -719q-11 -2 -23.5 -2.5t-24.5 -0.5q-11 0 -22.5 0.5t-22.5 2.5l-203 539l-93 -539q-20 -3 -39 -3h-25l-32 3zM300 -65q12 2 26 3t26 1q14 0 26 -1t26 -3l-84 -174
q-11 -2 -23.5 -3t-23.5 -1t-22 1t-22 3z" />
    <glyph glyph-name="ncommaaccent" unicode="&#x146;" horiz-adv-x="575" 
d="M142 297q11 60 17.5 103t6.5 75q0 13 -0.5 20.5t-2.5 18.5q11 2 24 3t24 1q10 0 22.5 -1t22.5 -3q2 -8 3 -18.5t1 -27.5q0 -19 -2.5 -36t-5.5 -33q10 21 28 43.5t42 40.5t53.5 30t62.5 12q60 0 93.5 -32t33.5 -99q0 -15 -2 -33.5t-5 -35.5l-57 -325q-12 -2 -26 -3t-25 -1
t-24.5 1t-23.5 3l54 308q3 16 4.5 31t1.5 26q0 40 -18.5 57t-49.5 17q-27 0 -53 -16.5t-49 -48.5t-41.5 -79t-29.5 -108l-33 -187q-12 -2 -26 -3t-25 -1t-24.5 1t-23.5 3zM247 -65q13 2 26.5 3t25.5 1q14 0 26 -1t26 -3l-84 -174q-11 -2 -23.5 -3t-23.5 -1t-22 1t-22 3z" />
    <glyph glyph-name="Ncaron" unicode="&#x147;" horiz-adv-x="669" 
d="M218 719q11 2 24.5 2.5t24.5 0.5q25 0 45 -3l202 -542l94 542l19.5 2t19.5 1h24l32 -3l-126 -719q-11 -2 -23.5 -2.5t-24.5 -0.5q-11 0 -22.5 0.5t-22.5 2.5l-203 539l-93 -539q-20 -3 -39 -3h-25l-32 3zM344 889q11 2 23 3t25 1q11 0 25.5 -1t27.5 -3l39 -60l68 60
q13 2 29 3t28 1q14 0 27.5 -1t24.5 -3l-128 -110q-12 -2 -28 -3t-30 -1q-10 0 -25 1t-28 3z" />
    <glyph glyph-name="ncaron" unicode="&#x148;" horiz-adv-x="575" 
d="M142 297q11 60 17.5 103t6.5 75q0 13 -0.5 20.5t-2.5 18.5q11 2 24 3t24 1q10 0 22.5 -1t22.5 -3q2 -8 3 -18.5t1 -27.5q0 -19 -2.5 -36t-5.5 -33q10 21 28 43.5t42 40.5t53.5 30t62.5 12q60 0 93.5 -32t33.5 -99q0 -15 -2 -33.5t-5 -35.5l-57 -325q-12 -2 -26 -3t-25 -1
t-24.5 1t-23.5 3l54 308q3 16 4.5 31t1.5 26q0 40 -18.5 57t-49.5 17q-27 0 -53 -16.5t-49 -48.5t-41.5 -79t-29.5 -108l-33 -187q-12 -2 -26 -3t-25 -1t-24.5 1t-23.5 3zM272 720q20 5 45 5q12 0 27.5 -1.5t26.5 -3.5l44 -79l71 79q12 2 28 3.5t29 1.5q24 0 47 -5
l-122 -127q-13 -2 -31 -2.5t-32 -0.5q-11 0 -26.5 1t-29.5 3z" />
    <glyph glyph-name="napostrophe" unicode="&#x149;" horiz-adv-x="575" 
d="M142 297q11 60 17.5 103t6.5 75q0 13 -0.5 20.5t-2.5 18.5q11 2 24 3t24 1q10 0 22.5 -1t22.5 -3q2 -8 3 -18.5t1 -27.5q0 -19 -2.5 -36t-5.5 -33q10 21 28 43.5t42 40.5t53.5 30t62.5 12q60 0 93.5 -32t33.5 -99q0 -15 -2 -33.5t-5 -35.5l-57 -325q-12 -2 -26 -3t-25 -1
t-24.5 1t-23.5 3l54 308q3 16 4.5 31t1.5 26q0 40 -18.5 57t-49.5 17q-27 0 -53 -16.5t-49 -48.5t-41.5 -79t-29.5 -108l-33 -187q-12 -2 -26 -3t-25 -1t-24.5 1t-23.5 3zM193 733q8 2 20.5 3t26.5 1t28.5 -1t22.5 -3l-84 -163q-12 -2 -21.5 -3t-20.5 -1q-22 0 -41 4z" />
    <glyph glyph-name="Eng" unicode="&#x14a;" horiz-adv-x="670" 
d="M218 719q11 2 24.5 2.5t24.5 0.5q25 0 45 -3l202 -542l94 542l19.5 2t19.5 1h24l32 -3l-68.5 -393.5l-68.5 -392.5q-8 -50 -27 -83.5t-46.5 -54t-63 -29.5t-75.5 -9q-28 0 -50 3.5t-41 9.5q2 23 6 45.5t15 42.5q11 -4 28.5 -7.5t37.5 -3.5t38.5 3t34 13.5t26.5 30
t17 53.5l12 72l-99 260l-98 260l-93 -539q-20 -3 -39 -3h-25l-32 3z" />
    <glyph glyph-name="eng" unicode="&#x14b;" horiz-adv-x="575" 
d="M88 0l25.5 133t25 135.5t19 120t7.5 86.5q0 13 -0.5 20.5t-1.5 18.5q11 2 24 2.5t24 0.5q10 0 22 -0.5t23 -2.5q2 -8 3 -18.5t1 -27.5t-2.5 -33.5t-5.5 -31.5l-1 -5q10 21 28 43.5t42 40.5t53.5 30t62.5 12q60 0 93.5 -32t33.5 -99q0 -15 -2 -33t-5 -36l-69 -393
q-31 -175 -192 -175q-24 0 -45.5 3.5t-38.5 9.5q0 16 5.5 38t13.5 38q11 -4 27.5 -6.5t30.5 -2.5q37 0 64 21t38 80l65 371q2 15 3.5 30t2.5 26q0 38 -20.5 56t-48.5 18q-24 0 -51 -16.5t-52 -50t-44 -84t-28 -118.5l-31 -169q-20 -3 -41 -3h-25z" />
    <glyph glyph-name="Omacron" unicode="&#x14c;" horiz-adv-x="701" 
d="M349 -12q-60 0 -104.5 19t-74 53.5t-44 83.5t-14.5 108q0 92 24 178.5t70.5 153t114.5 107t155 40.5q60 0 105 -20t74 -55t43.5 -84t14.5 -107q0 -94 -24.5 -180t-71 -152t-114 -105.5t-154.5 -39.5zM360 76q59 0 104.5 34.5t77 90t48 125t16.5 138.5q0 81 -33.5 129
t-108.5 48q-60 0 -106 -34t-77 -89t-47 -124.5t-16 -140.5q0 -84 34.5 -130.5t107.5 -46.5zM355 801q0 36 12 66h284v-8q0 -17 -3 -35t-10 -35h-283v12z" />
    <glyph glyph-name="omacron" unicode="&#x14d;" horiz-adv-x="557" 
d="M276 -12q-93 0 -140 51.5t-47 145.5q0 55 17 115.5t52.5 110t89 82t126.5 32.5q94 0 141 -52t47 -146q0 -56 -17 -116t-52 -109.5t-89 -81.5t-128 -32zM286 67q47 0 80.5 25.5t54.5 64.5t31 84.5t10 85.5q0 57 -25.5 87t-72.5 30t-80 -26t-54 -65t-30.5 -84.5t-9.5 -84.5
q0 -57 24.5 -87t71.5 -30zM552 694q0 -20 -2.5 -38.5t-9.5 -39.5h-270q0 20 2 39t10 39h270z" />
    <glyph glyph-name="Obreve" unicode="&#x14e;" horiz-adv-x="701" 
d="M349 -12q-60 0 -104.5 19t-74 53.5t-44 83.5t-14.5 108q0 92 24 178.5t70.5 153t114.5 107t155 40.5q60 0 105 -20t74 -55t43.5 -84t14.5 -107q0 -94 -24.5 -180t-71 -152t-114 -105.5t-154.5 -39.5zM360 76q59 0 104.5 34.5t77 90t48 125t16.5 138.5q0 81 -33.5 129
t-108.5 48q-60 0 -106 -34t-77 -89t-47 -124.5t-16 -140.5q0 -84 34.5 -130.5t107.5 -46.5zM350 889q11 2 21 3.5t21 1.5t20.5 -1.5t20.5 -3.5q1 -11 3.5 -21t9.5 -17.5t19.5 -12t32.5 -4.5q19 0 32.5 3.5t22.5 10.5t15 17t11 24q12 2 22 3.5t22 1.5q11 0 20.5 -1.5
t19.5 -3.5q-9 -37 -28 -60.5t-42 -36.5t-49 -18t-50 -5q-26 0 -52 5.5t-46.5 19t-33 37t-12.5 58.5z" />
    <glyph glyph-name="obreve" unicode="&#x14f;" horiz-adv-x="557" 
d="M276 -12q-93 0 -140 51.5t-47 145.5q0 55 17 115.5t52.5 110t89 82t126.5 32.5q94 0 141 -52t47 -146q0 -56 -17 -116t-52 -109.5t-89 -81.5t-128 -32zM286 67q47 0 80.5 25.5t54.5 64.5t31 84.5t10 85.5q0 57 -25.5 87t-72.5 30t-80 -26t-54 -65t-30.5 -84.5t-9.5 -84.5
q0 -57 24.5 -87t71.5 -30zM252 722q10 3 21.5 4t22.5 1t19 -1t19 -4q0 -12 2.5 -24t10 -21.5t20 -16t32.5 -6.5q21 0 35 5.5t23 15t14 22t9 25.5q12 2 22 3.5t21 1.5t22 -1t21 -4q-9 -41 -27.5 -67t-41.5 -41t-50 -20.5t-54 -5.5q-25 0 -50 5.5t-45.5 20.5t-33 40t-12.5 64
v4z" />
    <glyph glyph-name="Ohungarumlaut" unicode="&#x150;" horiz-adv-x="701" 
d="M349 -12q-60 0 -104.5 19t-74 53.5t-44 83.5t-14.5 108q0 92 24 178.5t70.5 153t114.5 107t155 40.5q60 0 105 -20t74 -55t43.5 -84t14.5 -107q0 -94 -24.5 -180t-71 -152t-114 -105.5t-154.5 -39.5zM360 76q59 0 104.5 34.5t77 90t48 125t16.5 138.5q0 81 -33.5 129
t-108.5 48q-60 0 -106 -34t-77 -89t-47 -124.5t-16 -140.5q0 -84 34.5 -130.5t107.5 -46.5zM422 894q15 2 31.5 3t33.5 1t32.5 -1t29.5 -3l-128 -118q-11 -2 -24.5 -3t-28.5 -1q-12 0 -24 1t-24 3zM613 894q15 2 31.5 3t32.5 1q18 0 33.5 -1t29.5 -3l-128 -118
q-11 -2 -24.5 -3t-29.5 -1q-11 0 -23 1t-24 3z" />
    <glyph glyph-name="ohungarumlaut" unicode="&#x151;" horiz-adv-x="557" 
d="M276 -12q-93 0 -140 51.5t-47 145.5q0 55 17 115.5t52.5 110t89 82t126.5 32.5q94 0 141 -52t47 -146q0 -56 -17 -116t-52 -109.5t-89 -81.5t-128 -32zM286 67q47 0 80.5 25.5t54.5 64.5t31 84.5t10 85.5q0 57 -25.5 87t-72.5 30t-80 -26t-54 -65t-30.5 -84.5t-9.5 -84.5
q0 -57 24.5 -87t71.5 -30zM329 721q14 2 29.5 3t29.5 1q15 0 29.5 -1t29.5 -3l-112 -127q-11 -2 -24.5 -3t-27.5 -1q-11 0 -23 1t-24 3zM511 721q15 2 30 3t29 1q15 0 30 -1t29 -3l-112 -127q-11 -2 -24 -3t-28 -1q-24 0 -47 4z" />
    <glyph glyph-name="OE" unicode="&#x152;" horiz-adv-x="901" 
d="M873 89l-2 -24q0 -16 -4 -33t-9 -32h-392q-25 -5 -53.5 -8.5t-59.5 -3.5q-63 0 -108.5 19t-75 54t-44 84t-14.5 108q0 92 23 178t69 153t114 107t157 40q33 0 64.5 -3.5t57.5 -8.5h380q0 -20 -3.5 -43t-12.5 -47h-277l-36 -205h222q0 -21 -4 -44t-12 -46h-222l-43 -245
h285zM580 630q-23 8 -49 12t-60 4q-60 0 -107 -32.5t-79.5 -85t-49 -119t-16.5 -135.5q0 -98 34 -150.5t114 -52.5q40 0 69 5t49 14z" />
    <glyph glyph-name="oe" unicode="&#x153;" horiz-adv-x="855" 
d="M286 67q47 0 80.5 25.5t54.5 64.5t31 84.5t10 84.5q0 57 -25.5 87.5t-72.5 30.5t-80 -26t-54 -65t-30.5 -85t-9.5 -85q0 -57 25 -86.5t71 -29.5zM606 287q51 8 84.5 19.5t53 25t28 28.5t8.5 32q0 24 -16.5 39.5t-46.5 15.5q-32 0 -59 -14t-48 -37.5t-36 -54t-23 -63.5z
M543 204q2 -63 33.5 -99t95.5 -36q40 0 76.5 9.5t64.5 20.5q10 -15 13.5 -36t3.5 -42q-15 -7 -36.5 -13t-45 -10.5t-47.5 -7t-44 -2.5q-41 0 -71 8.5t-51.5 23.5t-35.5 35t-22 44q-30 -45 -81 -78t-125 -33q-88 0 -135 51t-47 146q0 55 17 115t52 110t88 82.5t125 32.5
q67 0 106.5 -33t53.5 -81q35 48 88 81t122 33q31 0 56.5 -9t43.5 -25t27.5 -38t9.5 -47q0 -44 -21.5 -76.5t-59.5 -55.5t-89.5 -38t-112.5 -24z" />
    <glyph glyph-name="Racute" unicode="&#x154;" horiz-adv-x="575" 
d="M219 720q38 6 73 8.5t69 2.5q45 0 88 -9t76.5 -30t53.5 -55.5t20 -86.5q0 -53 -17 -93t-42.5 -69.5t-56 -49.5t-56.5 -32l131 -306q-30 -3 -58 -3q-29 0 -54 3l-139 335l10 3q6 1 21.5 7t35 17t40.5 26.5t38.5 37t28.5 48t11 59.5q0 60 -34 86t-94 26q-16 0 -28.5 -1
t-28.5 -3l-113 -641q-12 -1 -25.5 -2t-26.5 -1q-12 0 -25.5 0.5t-24.5 2.5zM444 887q12 2 28.5 3t33.5 1q18 0 37 -1t30 -3l-145 -110q-10 -2 -25.5 -2.5t-31.5 -0.5q-14 0 -27.5 1t-21.5 3z" />
    <glyph glyph-name="racute" unicode="&#x155;" horiz-adv-x="365" 
d="M81 0q11 63 24.5 133t25 135.5t19.5 120t8 86.5q0 13 -0.5 20.5t-2.5 18.5q11 2 24 2.5t24 0.5q10 0 22.5 -0.5t22.5 -2.5q2 -8 3 -17.5t1 -26.5q0 -23 -3 -45q13 18 28.5 34t34.5 29t42 20.5t51 7.5q8 0 17.5 -1t15.5 -3q0 -20 -4.5 -45.5t-15.5 -43.5q-4 1 -12.5 2
t-16.5 1q-67 0 -108.5 -48t-59.5 -148l-41 -230q-21 -3 -41 -3h-25zM365 721q16 2 32 3t33 1t32 -1t30 -3l-124 -127q-11 -2 -24.5 -3t-28.5 -1q-11 0 -23 1t-24 3z" />
    <glyph glyph-name="Rcommaaccent" unicode="&#x156;" horiz-adv-x="575" 
d="M219 720q38 6 73 8.5t69 2.5q45 0 88 -9t76.5 -30t53.5 -55.5t20 -86.5q0 -53 -17 -93t-42.5 -69.5t-56 -49.5t-56.5 -32l131 -306q-30 -3 -58 -3q-29 0 -54 3l-139 335l10 3q6 1 21.5 7t35 17t40.5 26.5t38.5 37t28.5 48t11 59.5q0 60 -34 86t-94 26q-16 0 -28.5 -1
t-28.5 -3l-113 -641q-12 -1 -25.5 -2t-26.5 -1q-12 0 -25.5 0.5t-24.5 2.5zM270 -65q12 2 26 3t26 1q14 0 26 -1t26 -3l-84 -174q-11 -2 -23.5 -3t-23.5 -1t-22 1t-22 3z" />
    <glyph glyph-name="rcommaaccent" unicode="&#x157;" horiz-adv-x="365" 
d="M81 0q11 63 24.5 133t25 135.5t19.5 120t8 86.5q0 13 -0.5 20.5t-2.5 18.5q11 2 24 2.5t24 0.5q10 0 22.5 -0.5t22.5 -2.5q2 -8 3 -17.5t1 -26.5q0 -23 -3 -45q13 18 28.5 34t34.5 29t42 20.5t51 7.5q8 0 17.5 -1t15.5 -3q0 -20 -4.5 -45.5t-15.5 -43.5q-4 1 -12.5 2
t-16.5 1q-67 0 -108.5 -48t-59.5 -148l-41 -230q-21 -3 -41 -3h-25zM67 -65q13 2 26.5 3t25.5 1q14 0 26 -1t26 -3l-84 -174q-11 -2 -23.5 -3t-23.5 -1t-22 1t-22 3z" />
    <glyph glyph-name="Rcaron" unicode="&#x158;" horiz-adv-x="575" 
d="M219 720q38 6 73 8.5t69 2.5q45 0 88 -9t76.5 -30t53.5 -55.5t20 -86.5q0 -53 -17 -93t-42.5 -69.5t-56 -49.5t-56.5 -32l131 -306q-30 -3 -58 -3q-29 0 -54 3l-139 335l10 3q6 1 21.5 7t35 17t40.5 26.5t38.5 37t28.5 48t11 59.5q0 60 -34 86t-94 26q-16 0 -28.5 -1
t-28.5 -3l-113 -641q-12 -1 -25.5 -2t-26.5 -1q-12 0 -25.5 0.5t-24.5 2.5zM268 889q11 2 23 3t25 1q11 0 25.5 -1t27.5 -3l39 -60l68 60q13 2 29 3t28 1q14 0 27.5 -1t24.5 -3l-128 -110q-12 -2 -28 -3t-30 -1q-10 0 -25 1t-28 3z" />
    <glyph glyph-name="rcaron" unicode="&#x159;" horiz-adv-x="365" 
d="M81 0q11 63 24.5 133t25 135.5t19.5 120t8 86.5q0 13 -0.5 20.5t-2.5 18.5q11 2 24 2.5t24 0.5q10 0 22.5 -0.5t22.5 -2.5q2 -8 3 -17.5t1 -26.5q0 -23 -3 -45q13 18 28.5 34t34.5 29t42 20.5t51 7.5q8 0 17.5 -1t15.5 -3q0 -20 -4.5 -45.5t-15.5 -43.5q-4 1 -12.5 2
t-16.5 1q-67 0 -108.5 -48t-59.5 -148l-41 -230q-21 -3 -41 -3h-25zM189 720q20 5 45 5q12 0 27.5 -1.5t26.5 -3.5l44 -79l71 79q12 2 28 3.5t29 1.5q24 0 47 -5l-122 -127q-13 -2 -31 -2.5t-32 -0.5q-11 0 -26.5 1t-29.5 3z" />
    <glyph glyph-name="Sacute" unicode="&#x15a;" horiz-adv-x="532" 
d="M81 109q37 -13 73 -22t79 -9q85 0 130.5 37.5t45.5 100.5q0 41 -26.5 69t-80.5 57q-33 18 -60 36.5t-46 39.5t-29.5 47t-10.5 59q0 47 18 85t51.5 65t80.5 42t105 15q54 0 93 -8t74 -22q-4 -21 -11.5 -43t-20.5 -42q-26 12 -58.5 21t-74.5 9q-32 0 -59 -6t-47 -18
t-31.5 -31.5t-11.5 -46.5q0 -40 24 -66.5t74 -53.5q37 -20 66.5 -39t50 -41t31.5 -49t11 -63q0 -55 -20.5 -100t-58.5 -77t-92 -49.5t-122 -17.5q-55 0 -99 8.5t-81 22.5q8 44 33 90zM435 887q12 2 28.5 3t33.5 1q18 0 37 -1t30 -3l-145 -110q-10 -2 -25.5 -2.5t-31.5 -0.5
q-14 0 -27.5 1t-21.5 3z" />
    <glyph glyph-name="sacute" unicode="&#x15b;" horiz-adv-x="434" 
d="M214 241q-15 6 -32 15t-31 23t-23.5 35.5t-9.5 51.5q0 37 15 66.5t42 50t64.5 31.5t83.5 11q41 0 78 -9t58 -20q-8 -39 -29 -75q-17 8 -47 16.5t-64 8.5q-43 0 -71.5 -15t-28.5 -52q0 -23 13.5 -38.5t48.5 -29.5l22 -10l39.5 -19t37 -24.5t27 -35t10.5 -50.5
q0 -48 -18 -82.5t-49.5 -57t-73 -33.5t-89.5 -11q-40 0 -78.5 7t-63.5 18q2 22 7.5 42t16.5 38q26 -11 61 -17.5t65 -6.5q25 0 47 4.5t38 14t25.5 25.5t9.5 40q0 31 -18 46.5t-51 28.5zM342 721q16 2 32 3t33 1t32 -1t30 -3l-124 -127q-11 -2 -24.5 -3t-28.5 -1q-11 0 -23 1
t-24 3z" />
    <glyph glyph-name="Scircumflex" unicode="&#x15c;" horiz-adv-x="532" 
d="M81 109q37 -13 73 -22t79 -9q85 0 130.5 37.5t45.5 100.5q0 41 -26.5 69t-80.5 57q-33 18 -60 36.5t-46 39.5t-29.5 47t-10.5 59q0 47 18 85t51.5 65t80.5 42t105 15q54 0 93 -8t74 -22q-4 -21 -11.5 -43t-20.5 -42q-26 12 -58.5 21t-74.5 9q-32 0 -59 -6t-47 -18
t-31.5 -31.5t-11.5 -46.5q0 -40 24 -66.5t74 -53.5q37 -20 66.5 -39t50 -41t31.5 -49t11 -63q0 -55 -20.5 -100t-58.5 -77t-92 -49.5t-122 -17.5q-55 0 -99 8.5t-81 22.5q8 44 33 90zM376 889q13 2 29.5 3t30.5 1q10 0 24.5 -1t27.5 -3l82 -110q-11 -2 -23 -3t-25 -1
q-11 0 -24.5 1t-26.5 4l-45 60l-69 -61q-13 -2 -28.5 -3t-27.5 -1q-14 0 -27.5 1t-24.5 3z" />
    <glyph glyph-name="scircumflex" unicode="&#x15d;" horiz-adv-x="434" 
d="M214 241q-15 6 -32 15t-31 23t-23.5 35.5t-9.5 51.5q0 37 15 66.5t42 50t64.5 31.5t83.5 11q41 0 78 -9t58 -20q-8 -39 -29 -75q-17 8 -47 16.5t-64 8.5q-43 0 -71.5 -15t-28.5 -52q0 -23 13.5 -38.5t48.5 -29.5l22 -10l39.5 -19t37 -24.5t27 -35t10.5 -50.5
q0 -48 -18 -82.5t-49.5 -57t-73 -33.5t-89.5 -11q-40 0 -78.5 7t-63.5 18q2 22 7.5 42t16.5 38q26 -11 61 -17.5t65 -6.5q25 0 47 4.5t38 14t25.5 25.5t9.5 40q0 31 -18 46.5t-51 28.5zM288 721q12 2 28.5 3t30.5 1q11 0 28 -1t30 -4l74 -126q-9 -2 -20.5 -3t-24.5 -1
q-12 0 -26 1t-26 3l-41 79l-70 -79q-12 -2 -27.5 -3t-27.5 -1q-14 0 -28 1t-24 3z" />
    <glyph glyph-name="Scedilla" unicode="&#x15e;" horiz-adv-x="532" 
d="M229 -12q-45 0 -89 7t-92 24q8 43 33 89q37 -13 73 -21.5t79 -8.5q85 0 131 37t46 100q0 38 -22 65.5t-70 51.5q-37 19 -67.5 38.5t-52.5 42.5t-34 50t-12 61q0 46 17.5 84.5t50 65.5t79 42t105.5 15q54 0 93 -8.5t74 -22.5q-4 -20 -12 -42.5t-20 -42.5q-26 13 -59 22
t-74 9q-63 0 -104.5 -24t-41.5 -79q0 -40 25.5 -66t75.5 -53q37 -20 66.5 -39t50.5 -41.5t32 -49.5t11 -62q0 -98 -60.5 -161t-167.5 -78l-29 -50q5 1 9.5 1h11.5q42 0 64.5 -22t22.5 -56q0 -30 -12 -50.5t-32 -33t-45.5 -18t-52.5 -5.5q-31 0 -54.5 6.5t-34.5 12.5
q3 14 8.5 29t14.5 27q14 -5 32 -9.5t34 -4.5q10 0 21 1t21 4.5t16.5 11.5t6.5 22q0 19 -15.5 27t-42.5 8q-14 0 -27.5 -2t-27.5 -5l-5 5z" />
    <glyph glyph-name="scedilla" unicode="&#x15f;" horiz-adv-x="434" 
d="M177 -12q-38 2 -73.5 8.5t-58.5 16.5q2 22 7.5 42t16.5 38q26 -11 61 -17.5t65 -6.5q25 0 47 4.5t38 14t25.5 25.5t9.5 40q0 31 -18 46.5t-51 28.5l-32 13q-15 6 -32 15t-31 23t-23.5 35.5t-9.5 51.5q0 37 15 66.5t42 50t64.5 31.5t83.5 11q41 0 78 -9t58 -20
q-8 -39 -29 -75q-17 8 -47 16.5t-64 8.5q-43 0 -71.5 -15t-28.5 -52q0 -23 13.5 -38.5t48.5 -29.5l22 -10l39.5 -19t37 -24.5t27 -35t10.5 -50.5q0 -41 -13.5 -72.5t-37 -53.5t-56 -35.5t-70.5 -18.5l-28 -50q10 2 21 2q42 0 64.5 -22t22.5 -56q0 -31 -12 -51.5t-32 -33
t-45.5 -17.5t-52.5 -5q-31 0 -54.5 6t-34.5 13q2 13 8 28.5t14 26.5q15 -5 33 -9.5t33 -4.5q10 0 21.5 1t21.5 5t16.5 12t6.5 22q0 19 -15.5 26.5t-42.5 7.5q-14 0 -27.5 -2t-27.5 -5l-5 5z" />
    <glyph glyph-name="Scaron" unicode="&#x160;" horiz-adv-x="532" 
d="M81 109q37 -13 73 -22t79 -9q85 0 130.5 37.5t45.5 100.5q0 41 -26.5 69t-80.5 57q-33 18 -60 36.5t-46 39.5t-29.5 47t-10.5 59q0 47 18 85t51.5 65t80.5 42t105 15q54 0 93 -8t74 -22q-4 -21 -11.5 -43t-20.5 -42q-26 12 -58.5 21t-74.5 9q-32 0 -59 -6t-47 -18
t-31.5 -31.5t-11.5 -46.5q0 -40 24 -66.5t74 -53.5q37 -20 66.5 -39t50 -41t31.5 -49t11 -63q0 -55 -20.5 -100t-58.5 -77t-92 -49.5t-122 -17.5q-55 0 -99 8.5t-81 22.5q8 44 33 90zM283 889q11 2 23 3t25 1q11 0 25.5 -1t27.5 -3l39 -60l68 60q13 2 29 3t28 1
q14 0 27.5 -1t24.5 -3l-128 -110q-12 -2 -28 -3t-30 -1q-10 0 -25 1t-28 3z" />
    <glyph glyph-name="scaron" unicode="&#x161;" horiz-adv-x="434" 
d="M214 241q-15 6 -32 15t-31 23t-23.5 35.5t-9.5 51.5q0 37 15 66.5t42 50t64.5 31.5t83.5 11q41 0 78 -9t58 -20q-8 -39 -29 -75q-17 8 -47 16.5t-64 8.5q-43 0 -71.5 -15t-28.5 -52q0 -23 13.5 -38.5t48.5 -29.5l22 -10l39.5 -19t37 -24.5t27 -35t10.5 -50.5
q0 -48 -18 -82.5t-49.5 -57t-73 -33.5t-89.5 -11q-40 0 -78.5 7t-63.5 18q2 22 7.5 42t16.5 38q26 -11 61 -17.5t65 -6.5q25 0 47 4.5t38 14t25.5 25.5t9.5 40q0 31 -18 46.5t-51 28.5zM188 720q20 5 45 5q12 0 27.5 -1.5t26.5 -3.5l44 -79l71 79q12 2 28 3.5t29 1.5
q24 0 47 -5l-122 -127q-13 -2 -31 -2.5t-32 -0.5q-11 0 -26.5 1t-29.5 3z" />
    <glyph glyph-name="Tcommaaccent" unicode="&#x162;" horiz-adv-x="515" 
d="M313 630h-178q0 22 4 44t12 45h459q0 -23 -4 -44.5t-12 -44.5h-178l-110 -630q-26 -3 -53 -3q-13 0 -26 0.5t-24 2.5zM191 -65q12 2 26 3t26 1q14 0 26 -1t26 -3l-84 -174q-11 -2 -23.5 -3t-23.5 -1t-22 1t-22 3z" />
    <glyph glyph-name="tcommaaccent" unicode="&#x163;" horiz-adv-x="350" 
d="M171 434h-81q0 20 3 38.5t11 40.5h80q5 26 9 53t4 56v16q20 10 48 15t48 5q1 -9 1.5 -18t0.5 -19q0 -31 -8 -77l-6 -31h129q0 -22 -3 -40.5t-10 -38.5h-128l-39 -217q-5 -23 -9 -47.5t-4 -44.5q0 -30 15.5 -41.5t41.5 -11.5q17 0 31 2.5t28 6.5q3 -10 5 -22t2 -26v-14.5
t-1 -15.5q-13 -4 -34 -7.5t-45 -3.5q-32 0 -58.5 4.5t-45.5 17t-29.5 34t-10.5 56.5q0 19 3.5 40.5l7.5 44.5zM158 -65q13 2 26.5 3t25.5 1q14 0 26 -1t26 -3l-84 -174q-11 -2 -23.5 -3t-23.5 -1t-22 1t-22 3z" />
    <glyph glyph-name="Tcaron" unicode="&#x164;" horiz-adv-x="515" 
d="M313 630h-178q0 22 4 44t12 45h459q0 -23 -4 -44.5t-12 -44.5h-178l-110 -630q-26 -3 -53 -3q-13 0 -26 0.5t-24 2.5zM255 889q11 2 23 3t25 1q11 0 25.5 -1t27.5 -3l39 -60l68 60q13 2 29 3t28 1q14 0 27.5 -1t24.5 -3l-128 -110q-12 -2 -28 -3t-30 -1q-10 0 -25 1
t-28 3z" />
    <glyph glyph-name="tcaron" unicode="&#x165;" horiz-adv-x="350" 
d="M171 434h-81q0 20 3 38.5t11 40.5h80q5 26 9 53t4 56v16q20 10 48 15t48 5q1 -9 1.5 -18t0.5 -19q0 -31 -8 -77l-6 -31h129q0 -22 -3 -40.5t-10 -38.5h-128l-39 -217q-5 -23 -9 -47.5t-4 -44.5q0 -30 15.5 -41.5t41.5 -11.5q17 0 31 2.5t28 6.5q3 -10 5 -22t2 -26v-14.5
t-1 -15.5q-13 -4 -34 -7.5t-45 -3.5q-32 0 -58.5 4.5t-45.5 17t-29.5 34t-10.5 56.5q0 19 3.5 40.5l7.5 44.5zM387 769q6 1 19 1.5t31 0.5q12 0 25 -0.5t21 -1.5l-47 -202q-17 -3 -40 -3q-26 0 -44 3z" />
    <glyph glyph-name="Tbar" unicode="&#x166;" horiz-adv-x="515" 
d="M261 331h-114q0 19 2.5 37t10.5 38h114l39 224h-178q0 22 4 44t12 45h459q0 -23 -4 -44.5t-12 -44.5h-178l-40 -224h123q0 -19 -2.5 -37.5t-10.5 -37.5h-123l-57 -331q-26 -3 -53 -3q-13 0 -26 0.5t-24 2.5z" />
    <glyph glyph-name="tbar" unicode="&#x167;" horiz-adv-x="350" 
d="M138 251h-79q0 35 12 68h79l21 115h-81q0 20 3 38.5t11 40.5h80q5 26 9 53t4 56v16q20 10 48 15t48 5q1 -9 1.5 -18t0.5 -19q0 -31 -8 -77l-6 -31h129q0 -22 -3 -40.5t-10 -38.5h-128l-21 -115h129q0 -37 -12 -68h-129l-6 -34q-5 -23 -9 -47.5t-4 -44.5q0 -30 15.5 -41.5
t41.5 -11.5q17 0 31 2.5t28 6.5q3 -10 5 -22t2 -26v-14.5t-1 -15.5q-13 -4 -34 -7.5t-45 -3.5q-32 0 -58.5 4.5t-45.5 17t-29.5 34t-10.5 56.5q0 19 3.5 40.5l7.5 44.5z" />
    <glyph glyph-name="Utilde" unicode="&#x168;" horiz-adv-x="663" 
d="M212 719q13 2 26.5 3t26.5 1t25.5 -1t24.5 -3l-72 -408q-12 -69 -12 -117q0 -61 25.5 -87.5t88.5 -26.5q43 0 73.5 14.5t51.5 43.5t35 72.5t24 100.5l71 408q14 2 26.5 3t26.5 1q12 0 25.5 -1t24.5 -3l-76 -433q-13 -72 -34.5 -128t-56 -93.5t-85 -57t-121.5 -19.5
q-103 0 -153.5 49t-50.5 152q0 23 3 49t8 55zM311 848q19 20 45.5 35t58.5 15q21 0 38 -5.5t33 -12.5t32.5 -12.5t36.5 -5.5q17 0 30.5 5.5t33.5 22.5q8 -10 17.5 -26t11.5 -30q-20 -18 -46.5 -33t-58.5 -15q-21 0 -38 5.5t-33 12t-32.5 12t-34.5 5.5q-19 0 -32.5 -6
t-32.5 -21q-9 10 -18 25t-11 29z" />
    <glyph glyph-name="utilde" unicode="&#x169;" horiz-adv-x="568" 
d="M166 513q11 2 25.5 3t25.5 1t24 -1t24 -3l-54 -308q-6 -32 -6 -57q0 -40 18.5 -57t49.5 -17q27 0 53 16.5t49 48.5t41.5 79t29.5 108l33 187q12 2 26 3t25 1t24.5 -1t23.5 -3l-53 -297q-11 -60 -17.5 -103t-6.5 -75q0 -13 0.5 -20.5t1.5 -18.5q-11 -2 -23.5 -3t-23.5 -1
q-10 0 -22.5 1t-22.5 3q-4 13 -4 46q0 19 2.5 36t5.5 33q-10 -21 -28 -43.5t-42 -40.5t-53.5 -30t-62.5 -12q-60 0 -93.5 32t-33.5 99q0 15 2 33.5t5 35.5zM215 660q19 20 45.5 35t58.5 15q21 0 38 -5.5t33 -12t32.5 -12t36.5 -5.5q17 0 31 5t34 22q8 -10 17 -25.5t11 -30.5
q-19 -18 -46 -33t-59 -15q-21 0 -38 5.5t-33 12.5t-32.5 12.5t-34.5 5.5q-19 0 -32.5 -6.5t-32.5 -21.5q-9 10 -18 25t-11 29z" />
    <glyph glyph-name="Umacron" unicode="&#x16a;" horiz-adv-x="663" 
d="M212 719q13 2 26.5 3t26.5 1t25.5 -1t24.5 -3l-72 -408q-12 -69 -12 -117q0 -61 25.5 -87.5t88.5 -26.5q43 0 73.5 14.5t51.5 43.5t35 72.5t24 100.5l71 408q14 2 26.5 3t26.5 1q12 0 25.5 -1t24.5 -3l-76 -433q-13 -72 -34.5 -128t-56 -93.5t-85 -57t-121.5 -19.5
q-103 0 -153.5 49t-50.5 152q0 23 3 49t8 55zM328 801q0 36 12 66h284v-8q0 -17 -3 -35t-10 -35h-283v12z" />
    <glyph glyph-name="umacron" unicode="&#x16b;" horiz-adv-x="568" 
d="M166 513q11 2 25.5 3t25.5 1t24 -1t24 -3l-54 -308q-6 -32 -6 -57q0 -40 18.5 -57t49.5 -17q27 0 53 16.5t49 48.5t41.5 79t29.5 108l33 187q12 2 26 3t25 1t24.5 -1t23.5 -3l-53 -297q-11 -60 -17.5 -103t-6.5 -75q0 -13 0.5 -20.5t1.5 -18.5q-11 -2 -23.5 -3t-23.5 -1
q-10 0 -22.5 1t-22.5 3q-4 13 -4 46q0 19 2.5 36t5.5 33q-10 -21 -28 -43.5t-42 -40.5t-53.5 -30t-62.5 -12q-60 0 -93.5 32t-33.5 99q0 15 2 33.5t5 35.5zM537 694q0 -20 -2.5 -38.5t-9.5 -39.5h-270q0 20 2 39t10 39h270z" />
    <glyph glyph-name="Ubreve" unicode="&#x16c;" horiz-adv-x="663" 
d="M212 719q13 2 26.5 3t26.5 1t25.5 -1t24.5 -3l-72 -408q-12 -69 -12 -117q0 -61 25.5 -87.5t88.5 -26.5q43 0 73.5 14.5t51.5 43.5t35 72.5t24 100.5l71 408q14 2 26.5 3t26.5 1q12 0 25.5 -1t24.5 -3l-76 -433q-13 -72 -34.5 -128t-56 -93.5t-85 -57t-121.5 -19.5
q-103 0 -153.5 49t-50.5 152q0 23 3 49t8 55zM328 889q11 2 21 3.5t21 1.5t20.5 -1.5t20.5 -3.5q1 -11 3.5 -21t9.5 -17.5t19.5 -12t32.5 -4.5q19 0 32.5 3.5t22.5 10.5t15 17t11 24q12 2 22 3.5t22 1.5q11 0 20.5 -1.5t19.5 -3.5q-9 -37 -28 -60.5t-42 -36.5t-49 -18
t-50 -5q-26 0 -52 5.5t-46.5 19t-33 37t-12.5 58.5z" />
    <glyph glyph-name="ubreve" unicode="&#x16d;" horiz-adv-x="568" 
d="M166 513q11 2 25.5 3t25.5 1t24 -1t24 -3l-54 -308q-6 -32 -6 -57q0 -40 18.5 -57t49.5 -17q27 0 53 16.5t49 48.5t41.5 79t29.5 108l33 187q12 2 26 3t25 1t24.5 -1t23.5 -3l-53 -297q-11 -60 -17.5 -103t-6.5 -75q0 -13 0.5 -20.5t1.5 -18.5q-11 -2 -23.5 -3t-23.5 -1
q-10 0 -22.5 1t-22.5 3q-4 13 -4 46q0 19 2.5 36t5.5 33q-10 -21 -28 -43.5t-42 -40.5t-53.5 -30t-62.5 -12q-60 0 -93.5 32t-33.5 99q0 15 2 33.5t5 35.5zM249 722q10 3 21.5 4t22.5 1t19 -1t19 -4q0 -12 2.5 -24t10 -21.5t20 -16t32.5 -6.5q21 0 35 5.5t23 15t14 22
t9 25.5q12 2 22 3.5t21 1.5t22 -1t21 -4q-9 -41 -27.5 -67t-41.5 -41t-50 -20.5t-54 -5.5q-25 0 -50 5.5t-45.5 20.5t-33 40t-12.5 64v4z" />
    <glyph glyph-name="Uring" unicode="&#x16e;" horiz-adv-x="663" 
d="M212 719q13 2 26.5 3t26.5 1t25.5 -1t24.5 -3l-72 -408q-12 -69 -12 -117q0 -61 25.5 -87.5t88.5 -26.5q43 0 73.5 14.5t51.5 43.5t35 72.5t24 100.5l71 408q14 2 26.5 3t26.5 1q12 0 25.5 -1t24.5 -3l-76 -433q-13 -72 -34.5 -128t-56 -93.5t-85 -57t-121.5 -19.5
q-103 0 -153.5 49t-50.5 152q0 23 3 49t8 55zM478 784q27 0 42 21t15 50q0 24 -9.5 41t-35.5 17q-29 0 -44 -21t-15 -51q0 -25 10.5 -41t36.5 -16zM369 834q0 28 9.5 52t26 41.5t39.5 27.5t50 10q51 0 78 -30t27 -74q0 -28 -9.5 -51.5t-26 -41t-39.5 -27.5t-50 -10
q-52 0 -78.5 30t-26.5 73z" />
    <glyph glyph-name="uring" unicode="&#x16f;" horiz-adv-x="568" 
d="M166 513q11 2 25.5 3t25.5 1t24 -1t24 -3l-54 -308q-6 -32 -6 -57q0 -40 18.5 -57t49.5 -17q27 0 53 16.5t49 48.5t41.5 79t29.5 108l33 187q12 2 26 3t25 1t24.5 -1t23.5 -3l-53 -297q-11 -60 -17.5 -103t-6.5 -75q0 -13 0.5 -20.5t1.5 -18.5q-11 -2 -23.5 -3t-23.5 -1
q-10 0 -22.5 1t-22.5 3q-4 13 -4 46q0 19 2.5 36t5.5 33q-10 -21 -28 -43.5t-42 -40.5t-53.5 -30t-62.5 -12q-60 0 -93.5 32t-33.5 99q0 15 2 33.5t5 35.5zM298 681q0 24 8 45.5t23 38t36 26.5t47 10q45 0 71 -26.5t26 -72.5q0 -24 -8.5 -45.5t-24 -37t-36.5 -24.5t-46 -9
q-45 0 -70.5 26t-25.5 69zM399 637q23 0 36.5 17t13.5 46q0 23 -9.5 36.5t-31.5 13.5q-25 0 -38 -19t-13 -44q0 -23 10 -36.5t32 -13.5z" />
    <glyph glyph-name="Uhungarumlaut" unicode="&#x170;" horiz-adv-x="663" 
d="M212 719q13 2 26.5 3t26.5 1t25.5 -1t24.5 -3l-72 -408q-12 -69 -12 -117q0 -61 25.5 -87.5t88.5 -26.5q43 0 73.5 14.5t51.5 43.5t35 72.5t24 100.5l71 408q14 2 26.5 3t26.5 1q12 0 25.5 -1t24.5 -3l-76 -433q-13 -72 -34.5 -128t-56 -93.5t-85 -57t-121.5 -19.5
q-103 0 -153.5 49t-50.5 152q0 23 3 49t8 55zM417 894q15 2 31.5 3t33.5 1t32.5 -1t29.5 -3l-128 -118q-11 -2 -24.5 -3t-28.5 -1q-12 0 -24 1t-24 3zM608 894q15 2 31.5 3t32.5 1q18 0 33.5 -1t29.5 -3l-128 -118q-11 -2 -24.5 -3t-29.5 -1q-11 0 -23 1t-24 3z" />
    <glyph glyph-name="uhungarumlaut" unicode="&#x171;" horiz-adv-x="568" 
d="M166 513q11 2 25.5 3t25.5 1t24 -1t24 -3l-54 -308q-6 -32 -6 -57q0 -40 18.5 -57t49.5 -17q27 0 53 16.5t49 48.5t41.5 79t29.5 108l33 187q12 2 26 3t25 1t24.5 -1t23.5 -3l-53 -297q-11 -60 -17.5 -103t-6.5 -75q0 -13 0.5 -20.5t1.5 -18.5q-11 -2 -23.5 -3t-23.5 -1
q-10 0 -22.5 1t-22.5 3q-4 13 -4 46q0 19 2.5 36t5.5 33q-10 -21 -28 -43.5t-42 -40.5t-53.5 -30t-62.5 -12q-60 0 -93.5 32t-33.5 99q0 15 2 33.5t5 35.5zM322 721q14 2 29.5 3t29.5 1q15 0 29.5 -1t29.5 -3l-112 -127q-11 -2 -24.5 -3t-27.5 -1q-11 0 -23 1t-24 3z
M504 721q15 2 30 3t29 1q15 0 30 -1t29 -3l-112 -127q-11 -2 -24 -3t-28 -1q-24 0 -47 4z" />
    <glyph glyph-name="Uogonek" unicode="&#x172;" horiz-adv-x="663" 
d="M142 324l35 197l34 198q13 2 27 2.5t27 0.5q25 0 49 -3l-75 -430q-9 -54 -9 -95q0 -62 26 -88.5t88 -26.5q48 0 79 16.5t52 49.5t34 82t25 115l66 377q22 3 41 3h27l35 -3l-70 -401l-13 -64q-10 -50 -25.5 -89t-37.5 -70t-50.5 -54t-64.5 -42q-18 -10 -38.5 -25.5
t-38 -34t-28.5 -38t-11 -37.5q0 -39 47 -39q9 0 21.5 1.5t29.5 6.5q4 -10 6.5 -22t2.5 -25q0 -10 -1 -14q-17 -6 -41.5 -10t-48.5 -4q-23 0 -43 4.5t-35 14t-24 25.5t-9 39q0 21 8 41.5t21.5 39t30.5 35.5t36 31q-51 4 -89 16t-63 35t-37.5 59.5t-12.5 90.5q0 45 11 103z
" />
    <glyph glyph-name="uogonek" unicode="&#x173;" horiz-adv-x="568" 
d="M166 513q11 2 25.5 3t25.5 1t24 -1t24 -3l-54 -308q-6 -32 -6 -57q0 -40 18.5 -57t49.5 -17q27 0 53 16.5t49 48.5t41.5 79t29.5 108l33 187q12 2 26 3t25 1t24.5 -1t23.5 -3l-53 -297q-11 -60 -17.5 -103t-6.5 -75q0 -14 0.5 -22.5t1.5 -16.5l-30.5 -26.5t-33.5 -33.5
t-27 -38t-11 -38q0 -39 47 -39q8 0 20.5 1.5t29.5 6.5q10 -20 10 -46q0 -10 -1 -15q-17 -6 -41.5 -9.5t-48.5 -3.5q-23 0 -43 4.5t-35 14t-24 25.5t-9 39q0 47 31 85.5t74 72.5q-4 13 -4 46q0 19 2.5 36t5.5 33q-10 -21 -28 -43.5t-42 -40.5t-53.5 -30t-62.5 -12
q-60 0 -93.5 32t-33.5 99q0 15 2 33.5t5 35.5z" />
    <glyph glyph-name="Wcircumflex" unicode="&#x174;" horiz-adv-x="892" 
d="M159 719q14 2 31 2.5t34 0.5q22 0 42 -3l13 -586l236 586q13 2 28.5 2.5t28.5 0.5q11 0 25 -0.5t25 -2.5l39 -592l214 592q24 3 52 3q13 0 27 -0.5t25 -2.5l-284 -719q-12 -2 -28.5 -2.5t-30.5 -0.5t-30 0.5t-29 2.5l-39 551l-229 -551q-13 -2 -30.5 -2.5t-31.5 -0.5
q-12 0 -27.5 0.5t-26.5 2.5zM536 889q13 2 29.5 3t30.5 1q10 0 24.5 -1t27.5 -3l82 -110q-11 -2 -23 -3t-25 -1q-11 0 -24.5 1t-26.5 4l-45 60l-69 -61q-13 -2 -28.5 -3t-27.5 -1q-14 0 -27.5 1t-24.5 3z" />
    <glyph glyph-name="wcircumflex" unicode="&#x175;" horiz-adv-x="764" 
d="M108 513q14 2 27 3t27 1q29 0 52 -4l39 -398l160 398q11 2 24 3t24 1q13 0 25 -1t24 -3l49 -399l125 303q12 29 16.5 51.5t4.5 35.5v9q12 2 24.5 3t26.5 1q32 0 55 -4v-4q0 -22 -8.5 -46.5t-26.5 -61.5l-186 -401q-13 -2 -27.5 -3t-28.5 -1q-12 0 -25 1t-24 3l-50 369
l-152 -369q-13 -2 -27.5 -3t-27.5 -1q-12 0 -25.5 1t-24.5 3zM430 721q12 2 28.5 3t30.5 1q11 0 28 -1t30 -4l74 -126q-9 -2 -20.5 -3t-24.5 -1q-12 0 -26 1t-26 3l-41 79l-70 -79q-12 -2 -27.5 -3t-27.5 -1q-14 0 -28 1t-24 3z" />
    <glyph glyph-name="Ycircumflex" unicode="&#x176;" horiz-adv-x="549" 
d="M270 262l-137 457q14 2 32.5 2.5t35.5 0.5q21 0 41 -3l96 -353l206 353q27 3 57 3q13 0 27.5 -0.5t25.5 -2.5l-283 -460l-45 -259q-27 -3 -53 -3q-28 0 -50 3zM373 889q13 2 29.5 3t30.5 1q10 0 24.5 -1t27.5 -3l82 -110q-11 -2 -23 -3t-25 -1q-11 0 -24.5 1t-26.5 4
l-45 60l-69 -61q-13 -2 -28.5 -3t-27.5 -1q-14 0 -27.5 1t-24.5 3z" />
    <glyph glyph-name="ycircumflex" unicode="&#x177;" horiz-adv-x="500" 
d="M260 50l57 126l45.5 105l37 88l30.5 76q6 16 9 31t3 23q0 5 -0.5 8t-0.5 6q19 3 42 3h63q1 -4 1 -8v-8q0 -24 -10 -52t-22 -56l-96.5 -207.5l-115.5 -244.5q-28 -59 -54 -95t-51.5 -56t-51.5 -27t-56 -7q-35 0 -68 10q1 22 6 42t16 35q9 -3 22 -5.5t24 -2.5q15 0 31 4.5
t33.5 21.5t37.5 50t44 90q-8 -1 -17 -1h-18h-15t-14 1l-33.5 256l-33.5 257q14 2 25.5 3t25.5 1t27 -1t26 -3zM305 721q12 2 28.5 3t30.5 1q11 0 28 -1t30 -4l74 -126q-9 -2 -20.5 -3t-24.5 -1q-12 0 -26 1t-26 3l-41 79l-70 -79q-12 -2 -27.5 -3t-27.5 -1q-14 0 -28 1
t-24 3z" />
    <glyph glyph-name="Ydieresis" unicode="&#x178;" horiz-adv-x="549" 
d="M270 262l-137 457q14 2 32.5 2.5t35.5 0.5q21 0 41 -3l96 -353l206 353q27 3 57 3q13 0 27.5 -0.5t25.5 -2.5l-283 -460l-45 -259q-27 -3 -53 -3q-28 0 -50 3zM244 778q0 52 17 101q14 2 27.5 3t25.5 1q13 0 27 -1t25 -3q0 -52 -17 -101q-14 -2 -27.5 -3t-26.5 -1
q-12 0 -25.5 1t-25.5 3zM458 778q0 50 17 101q13 2 27 3t26 1q13 0 26.5 -1t25.5 -3q-2 -51 -17 -101q-14 -2 -27.5 -3t-26.5 -1q-12 0 -26 1t-25 3z" />
    <glyph glyph-name="Zacute" unicode="&#x179;" horiz-adv-x="530" 
d="M32 8l420 621h-291q0 47 16 90h438l4 -10l-419 -620h304q0 -25 -4 -47t-12 -42h-451zM425 887q12 2 28.5 3t33.5 1q18 0 37 -1t30 -3l-145 -110q-10 -2 -25.5 -2.5t-31.5 -0.5q-14 0 -27.5 1t-21.5 3z" />
    <glyph glyph-name="zacute" unicode="&#x17a;" horiz-adv-x="449" 
d="M31 14l321 420h-222q0 20 2.5 39t11.5 40h363l3 -13l-322 -422h243q0 -20 -3 -40.5t-11 -37.5h-383zM360 721q16 2 32 3t33 1t32 -1t30 -3l-124 -127q-11 -2 -24.5 -3t-28.5 -1q-11 0 -23 1t-24 3z" />
    <glyph glyph-name="Zdotaccent" unicode="&#x17b;" horiz-adv-x="530" 
d="M32 8l420 621h-291q0 47 16 90h438l4 -10l-419 -620h304q0 -25 -4 -47t-12 -42h-451zM344 773q0 29 4.5 55t12.5 53q14 2 30.5 3t28.5 1q11 0 26.5 -1t28.5 -3q-2 -56 -19 -108q-14 -1 -30 -1.5t-27 -0.5q-12 0 -28 0.5t-27 1.5z" />
    <glyph glyph-name="zdotaccent" unicode="&#x17c;" horiz-adv-x="449" 
d="M31 14l321 420h-222q0 20 2.5 39t11.5 40h363l3 -13l-322 -422h243q0 -20 -3 -40.5t-11 -37.5h-383zM276 607q0 29 4.5 55.5t12.5 52.5q14 2 30.5 3t28.5 1q11 0 26.5 -1t28.5 -3q-2 -56 -19 -108q-14 -1 -30 -1.5t-27 -0.5q-12 0 -28 0.5t-27 1.5z" />
    <glyph glyph-name="Zcaron" unicode="&#x17d;" horiz-adv-x="530" 
d="M32 8l420 621h-291q0 47 16 90h438l4 -10l-419 -620h304q0 -25 -4 -47t-12 -42h-451zM266 889q11 2 23 3t25 1q11 0 25.5 -1t27.5 -3l39 -60l68 60q13 2 29 3t28 1q14 0 27.5 -1t24.5 -3l-128 -110q-12 -2 -28 -3t-30 -1q-10 0 -25 1t-28 3z" />
    <glyph glyph-name="zcaron" unicode="&#x17e;" horiz-adv-x="449" 
d="M31 14l321 420h-222q0 20 2.5 39t11.5 40h363l3 -13l-322 -422h243q0 -20 -3 -40.5t-11 -37.5h-383zM201 718q20 5 45 5q12 0 27.5 -1.5t26.5 -3.5l44 -79l71 79q12 2 28 3.5t29 1.5q24 0 47 -5l-122 -127q-13 -2 -31 -2.5t-32 -0.5q-11 0 -26.5 1t-29.5 3z" />
    <glyph glyph-name="longs" unicode="&#x17f;" horiz-adv-x="346" 
d="M206 545q17 101 66.5 149.5t138.5 48.5q25 0 44.5 -3.5t35.5 -8.5q-6 -26 -12.5 -43.5t-16.5 -36.5q-11 4 -23 7t-28 3q-22 0 -39 -5.5t-30.5 -19t-23 -37t-15.5 -59.5l-94 -532q-14 -70 -31.5 -118t-42 -78t-59.5 -43t-83 -13q-45 0 -77 13q4 23 10 41.5t15 36.5
q11 -4 23.5 -6.5t25.5 -2.5q22 0 40 5.5t32 20.5t25 42.5t19 71.5z" />
    <glyph glyph-name="florin" unicode="&#x192;" horiz-adv-x="600" 
d="M307 387h-90q0 19 2.5 37.5t9.5 39.5h87l17 93q16 87 62 124.5t128 37.5q30 0 58 -6.5t42 -12.5q-3 -25 -8.5 -43t-15.5 -35q-12 5 -32 9.5t-40 4.5q-28 0 -46 -6.5t-30 -25t-20 -52t-16 -88.5h123q0 -19 -2 -37t-10 -40h-123l-56 -313q-9 -53 -24 -92t-38.5 -65.5
t-56.5 -39.5t-79 -13q-29 0 -51.5 4t-36.5 9q2 24 8 41.5t14 36.5q9 -3 23 -5.5t36 -2.5q21 0 38 5t30 17.5t22.5 34.5t15.5 56z" />
    <glyph glyph-name="Scommaaccent" unicode="&#x218;" horiz-adv-x="532" 
d="M81 109q37 -13 73 -22t79 -9q85 0 130.5 37.5t45.5 100.5q0 41 -26.5 69t-80.5 57q-33 18 -60 36.5t-46 39.5t-29.5 47t-10.5 59q0 47 18 85t51.5 65t80.5 42t105 15q54 0 93 -8t74 -22q-4 -21 -11.5 -43t-20.5 -42q-26 12 -58.5 21t-74.5 9q-32 0 -59 -6t-47 -18
t-31.5 -31.5t-11.5 -46.5q0 -40 24 -66.5t74 -53.5q37 -20 66.5 -39t50 -41t31.5 -49t11 -63q0 -55 -20.5 -100t-58.5 -77t-92 -49.5t-122 -17.5q-55 0 -99 8.5t-81 22.5q8 44 33 90zM215 -65q12 2 26 3t26 1q14 0 26 -1t26 -3l-84 -174q-11 -2 -23.5 -3t-23.5 -1t-22 1
t-22 3z" />
    <glyph glyph-name="scommaaccent" unicode="&#x219;" horiz-adv-x="434" 
d="M214 241q-15 6 -32 15t-31 23t-23.5 35.5t-9.5 51.5q0 37 15 66.5t42 50t64.5 31.5t83.5 11q41 0 78 -9t58 -20q-8 -39 -29 -75q-17 8 -47 16.5t-64 8.5q-43 0 -71.5 -15t-28.5 -52q0 -23 13.5 -38.5t48.5 -29.5l22 -10l39.5 -19t37 -24.5t27 -35t10.5 -50.5
q0 -48 -18 -82.5t-49.5 -57t-73 -33.5t-89.5 -11q-40 0 -78.5 7t-63.5 18q2 22 7.5 42t16.5 38q26 -11 61 -17.5t65 -6.5q25 0 47 4.5t38 14t25.5 25.5t9.5 40q0 31 -18 46.5t-51 28.5zM162 -65q13 2 26.5 3t25.5 1q14 0 26 -1t26 -3l-84 -174q-11 -2 -23.5 -3t-23.5 -1
t-22 1t-22 3z" />
    <glyph glyph-name="dotlessj" unicode="&#x237;" horiz-adv-x="288" 
d="M183 434h-63q0 17 3 37.5t11 41.5h159l-102 -582q-31 -175 -191 -175q-24 0 -45.5 3.5t-38.5 9.5q0 15 5.5 38t13.5 38q11 -4 27.5 -6.5t30.5 -2.5q37 0 64.5 22t37.5 79z" />
    <glyph glyph-name="apostrophe" unicode="&#x2bc;" horiz-adv-x="291" 
d="M243 733q8 2 20.5 3t26.5 1t28.5 -1t22.5 -3l-84 -163q-12 -2 -21.5 -3t-20.5 -1q-22 0 -41 4z" />
    <glyph glyph-name="circumflex" unicode="&#x2c6;" horiz-adv-x="499" 
d="M321 721q12 2 28.5 3t30.5 1q11 0 28 -1t30 -4l74 -126q-9 -2 -20.5 -3t-24.5 -1q-12 0 -26 1t-26 3l-41 79l-70 -79q-12 -2 -27.5 -3t-27.5 -1q-14 0 -28 1t-24 3z" />
    <glyph glyph-name="caron" unicode="&#x2c7;" horiz-adv-x="498" 
d="M217 720q20 5 45 5q12 0 27.5 -1.5t26.5 -3.5l44 -79l71 79q12 2 28 3.5t29 1.5q24 0 47 -5l-122 -127q-13 -2 -31 -2.5t-32 -0.5q-11 0 -26.5 1t-29.5 3z" />
    <glyph glyph-name="uni02C9" unicode="&#x2c9;" horiz-adv-x="500" 
d="M482 694q0 -20 -2.5 -38.5t-9.5 -39.5h-270q0 20 2 39t10 39h270z" />
    <glyph glyph-name="breve" unicode="&#x2d8;" horiz-adv-x="500" 
d="M217 722q10 3 21.5 4t22.5 1t19 -1t19 -4q0 -12 2.5 -24t10 -21.5t20 -16t32.5 -6.5q21 0 35 5.5t23 15t14 22t9 25.5q12 2 22 3.5t21 1.5t22 -1t21 -4q-9 -41 -27.5 -67t-41.5 -41t-50 -20.5t-54 -5.5q-25 0 -50 5.5t-45.5 20.5t-33 40t-12.5 64v4z" />
    <glyph glyph-name="dotaccent" unicode="&#x2d9;" horiz-adv-x="500" 
d="M273 607q0 29 4.5 55.5t12.5 52.5q14 2 30.5 3t28.5 1q11 0 26.5 -1t28.5 -3q-2 -56 -19 -108q-14 -1 -30 -1.5t-27 -0.5q-12 0 -28 0.5t-27 1.5z" />
    <glyph glyph-name="ring" unicode="&#x2da;" horiz-adv-x="502" 
d="M249 681q0 24 8 45.5t23 38t36 26.5t47 10q45 0 71 -26.5t26 -72.5q0 -24 -8.5 -45.5t-24 -37t-36.5 -24.5t-46 -9q-45 0 -70.5 26t-25.5 69zM350 637q23 0 36.5 17t13.5 46q0 23 -9.5 36.5t-31.5 13.5q-25 0 -38 -19t-13 -44q0 -23 10 -36.5t32 -13.5z" />
    <glyph glyph-name="ogonek" unicode="&#x2db;" horiz-adv-x="500" 
d="M351 0q-14 -10 -32 -25.5t-34 -34t-27.5 -38.5t-11.5 -39q0 -39 48 -39q8 0 20.5 1.5t29.5 6.5q5 -12 7.5 -28.5t0.5 -32.5q-17 -6 -41 -9.5t-49 -3.5q-22 0 -42 4.5t-35.5 14t-24.5 25.5t-9 39t10 45t25.5 42.5t36 38.5t41.5 33h87z" />
    <glyph glyph-name="tilde" unicode="&#x2dc;" horiz-adv-x="500" 
d="M183 660q19 20 45.5 35t58.5 15q21 0 38 -5.5t33 -12t32.5 -12t36.5 -5.5q17 0 31 5t34 22q8 -10 17 -25.5t11 -30.5q-19 -18 -46 -33t-59 -15q-21 0 -38 5.5t-33 12.5t-32.5 12.5t-34.5 5.5q-19 0 -32.5 -6.5t-32.5 -21.5q-9 10 -18 25t-11 29z" />
    <glyph glyph-name="hungarumlaut" unicode="&#x2dd;" horiz-adv-x="500" 
d="M279 721q14 2 29.5 3t29.5 1q15 0 29.5 -1t29.5 -3l-112 -127q-11 -2 -24.5 -3t-27.5 -1q-11 0 -23 1t-24 3zM461 721q15 2 30 3t29 1q15 0 30 -1t29 -3l-112 -127q-11 -2 -24 -3t-28 -1q-24 0 -47 4z" />
    <glyph glyph-name="pi" unicode="&#x3c0;" horiz-adv-x="706" 
d="M255 432h-7q-32 0 -61.5 -11t-49.5 -27q-10 13 -18.5 29t-11.5 32q29 29 72.5 43.5t92.5 14.5h467q-1 -20 -4.5 -40t-9.5 -41h-120l-44 -262q-2 -12 -3.5 -24t-1.5 -20q0 -31 12 -42.5t38 -11.5q15 0 29 2.5t26 6.5q3 -14 5.5 -28t2.5 -29v-10t-1 -10q-19 -6 -44.5 -9.5
t-46.5 -3.5q-120 0 -120 114q0 11 1.5 25.5t3.5 27.5l45 274h-156l-72 -432q-11 -2 -24.5 -3t-24.5 -1t-24.5 1t-22.5 3z" />
    <glyph glyph-name="Wgrave" unicode="&#x1e80;" horiz-adv-x="892" 
d="M159 719q14 2 31 2.5t34 0.5q22 0 42 -3l13 -586l236 586q13 2 28.5 2.5t28.5 0.5q11 0 25 -0.5t25 -2.5l39 -592l214 592q24 3 52 3q13 0 27 -0.5t25 -2.5l-284 -719q-12 -2 -28.5 -2.5t-30.5 -0.5t-30 0.5t-29 2.5l-39 551l-229 -551q-13 -2 -30.5 -2.5t-31.5 -0.5
q-12 0 -27.5 0.5t-26.5 2.5zM442 891q12 2 31.5 3t38.5 1q17 0 33 -1t27 -3l91 -113q-8 -2 -22 -3.5t-28 -1.5q-16 0 -29 1t-22 3z" />
    <glyph glyph-name="wgrave" unicode="&#x1e81;" horiz-adv-x="763" 
d="M108 513q14 2 27 3t27 1q29 0 52 -4l39 -398l160 398q11 2 24 3t24 1q13 0 25 -1t24 -3l49 -399l125 303q12 29 16.5 51.5t4.5 35.5v9q12 2 24.5 3t26.5 1q32 0 55 -4v-4q0 -22 -8.5 -46.5t-26.5 -61.5l-186 -401q-13 -2 -27.5 -3t-28.5 -1q-12 0 -25 1t-24 3l-50 369
l-152 -369q-13 -2 -27.5 -3t-27.5 -1q-12 0 -25.5 1t-24.5 3zM343 721q15 2 30 3t32 1t33.5 -1t31.5 -3l92 -127q-23 -4 -48 -4q-15 0 -28 1t-24 3z" />
    <glyph glyph-name="Wacute" unicode="&#x1e82;" horiz-adv-x="892" 
d="M159 719q14 2 31 2.5t34 0.5q22 0 42 -3l13 -586l236 586q13 2 28.5 2.5t28.5 0.5q11 0 25 -0.5t25 -2.5l39 -592l214 592q24 3 52 3q13 0 27 -0.5t25 -2.5l-284 -719q-12 -2 -28.5 -2.5t-30.5 -0.5t-30 0.5t-29 2.5l-39 551l-229 -551q-13 -2 -30.5 -2.5t-31.5 -0.5
q-12 0 -27.5 0.5t-26.5 2.5zM597 887q12 2 28.5 3t33.5 1q18 0 37 -1t30 -3l-145 -110q-10 -2 -25.5 -2.5t-31.5 -0.5q-14 0 -27.5 1t-21.5 3z" />
    <glyph glyph-name="wacute" unicode="&#x1e83;" horiz-adv-x="764" 
d="M108 513q14 2 27 3t27 1q29 0 52 -4l39 -398l160 398q11 2 24 3t24 1q13 0 25 -1t24 -3l49 -399l125 303q12 29 16.5 51.5t4.5 35.5v9q12 2 24.5 3t26.5 1q32 0 55 -4v-4q0 -22 -8.5 -46.5t-26.5 -61.5l-186 -401q-13 -2 -27.5 -3t-28.5 -1q-12 0 -25 1t-24 3l-50 369
l-152 -369q-13 -2 -27.5 -3t-27.5 -1q-12 0 -25.5 1t-24.5 3zM478 721q16 2 32 3t33 1t32 -1t30 -3l-124 -127q-11 -2 -24.5 -3t-28.5 -1q-11 0 -23 1t-24 3z" />
    <glyph glyph-name="Wdieresis" unicode="&#x1e84;" horiz-adv-x="892" 
d="M159 719q14 2 31 2.5t34 0.5q22 0 42 -3l13 -586l236 586q13 2 28.5 2.5t28.5 0.5q11 0 25 -0.5t25 -2.5l39 -592l214 592q24 3 52 3q13 0 27 -0.5t25 -2.5l-284 -719q-12 -2 -28.5 -2.5t-30.5 -0.5t-30 0.5t-29 2.5l-39 551l-229 -551q-13 -2 -30.5 -2.5t-31.5 -0.5
q-12 0 -27.5 0.5t-26.5 2.5zM416 778q0 52 17 101q14 2 27.5 3t25.5 1q13 0 27 -1t25 -3q0 -52 -17 -101q-14 -2 -27.5 -3t-26.5 -1q-12 0 -25.5 1t-25.5 3zM630 778q0 50 17 101q13 2 27 3t26 1q13 0 26.5 -1t25.5 -3q-2 -51 -17 -101q-14 -2 -27.5 -3t-26.5 -1
q-12 0 -26 1t-25 3z" />
    <glyph glyph-name="wdieresis" unicode="&#x1e85;" horiz-adv-x="764" 
d="M108 513q14 2 27 3t27 1q29 0 52 -4l39 -398l160 398q11 2 24 3t24 1q13 0 25 -1t24 -3l49 -399l125 303q12 29 16.5 51.5t4.5 35.5v9q12 2 24.5 3t26.5 1q32 0 55 -4v-4q0 -22 -8.5 -46.5t-26.5 -61.5l-186 -401q-13 -2 -27.5 -3t-28.5 -1q-12 0 -25 1t-24 3l-50 369
l-152 -369q-13 -2 -27.5 -3t-27.5 -1q-12 0 -25.5 1t-24.5 3zM314 604q1 26 5 50.5t13 49.5q13 2 26.5 3t24.5 1t25 -1t26 -3q-1 -26 -5 -50.5t-13 -49.5q-26 -3 -51 -3q-11 0 -25 0.5t-26 2.5zM518 604q1 26 4.5 50.5t13.5 49.5q12 2 25.5 3t25.5 1q11 0 25 -1t26 -3
q-2 -26 -6 -50t-12 -50q-26 -3 -51 -3q-11 0 -25 0.5t-26 2.5z" />
    <glyph glyph-name="Ygrave" unicode="&#x1ef2;" horiz-adv-x="549" 
d="M270 262l-137 457q14 2 32.5 2.5t35.5 0.5q21 0 41 -3l96 -353l206 353q27 3 57 3q13 0 27.5 -0.5t25.5 -2.5l-283 -460l-45 -259q-27 -3 -53 -3q-28 0 -50 3zM252 891q12 2 31.5 3t38.5 1q17 0 33 -1t27 -3l91 -113q-8 -2 -22 -3.5t-28 -1.5q-16 0 -29 1t-22 3z" />
    <glyph glyph-name="ygrave" unicode="&#x1ef3;" horiz-adv-x="500" 
d="M260 50l57 126l45.5 105l37 88l30.5 76q6 16 9 31t3 23q0 5 -0.5 8t-0.5 6q19 3 42 3h63q1 -4 1 -8v-8q0 -24 -10 -52t-22 -56l-96.5 -207.5l-115.5 -244.5q-28 -59 -54 -95t-51.5 -56t-51.5 -27t-56 -7q-35 0 -68 10q1 22 6 42t16 35q9 -3 22 -5.5t24 -2.5q15 0 31 4.5
t33.5 21.5t37.5 50t44 90q-8 -1 -17 -1h-18h-15t-14 1l-33.5 256l-33.5 257q14 2 25.5 3t25.5 1t27 -1t26 -3zM193 721q15 2 30 3t32 1t33.5 -1t31.5 -3l92 -127q-23 -4 -48 -4q-15 0 -28 1t-24 3z" />
    <glyph glyph-name="endash" unicode="&#x2013;" horiz-adv-x="500" 
d="M557 326q0 -46 -16 -91h-499q0 26 3.5 47t11.5 44h500z" />
    <glyph glyph-name="emdash" unicode="&#x2014;" horiz-adv-x="1000" 
d="M1054 326q0 -46 -16 -91h-999q0 47 15 91h1000z" />
    <glyph glyph-name="quoteleft" unicode="&#x2018;" horiz-adv-x="236" 
d="M141 718q12 2 25 3t25 1q25 0 49 -3l60 -224q-20 -4 -46 -4q-12 0 -24.5 1t-25.5 3z" />
    <glyph glyph-name="quoteright" unicode="&#x2019;" horiz-adv-x="235" 
d="M224 718q23 4 49 4q13 0 26 -1t24 -3l-99 -223q-14 -3 -26.5 -3.5t-23.5 -0.5q-13 0 -24.5 0.5t-22.5 3.5z" />
    <glyph glyph-name="quotesinglbase" unicode="&#x201a;" horiz-adv-x="236" 
d="M106 109q13 3 25 4t24 1q13 0 26 -1t24 -4l-98 -221q-13 -2 -25.5 -3t-23.5 -1q-27 0 -47 4z" />
    <glyph glyph-name="quotedblleft" unicode="&#x201c;" horiz-adv-x="424" 
d="M329 718q12 2 25 3t25 1q25 0 49 -3l60 -224q-20 -4 -46 -4q-12 0 -24.5 1t-25.5 3zM141 718q12 2 25 3t25 1q25 0 49 -3l60 -224q-20 -4 -46 -4q-12 0 -24.5 1t-25.5 3z" />
    <glyph glyph-name="quotedblright" unicode="&#x201d;" horiz-adv-x="423" 
d="M412 718q23 4 49 4q13 0 26 -1t24 -3l-99 -223q-14 -3 -26.5 -3.5t-23.5 -0.5q-13 0 -24.5 0.5t-22.5 3.5zM224 718q23 4 49 4q13 0 26 -1t24 -3l-99 -223q-14 -3 -26.5 -3.5t-23.5 -0.5q-13 0 -24.5 0.5t-22.5 3.5z" />
    <glyph glyph-name="quotedblbase" unicode="&#x201e;" horiz-adv-x="424" 
d="M294 109q13 3 25 4t24 1q13 0 26 -1t24 -4l-98 -221q-13 -2 -25.5 -3t-23.5 -1q-27 0 -47 4zM106 109q13 3 25 4t24 1q13 0 26 -1t24 -4l-98 -221q-13 -2 -25.5 -3t-23.5 -1q-27 0 -47 4z" />
    <glyph glyph-name="dagger" unicode="&#x2020;" horiz-adv-x="491" 
d="M262 369h-144q0 43 15 88h144l46 262q11 2 23.5 3t24.5 1q13 0 25 -1t23 -3l-46 -262h144q0 -44 -16 -88h-143l-95 -540q-20 -4 -48 -4q-29 0 -48 4z" />
    <glyph glyph-name="daggerdbl" unicode="&#x2021;" horiz-adv-x="491" 
d="M210 73h-144q0 22 4 44.5t12 44.5h144l42 245h-144q1 45 16 89h144l39 223q11 2 23.5 3t24.5 1q13 0 25 -1t23 -3l-39 -223h143q2 -22 -2.5 -44.5t-12.5 -44.5h-144l-42 -245h143q0 -47 -15 -89h-144l-43 -244q-20 -4 -48 -4q-29 0 -48 4z" />
    <glyph glyph-name="bullet" unicode="&#x2022;" horiz-adv-x="407" 
d="M132 348q0 26 10 49.5t27.5 41t41 27.5t50.5 10q26 0 49.5 -10t41 -27.5t27.5 -41t10 -49.5q0 -27 -10 -50.5t-27.5 -41t-41 -27.5t-49.5 -10q-27 0 -50.5 10t-41 27.5t-27.5 41t-10 50.5z" />
    <glyph glyph-name="ellipsis" unicode="&#x2026;" horiz-adv-x="727" 
d="M307 0q0 28 5.5 55.5t13.5 55.5q14 2 28 3t28 1t28 -1t27 -3q0 -29 -5 -55.5t-13 -55.5q-16 -2 -29.5 -3t-27.5 -1t-27.5 1t-27.5 3zM553 0q0 28 5.5 55.5t13.5 55.5q14 2 28 3t28 1t28 -1t27 -3q0 -29 -5 -55.5t-13 -55.5q-16 -2 -29.5 -3t-27.5 -1t-27.5 1t-27.5 3z
M61 0q0 28 5.5 55.5t13.5 55.5q14 2 28 3t28 1t28 -1t27 -3q0 -29 -5 -55.5t-13 -55.5q-16 -2 -29.5 -3t-27.5 -1t-27.5 1t-27.5 3z" />
    <glyph glyph-name="perthousand" unicode="&#x2030;" horiz-adv-x="1383" 
d="M762 708q12 2 27 3t28 1t27 -1t25 -3l-554 -707q-14 -2 -26 -3t-24 -1q-13 0 -28.5 1t-27.5 3zM760 61q30 0 51 17.5t34.5 44.5t20 58.5t6.5 59.5q0 99 -69 99q-30 0 -50.5 -18t-34 -45t-19.5 -59t-6 -60q0 -97 67 -97zM751 -11q-78 0 -114.5 47t-36.5 119q0 47 13 93
t39.5 83t66.5 59.5t94 22.5q39 0 68 -12.5t47.5 -34.5t27.5 -53t9 -67q0 -50 -14 -96t-41 -82t-67 -57.5t-92 -21.5zM1175 61q30 0 51 17.5t34.5 44.5t20 58.5t6.5 59.5q0 99 -69 99q-30 0 -50.5 -18t-34 -45t-19.5 -59t-6 -60q0 -97 67 -97zM1166 -11q-78 0 -114.5 47
t-36.5 119q0 47 13 93t39.5 83t66.5 59.5t94 22.5q39 0 68 -12.5t47.5 -34.5t27.5 -53t9 -67q0 -50 -14 -96t-41 -82t-67 -57.5t-92 -21.5zM274 367q30 0 51 17.5t34.5 44.5t20 58.5t6.5 59.5q0 99 -69 99q-30 0 -50.5 -18t-34 -45t-19.5 -59t-6 -60q0 -97 67 -97zM265 295
q-78 0 -114.5 47t-36.5 119q0 47 13 93t39.5 83t66.5 59.5t94 22.5q39 0 68 -12.5t47.5 -34.5t27.5 -53t9 -67q0 -50 -14 -96t-41 -82t-67 -57.5t-92 -21.5z" />
    <glyph glyph-name="guilsinglleft" unicode="&#x2039;" horiz-adv-x="348" 
d="M86 271l209 217q12 2 27 3t28 1q14 0 30 -1t30 -3l-211 -223l129 -220q-14 -2 -28 -3t-28 -1q-13 0 -25.5 1t-24.5 3z" />
    <glyph glyph-name="guilsinglright" unicode="&#x203a;" horiz-adv-x="369" 
d="M259 273l-131 215q14 2 28 3t28 1q13 0 25.5 -1t24.5 -3l136 -228l-210 -215q-12 -2 -26.5 -3t-28.5 -1t-29.5 1t-29.5 3z" />
    <glyph glyph-name="fraction" unicode="&#x2044;" horiz-adv-x="220" 
d="M333 708q12 2 27 3t28 1t27 -1t25 -3l-554 -707q-14 -2 -26 -3t-24 -1q-13 0 -28.5 1t-27.5 3z" />
    <glyph glyph-name="zerosuperior" unicode="&#x2070;" 
d="M276 367q30 0 51 17.5t34.5 44.5t20 58.5t6.5 59.5q0 99 -69 99q-30 0 -50.5 -18t-34 -45t-19.5 -59t-6 -60q0 -97 67 -97zM267 295q-78 0 -114.5 47t-36.5 119q0 47 13 93t39.5 83t66.5 59.5t94 22.5q39 0 68 -12.5t47.5 -34.5t27.5 -53t9 -67q0 -50 -14 -96t-41 -82
t-67 -57.5t-92 -21.5z" />
    <glyph glyph-name="foursuperior" unicode="&#x2074;" 
d="M105 397l213 324q20 -3 38.5 -10t31.5 -16l-162 -244h98l15 82q9 2 17.5 2.5t19.5 0.5q20 0 37 -3l-14 -82h46q0 -15 -2.5 -33.5t-8.5 -33.5h-46l-14 -79q-8 -1 -16 -1.5t-18 -0.5q-11 0 -20 0.5t-20 2.5l13 78h-203z" />
    <glyph glyph-name="fivesuperior" unicode="&#x2075;" 
d="M183 501l45 205h229q0 -36 -12 -69h-160l-19 -78q10 2 22.5 4t26.5 2q25 0 47 -7t38.5 -20.5t26 -34.5t9.5 -49q0 -44 -15.5 -74t-42 -49.5t-60.5 -28t-70 -8.5q-41 0 -75.5 7.5t-53.5 17.5q5 18 11 34t20 34q20 -9 43.5 -15.5t51.5 -6.5q21 0 39.5 3.5t32.5 12.5
t22.5 24t8.5 38q0 26 -17 43.5t-56 17.5q-21 0 -39.5 -3.5t-41.5 -11.5z" />
    <glyph glyph-name="sixsuperior" unicode="&#x2076;" 
d="M221 527q21 18 51 32.5t65 14.5q48 0 78.5 -30t30.5 -81q0 -38 -15 -69t-39.5 -53t-58 -34.5t-71.5 -12.5q-71 0 -104.5 39.5t-33.5 103.5q0 60 22 110t60 87t90 60t114 29l4.5 -20.5t2.5 -23.5t-3 -22q-27 -2 -54.5 -10t-53.5 -23.5t-48 -39.5t-37 -57zM271 361
q36 0 61 25t25 65q0 32 -16 45.5t-42 13.5q-16 0 -31.5 -6.5t-28 -17.5t-20.5 -27.5t-8 -35.5q0 -62 60 -62z" />
    <glyph glyph-name="sevensuperior" unicode="&#x2077;" 
d="M371 637h-179q0 18 3.5 35.5t8.5 34.5h292l4 -9l-245 -402q-23 5 -41 13t-35 19z" />
    <glyph glyph-name="eightsuperior" unicode="&#x2078;" 
d="M375 520q12 -7 24 -15.5t21.5 -20t16 -26t6.5 -32.5q0 -32 -16 -56.5t-41.5 -41t-58 -25t-65.5 -8.5q-29 0 -54.5 6t-44.5 18t-30.5 30.5t-11.5 44.5q0 22 9 41t23.5 34.5t33 28.5t38.5 22q-22 14 -35 34t-13 47q0 29 13 51.5t34 37.5t48.5 22.5t57.5 7.5
q57 0 91.5 -25.5t34.5 -68.5q0 -32 -24.5 -60.5t-56.5 -45.5zM284 487q-12 -5 -25.5 -11.5t-25.5 -16t-19.5 -22.5t-7.5 -30q0 -20 17 -34t50 -14q13 0 27.5 3.5t26.5 10.5t20 18.5t8 28.5q0 13 -6.5 23.5t-17 18.5t-23 14.5t-24.5 10.5zM313 549q22 8 42.5 24.5t20.5 43.5
q0 17 -13.5 29t-39.5 12q-25 0 -46 -12t-21 -41q0 -22 19.5 -35.5t37.5 -20.5z" />
    <glyph glyph-name="ninesuperior" unicode="&#x2079;" 
d="M167 294q-3 11 -5 22t-2 22q0 12 3 24q27 2 55 9.5t54 22.5t47.5 38t36.5 56q-23 -20 -50 -32t-62 -12q-50 0 -81 31.5t-31 84.5q0 37 14.5 67t38.5 51.5t56 33t68 11.5q75 0 110 -41t35 -107q0 -59 -21.5 -108.5t-60 -86t-91 -59t-114.5 -27.5zM279 507q16 0 31.5 6
t27.5 17.5t20 27t8 34.5q0 31 -16 48.5t-48 17.5q-34 0 -59 -24t-25 -64q0 -63 61 -63z" />
    <glyph glyph-name="zeroinferior" unicode="&#x2080;" 
d="M236 62q30 0 51 17.5t34.5 44.5t20 58.5t6.5 59.5q0 99 -69 99q-30 0 -50.5 -18t-34 -45t-19.5 -59t-6 -60q0 -97 67 -97zM227 -10q-78 0 -114.5 47t-36.5 119q0 47 13 93t39.5 83t66.5 59.5t94 22.5q39 0 68 -12.5t47.5 -34.5t27.5 -53t9 -67q0 -50 -14 -96t-41 -82
t-67 -57.5t-92 -21.5z" />
    <glyph glyph-name="oneinferior" unicode="&#x2081;" 
d="M226 72l40 228l-94 -38q-20 27 -23 65l194 79h26l-58 -334h92q0 -18 -2.5 -35.5t-10.5 -35.5h-267q0 18 2.5 35.5t11.5 35.5h89z" />
    <glyph glyph-name="twoinferior" unicode="&#x2082;" 
d="M65 13l159 149q31 29 55 56.5t24 62.5q0 54 -57 54q-23 0 -48 -7t-45 -16q-6 14 -11.5 30.5t-6.5 34.5q29 13 62 21.5t70 8.5q59 0 93 -30t34 -81q0 -27 -8.5 -50t-22.5 -43t-34 -39l-42 -40l-56 -51h148q0 -35 -13 -72h-299z" />
    <glyph glyph-name="threeinferior" unicode="&#x2083;" 
d="M187 200l115 133h-144q0 17 2.5 34t8.5 35h249l5 -15l-121 -144q47 -6 68.5 -35t21.5 -64q0 -37 -14.5 -66t-39 -48.5t-57.5 -30t-69 -10.5q-40 0 -71.5 6.5t-53.5 16.5q6 33 29 64q25 -8 47.5 -13.5t46.5 -5.5q18 0 35 4t30.5 13t21.5 24t8 36q0 29 -18.5 43.5
t-49.5 14.5q-8 0 -19 -1t-22 -3z" />
    <glyph glyph-name="fourinferior" unicode="&#x2084;" 
d="M65 92l213 324q20 -3 38.5 -10t31.5 -16l-162 -244h98l15 82q9 2 17.5 2.5t19.5 0.5q20 0 37 -3l-14 -82h46q0 -15 -2.5 -33.5t-8.5 -33.5h-46l-14 -79q-8 -1 -16 -1.5t-18 -0.5q-11 0 -20 0.5t-20 2.5l13 78h-203z" />
    <glyph glyph-name="fiveinferior" unicode="&#x2085;" 
d="M133 196l45 205h229q0 -36 -12 -69h-160l-19 -78q10 2 22.5 4t26.5 2q25 0 47 -7t38.5 -20.5t26 -34.5t9.5 -49q0 -44 -15.5 -74t-42 -49.5t-60.5 -28t-70 -8.5q-41 0 -75.5 7.5t-53.5 17.5q5 18 11 34t20 34q20 -9 43.5 -15.5t51.5 -6.5q21 0 39.5 3.5t32.5 12.5
t22.5 24t8.5 38q0 26 -17 43.5t-56 17.5q-21 0 -39.5 -3.5t-41.5 -11.5z" />
    <glyph glyph-name="sixinferior" unicode="&#x2086;" 
d="M194 222q21 18 51 32.5t65 14.5q48 0 78.5 -30t30.5 -81q0 -38 -15 -69t-39.5 -53t-58 -34.5t-71.5 -12.5q-71 0 -104.5 39.5t-33.5 103.5q0 60 22 110t60 87t90 60t114 29l4.5 -20.5t2.5 -23.5t-3 -22q-27 -2 -54.5 -10t-53.5 -23.5t-48 -39.5t-37 -57zM244 56
q36 0 61 25t25 65q0 32 -16 45.5t-42 13.5q-16 0 -31.5 -6.5t-28 -17.5t-20.5 -27.5t-8 -35.5q0 -62 60 -62z" />
    <glyph glyph-name="seveninferior" unicode="&#x2087;" 
d="M312 332h-179q0 18 3.5 35.5t8.5 34.5h292l4 -9l-245 -402q-23 5 -41 13t-35 19z" />
    <glyph glyph-name="eightinferior" unicode="&#x2088;" 
d="M341 215q12 -7 24 -15.5t21.5 -20t16 -26t6.5 -32.5q0 -32 -16 -56.5t-41.5 -41t-58 -25t-65.5 -8.5q-29 0 -54.5 6t-44.5 18t-30.5 30.5t-11.5 44.5q0 22 9 41t23.5 34.5t33 28.5t38.5 22q-22 14 -35 34t-13 47q0 29 13 51.5t34 37.5t48.5 22.5t57.5 7.5
q57 0 91.5 -25.5t34.5 -68.5q0 -32 -24.5 -60.5t-56.5 -45.5zM250 182q-12 -5 -25.5 -11.5t-25.5 -16t-19.5 -22.5t-7.5 -30q0 -20 17 -34t50 -14q13 0 27.5 3.5t26.5 10.5t20 18.5t8 28.5q0 13 -6.5 23.5t-17 18.5t-23 14.5t-24.5 10.5zM279 244q22 8 42.5 24.5t20.5 43.5
q0 17 -13.5 29t-39.5 12q-25 0 -46 -12t-21 -41q0 -22 19.5 -35.5t37.5 -20.5z" />
    <glyph glyph-name="nineinferior" unicode="&#x2089;" 
d="M139 -11q-3 11 -5 22t-2 22q0 12 3 24q27 2 55 9.5t54 22.5t47.5 38t36.5 56q-23 -20 -50 -32t-62 -12q-50 0 -81 31.5t-31 84.5q0 37 14.5 67t38.5 51.5t56 33t68 11.5q75 0 110 -41t35 -107q0 -59 -21.5 -108.5t-60 -86t-91 -59t-114.5 -27.5zM251 202q16 0 31.5 6
t27.5 17.5t20 27t8 34.5q0 31 -16 48.5t-48 17.5q-34 0 -59 -24t-25 -64q0 -63 61 -63z" />
    <glyph glyph-name="Euro" unicode="&#x20ac;" horiz-adv-x="600" 
d="M156 305q3 48 12 93h-66q0 16 2.5 34t9.5 35h73q19 55 50 101t73.5 79.5t97 52t121.5 18.5q51 0 89.5 -8t61.5 -19q-5 -24 -11.5 -42t-19.5 -41q-29 11 -57 16t-66 5q-45 0 -81.5 -12t-64.5 -33.5t-49 -51t-34 -65.5h261q1 -5 1 -8.5v-7.5q0 -16 -3.5 -29t-8.5 -24h-271
q-5 -23 -7 -46l-4 -47h266q0 -16 -3 -34.5t-10 -34.5h-251q7 -78 46 -118t119 -40q38 0 70.5 7t64.5 21q19 -36 22 -84q-20 -9 -43 -15.5t-46.5 -10.5t-45.5 -6t-40 -2q-127 0 -190 66t-68 182h-83q0 17 2.5 34.5t10.5 34.5h70z" />
    <glyph glyph-name="trademark" unicode="&#x2122;" horiz-adv-x="826" 
d="M232 634h-113q-3 18 -3 35t3 38h302q2 -10 3 -18.5t1 -18.5q0 -9 -1 -18t-3 -18h-112v-327q-11 -2 -20 -3t-20 -1q-9 0 -18.5 1t-18.5 3v327zM486 707q12 1 22 2t20 1q9 0 19.5 -1t22.5 -2l99 -219l98 219q11 1 20.5 2t19.5 1t20.5 -1l21.5 -2l20 -400q-12 -2 -20.5 -3
t-18.5 -1q-8 0 -17.5 0.5t-20.5 3.5l-15 255l-86 -179q-8 -2 -14 -2.5t-14 -0.5q-10 0 -29 3l-79 176l-13 -252q-20 -4 -37 -4q-19 0 -39 4z" />
    <glyph glyph-name="Omega" unicode="&#x3a9;" horiz-adv-x="706" 
d="M184 89q-25 44 -43 106t-18 131q0 84 22 158t64.5 128.5t105 86.5t142.5 32q60 0 106 -19.5t77.5 -55t48 -85t16.5 -110.5q0 -103 -41 -198.5t-108 -173.5h107q-1 -24 -4.5 -46t-9.5 -43h-254l-4 14q34 26 71 72.5t67.5 105.5t50 126t19.5 134q0 91 -40 140t-116 49
q-55 0 -96 -26t-68 -70.5t-40.5 -104.5t-13.5 -127q0 -48 7.5 -92.5t19.5 -83.5t27.5 -70.5t31.5 -52.5l-6 -14h-255q0 23 3.5 45t9.5 44h121z" />
    <glyph glyph-name="onethird" unicode="&#x2153;" horiz-adv-x="1050" 
d="M807 708q12 2 27 3t28 1t27 -1t25 -3l-554 -707q-14 -2 -26 -3t-24 -1q-13 0 -28.5 1t-27.5 3zM243 377l40 228l-94 -38q-20 27 -23 65l194 79h26l-58 -334h92q0 -18 -2.5 -35.5t-10.5 -35.5h-267q0 18 2.5 35.5t11.5 35.5h89zM762 200l115 133h-144q0 17 2.5 34t8.5 35
h249l5 -15l-121 -144q47 -6 68.5 -35t21.5 -64q0 -37 -14.5 -66t-39 -48.5t-57.5 -30t-69 -10.5q-40 0 -71.5 6.5t-53.5 16.5q6 33 29 64q25 -8 47.5 -13.5t46.5 -5.5q18 0 35 4t30.5 13t21.5 24t8 36q0 29 -18.5 43.5t-49.5 14.5q-8 0 -19 -1t-22 -3z" />
    <glyph glyph-name="twothirds" unicode="&#x2154;" horiz-adv-x="1050" 
d="M812 708q12 2 27 3t28 1t27 -1t25 -3l-554 -707q-14 -2 -26 -3t-24 -1q-13 0 -28.5 1t-27.5 3zM104 318l159 149q31 29 55 56.5t24 62.5q0 54 -57 54q-23 0 -48 -7t-45 -16q-6 14 -11.5 30.5t-6.5 34.5q29 13 62 21.5t70 8.5q59 0 93 -30t34 -81q0 -27 -8.5 -50
t-22.5 -43t-34 -39l-42 -40l-56 -51h148q0 -35 -13 -72h-299zM779 200l115 133h-144q0 17 2.5 34t8.5 35h249l5 -15l-121 -144q47 -6 68.5 -35t21.5 -64q0 -37 -14.5 -66t-39 -48.5t-57.5 -30t-69 -10.5q-40 0 -71.5 6.5t-53.5 16.5q6 33 29 64q25 -8 47.5 -13.5t46.5 -5.5
q18 0 35 4t30.5 13t21.5 24t8 36q0 29 -18.5 43.5t-49.5 14.5q-8 0 -19 -1t-22 -3z" />
    <glyph glyph-name="onefifth" unicode="&#x2155;" horiz-adv-x="1050" 
d="M807 708q12 2 27 3t28 1t27 -1t25 -3l-554 -707q-14 -2 -26 -3t-24 -1q-13 0 -28.5 1t-27.5 3zM243 377l40 228l-94 -38q-20 27 -23 65l194 79h26l-58 -334h92q0 -18 -2.5 -35.5t-10.5 -35.5h-267q0 18 2.5 35.5t11.5 35.5h89zM723 196l45 205h229q0 -36 -12 -69h-160
l-19 -78q10 2 22.5 4t26.5 2q25 0 47 -7t38.5 -20.5t26 -34.5t9.5 -49q0 -44 -15.5 -74t-42 -49.5t-60.5 -28t-70 -8.5q-41 0 -75.5 7.5t-53.5 17.5q5 18 11 34t20 34q20 -9 43.5 -15.5t51.5 -6.5q21 0 39.5 3.5t32.5 12.5t22.5 24t8.5 38q0 26 -17 43.5t-56 17.5
q-21 0 -39.5 -3.5t-41.5 -11.5z" />
    <glyph glyph-name="twofifths" unicode="&#x2156;" horiz-adv-x="1050" 
d="M818 708q12 2 27 3t28 1t27 -1t25 -3l-554 -707q-14 -2 -26 -3t-24 -1q-13 0 -28.5 1t-27.5 3zM104 318l159 149q31 29 55 56.5t24 62.5q0 54 -57 54q-23 0 -48 -7t-45 -16q-6 14 -11.5 30.5t-6.5 34.5q29 13 62 21.5t70 8.5q59 0 93 -30t34 -81q0 -27 -8.5 -50
t-22.5 -43t-34 -39l-42 -40l-56 -51h148q0 -35 -13 -72h-299zM739 196l45 205h229q0 -36 -12 -69h-160l-19 -78q10 2 22.5 4t26.5 2q25 0 47 -7t38.5 -20.5t26 -34.5t9.5 -49q0 -44 -15.5 -74t-42 -49.5t-60.5 -28t-70 -8.5q-41 0 -75.5 7.5t-53.5 17.5q5 18 11 34t20 34
q20 -9 43.5 -15.5t51.5 -6.5q21 0 39.5 3.5t32.5 12.5t22.5 24t8.5 38q0 26 -17 43.5t-56 17.5q-21 0 -39.5 -3.5t-41.5 -11.5z" />
    <glyph glyph-name="threefifths" unicode="&#x2157;" horiz-adv-x="1050" 
d="M790 708q12 2 27 3t28 1t27 -1t25 -3l-554 -707q-14 -2 -26 -3t-24 -1q-13 0 -28.5 1t-27.5 3zM713 196l45 205h229q0 -36 -12 -69h-160l-19 -78q10 2 22.5 4t26.5 2q25 0 47 -7t38.5 -20.5t26 -34.5t9.5 -49q0 -44 -15.5 -74t-42 -49.5t-60.5 -28t-70 -8.5
q-41 0 -75.5 7.5t-53.5 17.5q5 18 11 34t20 34q20 -9 43.5 -15.5t51.5 -6.5q21 0 39.5 3.5t32.5 12.5t22.5 24t8.5 38q0 26 -17 43.5t-56 17.5q-21 0 -39.5 -3.5t-41.5 -11.5zM218 505l115 133h-144q0 17 2.5 34t8.5 35h249l5 -15l-121 -144q47 -6 68.5 -35t21.5 -64
q0 -37 -14.5 -66t-39 -48.5t-57.5 -30t-69 -10.5q-40 0 -71.5 6.5t-53.5 16.5q6 33 29 64q25 -8 47.5 -13.5t46.5 -5.5q18 0 35 4t30.5 13t21.5 24t8 36q0 29 -18.5 43.5t-49.5 14.5q-8 0 -19 -1t-22 -3z" />
    <glyph glyph-name="fourfifths" unicode="&#x2158;" horiz-adv-x="1050" 
d="M799 708q12 2 27 3t28 1t27 -1t25 -3l-554 -707q-14 -2 -26 -3t-24 -1q-13 0 -28.5 1t-27.5 3zM714 196l45 205h229q0 -36 -12 -69h-160l-19 -78q10 2 22.5 4t26.5 2q25 0 47 -7t38.5 -20.5t26 -34.5t9.5 -49q0 -44 -15.5 -74t-42 -49.5t-60.5 -28t-70 -8.5
q-41 0 -75.5 7.5t-53.5 17.5q5 18 11 34t20 34q20 -9 43.5 -15.5t51.5 -6.5q21 0 39.5 3.5t32.5 12.5t22.5 24t8.5 38q0 26 -17 43.5t-56 17.5q-21 0 -39.5 -3.5t-41.5 -11.5zM105 397l213 324q20 -3 38.5 -10t31.5 -16l-162 -244h98l15 82q9 2 17.5 2.5t19.5 0.5
q20 0 37 -3l-14 -82h46q0 -15 -2.5 -33.5t-8.5 -33.5h-46l-14 -79q-8 -1 -16 -1.5t-18 -0.5q-11 0 -20 0.5t-20 2.5l13 78h-203z" />
    <glyph glyph-name="onesixth" unicode="&#x2159;" horiz-adv-x="1050" 
d="M816 708q12 2 27 3t28 1t27 -1t25 -3l-554 -707q-14 -2 -26 -3t-24 -1q-13 0 -28.5 1t-27.5 3zM243 377l40 228l-94 -38q-20 27 -23 65l194 79h26l-58 -334h92q0 -18 -2.5 -35.5t-10.5 -35.5h-267q0 18 2.5 35.5t11.5 35.5h89zM771 222q21 18 51 32.5t65 14.5
q48 0 78.5 -30t30.5 -81q0 -38 -15 -69t-39.5 -53t-58 -34.5t-71.5 -12.5q-71 0 -104.5 39.5t-33.5 103.5q0 60 22 110t60 87t90 60t114 29l4.5 -20.5t2.5 -23.5t-3 -22q-27 -2 -54.5 -10t-53.5 -23.5t-48 -39.5t-37 -57zM821 56q36 0 61 25t25 65q0 32 -16 45.5t-42 13.5
q-16 0 -31.5 -6.5t-28 -17.5t-20.5 -27.5t-8 -35.5q0 -62 60 -62z" />
    <glyph glyph-name="fivesixths" unicode="&#x215a;" horiz-adv-x="1050" 
d="M790 708q12 2 27 3t28 1t27 -1t25 -3l-554 -707q-14 -2 -26 -3t-24 -1q-13 0 -28.5 1t-27.5 3zM744 222q21 18 51 32.5t65 14.5q48 0 78.5 -30t30.5 -81q0 -38 -15 -69t-39.5 -53t-58 -34.5t-71.5 -12.5q-71 0 -104.5 39.5t-33.5 103.5q0 60 22 110t60 87t90 60t114 29
l4.5 -20.5t2.5 -23.5t-3 -22q-27 -2 -54.5 -10t-53.5 -23.5t-48 -39.5t-37 -57zM794 56q36 0 61 25t25 65q0 32 -16 45.5t-42 13.5q-16 0 -31.5 -6.5t-28 -17.5t-20.5 -27.5t-8 -35.5q0 -62 60 -62zM183 501l45 205h229q0 -36 -12 -69h-160l-19 -78q10 2 22.5 4t26.5 2
q25 0 47 -7t38.5 -20.5t26 -34.5t9.5 -49q0 -44 -15.5 -74t-42 -49.5t-60.5 -28t-70 -8.5q-41 0 -75.5 7.5t-53.5 17.5q5 18 11 34t20 34q20 -9 43.5 -15.5t51.5 -6.5q21 0 39.5 3.5t32.5 12.5t22.5 24t8.5 38q0 26 -17 43.5t-56 17.5q-21 0 -39.5 -3.5t-41.5 -11.5z" />
    <glyph glyph-name="oneeighth" unicode="&#x215b;" horiz-adv-x="1050" 
d="M815 708q12 2 27 3t28 1t27 -1t25 -3l-554 -707q-14 -2 -26 -3t-24 -1q-13 0 -28.5 1t-27.5 3zM243 377l40 228l-94 -38q-20 27 -23 65l194 79h26l-58 -334h92q0 -18 -2.5 -35.5t-10.5 -35.5h-267q0 18 2.5 35.5t11.5 35.5h89zM930 215q12 -7 24 -15.5t21.5 -20t16 -26
t6.5 -32.5q0 -32 -16 -56.5t-41.5 -41t-58 -25t-65.5 -8.5q-29 0 -54.5 6t-44.5 18t-30.5 30.5t-11.5 44.5q0 22 9 41t23.5 34.5t33 28.5t38.5 22q-22 14 -35 34t-13 47q0 29 13 51.5t34 37.5t48.5 22.5t57.5 7.5q57 0 91.5 -25.5t34.5 -68.5q0 -32 -24.5 -60.5t-56.5 -45.5
zM839 182q-12 -5 -25.5 -11.5t-25.5 -16t-19.5 -22.5t-7.5 -30q0 -20 17 -34t50 -14q13 0 27.5 3.5t26.5 10.5t20 18.5t8 28.5q0 13 -6.5 23.5t-17 18.5t-23 14.5t-24.5 10.5zM868 244q22 8 42.5 24.5t20.5 43.5q0 17 -13.5 29t-39.5 12q-25 0 -46 -12t-21 -41
q0 -22 19.5 -35.5t37.5 -20.5z" />
    <glyph glyph-name="threeeighths" unicode="&#x215c;" horiz-adv-x="1050" 
d="M794 708q12 2 27 3t28 1t27 -1t25 -3l-554 -707q-14 -2 -26 -3t-24 -1q-13 0 -28.5 1t-27.5 3zM923 215q12 -7 24 -15.5t21.5 -20t16 -26t6.5 -32.5q0 -32 -16 -56.5t-41.5 -41t-58 -25t-65.5 -8.5q-29 0 -54.5 6t-44.5 18t-30.5 30.5t-11.5 44.5q0 22 9 41t23.5 34.5
t33 28.5t38.5 22q-22 14 -35 34t-13 47q0 29 13 51.5t34 37.5t48.5 22.5t57.5 7.5q57 0 91.5 -25.5t34.5 -68.5q0 -32 -24.5 -60.5t-56.5 -45.5zM832 182q-12 -5 -25.5 -11.5t-25.5 -16t-19.5 -22.5t-7.5 -30q0 -20 17 -34t50 -14q13 0 27.5 3.5t26.5 10.5t20 18.5t8 28.5
q0 13 -6.5 23.5t-17 18.5t-23 14.5t-24.5 10.5zM861 244q22 8 42.5 24.5t20.5 43.5q0 17 -13.5 29t-39.5 12q-25 0 -46 -12t-21 -41q0 -22 19.5 -35.5t37.5 -20.5zM218 505l115 133h-144q0 17 2.5 34t8.5 35h249l5 -15l-121 -144q47 -6 68.5 -35t21.5 -64q0 -37 -14.5 -66
t-39 -48.5t-57.5 -30t-69 -10.5q-40 0 -71.5 6.5t-53.5 16.5q6 33 29 64q25 -8 47.5 -13.5t46.5 -5.5q18 0 35 4t30.5 13t21.5 24t8 36q0 29 -18.5 43.5t-49.5 14.5q-8 0 -19 -1t-22 -3z" />
    <glyph glyph-name="fiveeighths" unicode="&#x215d;" horiz-adv-x="1050" 
d="M796 708q12 2 27 3t28 1t27 -1t25 -3l-554 -707q-14 -2 -26 -3t-24 -1q-13 0 -28.5 1t-27.5 3zM183 501l45 205h229q0 -36 -12 -69h-160l-19 -78q10 2 22.5 4t26.5 2q25 0 47 -7t38.5 -20.5t26 -34.5t9.5 -49q0 -44 -15.5 -74t-42 -49.5t-60.5 -28t-70 -8.5
q-41 0 -75.5 7.5t-53.5 17.5q5 18 11 34t20 34q20 -9 43.5 -15.5t51.5 -6.5q21 0 39.5 3.5t32.5 12.5t22.5 24t8.5 38q0 26 -17 43.5t-56 17.5q-21 0 -39.5 -3.5t-41.5 -11.5zM918 215q12 -7 24 -15.5t21.5 -20t16 -26t6.5 -32.5q0 -32 -16 -56.5t-41.5 -41t-58 -25
t-65.5 -8.5q-29 0 -54.5 6t-44.5 18t-30.5 30.5t-11.5 44.5q0 22 9 41t23.5 34.5t33 28.5t38.5 22q-22 14 -35 34t-13 47q0 29 13 51.5t34 37.5t48.5 22.5t57.5 7.5q57 0 91.5 -25.5t34.5 -68.5q0 -32 -24.5 -60.5t-56.5 -45.5zM827 182q-12 -5 -25.5 -11.5t-25.5 -16
t-19.5 -22.5t-7.5 -30q0 -20 17 -34t50 -14q13 0 27.5 3.5t26.5 10.5t20 18.5t8 28.5q0 13 -6.5 23.5t-17 18.5t-23 14.5t-24.5 10.5zM856 244q22 8 42.5 24.5t20.5 43.5q0 17 -13.5 29t-39.5 12q-25 0 -46 -12t-21 -41q0 -22 19.5 -35.5t37.5 -20.5z" />
    <glyph glyph-name="seveneighths" unicode="&#x215e;" horiz-adv-x="1050" 
d="M764 708q12 2 27 3t28 1t27 -1t25 -3l-554 -707q-14 -2 -26 -3t-24 -1q-13 0 -28.5 1t-27.5 3zM920 215q12 -7 24 -15.5t21.5 -20t16 -26t6.5 -32.5q0 -32 -16 -56.5t-41.5 -41t-58 -25t-65.5 -8.5q-29 0 -54.5 6t-44.5 18t-30.5 30.5t-11.5 44.5q0 22 9 41t23.5 34.5
t33 28.5t38.5 22q-22 14 -35 34t-13 47q0 29 13 51.5t34 37.5t48.5 22.5t57.5 7.5q57 0 91.5 -25.5t34.5 -68.5q0 -32 -24.5 -60.5t-56.5 -45.5zM829 182q-12 -5 -25.5 -11.5t-25.5 -16t-19.5 -22.5t-7.5 -30q0 -20 17 -34t50 -14q13 0 27.5 3.5t26.5 10.5t20 18.5t8 28.5
q0 13 -6.5 23.5t-17 18.5t-23 14.5t-24.5 10.5zM858 244q22 8 42.5 24.5t20.5 43.5q0 17 -13.5 29t-39.5 12q-25 0 -46 -12t-21 -41q0 -22 19.5 -35.5t37.5 -20.5zM371 637h-179q0 18 3.5 35.5t8.5 34.5h292l4 -9l-245 -402q-23 5 -41 13t-35 19z" />
    <glyph glyph-name="partialdiff" unicode="&#x2202;" horiz-adv-x="587" 
d="M493 424q0 41 -5 78.5t-20 66.5t-43.5 46t-74.5 17q-39 0 -70 -9t-63 -23q-8 14 -13.5 33.5t-5.5 39.5q38 22 82.5 34t95.5 12q59 0 100.5 -21t67.5 -56.5t37.5 -83.5t11.5 -102q0 -85 -14.5 -169t-50.5 -150.5t-97 -107.5t-154 -41q-41 0 -77 11t-63.5 35t-43.5 62.5
t-16 93.5q0 66 20.5 118t56.5 87t83.5 53.5t101.5 18.5q48 0 88 -14t66 -29zM483 338q-26 18 -63 31t-79 13t-72.5 -14t-51 -38t-30.5 -57.5t-10 -72.5q0 -66 28.5 -96.5t83.5 -30.5q86 0 131.5 69.5t62.5 195.5z" />
    <glyph glyph-name="Delta" unicode="&#x2206;" horiz-adv-x="580" 
d="M351 707q13 2 30.5 3t31.5 1t29 -1t28 -3l105 -707h-564zM461 89l-68 512l-236 -512h304z" />
    <glyph glyph-name="product" unicode="&#x220f;" horiz-adv-x="728" 
d="M246 618h-114q0 21 3.5 42t11.5 47h675q0 -44 -15 -89h-113l-139 -797q-11 -2 -24 -3t-26 -1q-14 0 -27 1t-24 3l139 797h-246l-139 -797q-13 -2 -26.5 -3t-26.5 -1q-14 0 -26.5 1t-22.5 3z" />
    <glyph glyph-name="summation" unicode="&#x2211;" horiz-adv-x="514" 
d="M-37 -173l306 450l-137 421l6 9h441q0 -41 -15 -89h-302l111 -353l-241 -357h307q0 -25 -3 -46t-11 -44h-458z" />
    <glyph glyph-name="minus" unicode="&#x2212;" horiz-adv-x="600" 
d="M576 398v-7q0 -23 -4 -44t-11 -40h-424q0 24 4 46t12 45h423z" />
    <glyph glyph-name="uni2215" unicode="&#x2215;" horiz-adv-x="410" 
d="M390 719q23 4 49 4q12 0 25.5 -1t25.5 -3l-358 -719q-13 -2 -27 -3t-26 -1q-11 0 -23 1t-23 3z" />
    <glyph glyph-name="radical" unicode="&#x221a;" horiz-adv-x="610" 
d="M187 325h-83q0 44 15 88h152l57 -316l317 608q11 2 24.5 2.5t26.5 0.5q12 0 25 -0.5t24 -2.5l-379 -705q-14 -2 -28 -3t-28 -1q-13 0 -26 1t-27 3z" />
    <glyph glyph-name="infinity" unicode="&#x221e;" horiz-adv-x="792" 
d="M392 272q-22 29 -39.5 47.5t-32 29t-27 14t-24.5 3.5q-36 0 -59.5 -26.5t-23.5 -68.5q0 -43 23.5 -68.5t58.5 -25.5q13 0 26 3t27.5 13t31.5 29t39 50zM496 269q22 -29 39.5 -47.5t32 -29t27 -14t25.5 -3.5q35 0 58.5 26.5t23.5 68.5q0 43 -23 68.5t-58 25.5
q-14 0 -27 -3t-27.5 -13t-31.5 -29t-39 -50zM443 208q-26 -34 -49.5 -56.5t-45.5 -36t-42.5 -19t-40.5 -5.5q-35 0 -65 13t-52.5 37t-35.5 57t-13 73q0 39 13 72t35.5 57t53 37.5t65.5 13.5q42 0 85.5 -26.5t94.5 -90.5q51 66 94 91t84 25q35 0 65 -13t52.5 -37t35 -57
t12.5 -73q0 -39 -13 -72t-35.5 -57t-53 -37.5t-65.5 -13.5q-42 0 -86 26.5t-93 91.5z" />
    <glyph glyph-name="integral" unicode="&#x222b;" horiz-adv-x="361" 
d="M203 533q11 97 65 141.5t137 44.5q29 0 50.5 -3.5t37.5 -8.5q-5 -24 -11.5 -42.5t-16.5 -37.5l-24 5.5t-36 3.5t-39 -4.5t-32 -17t-23.5 -34.5t-13.5 -57l-70 -578q-6 -51 -25 -86.5t-47 -58t-64 -32.5t-78 -10q-28 0 -43.5 3.5t-30.5 8.5q5 23 11 42t16 38l23.5 -5
t37.5 -3q21 0 38.5 4.5t31 17t22.5 34.5t14 57z" />
    <glyph glyph-name="approxequal" unicode="&#x2248;" horiz-adv-x="600" 
d="M166 443q25 24 63 42t77 18q22 0 42.5 -6.5t41 -14t41 -13.5t43.5 -6q20 0 41 7t50 30q12 -15 19 -33t10 -36q-26 -23 -59.5 -38t-74.5 -15q-21 0 -42.5 6t-42 13.5t-41 14t-40.5 6.5q-24 0 -46.5 -8t-50.5 -31q-25 28 -31 64zM138 266q23 25 62 42.5t78 17.5
q22 0 42.5 -6.5t41 -14t41 -13.5t43.5 -6q20 0 41 7t50 30q12 -15 19 -33t9 -36q-26 -23 -59 -38t-74 -15q-21 0 -42 6t-41.5 13.5t-41.5 14t-42 6.5q-23 0 -45.5 -8t-50.5 -31q-12 14 -20.5 30t-10.5 34z" />
    <glyph glyph-name="notequal" unicode="&#x2260;" horiz-adv-x="600" 
d="M228 206h-106q0 23 4 46t11 44h148l67 103h-196q0 23 4 46t12 45h240l81 125q9 2 21 2.5t20 0.5q19 0 37 -3l-82 -125h107q0 -23 -4 -45.5t-12 -45.5h-150l-67 -103h198q0 -22 -3.5 -45t-11.5 -45h-241l-82 -126q-17 -3 -36 -3q-8 0 -20 0.5t-21 2.5z" />
    <glyph glyph-name="lessequal" unicode="&#x2264;" horiz-adv-x="600" 
d="M621 591q0 -28 -5 -56.5t-11 -45.5l-341 -124l297 -126q0 -26 -5.5 -51t-12.5 -42l-377 169q0 59 18 106zM545 92v-7q0 -23 -4 -44t-11 -40h-424q0 24 4 46t12 45h423z" />
    <glyph glyph-name="greaterequal" unicode="&#x2265;" horiz-adv-x="600" 
d="M470 375l-296 123q0 24 4 47t13 47l378 -170q0 -23 -4.5 -52t-14.5 -53l-437 -170q0 24 5 54t11 47zM531 90q0 -23 -3.5 -45t-11.5 -45h-424q0 24 3.5 45.5t11.5 44.5h424z" />
    <glyph glyph-name="lozenge" unicode="&#x25ca;" horiz-adv-x="531" 
d="M464 365l-87 268l-183 -274l86 -269zM94 362l246 361q13 2 26 3t24 1t24 -1t24 -3l124 -361l-246 -362q-12 -2 -26.5 -3t-25.5 -1t-23 1t-23 3z" />
    <glyph glyph-name="oneseventh" unicode="&#xf506;" horiz-adv-x="1050" 
d="M813 708q12 2 27 3t28 1t27 -1t25 -3l-554 -707q-14 -2 -26 -3t-24 -1q-13 0 -28.5 1t-27.5 3zM243 377l40 228l-94 -38q-20 27 -23 65l194 79h26l-58 -334h92q0 -18 -2.5 -35.5t-10.5 -35.5h-267q0 18 2.5 35.5t11.5 35.5h89zM928 332h-179q0 18 3.5 35.5t8.5 34.5h292
l4 -9l-245 -402q-23 5 -41 13t-35 19z" />
    <glyph glyph-name="twosevenths" unicode="&#xf507;" horiz-adv-x="1050" 
d="M812 708q12 2 27 3t28 1t27 -1t25 -3l-554 -707q-14 -2 -26 -3t-24 -1q-13 0 -28.5 1t-27.5 3zM104 318l159 149q31 29 55 56.5t24 62.5q0 54 -57 54q-23 0 -48 -7t-45 -16q-6 14 -11.5 30.5t-6.5 34.5q29 13 62 21.5t70 8.5q59 0 93 -30t34 -81q0 -27 -8.5 -50
t-22.5 -43t-34 -39l-42 -40l-56 -51h148q0 -35 -13 -72h-299zM923 332h-179q0 18 3.5 35.5t8.5 34.5h292l4 -9l-245 -402q-23 5 -41 13t-35 19z" />
    <glyph glyph-name="threesevenths" unicode="&#xf508;" horiz-adv-x="1050" 
d="M795 708q12 2 27 3t28 1t27 -1t25 -3l-554 -707q-14 -2 -26 -3t-24 -1q-13 0 -28.5 1t-27.5 3zM930 332h-179q0 18 3.5 35.5t8.5 34.5h292l4 -9l-245 -402q-23 5 -41 13t-35 19zM218 505l115 133h-144q0 17 2.5 34t8.5 35h249l5 -15l-121 -144q47 -6 68.5 -35t21.5 -64
q0 -37 -14.5 -66t-39 -48.5t-57.5 -30t-69 -10.5q-40 0 -71.5 6.5t-53.5 16.5q6 33 29 64q25 -8 47.5 -13.5t46.5 -5.5q18 0 35 4t30.5 13t21.5 24t8 36q0 29 -18.5 43.5t-49.5 14.5q-8 0 -19 -1t-22 -3z" />
    <glyph glyph-name="foursevenths" unicode="&#xf509;" horiz-adv-x="1050" 
d="M807 708q12 2 27 3t28 1t27 -1t25 -3l-554 -707q-14 -2 -26 -3t-24 -1q-13 0 -28.5 1t-27.5 3zM105 397l213 324q20 -3 38.5 -10t31.5 -16l-162 -244h98l15 82q9 2 17.5 2.5t19.5 0.5q20 0 37 -3l-14 -82h46q0 -15 -2.5 -33.5t-8.5 -33.5h-46l-14 -79q-8 -1 -16 -1.5
t-18 -0.5q-11 0 -20 0.5t-20 2.5l13 78h-203zM922 332h-179q0 18 3.5 35.5t8.5 34.5h292l4 -9l-245 -402q-23 5 -41 13t-35 19z" />
    <glyph glyph-name="fivesevenths" unicode="&#xf50a;" horiz-adv-x="1050" 
d="M803 708q12 2 27 3t28 1t27 -1t25 -3l-554 -707q-14 -2 -26 -3t-24 -1q-13 0 -28.5 1t-27.5 3zM201 501l45 205h229q0 -36 -12 -69h-160l-19 -78q10 2 22.5 4t26.5 2q25 0 47 -7t38.5 -20.5t26 -34.5t9.5 -49q0 -44 -15.5 -74t-42 -49.5t-60.5 -28t-70 -8.5
q-41 0 -75.5 7.5t-53.5 17.5q5 18 11 34t20 34q20 -9 43.5 -15.5t51.5 -6.5q21 0 39.5 3.5t32.5 12.5t22.5 24t8.5 38q0 26 -17 43.5t-56 17.5q-21 0 -39.5 -3.5t-41.5 -11.5zM916 332h-179q0 18 3.5 35.5t8.5 34.5h292l4 -9l-245 -402q-23 5 -41 13t-35 19z" />
    <glyph glyph-name="sixsevenths" unicode="&#xf50b;" horiz-adv-x="1050" 
d="M798 708q12 2 27 3t28 1t27 -1t25 -3l-554 -707q-14 -2 -26 -3t-24 -1q-13 0 -28.5 1t-27.5 3zM227 527q21 18 51 32.5t65 14.5q48 0 78.5 -30t30.5 -81q0 -38 -15 -69t-39.5 -53t-58 -34.5t-71.5 -12.5q-71 0 -104.5 39.5t-33.5 103.5q0 60 22 110t60 87t90 60t114 29
l4.5 -20.5t2.5 -23.5t-3 -22q-27 -2 -54.5 -10t-53.5 -23.5t-48 -39.5t-37 -57zM277 361q36 0 61 25t25 65q0 32 -16 45.5t-42 13.5q-16 0 -31.5 -6.5t-28 -17.5t-20.5 -27.5t-8 -35.5q0 -62 60 -62zM918 332h-179q0 18 3.5 35.5t8.5 34.5h292l4 -9l-245 -402q-23 5 -41 13
t-35 19z" />
    <glyph glyph-name="oneninth" unicode="&#xf50c;" horiz-adv-x="1050" 
d="M811 708q12 2 27 3t28 1t27 -1t25 -3l-554 -707q-14 -2 -26 -3t-24 -1q-13 0 -28.5 1t-27.5 3zM243 377l40 228l-94 -38q-20 27 -23 65l194 79h26l-58 -334h92q0 -18 -2.5 -35.5t-10.5 -35.5h-267q0 18 2.5 35.5t11.5 35.5h89zM742 -11q-3 11 -5 22t-2 22q0 12 3 24
q27 2 55 9.5t54 22.5t47.5 38t36.5 56q-23 -20 -50 -32t-62 -12q-50 0 -81 31.5t-31 84.5q0 37 14.5 67t38.5 51.5t56 33t68 11.5q75 0 110 -41t35 -107q0 -59 -21.5 -108.5t-60 -86t-91 -59t-114.5 -27.5zM854 202q16 0 31.5 6t27.5 17.5t20 27t8 34.5q0 31 -16 48.5
t-48 17.5q-34 0 -59 -24t-25 -64q0 -63 61 -63z" />
    <glyph glyph-name="twoninths" unicode="&#xf50d;" horiz-adv-x="1050" 
d="M811 708q12 2 27 3t28 1t27 -1t25 -3l-554 -707q-14 -2 -26 -3t-24 -1q-13 0 -28.5 1t-27.5 3zM104 318l159 149q31 29 55 56.5t24 62.5q0 54 -57 54q-23 0 -48 -7t-45 -16q-6 14 -11.5 30.5t-6.5 34.5q29 13 62 21.5t70 8.5q59 0 93 -30t34 -81q0 -27 -8.5 -50
t-22.5 -43t-34 -39l-42 -40l-56 -51h148q0 -35 -13 -72h-299zM740 -11q-3 11 -5 22t-2 22q0 12 3 24q27 2 55 9.5t54 22.5t47.5 38t36.5 56q-23 -20 -50 -32t-62 -12q-50 0 -81 31.5t-31 84.5q0 37 14.5 67t38.5 51.5t56 33t68 11.5q75 0 110 -41t35 -107
q0 -59 -21.5 -108.5t-60 -86t-91 -59t-114.5 -27.5zM852 202q16 0 31.5 6t27.5 17.5t20 27t8 34.5q0 31 -16 48.5t-48 17.5q-34 0 -59 -24t-25 -64q0 -63 61 -63z" />
    <glyph glyph-name="fourninths" unicode="&#xf50e;" horiz-adv-x="1050" 
d="M794 708q12 2 27 3t28 1t27 -1t25 -3l-554 -707q-14 -2 -26 -3t-24 -1q-13 0 -28.5 1t-27.5 3zM105 397l213 324q20 -3 38.5 -10t31.5 -16l-162 -244h98l15 82q9 2 17.5 2.5t19.5 0.5q20 0 37 -3l-14 -82h46q0 -15 -2.5 -33.5t-8.5 -33.5h-46l-14 -79q-8 -1 -16 -1.5
t-18 -0.5q-11 0 -20 0.5t-20 2.5l13 78h-203zM731 -11q-3 11 -5 22t-2 22q0 12 3 24q27 2 55 9.5t54 22.5t47.5 38t36.5 56q-23 -20 -50 -32t-62 -12q-50 0 -81 31.5t-31 84.5q0 37 14.5 67t38.5 51.5t56 33t68 11.5q75 0 110 -41t35 -107q0 -59 -21.5 -108.5t-60 -86
t-91 -59t-114.5 -27.5zM843 202q16 0 31.5 6t27.5 17.5t20 27t8 34.5q0 31 -16 48.5t-48 17.5q-34 0 -59 -24t-25 -64q0 -63 61 -63z" />
    <glyph glyph-name="fiveninths" unicode="&#xf50f;" horiz-adv-x="1050" 
d="M787 708q12 2 27 3t28 1t27 -1t25 -3l-554 -707q-14 -2 -26 -3t-24 -1q-13 0 -28.5 1t-27.5 3zM183 501l45 205h229q0 -36 -12 -69h-160l-19 -78q10 2 22.5 4t26.5 2q25 0 47 -7t38.5 -20.5t26 -34.5t9.5 -49q0 -44 -15.5 -74t-42 -49.5t-60.5 -28t-70 -8.5
q-41 0 -75.5 7.5t-53.5 17.5q5 18 11 34t20 34q20 -9 43.5 -15.5t51.5 -6.5q21 0 39.5 3.5t32.5 12.5t22.5 24t8.5 38q0 26 -17 43.5t-56 17.5q-21 0 -39.5 -3.5t-41.5 -11.5zM724 -11q-3 11 -5 22t-2 22q0 12 3 24q27 2 55 9.5t54 22.5t47.5 38t36.5 56q-23 -20 -50 -32
t-62 -12q-50 0 -81 31.5t-31 84.5q0 37 14.5 67t38.5 51.5t56 33t68 11.5q75 0 110 -41t35 -107q0 -59 -21.5 -108.5t-60 -86t-91 -59t-114.5 -27.5zM836 202q16 0 31.5 6t27.5 17.5t20 27t8 34.5q0 31 -16 48.5t-48 17.5q-34 0 -59 -24t-25 -64q0 -63 61 -63z" />
    <glyph glyph-name="sevenninths" unicode="&#xf510;" horiz-adv-x="1050" 
d="M749 708q12 2 27 3t28 1t27 -1t25 -3l-554 -707q-14 -2 -26 -3t-24 -1q-13 0 -28.5 1t-27.5 3zM721 -11q-3 11 -5 22t-2 22q0 12 3 24q27 2 55 9.5t54 22.5t47.5 38t36.5 56q-23 -20 -50 -32t-62 -12q-50 0 -81 31.5t-31 84.5q0 37 14.5 67t38.5 51.5t56 33t68 11.5
q75 0 110 -41t35 -107q0 -59 -21.5 -108.5t-60 -86t-91 -59t-114.5 -27.5zM833 202q16 0 31.5 6t27.5 17.5t20 27t8 34.5q0 31 -16 48.5t-48 17.5q-34 0 -59 -24t-25 -64q0 -63 61 -63zM371 637h-179q0 18 3.5 35.5t8.5 34.5h292l4 -9l-245 -402q-23 5 -41 13t-35 19z" />
    <glyph glyph-name="eightninths" unicode="&#xf511;" horiz-adv-x="1050" 
d="M793 708q12 2 27 3t28 1t27 -1t25 -3l-554 -707q-14 -2 -26 -3t-24 -1q-13 0 -28.5 1t-27.5 3zM723 -11q-3 11 -5 22t-2 22q0 12 3 24q27 2 55 9.5t54 22.5t47.5 38t36.5 56q-23 -20 -50 -32t-62 -12q-50 0 -81 31.5t-31 84.5q0 37 14.5 67t38.5 51.5t56 33t68 11.5
q75 0 110 -41t35 -107q0 -59 -21.5 -108.5t-60 -86t-91 -59t-114.5 -27.5zM835 202q16 0 31.5 6t27.5 17.5t20 27t8 34.5q0 31 -16 48.5t-48 17.5q-34 0 -59 -24t-25 -64q0 -63 61 -63zM375 520q12 -7 24 -15.5t21.5 -20t16 -26t6.5 -32.5q0 -32 -16 -56.5t-41.5 -41
t-58 -25t-65.5 -8.5q-29 0 -54.5 6t-44.5 18t-30.5 30.5t-11.5 44.5q0 22 9 41t23.5 34.5t33 28.5t38.5 22q-22 14 -35 34t-13 47q0 29 13 51.5t34 37.5t48.5 22.5t57.5 7.5q57 0 91.5 -25.5t34.5 -68.5q0 -32 -24.5 -60.5t-56.5 -45.5zM284 487q-12 -5 -25.5 -11.5
t-25.5 -16t-19.5 -22.5t-7.5 -30q0 -20 17 -34t50 -14q13 0 27.5 3.5t26.5 10.5t20 18.5t8 28.5q0 13 -6.5 23.5t-17 18.5t-23 14.5t-24.5 10.5zM313 549q22 8 42.5 24.5t20.5 43.5q0 17 -13.5 29t-39.5 12q-25 0 -46 -12t-21 -41q0 -22 19.5 -35.5t37.5 -20.5z" />
    <glyph glyph-name="commaaccent" horiz-adv-x="500" 
d="M224 -65q13 2 26.5 3t25.5 1q14 0 26 -1t26 -3l-84 -174q-11 -2 -23.5 -3t-23.5 -1t-22 1t-22 3z" />
    <glyph glyph-name="hungarumlaut.cap" horiz-adv-x="500" 
d="M307 894q15 2 31.5 3t33.5 1t32.5 -1t29.5 -3l-128 -118q-11 -2 -24.5 -3t-28.5 -1q-12 0 -24 1t-24 3zM498 894q15 2 31.5 3t32.5 1q18 0 33.5 -1t29.5 -3l-128 -118q-11 -2 -24.5 -3t-29.5 -1q-11 0 -23 1t-24 3z" />
    <glyph glyph-name="cedilla.cap" horiz-adv-x="500" 
d="M163 -109l69 132h59l-43 -81q3 1 7.5 1.5t12.5 0.5q40 0 62.5 -22t22.5 -56q0 -31 -12 -51.5t-31.5 -33t-44.5 -17.5t-51 -5q-30 0 -53 6t-34 13q3 13 8.5 28.5t14.5 26.5q14 -5 31 -9.5t32 -4.5q10 0 21 1t21 5t16.5 12t6.5 22q0 19 -15.5 26.5t-41.5 7.5
q-13 0 -26.5 -2t-27.5 -5z" />
    <glyph glyph-name="tilde.cap" horiz-adv-x="500" 
d="M229 848q19 20 45.5 35t58.5 15q21 0 38 -5.5t33 -12.5t32.5 -12.5t36.5 -5.5q17 0 30.5 5.5t33.5 22.5q8 -10 17.5 -26t11.5 -30q-20 -18 -46.5 -33t-58.5 -15q-21 0 -38 5.5t-33 12t-32.5 12t-34.5 5.5q-19 0 -32.5 -6t-32.5 -21q-9 10 -18 25t-11 29z" />
    <glyph glyph-name="ogonek.cap" horiz-adv-x="500" 
d="M327 0q-14 -10 -32 -25.5t-34 -34t-27.5 -38.5t-11.5 -39q0 -39 47 -39q8 0 20.5 1.5t29.5 6.5q10 -20 10 -46q0 -10 -1 -15q-17 -6 -41.5 -9.5t-48.5 -3.5q-23 0 -43 4.5t-35 14t-24 25.5t-9 39t9.5 45t25.5 42.5t36 38.5t41 33h88z" />
    <glyph glyph-name="ring.cap" horiz-adv-x="504" 
d="M373 784q27 0 42 21t15 50q0 24 -9.5 41t-35.5 17q-29 0 -44 -21t-15 -51q0 -25 10.5 -41t36.5 -16zM264 834q0 28 9.5 52t26 41.5t39.5 27.5t50 10q51 0 78 -30t27 -74q0 -28 -9.5 -51.5t-26 -41t-39.5 -27.5t-50 -10q-52 0 -78.5 30t-26.5 73z" />
    <glyph glyph-name="caron.cap" horiz-adv-x="498" 
d="M238 889q11 2 23 3t25 1q11 0 25.5 -1t27.5 -3l39 -60l68 60q13 2 29 3t28 1q14 0 27.5 -1t24.5 -3l-128 -110q-12 -2 -28 -3t-30 -1q-10 0 -25 1t-28 3z" />
    <glyph glyph-name="macron.cap" horiz-adv-x="500" 
d="M218 801q0 36 12 66h284v-8q0 -17 -3 -35t-10 -35h-283v12z" />
    <glyph glyph-name="dieresis.cap" horiz-adv-x="500" 
d="M206 778q0 52 17 101q14 2 27.5 3t25.5 1q13 0 27 -1t25 -3q0 -52 -17 -101q-14 -2 -27.5 -3t-26.5 -1q-12 0 -25.5 1t-25.5 3zM420 778q0 50 17 101q13 2 27 3t26 1q13 0 26.5 -1t25.5 -3q-2 -51 -17 -101q-14 -2 -27.5 -3t-26.5 -1q-12 0 -26 1t-25 3z" />
    <glyph glyph-name="dotaccent.cap" horiz-adv-x="307" 
d="M198 773q0 29 4.5 55t12.5 53q14 2 30.5 3t28.5 1q11 0 26.5 -1t28.5 -3q-2 -56 -19 -108q-14 -1 -30 -1.5t-27 -0.5q-12 0 -28 0.5t-27 1.5z" />
    <glyph glyph-name="circumflex.cap" horiz-adv-x="498" 
d="M332 889q13 2 29.5 3t30.5 1q10 0 24.5 -1t27.5 -3l82 -110q-11 -2 -23 -3t-25 -1q-11 0 -24.5 1t-26.5 4l-45 60l-69 -61q-13 -2 -28.5 -3t-27.5 -1q-14 0 -27.5 1t-24.5 3z" />
    <glyph glyph-name="acute.cap" horiz-adv-x="500" 
d="M412 887q12 2 28.5 3t33.5 1q18 0 37 -1t30 -3l-145 -110q-10 -2 -25.5 -2.5t-31.5 -0.5q-14 0 -27.5 1t-21.5 3z" />
    <glyph glyph-name="grave.cap" horiz-adv-x="500" 
d="M222 891q12 2 31.5 3t38.5 1q17 0 33 -1t27 -3l91 -113q-8 -2 -22 -3.5t-28 -1.5q-16 0 -29 1t-22 3z" />
    <glyph glyph-name="breve.cap" horiz-adv-x="498" 
d="M229 889q11 2 21 3.5t21 1.5t20.5 -1.5t20.5 -3.5q1 -11 3.5 -21t9.5 -17.5t19.5 -12t32.5 -4.5q19 0 32.5 3.5t22.5 10.5t15 17t11 24q12 2 22 3.5t22 1.5q11 0 20.5 -1.5t19.5 -3.5q-9 -37 -28 -60.5t-42 -36.5t-49 -18t-50 -5q-26 0 -52 5.5t-46.5 19t-33 37
t-12.5 58.5z" />
    <glyph glyph-name="commaaccent.cap" horiz-adv-x="500" 
d="M207 -65q12 2 26 3t26 1q14 0 26 -1t26 -3l-84 -174q-11 -2 -23.5 -3t-23.5 -1t-22 1t-22 3z" />
    <glyph glyph-name="caron.alt" horiz-adv-x="500" 
d="M329 735q6 1 19 1.5t31 0.5q12 0 25 -0.5t21 -1.5l-47 -202q-17 -3 -40 -3q-26 0 -44 3z" />
    <glyph glyph-name="revcommaaccent" horiz-adv-x="500" 
d="M367 722q12 2 24 3t23 1q26 0 49 -4l-74 -143q-13 -3 -25 -4t-24 -1q-14 0 -27.5 1t-28.5 4z" />
    <glyph glyph-name="afii61289" unicode="&#x2113;" horiz-adv-x="458" 
d="M244 295q49 56 76 121t27 125q0 48 -13 66.5t-34 18.5q-28 0 -42 -37t-14 -120v-174zM158 442q0 73 9.5 123t27.5 80.5t45.5 43.5t63.5 13q57 0 90 -38t33 -120q0 -86 -42 -170.5t-141 -175.5q0 -36 4.5 -60.5t13.5 -39t22 -20.5t29 -6q32 0 59.5 21t47.5 46l49 -48
q-28 -42 -71 -70.5t-97 -28.5q-64 0 -100.5 36.5t-39.5 114.5q-13 -8 -24.5 -16l-23.5 -17l-16 31l-16 30l39 28l38 29v214z" />
    <glyph glyph-name="estimated" unicode="&#x212e;" horiz-adv-x="671" 
d="M210 118q0 -5 3 -16.5t11 -19.5q29 -29 71 -47.5t93 -18.5q57 0 102.5 23t79.5 63h43q-38 -48 -96.5 -75t-128.5 -27q-59 0 -111.5 20.5t-91.5 56t-62 83.5t-23 102t23 101.5t62 83t91.5 56t111.5 20.5q60 0 112.5 -21t91.5 -57.5t61 -85.5t22 -104h-459q-6 0 -6 -8v-129
zM560 268q5 0 5 7v131q0 20 -11 34q-69 69 -166 69q-96 0 -165 -69q-5 -7 -9 -16t-4 -18v-131q0 -7 5 -7h345z" />
    <glyph glyph-name="a.smcp" unicode="&#xf605;" horiz-adv-x="522" 
d="M294 548q13 2 33.5 2.5t32.5 0.5q13 0 29 -0.5t26 -2.5l84 -548q-9 -1 -22.5 -2t-25.5 -1q-13 0 -29 0.5t-27 2.5l-15 121h-195l-56 -121q-9 -1 -22 -2t-27 -1q-10 0 -24 1t-30 4zM370 199l-32 255l-118 -255h150z" />
    <glyph glyph-name="b.smcp" unicode="&#xf606;" horiz-adv-x="513" 
d="M178 548q12 2 30.5 3.5t39 3t41 2.5t38.5 1q88 0 135 -30.5t47 -90.5q0 -57 -34 -93.5t-82 -50.5q45 -9 72.5 -39t27.5 -78q0 -53 -22.5 -88.5t-59 -57t-84 -31t-96.5 -9.5q-36 0 -75.5 2.5t-72.5 7.5zM193 72q14 -3 27.5 -3.5t27.5 -0.5q27 0 53 5.5t46 17.5t32.5 32
t12.5 50q0 41 -28.5 58t-76.5 17h-62zM287 324q59 0 90.5 26t31.5 70q0 31 -19 48t-67 17q-16 0 -32 -1t-25 -3l-28 -157h49z" />
    <glyph glyph-name="c.smcp" unicode="&#xf607;" horiz-adv-x="505" 
d="M463 97q18 -32 21 -75q-36 -17 -78.5 -24.5t-81.5 -7.5q-55 0 -96.5 15.5t-69.5 44t-42 69t-14 89.5q0 64 19 127t59 112.5t100.5 80t144.5 30.5q40 0 73.5 -6.5t59.5 -17.5q-4 -18 -11.5 -38t-21.5 -40q-25 10 -50.5 15t-57.5 5q-55 0 -94.5 -22.5t-65 -58.5t-38 -82
t-12.5 -93q0 -70 32.5 -109t102.5 -39q62 0 121 25z" />
    <glyph glyph-name="d.smcp" unicode="&#xf608;" horiz-adv-x="593" 
d="M179 548q14 2 33.5 3.5l40 3t40.5 2.5t35 1q72 0 122 -17t81 -47t45 -71.5t14 -89.5q0 -69 -20.5 -131t-63.5 -109t-109.5 -75t-159.5 -28q-18 0 -39 0.5t-42 2t-40 3.5t-33 5zM195 77q12 -2 30 -3t33 -1q55 0 97.5 19.5t71.5 53t44.5 79t15.5 97.5q0 37 -8.5 65.5
t-27 48t-49 30t-75.5 10.5q-13 0 -31 -1.5t-32 -3.5z" />
    <glyph glyph-name="e.smcp" unicode="&#xf609;" horiz-adv-x="465" 
d="M177 548h337q-1 -21 -3.5 -41t-10.5 -42h-238l-24 -138h185q0 -42 -14 -83h-185l-29 -162h240q-3 -44 -16 -82h-337z" />
    <glyph glyph-name="f.smcp" unicode="&#xf60a;" horiz-adv-x="442" 
d="M177 548h322q0 -20 -3.5 -41.5t-11.5 -41.5h-223l-27 -153h183q0 -22 -3.5 -42.5t-11.5 -40.5h-182l-40 -229q-14 -2 -27 -2.5t-29 -0.5q-8 0 -21 1t-22 2z" />
    <glyph glyph-name="g.smcp" unicode="&#xf60b;" horiz-adv-x="559" 
d="M443 285q21 3 49 3q29 0 50 -3l-48 -263q-14 -7 -33.5 -13t-42.5 -10t-48 -6.5t-49 -2.5q-111 0 -168 59t-57 160q0 66 20 128.5t60 111.5t100 79t141 30q48 0 83 -8t57 -16q-8 -41 -36 -77q-25 9 -49 14t-56 5q-56 0 -96.5 -22t-66.5 -57.5t-39 -81t-13 -93.5
q0 -75 33.5 -114t101.5 -39q35 0 70 11z" />
    <glyph glyph-name="h.smcp" unicode="&#xf60c;" horiz-adv-x="593" 
d="M178 548q10 2 22.5 3t25.5 1t25.5 -1t24.5 -3l-38 -224h228l39 224q11 2 24 3t27 1q12 0 24 -1t24 -3l-96 -548q-11 -2 -23.5 -3t-26.5 -1q-26 0 -49 5l42 239h-228l-42 -240q-11 -2 -24 -3t-26 -1q-26 0 -48 5z" />
    <glyph glyph-name="i.smcp" unicode="&#xf60d;" horiz-adv-x="263" 
d="M178 548q11 2 23.5 3t24.5 1q16 0 28 -1t23 -3l-97 -548q-11 -2 -23 -3t-27 -1q-26 0 -48 5z" />
    <glyph glyph-name="j.smcp" unicode="&#xf60e;" horiz-adv-x="359" 
d="M263 469h-105q1 22 3.5 41.5t9.5 40.5h204l-71 -408q-15 -86 -62 -120.5t-126 -34.5q-21 0 -46 4t-42 11q1 23 7.5 42t15.5 37q12 -4 28.5 -7.5t36.5 -3.5q15 0 29.5 2.5t26.5 11.5t21.5 26t14.5 45z" />
    <glyph glyph-name="k.smcp" unicode="&#xf60f;" horiz-adv-x="521" 
d="M177 548q22 3 49 3q28 0 49 -3l-95 -548q-21 -3 -49 -3q-12 0 -25 0.5t-24 2.5zM252 281l227 267q27 3 50 3q16 0 30.5 -1t28.5 -3l-227 -263l152 -284l-27.5 -2t-30.5 -1q-25 0 -50 3z" />
    <glyph glyph-name="l.smcp" unicode="&#xf610;" horiz-adv-x="432" 
d="M178 548q21 3 49 3q29 0 50 -3l-82 -465h222q-1 -24 -4.5 -44t-9.5 -39h-322z" />
    <glyph glyph-name="m.smcp" unicode="&#xf611;" horiz-adv-x="702" 
d="M192 548q11 2 26.5 3t29.5 1q15 0 28 -1t24 -3l86 -342l201 342q10 2 26 3t31 1q14 0 27.5 -1t23.5 -3l-65 -548q-11 -2 -23 -3t-25 -1q-14 0 -26.5 1t-20.5 3l49 395l-177 -293q-20 -3 -43 -3q-11 0 -20.5 0.5t-18.5 2.5l-79 292l-85 -394q-11 -2 -21 -3t-24 -1
q-23 0 -48 5z" />
    <glyph glyph-name="n.smcp" unicode="&#xf612;" horiz-adv-x="596" 
d="M178 548q10 2 23 2.5t24 0.5q12 0 23 -0.5t21 -2.5l178 -395l68 395q16 3 44 3q30 0 47 -3l-96 -548q-9 -2 -21.5 -2.5t-25.5 -0.5q-25 0 -43 3l-178 392l-69 -392q-8 -2 -18.5 -2.5t-28.5 -0.5q-16 0 -26 1t-18 3z" />
    <glyph glyph-name="o.smcp" unicode="&#xf613;" horiz-adv-x="610" 
d="M297 -10q-51 0 -89 15t-63.5 42.5t-38 65.5t-12.5 84q0 70 20.5 135.5t59.5 115.5t95 80t127 30q52 0 90 -15.5t63.5 -43.5t38 -66t12.5 -83q0 -74 -21 -139.5t-60 -114.5t-95.5 -77.5t-126.5 -28.5zM307 71q45 0 80 23.5t59.5 62t37.5 87.5t13 100q0 60 -27 96t-85 36
q-46 0 -81 -23.5t-59 -61.5t-36.5 -87.5t-12.5 -100.5q0 -62 27 -97t84 -35z" />
    <glyph glyph-name="p.smcp" unicode="&#xf614;" horiz-adv-x="505" 
d="M178 548q13 2 31 3.5t38 3t41 2.5t40 1q41 0 77.5 -8t63.5 -25.5t42.5 -46t15.5 -69.5q0 -57 -21 -99.5t-56.5 -71.5t-82.5 -43.5t-99 -14.5h-29t-26 2l-33 -182q-21 -3 -49 -3q-11 0 -25 1t-24 3zM227 263q10 -2 21.5 -2h23.5q72 0 112.5 35t40.5 98q0 83 -111 83
q-11 0 -26 -0.5t-24 -2.5z" />
    <glyph glyph-name="q.smcp" unicode="&#xf615;" horiz-adv-x="610" 
d="M551 -44q-3 -39 -25 -77l-186 32q3 39 23 75zM297 -8q-51 0 -89 15t-63.5 42.5t-38 65.5t-12.5 84q0 70 20.5 135.5t59.5 115.5t95 80t127 30q52 0 90 -15.5t63.5 -43.5t38 -66t12.5 -83q0 -74 -21 -139.5t-60 -114.5t-95.5 -77.5t-126.5 -28.5zM307 73q45 0 80 23.5
t59.5 62t37.5 87.5t13 100q0 60 -27 96t-85 36q-46 0 -81 -23.5t-59 -61.5t-36.5 -87.5t-12.5 -100.5q0 -62 27 -97t84 -35z" />
    <glyph glyph-name="r.smcp" unicode="&#xf616;" horiz-adv-x="515" 
d="M178 549q35 4 75.5 6.5t75.5 2.5q42 0 77.5 -8.5t61.5 -26t40.5 -44t14.5 -62.5t-11.5 -64.5t-31 -51.5t-44.5 -40.5t-51 -30.5l106 -228q-15 -2 -24 -2.5t-17 -1.5h-30q-11 0 -21 0.5t-19 1.5l-113 255l33 15q19 9 39.5 20t38 27t28.5 36.5t11 47.5q0 35 -23.5 56.5
t-71.5 21.5q-14 0 -28.5 -0.5t-30.5 -2.5l-83 -476q-11 -2 -24 -2.5t-27 -0.5q-10 0 -22.5 1t-24.5 3z" />
    <glyph glyph-name="s.smcp" unicode="&#xf617;" horiz-adv-x="473" 
d="M314 328q30 -15 54.5 -29.5t41.5 -32t26.5 -39t9.5 -50.5q0 -47 -18.5 -82t-51 -58t-77 -35t-96.5 -12q-45 0 -85.5 7t-69.5 20q4 18 11.5 39t18.5 40q32 -11 65.5 -18t68.5 -7q29 0 52.5 7.5t40 20t25 28.5t8.5 34q0 32 -22 51.5t-67 39.5q-53 24 -86.5 55.5t-33.5 86.5
q0 36 15 66.5t43 52t67 33.5t87 12q46 0 82 -7.5t65 -18.5q-3 -20 -11 -42t-19 -37q-21 10 -54 18.5t-63 8.5q-21 0 -41 -5t-35.5 -14t-25 -22t-9.5 -29q0 -25 20.5 -43.5t56.5 -35.5z" />
    <glyph glyph-name="t.smcp" unicode="&#xf618;" horiz-adv-x="458" 
d="M257 465h-155q0 22 3.5 42t10.5 41h407q0 -21 -3 -41.5t-11 -41.5h-153l-82 -465q-11 0 -23.5 -0.5t-25.5 -0.5q-12 0 -25 0.5t-24 0.5z" />
    <glyph glyph-name="u.smcp" unicode="&#xf619;" horiz-adv-x="598" 
d="M179 548q11 2 24.5 2.5t26.5 0.5q23 0 47 -3l-48 -276q-6 -32 -10 -60.5t-4 -49.5q0 -47 21 -67.5t75 -20.5q34 0 58 9.5t40.5 29t26.5 48.5t17 67l58 320q25 3 49 3q26 0 49 -3l-59 -332q-10 -55 -28 -97.5t-47.5 -71t-73 -43t-103.5 -14.5q-99 0 -140.5 44t-41.5 119
q0 24 3.5 51t8.5 52z" />
    <glyph glyph-name="v.smcp" unicode="&#xf61a;" horiz-adv-x="526" 
d="M119 547q14 2 28.5 3t26.5 1q14 0 27.5 -1t24.5 -3l57 -436l201 437q9 1 19.5 2t21.5 1h27q11 0 20 -1t19 -3l-269 -547q-12 -2 -29.5 -2.5t-28.5 -0.5q-13 0 -30.5 0.5t-26.5 2.5z" />
    <glyph glyph-name="w.smcp" unicode="&#xf61b;" horiz-adv-x="783" 
d="M114 548q11 2 25 2.5t29 0.5q12 0 25 -1t23 -3l20 -429l196 429q13 2 27.5 3t25.5 1t24 -0.5t22 -2.5l42 -439l178 439q19 3 46 3q15 0 27.5 -1t23.5 -3l-233 -547q-11 -2 -29.5 -2.5t-31.5 -0.5q-15 0 -32 0.5t-28 2.5l-38 410l-187 -410q-11 -2 -25.5 -2.5t-24.5 -0.5
h-27l-38 3z" />
    <glyph glyph-name="x.smcp" unicode="&#xf61c;" horiz-adv-x="515" 
d="M206 288l-74 260q28 3 56 3q13 0 23 -0.5t22 -2.5l73 -262l-184 -286q-14 -2 -29 -2.5t-27 -0.5q-10 0 -24 1t-29 3zM313 286l166 262q27 3 48 3q10 0 27 -0.5t30 -2.5l-170 -263l93 -285q-5 -1 -13 -1.5l-16 -1t-15.5 -0.5h-11.5q-20 0 -48 3z" />
    <glyph glyph-name="y.smcp" unicode="&#xf61d;" horiz-adv-x="476" 
d="M96 547q14 2 27.5 3t27.5 1q25 0 48 -3l82 -262l169 262q22 3 51 3q14 0 27 -1t27 -3l-242 -359l-33 -188q-21 -3 -49 -3q-23 0 -48 3l17.5 97l16.5 97z" />
    <glyph glyph-name="z.smcp" unicode="&#xf61e;" horiz-adv-x="469" 
d="M26 11l338 454h-239q0 23 3 43.5t12 39.5h380l7 -11l-339 -455h259q-1 -43 -14 -82h-402z" />
    <glyph glyph-name="ae.smcp" unicode="&#xf61f;" horiz-adv-x="769" 
d="M41 -3q-8 0 -20.5 1t-20.5 2l206 274l207 274h405q-1 -21 -3.5 -41t-10.5 -42h-238l-24 -138h185q0 -42 -14 -83h-185l-29 -162h240q-3 -44 -16 -82h-338l20 116h-205l-89 -116q-10 -1 -23 -2t-24 -1h-23zM418 195l50 272h-7l-204 -272h161z" />
    <glyph glyph-name="oe.smcp" unicode="&#xf621;" horiz-adv-x="761" 
d="M731 82q-3 -44 -16 -82h-333q-39 -9 -82 -9q-101 0 -153.5 57t-52.5 152q0 73 20.5 138t59 114t94.5 77.5t127 28.5q21 0 44 -2.5t40 -7.5h332q-1 -21 -3.5 -41t-10.5 -42h-238l-25 -138h185q0 -42 -14 -83h-185l-29 -162h240zM459 461q-31 14 -73 14q-48 0 -83.5 -22.5
t-59.5 -60t-36 -86t-12 -100.5q0 -65 30.5 -100t90.5 -35q20 0 39.5 3t36.5 10z" />
    <glyph glyph-name="eth.smcp" unicode="&#xf622;" horiz-adv-x="604" 
d="M136 241h-66q0 21 2.5 39t10.5 38h65l41 230q15 2 34 3.5l39.5 3t40.5 2.5t35 1q73 0 123 -17t81 -47t45 -71.5t14 -89.5q0 -69 -20.5 -131t-64 -109t-110 -75t-159.5 -28q-18 0 -39 0.5t-42 2t-40 3.5t-32 5zM205 77q13 -2 31 -3t33 -1q55 0 97.5 19.5t71.5 53t44 79
t15 97.5q0 37 -8 65.5t-27 48t-49 30t-75 10.5q-13 0 -31.5 -1.5t-32.5 -3.5l-27 -153h134q0 -40 -13 -77h-134z" />
    <glyph glyph-name="hbar.smcp" unicode="&#xf623;" horiz-adv-x="570" 
d="M140 397h-57q1 19 3 35.5t10 36.5h57l14 79q10 2 22 3t26 1q13 0 25.5 -1t24.5 -3l-14 -79h228l14 79q11 2 24 3t27 1q13 0 25 -1t24 -3l-14 -79h55q0 -20 -3.5 -37.5t-9.5 -34.5h-55l-70 -397q-10 -2 -23 -3t-27 -1q-26 0 -48 5l42 239h-228l-42 -240q-11 -2 -24 -3
t-27 -1q-26 0 -48 5zM454 324l13 73h-228l-13 -73h228z" />
    <glyph glyph-name="ij.smcp" unicode="&#xf624;" horiz-adv-x="617" 
d="M178 548q11 2 23.5 3t24.5 1q16 0 28 -1t23 -3l-97 -548q-11 -2 -23 -3t-27 -1q-26 0 -48 5zM520 469h-105q1 22 3.5 41.5t9.5 40.5h204l-71 -408q-15 -86 -62 -120.5t-126 -34.5q-21 0 -46 4t-42 11q1 23 7.5 42t15.5 37q12 -4 28.5 -7.5t36.5 -3.5q15 0 29.5 2.5
t26.5 11.5t21.5 26t14.5 45z" />
    </font>
</defs>
</svg>
