<?xml version="1.0" standalone="no"?>
<!DOCTYPE svg PUBLIC "-//W3C//DTD SVG 1.1//EN" "http://www.w3.org/Graphics/SVG/1.1/DTD/svg11.dtd" >
<svg>
<metadata>
Created by FontForge 20090622 at Tue May 26 14:22:52 2015
 By deploy user
&#194;&#169; 2014 Microsoft Corporation. All Rights Reserved.
</metadata>
<defs>
<font id="SegoeUI-LightItalic" horiz-adv-x="0" >
  <font-face 
    font-family="Segoe UI Light"
    font-weight="300"
    font-style="italic"
    font-stretch="normal"
    units-per-em="2048"
    panose-1="2 11 3 2 4 5 4 9 2 3"
    ascent="1638"
    descent="-410"
    x-height="1024"
    cap-height="1434"
    bbox="-911 -514 2873 2131"
    underline-thickness="119"
    underline-position="-119"
    slope="-12"
    unicode-range="U+000D-U+FFFD"
  />
<missing-glyph horiz-adv-x="1322" 
d="M166 1398h990v-1398h-990v1398zM1008 148v1102h-694v-1102h694z" />
    <glyph glyph-name=".notdef" horiz-adv-x="1322" 
d="M166 1398h990v-1398h-990v1398zM1008 148v1102h-694v-1102h694z" />
    <glyph glyph-name="glyph1" 
 />
    <glyph glyph-name="uni000D" unicode="&#xd;" 
 />
    <glyph glyph-name="space" unicode=" " horiz-adv-x="563" 
 />
    <glyph glyph-name="exclam" unicode="!" horiz-adv-x="537" 
d="M401 1434h107l-229 -1031h-86zM94 63q0 35 23 57.5t57 22.5t58 -22.5t24 -57.5q0 -34 -24 -57.5t-58 -23.5t-57 23.5t-23 57.5z" />
    <glyph glyph-name="quotedbl" unicode="&#x22;" horiz-adv-x="662" 
d="M535 1434h96l-10 -449h-76zM287 1434h96l-10 -449h-76z" />
    <glyph glyph-name="numbersign" unicode="#" horiz-adv-x="1237" 
d="M401 522h-282l18 78h281l76 346h-293l18 78h291l88 410h80l-88 -410h268l88 410h80l-88 -410h274l-18 -78h-272l-76 -346h284l-18 -78h-283l-86 -399h-79l86 399h-269l-86 -399h-80zM766 600l76 346h-269l-75 -346h268z" />
    <glyph glyph-name="dollar" unicode="$" horiz-adv-x="1055" 
d="M88 180q126 -82 299 -94l129 600q-134 98 -190 181.5t-56 191.5q0 155 113.5 259t290.5 116l39 180h78l-39 -182q128 -7 245 -50l-20 -98q-105 60 -244 66l-129 -613q143 -105 196.5 -184.5t53.5 -181.5q0 -165 -109.5 -265t-295.5 -106l-46 -209h-77l45 211
q-174 10 -301 78zM655 1348q-129 -10 -208.5 -88.5t-79.5 -192.5q0 -83 38.5 -146.5t131.5 -134.5zM467 86q139 9 215 80.5t76 191.5q0 71 -41 137.5t-133 139.5z" />
    <glyph glyph-name="percent" unicode="%" horiz-adv-x="1632" 
d="M1174 -20q-121 0 -192 74.5t-71 201.5q0 193 110 324t271 131q120 0 189 -75t69 -202q0 -195 -106.5 -324.5t-269.5 -129.5zM1395 1434h108l-1169 -1434h-109zM416 723q-121 0 -191.5 73t-70.5 203q0 193 110 324t271 131q118 0 188 -74.5t70 -201.5q0 -195 -106.5 -325
t-270.5 -130zM1180 59q119 0 199.5 105t80.5 262q0 100 -45.5 152.5t-130.5 52.5q-121 0 -200.5 -106.5t-79.5 -262.5q0 -97 47 -150t129 -53zM422 803q120 0 200 104.5t80 261.5q0 100 -45.5 152.5t-130.5 52.5q-119 0 -199.5 -105.5t-80.5 -262.5q0 -97 45.5 -150
t130.5 -53z" />
    <glyph glyph-name="ampersand" unicode="&#x26;" horiz-adv-x="1470" 
d="M997 161q-220 -190 -496 -190q-189 0 -299 98t-110 258q0 101 46.5 180t139 141.5t273.5 130.5q-88 124 -116.5 189t-28.5 142q0 98 51 178.5t141 126t190 45.5q155 0 248 -78t93 -212q0 -145 -107 -241.5t-342 -181.5l331 -456q174 189 267 473h84q-98 -330 -300 -542
l163 -222h-111zM1041 1170q0 100 -68 155.5t-189 55.5q-128 0 -209 -76t-81 -194q0 -57 29 -123.5t110 -179.5q156 57 243 107.5t126 106.5t39 148zM597 716q-167 -65 -252 -118t-122 -114.5t-37 -156.5q0 -122 90.5 -198t232.5 -76q241 0 439 176z" />
    <glyph glyph-name="quotesingle" unicode="'" horiz-adv-x="414" 
d="M287 1434h96l-10 -449h-76z" />
    <glyph glyph-name="parenleft" unicode="(" horiz-adv-x="588" 
d="M289 -281q-166 293 -166 598q0 327 122 584.5t404 532.5h105q-286 -282 -412.5 -540.5t-126.5 -563.5q0 -325 170 -611h-96z" />
    <glyph glyph-name="parenright" unicode=")" horiz-adv-x="588" 
d="M-143 -281q281 277 409.5 536t128.5 568q0 325 -170 611h97q165 -296 165 -598q0 -324 -122.5 -584t-403.5 -533h-104z" />
    <glyph glyph-name="asterisk" unicode="*" horiz-adv-x="831" 
d="M494 1051l-295 75l26 86l289 -102l-16 324h94l-14 -324l286 102l27 -86l-293 -75l199 -267l-76 -51l-174 277l-178 -277l-74 51z" />
    <glyph glyph-name="plus" unicode="+" horiz-adv-x="1331" 
d="M233 639h412v412h84v-412h412v-84h-412v-412h-84v412h-412v84z" />
    <glyph glyph-name="comma" unicode="," horiz-adv-x="455" 
d="M160 227h106l-205 -475h-86z" />
    <glyph glyph-name="hyphen" unicode="-" horiz-adv-x="815" 
d="M164 645h547l-21 -90h-547z" />
    <glyph glyph-name="hyphen" unicode="&#x2010;" horiz-adv-x="815" 
d="M164 645h547l-21 -90h-547z" />
    <glyph glyph-name="period" unicode="." horiz-adv-x="455" 
d="M143 -18q-34 0 -57 23.5t-23 57.5q0 35 23 57.5t57 22.5t58 -22.5t24 -57.5q0 -34 -24 -57.5t-58 -23.5z" />
    <glyph glyph-name="slash" unicode="/" horiz-adv-x="791" 
d="M874 1434h101l-1041 -1672h-100z" />
    <glyph glyph-name="zero" unicode="0" horiz-adv-x="1055" 
d="M102 444q0 268 86.5 513.5t227 373t305.5 127.5q159 0 243.5 -107t84.5 -315q0 -292 -77.5 -534t-218 -384.5t-317.5 -142.5q-160 0 -247 115t-87 354zM199 453q0 -202 63 -298t189 -96q131 0 244 121.5t186 362.5t73 487q0 168 -63.5 256t-177.5 88q-141 0 -260 -127.5
t-186.5 -338.5t-67.5 -455z" />
    <glyph glyph-name="one" unicode="1" horiz-adv-x="836" 
d="M583 1330l-377 -114l19 99l475 143l-308 -1458h-93z" />
    <glyph glyph-name="two" unicode="2" horiz-adv-x="958" 
d="M876 1136q0 107 -71.5 172.5t-194.5 65.5q-141 0 -344 -121l22 111q67 40 160 67t172 27q163 0 257 -85.5t94 -232.5q0 -132 -38.5 -212.5t-128.5 -158t-276 -195.5q-240 -152 -316.5 -213t-114 -120t-59.5 -157h713l-17 -84h-808l14 67q22 110 41.5 153.5t52 84.5
t89 88.5t141.5 106t193 125.5q218 138 287 203t100.5 136.5t31.5 171.5z" />
    <glyph glyph-name="three" unicode="3" horiz-adv-x="1055" 
d="M55 152q67 -43 154 -68t162 -25q192 0 298.5 90.5t106.5 258.5q0 290 -362 290h-103l21 90h94q235 0 353 88.5t118 258.5q0 112 -65.5 175.5t-182.5 63.5q-137 0 -297 -88l17 100q144 72 288 72q158 0 247 -83.5t89 -231.5q0 -153 -97.5 -261.5t-270.5 -140.5v-4
q112 -22 179.5 -109t67.5 -212q0 -204 -139 -322.5t-373 -118.5q-72 0 -162 20t-167 56z" />
    <glyph glyph-name="four" unicode="4" horiz-adv-x="1032" 
d="M919 1434h98l-208 -976h224l-17 -83h-224l-80 -375h-92l80 375h-683l19 90q237 217 488 491t395 478zM717 458l171 800q-147 -185 -343 -398t-397 -402h569z" />
    <glyph glyph-name="five" unicode="5" horiz-adv-x="942" 
d="M37 121q51 -28 128 -45t142 -17q202 0 316 110.5t114 299.5q0 293 -329 293q-92 0 -224 -12l180 684h594l-18 -91h-508l-135 -503l127 6q194 0 302 -95t108 -268q0 -235 -144 -371.5t-391 -136.5q-165 0 -283 48z" />
    <glyph glyph-name="six" unicode="6" horiz-adv-x="1055" 
d="M233 668q61 111 158.5 169t212.5 58q162 0 258 -102.5t96 -276.5q0 -154 -60.5 -278t-167.5 -193.5t-232 -69.5q-177 0 -274 132t-97 370q0 276 97.5 504.5t264.5 352.5t367 124q113 0 211 -39l-18 -90q-98 45 -209 45q-151 0 -279 -89t-216 -253t-116 -364h4zM500 59
q155 0 258.5 128.5t103.5 320.5q0 137 -74 220t-198 83q-102 0 -187 -52t-131.5 -140t-46.5 -193q0 -165 75.5 -266t199.5 -101z" />
    <glyph glyph-name="seven" unicode="7" horiz-adv-x="944" 
d="M107 0q85 223 180.5 403.5t233 386t402.5 554.5h-753l18 90h882l-8 -45q-338 -448 -473.5 -649.5t-217.5 -363.5t-161 -376h-103z" />
    <glyph glyph-name="eight" unicode="8" horiz-adv-x="1026" 
d="M413 776q-75 39 -119.5 109t-44.5 167q0 108 56.5 202t155 149t209.5 55q152 0 248.5 -87t96.5 -222q0 -139 -78.5 -240.5t-226.5 -147.5q92 -38 148 -121.5t56 -189.5q0 -129 -66 -239.5t-179 -172t-240 -61.5q-170 0 -274.5 96.5t-104.5 260.5q0 161 96 279.5
t267 162.5zM146 337q0 -128 80.5 -203t209.5 -75q99 0 186.5 51.5t139 141.5t51.5 197q0 123 -75.5 197t-198.5 74q-107 0 -198.5 -51t-143 -139t-51.5 -193zM347 1049q0 -108 63 -175.5t168 -67.5q86 0 165 46t125.5 124t46.5 164q0 103 -70.5 168.5t-179.5 65.5
q-83 0 -156.5 -44t-117.5 -120.5t-44 -160.5z" />
    <glyph glyph-name="nine" unicode="9" horiz-adv-x="1055" 
d="M84 104q103 -45 205 -45q158 0 289 86t218.5 251.5t110.5 353.5h-4q-53 -104 -151 -165t-215 -61q-158 0 -258.5 115t-100.5 287q0 143 62 266t169.5 194.5t227.5 71.5q178 0 275.5 -131.5t97.5 -372.5q0 -272 -90 -494.5t-257.5 -353.5t-383.5 -131q-110 0 -213 39z
M547 608q155 0 260.5 113t105.5 276q0 181 -72.5 279t-203.5 98q-149 0 -256 -129.5t-107 -310.5q0 -144 77 -235t196 -91z" />
    <glyph glyph-name="colon" unicode=":" horiz-adv-x="455" 
d="M332 881q-34 0 -57 24t-23 58t23 56.5t57 22.5t58 -22.5t24 -56.5t-24 -58t-58 -24zM143 -18q-34 0 -57 23.5t-23 57.5q0 35 23 57.5t57 22.5t58 -22.5t24 -57.5q0 -34 -24 -57.5t-58 -23.5z" />
    <glyph glyph-name="semicolon" unicode=";" horiz-adv-x="455" 
d="M332 881q-34 0 -57 24t-23 58t23 56.5t57 22.5t58 -22.5t24 -56.5t-24 -58t-58 -24zM141 227h107l-205 -475h-86z" />
    <glyph glyph-name="less" unicode="&#x3c;" horiz-adv-x="1331" 
d="M217 598l834 467v-94l-678 -379v-4l678 -334v-96l-834 422v18z" />
    <glyph glyph-name="equal" unicode="=" horiz-adv-x="1331" 
d="M233 834h908v-84h-908v84zM233 446h908v-84h-908v84z" />
    <glyph glyph-name="greater" unicode="&#x3e;" horiz-adv-x="1331" 
d="M289 254l678 334v4l-678 379v94l833 -467v-18l-833 -422v96z" />
    <glyph glyph-name="question" unicode="?" horiz-adv-x="756" 
d="M274 403q26 149 73 226t169 164q124 85 175.5 165t51.5 187q0 106 -60 167.5t-165 61.5q-119 0 -270 -78l18 101q143 61 264 61q142 0 226 -84.5t84 -218.5q0 -128 -65 -230.5t-206 -199.5q-108 -74 -146 -138t-58 -184h-91zM182 63q0 35 23 57.5t57 22.5t58 -22.5
t24 -57.5q0 -34 -24 -57.5t-58 -23.5t-57 23.5t-23 57.5z" />
    <glyph glyph-name="at" unicode="@" horiz-adv-x="1966" 
d="M1010 -188q-371 0 -577 203t-206 560q0 242 117 445t321 320.5t445 117.5q328 0 522.5 -183.5t194.5 -494.5q0 -153 -58.5 -291.5t-158 -219.5t-211.5 -81q-99 0 -154 50.5t-55 150.5v12l2 27h-4q-70 -120 -149.5 -180t-184.5 -60q-111 0 -176.5 76.5t-65.5 210.5
q0 166 63.5 310t168 223t225.5 79q160 0 213 -155h4l37 141h88l-119 -523q-20 -82 -20 -128q0 -75 28.5 -112.5t104.5 -37.5q87 0 162 66t119.5 182.5t44.5 249.5q0 290 -162.5 447t-468.5 157q-218 0 -395 -103t-279 -285.5t-102 -410.5q0 -328 182 -503.5t514 -175.5
q110 0 236 28.5t223 73.5l-21 -98q-213 -88 -448 -88zM1237 807q0 197 -176 197q-93 0 -175.5 -70.5t-129.5 -191.5t-47 -261q0 -96 43.5 -152.5t113.5 -56.5q103 0 183 71.5t134 213t54 250.5z" />
    <glyph glyph-name="A" unicode="A" horiz-adv-x="1206" 
d="M748 1434h92l233 -1434h-100l-72 446h-616l-265 -446h-104zM889 537l-103 663q-8 52 -10 109h-4l-33 -66l-405 -706h555z" />
    <glyph glyph-name="B" unicode="B" horiz-adv-x="1106" 
d="M379 1434h348q152 0 242 -82.5t90 -223.5q0 -156 -85.5 -258.5t-232.5 -130.5v-4q111 -25 171.5 -104.5t60.5 -194.5q0 -209 -127.5 -322.5t-364.5 -113.5h-405zM569 788q185 0 286 88.5t101 241.5q0 109 -66.5 167t-184.5 58h-244l-121 -555h229zM471 90q399 0 399 338
q0 130 -87.5 200t-250.5 70h-210l-127 -608h276z" />
    <glyph glyph-name="C" unicode="C" horiz-adv-x="1294" 
d="M713 -25q-264 0 -412.5 164t-148.5 448q0 250 99 446t283 310.5t410 114.5q206 0 383 -96l-20 -109q-151 115 -377 115q-193 0 -348.5 -99t-241.5 -276t-86 -391q0 -256 125.5 -396t347.5 -140q203 0 383 102l-23 -111q-102 -45 -179 -63.5t-189 -18.5h-6z" />
    <glyph glyph-name="D" unicode="D" horiz-adv-x="1386" 
d="M383 1434h332q301 0 461.5 -149t160.5 -435q0 -260 -104.5 -453t-299 -295t-450.5 -102h-407zM483 90q354 0 553 197t199 555q0 501 -539 501h-235l-266 -1253h288z" />
    <glyph glyph-name="E" unicode="E" horiz-adv-x="989" 
d="M379 1434h670l-19 -91h-571l-123 -575h530l-18 -90h-531l-124 -588h604l-19 -90h-702z" />
    <glyph glyph-name="F" unicode="F" horiz-adv-x="952" 
d="M379 1434h670l-19 -91h-571l-125 -585h530l-18 -90h-531l-141 -668h-98z" />
    <glyph glyph-name="G" unicode="G" horiz-adv-x="1421" 
d="M1176 623h-363l21 90h462l-135 -637q-185 -101 -407 -101q-280 0 -441 169.5t-161 463.5q0 253 101.5 446.5t287 298.5t422.5 105q209 0 413 -94l-24 -100q-112 59 -206 81.5t-204 22.5q-204 0 -361.5 -92t-242 -263.5t-84.5 -398.5q0 -258 132.5 -403t375.5 -145
q163 0 307 61z" />
    <glyph glyph-name="H" unicode="H" horiz-adv-x="1386" 
d="M379 1434h98l-139 -656h821l139 656h99l-303 -1434h-99l146 688h-822l-145 -688h-98z" />
    <glyph glyph-name="I" unicode="I" horiz-adv-x="467" 
d="M379 1434h98l-303 -1434h-98z" />
    <glyph glyph-name="J" unicode="J" horiz-adv-x="655" 
d="M-78 100q19 -11 60.5 -22.5t64.5 -11.5q139 0 212 85.5t120 303.5l209 979h98l-209 -975q-59 -272 -157.5 -378t-284.5 -106q-27 0 -71.5 9t-61.5 18z" />
    <glyph glyph-name="K" unicode="K" horiz-adv-x="1079" 
d="M379 1434h98l-143 -676h4l19 20l741 656h133l-801 -701l516 -733h-123l-467 678l-26 45h-4l-152 -723h-98z" />
    <glyph glyph-name="L" unicode="L" horiz-adv-x="868" 
d="M379 1434h98l-284 -1344h575l-18 -90h-674z" />
    <glyph glyph-name="M" unicode="M" horiz-adv-x="1706" 
d="M379 1434h84l319 -793q28 -69 41 -128h6l84 106l707 815h96l-307 -1434h-92l233 1095l40 173h-4q-35 -58 -65 -92l-701 -802h-33l-322 796q-20 47 -28 97h-4q-4 -35 -14.5 -95.5t-246.5 -1171.5h-96z" />
    <glyph glyph-name="N" unicode="N" horiz-adv-x="1452" 
d="M379 1434h67l613 -1149q33 -64 43 -92h4l15 92l243 1149h98l-305 -1434h-55l-621 1159l-41 90h-4l-5 -31l-259 -1218h-96z" />
    <glyph glyph-name="O" unicode="O" horiz-adv-x="1544" 
d="M725 -25q-268 0 -420.5 167.5t-152.5 451.5q0 240 100 439t276 312t394 113q257 0 412 -169.5t155 -442.5q0 -242 -96.5 -444t-271 -314.5t-396.5 -112.5zM729 66q195 0 342 96t231 276t84 402q0 241 -125.5 384.5t-340.5 143.5q-192 0 -344.5 -97.5t-237 -274
t-84.5 -400.5q0 -246 125 -388t350 -142z" />
    <glyph glyph-name="P" unicode="P" horiz-adv-x="1114" 
d="M379 1434h313q196 0 305 -98t109 -275q0 -226 -146.5 -356t-396.5 -130h-266l-123 -575h-98zM569 666q209 0 322 99.5t113 287.5q0 139 -84 214.5t-248 75.5h-213l-144 -677h254z" />
    <glyph glyph-name="Q" unicode="Q" horiz-adv-x="1544" 
d="M970 -346l-234 321q-275 0 -429.5 163.5t-154.5 455.5q0 236 103 440t277.5 314t389.5 110q257 0 412 -164t155 -448q0 -217 -81.5 -406t-227.5 -309t-329 -147l247 -330h-128zM729 66q192 0 342 98.5t232.5 277.5t82.5 398q0 245 -127 386.5t-339 141.5
q-195 0 -347 -99.5t-235.5 -278.5t-83.5 -394q0 -251 125 -390.5t350 -139.5z" />
    <glyph glyph-name="R" unicode="R" horiz-adv-x="1137" 
d="M379 1434h366q175 0 271 -91t96 -258q0 -177 -121 -295.5t-319 -130.5v-4q95 -43 135 -198l115 -457h-105l-106 432q-26 106 -81.5 156.5t-162.5 50.5h-158l-135 -639h-98zM594 729q194 0 305 94t111 258q0 125 -73.5 193.5t-205.5 68.5h-272l-131 -614h266z" />
    <glyph glyph-name="S" unicode="S" horiz-adv-x="1018" 
d="M63 164q66 -43 155 -70.5t183 -27.5q161 0 252.5 73.5t91.5 206.5q0 93 -52 167t-177 165q-141 102 -197.5 190t-56.5 203q0 170 130.5 278.5t324.5 108.5q146 0 291 -53l-21 -102q-116 65 -280 65q-154 0 -248 -78.5t-94 -210.5q0 -100 45.5 -168.5t177.5 -165.5
q145 -105 202.5 -188.5t57.5 -198.5q0 -177 -123 -280t-330 -103q-97 0 -189 23.5t-161 60.5z" />
    <glyph glyph-name="T" unicode="T" horiz-adv-x="1047" 
d="M649 1343h-413l18 91h926l-19 -91h-413l-285 -1343h-98z" />
    <glyph glyph-name="U" unicode="U" horiz-adv-x="1327" 
d="M358 1434h99l-164 -783q-31 -145 -31 -235q0 -350 348 -350q191 0 299 110.5t158 343.5l193 914h98l-187 -887q-67 -313 -200.5 -442.5t-378.5 -129.5q-202 0 -316 112t-114 312q0 99 24 217z" />
    <glyph glyph-name="V" unicode="V" horiz-adv-x="1282" 
d="M260 1434h107l170 -1147q8 -53 8 -135h4q9 20 20 42t731 1240h115l-860 -1434h-74z" />
    <glyph glyph-name="W" unicode="W" horiz-adv-x="1767" 
d="M215 1434h104l87 -1149l6 -127h4l26.5 61t630.5 1215h49l82 -1149l6 -127h4l621 1276h111l-723 -1434h-82l-90 1079l-3 133h-5q-16 -57 -54 -131l-567 -1081h-84z" />
    <glyph glyph-name="X" unicode="X" horiz-adv-x="1153" 
d="M-57 0l616 727l-270 707h112l199 -539l33 -100h4l33.5 48.5t486.5 590.5h119l-588 -709l275 -725h-113l-205 547l-33 106h-4q-19 -33 -80 -106l-456 -547h-129z" />
    <glyph glyph-name="Y" unicode="Y" horiz-adv-x="1106" 
d="M496 543l-248 891h104l185 -686q22 -81 26 -109h4q16 29 55 82l508 713h115l-647 -889l-115 -545h-102z" />
    <glyph glyph-name="Z" unicode="Z" horiz-adv-x="1167" 
d="M1104 1341h-795l19 93h952l-6 -37l-1147 -1305h854l-18 -92h-1008l8 41z" />
    <glyph glyph-name="bracketleft" unicode="[" horiz-adv-x="588" 
d="M406 1434h317l-16 -84h-226l-340 -1592h226l-17 -84h-317z" />
    <glyph glyph-name="backslash" unicode="\" horiz-adv-x="791" 
d="M201 1434h88l344 -1674h-84z" />
    <glyph glyph-name="bracketright" unicode="]" horiz-adv-x="588" 
d="M-119 -242h225l340 1592h-225l17 84h317l-373 -1760h-317z" />
    <glyph glyph-name="asciicircum" unicode="^" horiz-adv-x="1331" 
d="M678 1458h41l385 -756h-96l-308 613h-4l-307 -613h-96z" />
    <glyph glyph-name="underscore" unicode="_" horiz-adv-x="850" 
d="M-150 -178h850l-24 -119h-850z" />
    <glyph glyph-name="grave" unicode="`" horiz-adv-x="614" 
d="M281 1516h98l192 -328h-84z" />
    <glyph glyph-name="a" unicode="a" horiz-adv-x="1071" 
d="M739 0q4 111 43 328h-4q-93 -172 -193 -262.5t-220 -90.5q-136 0 -209.5 95.5t-73.5 269.5q0 200 81 363t223.5 254.5t313.5 91.5q130 0 312 -37l-133 -645q-15 -76 -30 -189.5t-15 -177.5h-95zM905 942q-106 23 -213 23q-143 0 -261.5 -78t-185.5 -219t-67 -318
q0 -291 205 -291q81 0 174 79.5t173.5 220t113.5 288.5z" />
    <glyph glyph-name="b" unicode="b" horiz-adv-x="1071" 
d="M379 1516h92q-146 -679 -174 -799h4q81 159 180.5 245.5t227.5 86.5q139 0 209.5 -94t70.5 -273q0 -204 -78.5 -366t-219.5 -251.5t-314 -89.5q-67 0 -155 23t-152 61zM174 115q95 -56 213 -56q139 0 256.5 79t183.5 219.5t66 312.5q0 144 -47.5 219.5t-161.5 75.5
q-87 0 -178 -78t-168.5 -219.5t-108.5 -290.5z" />
    <glyph glyph-name="c" unicode="c" horiz-adv-x="838" 
d="M438 -25q-164 0 -260 108.5t-96 297.5q0 187 72 341t198 240.5t275 86.5q69 0 125 -15.5t114 -54.5l-24 -102q-88 88 -224 88q-121 0 -224.5 -76t-161.5 -210t-58 -294q0 -152 72.5 -239t202.5 -87q66 0 126 26t134 81l-25 -115q-76 -43 -130 -59.5t-116 -16.5z" />
    <glyph glyph-name="d" unicode="d" horiz-adv-x="1071" 
d="M739 0q4 120 41 326h-4q-94 -176 -194 -263.5t-220 -87.5q-134 0 -207 95.5t-73 271.5q0 199 82 362.5t224.5 254t309.5 90.5q93 0 222 -33l106 500h92l-252 -1192q-7 -34 -19.5 -154t-12.5 -170h-95zM903 930q-107 35 -215 35q-139 0 -257 -78t-185.5 -217.5
t-67.5 -311.5q0 -154 50 -226.5t155 -72.5q80 0 178 84.5t175 220.5t108 283z" />
    <glyph glyph-name="e" unicode="e" horiz-adv-x="956" 
d="M178 395q0 -157 80.5 -246.5t226.5 -89.5q128 0 281 84l-18 -96q-132 -72 -277 -72q-185 0 -287 112.5t-102 315.5q0 178 74.5 326.5t200 234t266.5 85.5q131 0 211.5 -66t80.5 -180q0 -176 -173.5 -258t-561.5 -88zM193 541q320 0 473 59t153 193q0 172 -211 172
q-149 0 -263.5 -118.5t-151.5 -305.5z" />
    <glyph glyph-name="f" unicode="f" horiz-adv-x="528" 
d="M283 940h-185l19 84h184l41 193q34 162 121 242.5t219 80.5q61 0 115 -16l-19 -90q-32 22 -106 22q-190 0 -244 -264l-35 -168h271l-19 -84h-270l-273 -1280h-92z" />
    <glyph glyph-name="g" unicode="g" horiz-adv-x="1071" 
d="M-6 -313q140 -80 276 -80q182 0 286.5 100.5t156.5 327.5l65 289h-4q-103 -185 -199.5 -267t-209.5 -82q-138 0 -210.5 95.5t-72.5 273.5q0 197 82 360t225 254t313 91q51 0 146 -10t164 -27l-201 -940q-64 -296 -195.5 -424.5t-363.5 -128.5q-143 0 -275 71zM905 942
q-100 23 -217 23q-140 0 -258.5 -78.5t-185 -217t-66.5 -309.5q0 -301 199 -301q89 0 184 81.5t174 221.5t109 285z" />
    <glyph glyph-name="h" unicode="h" horiz-adv-x="1102" 
d="M381 1516h92l-166 -781h4q191 314 424 314q252 0 252 -281q0 -31 -29 -195l-120 -573h-93l121 588q27 135 27 170q0 207 -176 207q-78 0 -179.5 -70t-180.5 -182t-105 -236l-102 -477h-93z" />
    <glyph glyph-name="i" unicode="i" horiz-adv-x="428" 
d="M264 1024h93l-154 -727q-24 -120 -24 -174q0 -60 62 -60q43 0 85 17l-17 -77q-49 -23 -98 -23q-127 0 -127 136q0 47 8.5 94t171.5 814zM381 1282q-31 0 -53.5 22t-22.5 56q0 32 23 53t53 21q31 0 54.5 -20t23.5 -54q0 -32 -23 -55t-55 -23z" />
    <glyph glyph-name="j" unicode="j" horiz-adv-x="428" 
d="M-391 -348q67 -49 139 -49q125 0 194 88t119 321l215 1012h93l-209 -981q-60 -286 -157 -405t-267 -119q-39 0 -82.5 12t-65.5 27zM391 1282q-31 0 -53.5 22t-22.5 56q0 32 23 53t53 21q31 0 54.5 -20t23.5 -54q0 -32 -23 -55t-55 -23z" />
    <glyph glyph-name="k" unicode="k" horiz-adv-x="891" 
d="M381 1516h92l-209 -975h4l570 483h131l-602 -502l403 -522h-117l-389 518h-4l-110 -518h-93z" />
    <glyph glyph-name="l" unicode="l" horiz-adv-x="428" 
d="M368 1516h93l-258 -1219q-24 -120 -24 -174q0 -60 62 -60q43 0 85 17l-17 -77q-49 -23 -98 -23q-127 0 -127 136q0 45 13 116t271 1284z" />
    <glyph glyph-name="m" unicode="m" horiz-adv-x="1704" 
d="M260 1024h92l-49 -291h4q197 316 408 316q121 0 175 -74.5t54 -241.5q94 153 202 234.5t214 81.5q229 0 229 -273q0 -67 -28 -203l-121 -573h-92l120 588q27 140 27 187q0 190 -154 190q-79 0 -173.5 -72.5t-171.5 -189t-99 -222.5l-102 -481h-93l121 588q27 128 27 170
q0 100 -34.5 153.5t-119.5 53.5q-81 0 -178.5 -77.5t-170.5 -192t-95 -218.5l-102 -477h-93l158 739q35 170 45 285z" />
    <glyph glyph-name="n" unicode="n" horiz-adv-x="1104" 
d="M260 1024h92l-49 -291h4q195 316 428 316q131 0 192.5 -67t61.5 -208q0 -33 -8 -81t-143 -693h-93l121 588q27 135 27 170q0 207 -176 207q-78 0 -179.5 -70t-180.5 -182t-105 -236l-102 -477h-93l158 739q35 170 45 285z" />
    <glyph glyph-name="o" unicode="o" horiz-adv-x="1061" 
d="M440 -25q-168 0 -263 105t-95 291t72.5 344t196.5 246t272 88q170 0 263 -106t93 -288q0 -189 -70 -346t-194 -245.5t-275 -88.5zM449 59q118 0 218 75.5t158 211t58 299.5q0 157 -71 238.5t-200 81.5q-116 0 -217 -76t-159 -211.5t-58 -298.5q0 -151 72.5 -235.5
t198.5 -84.5z" />
    <glyph glyph-name="p" unicode="p" horiz-adv-x="1071" 
d="M240 1024h94q-5 -74 -20 -181t-23 -147h4q94 174 196 263.5t220 89.5q137 0 207.5 -94t70.5 -273q0 -200 -81.5 -361.5t-223.5 -253.5t-313 -92q-110 0 -215 41l-107 -497h-92l250 1181q8 38 20.5 155.5t12.5 168.5zM172 102q90 -43 213 -43q140 0 258 79t184 218.5
t66 309.5q0 148 -49.5 223.5t-157.5 75.5q-77 0 -175.5 -83.5t-175 -220.5t-106.5 -284z" />
    <glyph glyph-name="q" unicode="q" horiz-adv-x="1071" 
d="M776 309h-4q-180 -334 -407 -334q-138 0 -210.5 94t-72.5 273q0 198 81.5 360.5t224.5 254.5t314 92q104 0 179 -17.5t129 -34.5l-314 -1478h-92q124 581 172 790zM903 930q-113 35 -215 35q-139 0 -257.5 -79.5t-185.5 -219t-67 -308.5q0 -148 48.5 -223.5t156.5 -75.5
q79 0 177 83t175.5 219.5t108.5 285.5z" />
    <glyph glyph-name="r" unicode="r" horiz-adv-x="684" 
d="M260 1024h92l-37 -242h4q68 136 144.5 201.5t179.5 65.5q58 0 109 -25l-17 -94h-4q-53 35 -106 35q-112 0 -220.5 -144t-156.5 -368l-96 -453h-93l142 665q48 218 59 359z" />
    <glyph glyph-name="s" unicode="s" horiz-adv-x="795" 
d="M47 143q51 -38 117 -61t129 -23q118 0 182 49t64 146q0 64 -36 109t-134 106q-117 72 -163 133t-46 148q0 128 94.5 213.5t239.5 85.5q53 0 123 -14t116 -38l-20 -96q-98 64 -228 64q-99 0 -164 -55.5t-65 -147.5q0 -71 35.5 -116t132.5 -103q114 -69 162.5 -132.5
t48.5 -146.5q0 -132 -94.5 -210.5t-253.5 -78.5q-147 0 -260 70z" />
    <glyph glyph-name="t" unicode="t" horiz-adv-x="608" 
d="M285 940h-187l19 84h184l57 266l99 31l-64 -297h275l-21 -84h-270l-137 -643q-19 -95 -19 -137q0 -48 20 -72.5t68 -24.5q43 0 162 52l-20 -88q-37 -20 -86 -33.5t-76 -13.5q-162 0 -162 174q0 63 20 147z" />
    <glyph glyph-name="u" unicode="u" horiz-adv-x="1104" 
d="M266 1024h92l-120 -588q-27 -135 -27 -170q0 -207 176 -207q85 0 185.5 75t180 193.5t99.5 219.5l102 477h93l-158 -739q-35 -170 -45 -285h-92l49 291h-4q-195 -316 -428 -316q-254 0 -254 281q0 20 6.5 68t144.5 700z" />
    <glyph glyph-name="v" unicode="v" horiz-adv-x="928" 
d="M139 1024h94l134 -809q10 -56 10 -106h4l31 66l497 849h105l-613 -1024h-84z" />
    <glyph glyph-name="w" unicode="w" horiz-adv-x="1386" 
d="M141 1024h95l66 -828v-12v-12l-3 -51h8q9 37 35 86l434 817h62l61 -846l-4 -57h8l16 44l19 42l418 817h100l-538 -1024h-82l-63 766l-2 51l3 41h-4l-7 -17l-444 -841h-83z" />
    <glyph glyph-name="x" unicode="x" horiz-adv-x="883" 
d="M387 504l-229 520h102l152 -367l34 -92h5l51 68l332 391h114l-463 -526l232 -498h-109l-147 348l-35 88h-4l-51 -66l-316 -370h-121z" />
    <glyph glyph-name="y" unicode="y" horiz-adv-x="928" 
d="M-147 -371q31 -18 73 -18q69 0 127 41t125 147l135 215l-180 1010h94l146 -829l8 -76h4l10 17l541 888h108l-755 -1214q-103 -165 -181.5 -228t-187.5 -63q-57 0 -88 16z" />
    <glyph glyph-name="z" unicode="z" horiz-adv-x="950" 
d="M825 940h-628l18 84h786l-6 -33l-878 -907h661l-18 -84h-811l8 43z" />
    <glyph glyph-name="braceleft" unicode="{" horiz-adv-x="588" 
d="M201 375q0 135 -121 160l14 63q98 17 143 65.5t70 167.5l66 306q34 157 107 224.5t206 70.5l-14 -72q-90 -4 -137.5 -59t-71.5 -171l-64 -299q-25 -116 -72.5 -179t-131.5 -89v-4q46 -15 73 -59.5t27 -116.5q0 -46 -12 -100l-60 -281q-16 -75 -16 -115q0 -52 26.5 -86
t98.5 -41l-15 -69q-202 16 -202 196q0 33 12 93l61 294q13 68 13 101z" />
    <glyph glyph-name="bar" unicode="|" horiz-adv-x="463" 
d="M184 1567h95v-2048h-95v2048z" />
    <glyph glyph-name="braceright" unicode="}" horiz-adv-x="588" 
d="M393 559v4q-100 35 -100 176q0 45 12 101l60 280q16 75 16 115q0 54 -26.5 87.5t-98.5 39.5l14 70q203 -17 203 -197q0 -32 -12 -92l-62 -295q-12 -56 -12 -100q0 -136 121 -160l-14 -64q-98 -16 -143 -66.5t-70 -166.5l-66 -305q-34 -157 -107 -224.5t-206 -70.5l14 71
q88 6 136.5 59.5t72.5 170.5l63 299q25 120 73 180.5t132 87.5z" />
    <glyph glyph-name="asciitilde" unicode="~" horiz-adv-x="1331" 
d="M266 479q6 113 68 177.5t166 64.5q93 0 194 -80q73 -59 105 -74.5t80 -15.5q66 0 105 42t46 118h78q-6 -115 -68.5 -178.5t-165.5 -63.5q-97 0 -200 84q-60 49 -96.5 66.5t-79.5 17.5q-142 0 -154 -158h-78z" />
    <glyph glyph-name="Adieresis" unicode="&#xc4;" horiz-adv-x="1206" 
d="M748 1434h92l233 -1434h-100l-72 446h-616l-265 -446h-104zM889 537l-103 663q-8 52 -10 109h-4l-33 -66l-405 -706h555zM898 1602q0 31 22 50t48 19q29 0 52.5 -19.5t23.5 -49.5q0 -31 -21.5 -51.5t-52.5 -20.5q-29 0 -50.5 19.5t-21.5 52.5zM564 1602q0 31 22 50t48 19
q29 0 52.5 -19.5t23.5 -49.5q0 -31 -21.5 -51.5t-52.5 -20.5q-29 0 -50.5 19.5t-21.5 52.5z" />
    <glyph glyph-name="Aring" unicode="&#xc5;" horiz-adv-x="1206" 
d="M717 1380q-119 42 -119 170q0 79 58 132t143 53q84 0 142 -53.5t58 -131.5q0 -61 -39.5 -110t-109.5 -68l223 -1372h-100l-72 446h-616l-265 -446h-104zM799 1434q57 0 93 32t36 84q0 54 -34.5 85.5t-94.5 31.5q-57 0 -92 -31.5t-35 -85.5q0 -52 36 -84t91 -32zM889 537
l-103 663q-8 52 -10 109h-4q-15 -33 -20.5 -43l-417.5 -729h555z" />
    <glyph glyph-name="Ccedilla" unicode="&#xc7;" horiz-adv-x="1294" 
d="M713 -25q-264 0 -412.5 164t-148.5 448q0 250 99 446t283 310.5t410 114.5q206 0 383 -96l-20 -109q-151 115 -377 115q-193 0 -348.5 -99t-241.5 -276t-86 -391q0 -256 125.5 -396t347.5 -140q203 0 383 102l-23 -111q-102 -45 -179 -63.5t-189 -18.5h-6zM523 -352
q44 -10 90 -10q88 0 127 22t39 70q0 86 -131 86l-63 -4l39 188h73l-24 -117q96 0 145 -38.5t49 -108.5q0 -82 -65 -127t-195 -45q-14 0 -52 4t-46 6z" />
    <glyph glyph-name="Eacute" unicode="&#xc9;" horiz-adv-x="989" 
d="M379 1434h670l-19 -91h-571l-123 -575h530l-18 -90h-531l-124 -588h604l-19 -90h-702zM883 1861h111l-303 -328h-97z" />
    <glyph glyph-name="Ntilde" unicode="&#xd1;" horiz-adv-x="1452" 
d="M379 1434h67l613 -1149q33 -64 43 -92h4l15 92l243 1149h98l-305 -1434h-55l-621 1159l-41 90h-4l-5 -31l-259 -1218h-96zM642 1533q41 221 213 221q43 0 73 -20.5t56 -45t53 -45t63 -20.5q96 0 128 145h74q-48 -223 -213 -223q-45 0 -74.5 20.5t-55 45t-51.5 45
t-63 20.5q-50 0 -82 -32.5t-49 -110.5h-72z" />
    <glyph glyph-name="Odieresis" unicode="&#xd6;" horiz-adv-x="1544" 
d="M725 -25q-268 0 -420.5 167.5t-152.5 451.5q0 240 100 439t276 312t394 113q257 0 412 -169.5t155 -442.5q0 -242 -96.5 -444t-271 -314.5t-396.5 -112.5zM729 66q195 0 342 96t231 276t84 402q0 241 -125.5 384.5t-340.5 143.5q-192 0 -344.5 -97.5t-237 -274
t-84.5 -400.5q0 -246 125 -388t350 -142zM1029 1605q0 31 22 50t48 19q29 0 52.5 -19.5t23.5 -49.5q0 -31 -21.5 -51.5t-52.5 -20.5q-29 0 -50.5 19.5t-21.5 52.5zM695 1605q0 31 22 50t48 19q29 0 52.5 -19.5t23.5 -49.5q0 -31 -21.5 -51.5t-52.5 -20.5q-29 0 -50.5 19.5
t-21.5 52.5z" />
    <glyph glyph-name="Udieresis" unicode="&#xdc;" horiz-adv-x="1327" 
d="M358 1434h99l-164 -783q-31 -145 -31 -235q0 -350 348 -350q191 0 299 110.5t158 343.5l193 914h98l-187 -887q-67 -313 -200.5 -442.5t-378.5 -129.5q-202 0 -316 112t-114 312q0 99 24 217zM956 1609q0 31 22 50t48 19q29 0 52.5 -19.5t23.5 -49.5q0 -31 -21.5 -51.5
t-52.5 -20.5q-29 0 -50.5 19.5t-21.5 52.5zM622 1609q0 31 22 50t48 19q29 0 52.5 -19.5t23.5 -49.5q0 -31 -21.5 -51.5t-52.5 -20.5q-29 0 -50.5 19.5t-21.5 52.5z" />
    <glyph glyph-name="aacute" unicode="&#xe1;" horiz-adv-x="1071" 
d="M739 0q4 111 43 328h-4q-93 -172 -193 -262.5t-220 -90.5q-136 0 -209.5 95.5t-73.5 269.5q0 200 81 363t223.5 254.5t313.5 91.5q130 0 312 -37l-133 -645q-15 -76 -30 -189.5t-15 -177.5h-95zM905 942q-106 23 -213 23q-143 0 -261.5 -78t-185.5 -219t-67 -318
q0 -291 205 -291q81 0 174 79.5t173.5 220t113.5 288.5zM887 1516h111l-303 -328h-97z" />
    <glyph glyph-name="agrave" unicode="&#xe0;" horiz-adv-x="1071" 
d="M739 0q4 111 43 328h-4q-93 -172 -193 -262.5t-220 -90.5q-136 0 -209.5 95.5t-73.5 269.5q0 200 81 363t223.5 254.5t313.5 91.5q130 0 312 -37l-133 -645q-15 -76 -30 -189.5t-15 -177.5h-95zM905 942q-106 23 -213 23q-143 0 -261.5 -78t-185.5 -219t-67 -318
q0 -291 205 -291q81 0 174 79.5t173.5 220t113.5 288.5zM476 1516h98l192 -328h-84z" />
    <glyph glyph-name="acircumflex" unicode="&#xe2;" horiz-adv-x="1071" 
d="M739 0q4 111 43 328h-4q-93 -172 -193 -262.5t-220 -90.5q-136 0 -209.5 95.5t-73.5 269.5q0 200 81 363t223.5 254.5t313.5 91.5q130 0 312 -37l-133 -645q-15 -76 -30 -189.5t-15 -177.5h-95zM905 942q-106 23 -213 23q-143 0 -261.5 -78t-185.5 -219t-67 -318
q0 -291 205 -291q81 0 174 79.5t173.5 220t113.5 288.5zM748 1524h45l157 -336h-80l-112 246l-205 -246h-86z" />
    <glyph glyph-name="adieresis" unicode="&#xe4;" horiz-adv-x="1071" 
d="M739 0q4 111 43 328h-4q-93 -172 -193 -262.5t-220 -90.5q-136 0 -209.5 95.5t-73.5 269.5q0 200 81 363t223.5 254.5t313.5 91.5q130 0 312 -37l-133 -645q-15 -76 -30 -189.5t-15 -177.5h-95zM905 942q-106 23 -213 23q-143 0 -261.5 -78t-185.5 -219t-67 -318
q0 -291 205 -291q81 0 174 79.5t173.5 220t113.5 288.5zM765 1260q0 31 22 50t48 19q29 0 52.5 -19.5t23.5 -49.5q0 -31 -21.5 -51.5t-52.5 -20.5q-29 0 -50.5 19.5t-21.5 52.5zM431 1260q0 31 22 50t48 19q29 0 52.5 -19.5t23.5 -49.5q0 -31 -21.5 -51.5t-52.5 -20.5
q-29 0 -50.5 19.5t-21.5 52.5z" />
    <glyph glyph-name="atilde" unicode="&#xe3;" horiz-adv-x="1071" 
d="M739 0q4 111 43 328h-4q-93 -172 -193 -262.5t-220 -90.5q-136 0 -209.5 95.5t-73.5 269.5q0 200 81 363t223.5 254.5t313.5 91.5q130 0 312 -37l-133 -645q-15 -76 -30 -189.5t-15 -177.5h-95zM905 942q-106 23 -213 23q-143 0 -261.5 -78t-185.5 -219t-67 -318
q0 -291 205 -291q81 0 174 79.5t173.5 220t113.5 288.5zM350 1188q41 221 213 221q43 0 73 -20.5t56 -45t53 -45t63 -20.5q96 0 128 145h74q-48 -223 -213 -223q-45 0 -74.5 20.5t-55 45t-51.5 45t-63 20.5q-50 0 -82 -32.5t-49 -110.5h-72z" />
    <glyph glyph-name="aring" unicode="&#xe5;" horiz-adv-x="1071" 
d="M739 0q4 111 43 328h-4q-93 -172 -193 -262.5t-220 -90.5q-136 0 -209.5 95.5t-73.5 269.5q0 200 81 363t223.5 254.5t313.5 91.5q130 0 312 -37l-133 -645q-15 -76 -30 -189.5t-15 -177.5h-95zM905 942q-106 23 -213 23q-143 0 -261.5 -78t-185.5 -219t-67 -318
q0 -291 205 -291q81 0 174 79.5t173.5 220t113.5 288.5zM517 1372q0 79 57 131.5t144 52.5q88 0 144 -50.5t56 -133.5q0 -78 -57.5 -131t-142.5 -53q-88 0 -144.5 51t-56.5 133zM718 1255q57 0 93 32.5t36 84.5q0 54 -34.5 85.5t-94.5 31.5q-57 0 -92 -31.5t-35 -85.5
t37 -85.5t90 -31.5z" />
    <glyph glyph-name="ccedilla" unicode="&#xe7;" horiz-adv-x="838" 
d="M438 -25q-164 0 -260 108.5t-96 297.5q0 187 72 341t198 240.5t275 86.5q69 0 125 -15.5t114 -54.5l-24 -102q-88 88 -224 88q-121 0 -224.5 -76t-161.5 -210t-58 -294q0 -152 72.5 -239t202.5 -87q66 0 126 26t134 81l-25 -115q-76 -43 -130 -59.5t-116 -16.5zM243 -352
q44 -10 90 -10q88 0 127 22t39 70q0 86 -131 86l-63 -4l39 188h73l-24 -117q96 0 145 -38.5t49 -108.5q0 -82 -65 -127t-195 -45q-14 0 -52 4t-46 6z" />
    <glyph glyph-name="eacute" unicode="&#xe9;" horiz-adv-x="956" 
d="M178 395q0 -157 80.5 -246.5t226.5 -89.5q128 0 281 84l-18 -96q-132 -72 -277 -72q-185 0 -287 112.5t-102 315.5q0 178 74.5 326.5t200 234t266.5 85.5q131 0 211.5 -66t80.5 -180q0 -176 -173.5 -258t-561.5 -88zM193 541q320 0 473 59t153 193q0 172 -211 172
q-149 0 -263.5 -118.5t-151.5 -305.5zM866 1516h111l-303 -328h-97z" />
    <glyph glyph-name="egrave" unicode="&#xe8;" horiz-adv-x="956" 
d="M178 395q0 -157 80.5 -246.5t226.5 -89.5q128 0 281 84l-18 -96q-132 -72 -277 -72q-185 0 -287 112.5t-102 315.5q0 178 74.5 326.5t200 234t266.5 85.5q131 0 211.5 -66t80.5 -180q0 -176 -173.5 -258t-561.5 -88zM193 541q320 0 473 59t153 193q0 172 -211 172
q-149 0 -263.5 -118.5t-151.5 -305.5zM461 1516h98l192 -328h-84z" />
    <glyph glyph-name="ecircumflex" unicode="&#xea;" horiz-adv-x="956" 
d="M178 395q0 -157 80.5 -246.5t226.5 -89.5q128 0 281 84l-18 -96q-132 -72 -277 -72q-185 0 -287 112.5t-102 315.5q0 178 74.5 326.5t200 234t266.5 85.5q131 0 211.5 -66t80.5 -180q0 -176 -173.5 -258t-561.5 -88zM193 541q320 0 473 59t153 193q0 172 -211 172
q-149 0 -263.5 -118.5t-151.5 -305.5zM670 1524h45l157 -336h-80l-112 246l-205 -246h-86z" />
    <glyph glyph-name="edieresis" unicode="&#xeb;" horiz-adv-x="956" 
d="M178 395q0 -157 80.5 -246.5t226.5 -89.5q128 0 281 84l-18 -96q-132 -72 -277 -72q-185 0 -287 112.5t-102 315.5q0 178 74.5 326.5t200 234t266.5 85.5q131 0 211.5 -66t80.5 -180q0 -176 -173.5 -258t-561.5 -88zM193 541q320 0 473 59t153 193q0 172 -211 172
q-149 0 -263.5 -118.5t-151.5 -305.5zM707 1260q0 31 22 50t48 19q29 0 52.5 -19.5t23.5 -49.5q0 -31 -21.5 -51.5t-52.5 -20.5q-29 0 -50.5 19.5t-21.5 52.5zM373 1260q0 31 22 50t48 19q29 0 52.5 -19.5t23.5 -49.5q0 -31 -21.5 -51.5t-52.5 -20.5q-29 0 -50.5 19.5
t-21.5 52.5z" />
    <glyph glyph-name="iacute" unicode="&#xed;" horiz-adv-x="428" 
d="M264 1024h93l-154 -727q-24 -120 -24 -174q0 -60 62 -60q43 0 85 17l-17 -77q-49 -23 -98 -23q-127 0 -127 136q0 52 26 185zM552 1516h111l-303 -328h-97z" />
    <glyph glyph-name="igrave" unicode="&#xec;" horiz-adv-x="428" 
d="M264 1024h93l-154 -727q-24 -120 -24 -174q0 -60 62 -60q43 0 85 17l-17 -77q-49 -23 -98 -23q-127 0 -127 136q0 52 26 185zM170 1516h98l192 -328h-84z" />
    <glyph glyph-name="icircumflex" unicode="&#xee;" horiz-adv-x="428" 
d="M264 1024h93l-154 -727q-24 -120 -24 -174q0 -60 62 -60q43 0 85 17l-17 -77q-49 -23 -98 -23q-127 0 -127 136q0 52 26 185zM391 1524h45l157 -336h-80l-112 246l-205 -246h-86z" />
    <glyph glyph-name="idieresis" unicode="&#xef;" horiz-adv-x="428" 
d="M264 1024h93l-154 -727q-24 -120 -24 -174q0 -60 62 -60q43 0 85 17l-17 -77q-49 -23 -98 -23q-127 0 -127 136q0 52 26 185zM446 1260q0 31 22 50t48 19q29 0 52.5 -19.5t23.5 -49.5q0 -31 -21.5 -51.5t-52.5 -20.5q-29 0 -50.5 19.5t-21.5 52.5zM112 1260q0 31 22 50
t48 19q29 0 52.5 -19.5t23.5 -49.5q0 -31 -21.5 -51.5t-52.5 -20.5q-29 0 -50.5 19.5t-21.5 52.5z" />
    <glyph glyph-name="ntilde" unicode="&#xf1;" horiz-adv-x="1104" 
d="M260 1024h92l-49 -291h4q195 316 428 316q131 0 192.5 -67t61.5 -208q0 -33 -8 -81t-143 -693h-93l121 588q27 135 27 170q0 207 -176 207q-78 0 -179.5 -70t-180.5 -182t-105 -236l-102 -477h-93l158 739q35 170 45 285zM379 1188q41 221 213 221q43 0 73 -20.5t56 -45
t53 -45t63 -20.5q96 0 128 145h74q-48 -223 -213 -223q-45 0 -74.5 20.5t-55 45t-51.5 45t-63 20.5q-50 0 -82 -32.5t-49 -110.5h-72z" />
    <glyph glyph-name="oacute" unicode="&#xf3;" horiz-adv-x="1061" 
d="M440 -25q-168 0 -263 105t-95 291t72.5 344t196.5 246t272 88q170 0 263 -106t93 -288q0 -189 -70 -346t-194 -245.5t-275 -88.5zM449 59q118 0 218 75.5t158 211t58 299.5q0 157 -71 238.5t-200 81.5q-116 0 -217 -76t-159 -211.5t-58 -298.5q0 -151 72.5 -235.5
t198.5 -84.5zM857 1516h111l-303 -328h-97z" />
    <glyph glyph-name="ograve" unicode="&#xf2;" horiz-adv-x="1061" 
d="M440 -25q-168 0 -263 105t-95 291t72.5 344t196.5 246t272 88q170 0 263 -106t93 -288q0 -189 -70 -346t-194 -245.5t-275 -88.5zM449 59q118 0 218 75.5t158 211t58 299.5q0 157 -71 238.5t-200 81.5q-116 0 -217 -76t-159 -211.5t-58 -298.5q0 -151 72.5 -235.5
t198.5 -84.5zM469 1516h98l192 -328h-84z" />
    <glyph glyph-name="ocircumflex" unicode="&#xf4;" horiz-adv-x="1061" 
d="M440 -25q-168 0 -263 105t-95 291t72.5 344t196.5 246t272 88q170 0 263 -106t93 -288q0 -189 -70 -346t-194 -245.5t-275 -88.5zM449 59q118 0 218 75.5t158 211t58 299.5q0 157 -71 238.5t-200 81.5q-116 0 -217 -76t-159 -211.5t-58 -298.5q0 -151 72.5 -235.5
t198.5 -84.5zM694 1524h45l157 -336h-80l-112 246l-205 -246h-86z" />
    <glyph glyph-name="odieresis" unicode="&#xf6;" horiz-adv-x="1061" 
d="M440 -25q-168 0 -263 105t-95 291t72.5 344t196.5 246t272 88q170 0 263 -106t93 -288q0 -189 -70 -346t-194 -245.5t-275 -88.5zM449 59q118 0 218 75.5t158 211t58 299.5q0 157 -71 238.5t-200 81.5q-116 0 -217 -76t-159 -211.5t-58 -298.5q0 -151 72.5 -235.5
t198.5 -84.5zM733 1260q0 31 22 50t48 19q29 0 52.5 -19.5t23.5 -49.5q0 -31 -21.5 -51.5t-52.5 -20.5q-29 0 -50.5 19.5t-21.5 52.5zM399 1260q0 31 22 50t48 19q29 0 52.5 -19.5t23.5 -49.5q0 -31 -21.5 -51.5t-52.5 -20.5q-29 0 -50.5 19.5t-21.5 52.5z" />
    <glyph glyph-name="otilde" unicode="&#xf5;" horiz-adv-x="1061" 
d="M440 -25q-168 0 -263 105t-95 291t72.5 344t196.5 246t272 88q170 0 263 -106t93 -288q0 -189 -70 -346t-194 -245.5t-275 -88.5zM449 59q118 0 218 75.5t158 211t58 299.5q0 157 -71 238.5t-200 81.5q-116 0 -217 -76t-159 -211.5t-58 -298.5q0 -151 72.5 -235.5
t198.5 -84.5zM354 1188q41 221 213 221q43 0 73 -20.5t56 -45t53 -45t63 -20.5q96 0 128 145h74q-48 -223 -213 -223q-45 0 -74.5 20.5t-55 45t-51.5 45t-63 20.5q-50 0 -82 -32.5t-49 -110.5h-72z" />
    <glyph glyph-name="uacute" unicode="&#xfa;" horiz-adv-x="1104" 
d="M266 1024h92l-120 -588q-27 -135 -27 -170q0 -207 176 -207q85 0 185.5 75t180 193.5t99.5 219.5l102 477h93l-158 -739q-35 -170 -45 -285h-92l49 291h-4q-195 -316 -428 -316q-254 0 -254 281q0 20 6.5 68t144.5 700zM870 1516h111l-303 -328h-97z" />
    <glyph glyph-name="ugrave" unicode="&#xf9;" horiz-adv-x="1104" 
d="M266 1024h92l-120 -588q-27 -135 -27 -170q0 -207 176 -207q85 0 185.5 75t180 193.5t99.5 219.5l102 477h93l-158 -739q-35 -170 -45 -285h-92l49 291h-4q-195 -316 -428 -316q-254 0 -254 281q0 20 6.5 68t144.5 700zM507 1516h98l192 -328h-84z" />
    <glyph glyph-name="ucircumflex" unicode="&#xfb;" horiz-adv-x="1104" 
d="M266 1024h92l-120 -588q-27 -135 -27 -170q0 -207 176 -207q85 0 185.5 75t180 193.5t99.5 219.5l102 477h93l-158 -739q-35 -170 -45 -285h-92l49 291h-4q-195 -316 -428 -316q-254 0 -254 281q0 20 6.5 68t144.5 700zM723 1524h45l157 -336h-80l-112 246l-205 -246h-86
z" />
    <glyph glyph-name="udieresis" unicode="&#xfc;" horiz-adv-x="1104" 
d="M266 1024h92l-120 -588q-27 -135 -27 -170q0 -207 176 -207q85 0 185.5 75t180 193.5t99.5 219.5l102 477h93l-158 -739q-35 -170 -45 -285h-92l49 291h-4q-195 -316 -428 -316q-254 0 -254 281q0 20 6.5 68t144.5 700zM783 1260q0 31 22 50t48 19q29 0 52.5 -19.5
t23.5 -49.5q0 -31 -21.5 -51.5t-52.5 -20.5q-29 0 -50.5 19.5t-21.5 52.5zM449 1260q0 31 22 50t48 19q29 0 52.5 -19.5t23.5 -49.5q0 -31 -21.5 -51.5t-52.5 -20.5q-29 0 -50.5 19.5t-21.5 52.5z" />
    <glyph glyph-name="dagger" unicode="&#x2020;" horiz-adv-x="764" 
d="M442 1014h-258l19 84h258l67 321h93l-68 -321h258l-18 -84h-258l-160 -758h-92z" />
    <glyph glyph-name="degree" unicode="&#xb0;" horiz-adv-x="791" 
d="M539 930q-105 0 -179.5 74.5t-74.5 179.5q0 102 74 176t176 74q103 0 178 -73t75 -177t-73.5 -179t-175.5 -75zM535 1006q68 0 119 52t51 126q0 71 -48 122.5t-118 51.5q-71 0 -121.5 -52t-50.5 -122q0 -72 48 -125t120 -53z" />
    <glyph glyph-name="cent" unicode="&#xa2;" horiz-adv-x="1055" 
d="M494 162q-136 22 -216.5 130t-80.5 269q0 182 72.5 332.5t193.5 239t258 96.5l39 176h92l-39 -180q115 -14 195 -66l-25 -102q-66 71 -188 86l-193 -901q124 11 248 104l-25 -115q-124 -69 -241 -75l-45 -213h-93zM705 1143q-114 -12 -210 -93.5t-151 -211.5t-55 -273
q0 -130 59.5 -214.5t163.5 -104.5z" />
    <glyph glyph-name="sterling" unicode="&#xa3;" horiz-adv-x="1055" 
d="M393 662h-227l18 90h228l63 290q45 202 157 309t275 107q106 0 193 -39l-21 -92q-28 19 -75 33t-101 14q-132 0 -218.5 -87.5t-121.5 -256.5l-59 -278h307l-18 -90h-308l-45 -205q-60 -276 -276 -373h727l-19 -84h-868l19 86q268 94 325 365z" />
    <glyph glyph-name="section" unicode="&#xa7;" horiz-adv-x="918" 
d="M72 84q46 -28 107 -47t106 -19q241 0 241 199q0 67 -33 117t-126 110q-91 59 -129.5 125.5t-38.5 145.5q0 101 57.5 176t179.5 139q-20 27 -35.5 74t-15.5 76q0 141 93.5 226t250.5 85q98 0 189 -35l-19 -96q-82 47 -184 47q-112 0 -173 -55.5t-61 -155.5
q0 -69 41 -122.5t123 -106.5q170 -110 170 -273q0 -103 -63 -182t-183 -125q29 -35 41.5 -78.5t12.5 -77.5q0 -140 -92 -218.5t-257 -78.5q-119 0 -219 48zM520 444q96 34 147.5 95.5t51.5 140.5q0 67 -36 122t-114 107l-84 60q-190 -83 -190 -246q0 -66 29 -112.5
t112 -104.5z" />
    <glyph glyph-name="bullet" unicode="&#x2022;" horiz-adv-x="801" 
d="M172 635q0 105 76.5 181.5t181.5 76.5q104 0 180 -76t76 -182q0 -104 -76 -180t-182 -76q-105 0 -180.5 75.5t-75.5 180.5z" />
    <glyph glyph-name="paragraph" unicode="&#xb6;" horiz-adv-x="971" 
d="M442 903q-105 0 -177 76t-72 188q0 116 73.5 191.5t182.5 75.5h495v-86h-131v-1348h-86v1348h-199v-1348h-86v903z" />
    <glyph glyph-name="germandbls" unicode="&#xdf;" horiz-adv-x="1085" 
d="M727 1540q135 0 217 -85.5t82 -221.5q0 -144 -94 -260.5t-252 -159.5v-4q132 -36 205 -133.5t73 -245.5q0 -206 -130.5 -330.5t-344.5 -124.5q-36 0 -93.5 10.5t-70.5 14.5l21 94q91 -35 152 -35q167 0 266.5 98.5t99.5 262.5q0 157 -83 242t-255 110l15 80
q186 28 288.5 126t102.5 245q0 103 -55 168t-150 65q-263 0 -336 -346l-235 -1110h-93l240 1124q89 416 430 416z" />
    <glyph glyph-name="uni00AD" unicode="&#xad;" horiz-adv-x="815" 
d="M164 645h547l-21 -90h-547z" />
    <glyph glyph-name="registered" unicode="&#xae;" horiz-adv-x="1804" 
d="M897 255q-250 0 -425.5 175t-175.5 423q0 251 176.5 426t423.5 175q248 0 425 -175.5t177 -422.5q0 -250 -175.5 -425.5t-425.5 -175.5zM893 1386q-216 0 -370.5 -156.5t-154.5 -376.5q0 -218 153.5 -374t371.5 -156q220 0 376.5 156t156.5 374q0 220 -157 376.5
t-376 156.5zM1087 482l-92 197q-40 86 -77.5 115.5t-84.5 29.5h-77v-342h-82v772h211q128 0 197 -55.5t69 -147.5q0 -177 -202 -214v-3q68 -14 128 -140l102 -212h-92zM756 1191v-303h139q78 0 125 40t47 110q0 153 -191 153h-120z" />
    <glyph glyph-name="copyright" unicode="&#xa9;" horiz-adv-x="1927" 
d="M256 715q0 202 100 372.5t274 270.5t371 100q200 0 373.5 -100t274 -273.5t100.5 -367.5q0 -204 -101.5 -375t-274 -269t-369.5 -98q-196 0 -368 95.5t-276 267.5t-104 377zM1001 51q178 0 330.5 87.5t245 243.5t92.5 333q0 176 -90 330t-245 245.5t-333 91.5
q-174 0 -326 -86.5t-245.5 -243t-93.5 -337.5q0 -180 91 -334.5t245 -242t329 -87.5zM1282 270q-70 -37 -123 -54t-127 -17q-211 0 -353 142.5t-142 360.5q0 150 64.5 270t181 186.5t260.5 66.5q55 0 127 -16t108 -38v-86q-39 24 -110.5 41t-140.5 17q-110 0 -201 -53.5
t-144 -152t-53 -215.5q0 -195 117.5 -317t295.5 -122q64 0 130 19t110 48v-80z" />
    <glyph glyph-name="trademark" unicode="&#x2122;" horiz-adv-x="1585" 
d="M803 1434h115l223 -545h4l233 545h109v-662h-82v533h-4l-227 -533h-68l-217 533h-4v-533h-82v662zM401 1356h-221v78h527v-78h-224v-584h-82v584z" />
    <glyph glyph-name="acute" unicode="&#xb4;" horiz-adv-x="614" 
d="M604 1516h111l-303 -328h-97z" />
    <glyph glyph-name="dieresis" unicode="&#xa8;" horiz-adv-x="614" 
d="M559 1260q0 31 22 50t48 19q29 0 52.5 -19.5t23.5 -49.5q0 -31 -21.5 -51.5t-52.5 -20.5q-29 0 -50.5 19.5t-21.5 52.5zM225 1260q0 31 22 50t48 19q29 0 52.5 -19.5t23.5 -49.5q0 -31 -21.5 -51.5t-52.5 -20.5q-29 0 -50.5 19.5t-21.5 52.5z" />
    <glyph glyph-name="notequal" unicode="&#x2260;" horiz-adv-x="1331" 
d="M526 362h-282v84h325l156 304h-481v84h526l182 354h90l-182 -354h291v-84h-334l-158 -304h492v-84h-535l-186 -362h-92z" />
    <glyph glyph-name="AE" unicode="&#xc6;" horiz-adv-x="1636" 
d="M889 1434h807l-21 -97h-571l-121 -571h530l-18 -90h-530l-125 -586h604l-19 -90h-702l94 446h-502l-313 -446h-117zM836 537l172 800h-82l-549 -800h459z" />
    <glyph glyph-name="Oslash" unicode="&#xd8;" horiz-adv-x="1544" 
d="M246 217q-94 154 -94 377q0 243 99 440.5t278.5 310.5t392.5 113q260 0 409 -158l172 175l60 -58l-181 -180q107 -158 107 -391q0 -248 -96 -447t-272.5 -311.5t-395.5 -112.5q-282 0 -430 175l-176 -177l-62 56zM1260 1229q-127 139 -340 139q-193 0 -346 -98.5
t-236.5 -275.5t-83.5 -398q0 -181 65 -305zM367 221q125 -155 362 -155q194 0 343.5 97.5t231.5 274t82 402.5q0 193 -79 323z" />
    <glyph glyph-name="infinity" unicode="&#x221e;" horiz-adv-x="1673" 
d="M866 512q-77 -136 -180.5 -214.5t-206.5 -78.5q-160 0 -258 104t-98 269q0 157 104.5 269t251.5 112q121 0 220 -77t169 -216q77 135 181.5 214t207.5 79q158 0 257.5 -103t99.5 -270q0 -159 -105.5 -270t-251.5 -111q-235 0 -391 293zM907 596q73 -151 158.5 -223
t191.5 -72q122 0 196.5 82.5t74.5 216.5q0 124 -77 208.5t-194 84.5q-103 0 -187 -74.5t-163 -222.5zM829 596q-72 151 -157 224t-193 73q-121 0 -196.5 -83.5t-75.5 -217.5q0 -126 76.5 -208.5t195.5 -82.5q103 0 187.5 73.5t162.5 221.5z" />
    <glyph glyph-name="plusminus" unicode="&#xb1;" horiz-adv-x="1331" 
d="M233 717h412v411h84v-411h412v-84h-412v-412h-84v412h-412v84zM233 84h908v-84h-908v84z" />
    <glyph glyph-name="lessequal" unicode="&#x2264;" horiz-adv-x="1331" 
d="M281 690l833 467v-94l-678 -379v-4l678 -334v-96l-833 422v18zM244 147h907v-84h-907v84z" />
    <glyph glyph-name="greaterequal" unicode="&#x2265;" horiz-adv-x="1331" 
d="M281 346l677 334v4l-677 379v94l833 -467v-18l-833 -422v96zM244 147h907v-84h-907v84z" />
    <glyph glyph-name="yen" unicode="&#xa5;" horiz-adv-x="1055" 
d="M438 332h-372l18 84h373l51 246h-373l19 83h342l-232 689h96l187 -574q11 -33 24 -94h11l13 21l50 77l426 570h105l-529 -689h344l-18 -83h-373l-51 -246h373l-19 -84h-373l-69 -332h-92z" />
    <glyph glyph-name="uni00B5" unicode="&#xb5;" horiz-adv-x="1130" 
d="M266 1024h92l-120 -588q-27 -135 -27 -170q0 -207 176 -207q83 0 188 76t179 187.5t98 224.5l102 477h93l-160 -748q-16 -72 -16 -129q0 -35 20 -55t58 -20q44 0 74 10l-17 -80q-42 -14 -96 -14q-64 0 -97.5 34.5t-33.5 95.5q0 41 22 173h-4q-195 -316 -428 -316
q-152 0 -207 123l-125 -579h-92z" />
    <glyph glyph-name="partialdiff" unicode="&#x2202;" horiz-adv-x="1065" 
d="M649 1485q183 0 279 -129t96 -385q0 -252 -74.5 -492t-208.5 -372t-303 -132q-154 0 -239.5 95.5t-85.5 271.5q0 182 68.5 338.5t194 250t267.5 93.5q193 0 276 -203h5q8 50 8 148q0 220 -71.5 326t-223.5 106q-119 0 -236 -84l23 102q115 66 225 66zM905 705
q-29 109 -100.5 171t-169.5 62q-111 0 -210 -77t-157.5 -214t-58.5 -301q0 -136 64.5 -211.5t172.5 -75.5q165 0 292.5 177.5t166.5 468.5z" />
    <glyph glyph-name="summation" unicode="&#x2211;" horiz-adv-x="1251" 
d="M68 -436l720 925l-659 897v48h1055v-91h-903l626 -851l-676 -873h1016v-90h-1179v35z" />
    <glyph glyph-name="product" unicode="&#x220f;" horiz-adv-x="1530" 
d="M221 1434h1151v-1905h-98v1814h-955v-1814h-98v1905z" />
    <glyph glyph-name="integral" unicode="&#x222b;" horiz-adv-x="1055" 
d="M211 -383q35 -29 113 -29q188 0 188 254v1360v13q0 141 77.5 229t207.5 88q69 0 108 -19v-94q-35 29 -112 29q-189 0 -189 -254v-1360v-13q0 -141 -77.5 -229t-207.5 -88q-69 0 -108 19v94z" />
    <glyph glyph-name="ordfeminine" unicode="&#xaa;" horiz-adv-x="813" 
d="M637 717q4 80 25 198h-3q-58 -101 -124 -158t-152 -57q-96 0 -146.5 68t-50.5 195q0 139 58 252t160 178t219 65q99 0 221 -26l-96 -467q-31 -148 -31 -248h-80zM758 1370q-104 16 -148 16q-149 0 -246.5 -119t-97.5 -296q0 -197 135 -197q55 0 119.5 51.5t114.5 138.5
t74 189z" />
    <glyph glyph-name="ordmasculine" unicode="&#xba;" horiz-adv-x="915" 
d="M518 696q-126 0 -197 77t-71 214q0 209 108.5 338t282.5 129q122 0 194 -78.5t72 -210.5q0 -212 -107 -340.5t-282 -128.5zM524 774q136 0 215.5 105.5t79.5 275.5q0 108 -49.5 165.5t-136.5 57.5q-135 0 -215 -105t-80 -276q0 -106 48 -164.5t138 -58.5z" />
    <glyph glyph-name="uni2126" unicode="&#x2126;" horiz-adv-x="1546" 
d="M20 90h359q-236 208 -236 522q0 240 104 434.5t286.5 303t400.5 108.5q171 0 307 -72.5t211.5 -203t75.5 -291.5q0 -244 -134.5 -455.5t-377.5 -345.5h344l-19 -90h-477l19 90q255 130 396.5 336.5t141.5 458.5q0 211 -137 347t-352 136q-193 0 -350.5 -97.5t-245.5 -271
t-88 -383.5q0 -171 53 -281.5t197 -244.5l-19 -90h-477z" />
    <glyph glyph-name="ae" unicode="&#xe6;" horiz-adv-x="1671" 
d="M797 391q-106 -219 -214.5 -317.5t-242.5 -98.5q-128 0 -193 92t-65 265q0 196 86.5 362t239 260.5t333.5 94.5q94 0 162 -18.5t144 -61.5q119 80 274 80q136 0 222.5 -67.5t86.5 -178.5q0 -174 -173 -256t-564 -86l-2 -31v-31q0 -165 79.5 -252.5t229.5 -87.5
q128 0 281 84l-19 -96q-129 -72 -276 -72q-186 0 -285.5 110.5t-99.5 305.5h-4zM899 545q324 0 479.5 58t155.5 190q0 81 -58 126.5t-167 45.5q-164 0 -272.5 -110t-137.5 -310zM981 913q-101 52 -252 52q-157 0 -285 -82.5t-200 -227.5t-72 -313q0 -138 44.5 -210.5
t131.5 -72.5q141 0 257.5 143.5t200.5 379.5q85 243 175 331z" />
    <glyph glyph-name="oslash" unicode="&#xf8;" horiz-adv-x="1061" 
d="M-61 -8l182 176q-39 88 -39 203q0 186 72.5 344t196.5 246t272 88q185 0 280 -125l184 178l58 -58l-201 -194q35 -85 35 -195q0 -189 -70 -346t-194 -245.5t-275 -88.5q-182 0 -276 121l-170 -164zM831 854q-71 111 -219 111q-116 0 -217 -76t-159 -211.5t-58 -298.5
q0 -80 19 -137zM233 166q75 -107 216 -107q118 0 218 75.5t158 211t58 299.5q0 69 -17 131z" />
    <glyph glyph-name="questiondown" unicode="&#xbf;" horiz-adv-x="756" 
d="M518 881q-34 0 -58 22.5t-24 57.5q0 34 24 57.5t58 23.5t57 -23.5t23 -57.5q0 -35 -23 -57.5t-57 -22.5zM250 -434q-141 0 -225 84.5t-84 218.5q0 127 61.5 226t208.5 204q72 50 107 86t54.5 78t43.5 158h90q-27 -153 -77 -232t-165 -158q-124 -85 -175.5 -165
t-51.5 -187q0 -105 59.5 -167t165.5 -62q121 0 270 78l-18 -101q-143 -61 -264 -61z" />
    <glyph glyph-name="uni00A0" unicode="&#xa0;" horiz-adv-x="563" 
 />
    <glyph glyph-name="exclamdown" unicode="&#xa1;" horiz-adv-x="537" 
d="M356 881q-34 0 -58 22.5t-24 57.5q0 34 24 57.5t58 23.5t57 -23.5t23 -57.5q0 -35 -23 -57.5t-57 -22.5zM252 621h86l-209 -1031h-106z" />
    <glyph glyph-name="logicalnot" unicode="&#xac;" horiz-adv-x="1331" 
d="M233 639h908v-492h-86v408h-822v84z" />
    <glyph glyph-name="radical" unicode="&#x221a;" horiz-adv-x="1331" 
d="M334 776h-164v82h227l287 -713l344 1371h82l-379 -1518h-78z" />
    <glyph glyph-name="florin" unicode="&#x192;" horiz-adv-x="1055" 
d="M33 -182q45 -15 71 -15q95 0 150 71t94 253l150 711h-111l19 82h110l51 231q63 283 301 283q32 0 111 -17l-21 -82q-18 6 -49 11.5t-41 5.5q-78 0 -129.5 -45.5t-76.5 -155.5l-52 -231h185l-17 -82h-186l-150 -705q-46 -216 -125.5 -314t-214.5 -98q-34 0 -79 15z" />
    <glyph glyph-name="approxequal" unicode="&#x2248;" horiz-adv-x="1331" 
d="M276 676q6 113 68 177.5t166 64.5q94 0 195 -80q63 -51 102 -70.5t82 -19.5q66 0 105 40.5t46 118.5h78q-6 -112 -68 -176.5t-165 -64.5q-99 0 -201 84q-64 52 -99.5 68t-76.5 16q-142 0 -154 -158h-78zM276 287q6 114 68.5 177.5t165.5 63.5q101 0 195 -79
q50 -42 92.5 -66.5t91.5 -24.5q66 0 105 42t46 118h78q-6 -114 -67 -178t-166 -64q-98 0 -201 84q-60 49 -96.5 66.5t-79.5 17.5q-142 0 -154 -157h-78z" />
    <glyph glyph-name="Delta" unicode="&#x394;" horiz-adv-x="1288" 
d="M795 1434h94l221 -1375l-12 -59h-1125l13 59zM1001 90l-172 1110q-3 17 -10 109h-4l-30 -61l-668 -1158h884z" />
    <glyph glyph-name="guillemotleft" unicode="&#xab;" horiz-adv-x="948" 
d="M420 537l350 344h121l-363 -353l203 -327h-104zM102 537l349 344h120l-360 -353l203 -327h-105z" />
    <glyph glyph-name="guillemotright" unicode="&#xbb;" horiz-adv-x="948" 
d="M737 555l-205 328h105l209 -336l-350 -344h-121zM420 555l-203 328h105l206 -336l-350 -344h-121z" />
    <glyph glyph-name="ellipsis" unicode="&#x2026;" horiz-adv-x="1364" 
d="M1044 -16q-34 0 -56.5 23.5t-22.5 58.5q0 34 22.5 56.5t56.5 22.5q35 0 58.5 -22.5t23.5 -56.5q0 -35 -23.5 -58.5t-58.5 -23.5zM504 66q0 34 23 56.5t57 22.5t58 -22.5t24 -56.5q0 -35 -24 -58.5t-58 -23.5t-57 23.5t-23 58.5zM127 -16q-34 0 -57 23.5t-23 58.5
q0 34 23 56.5t57 22.5t58 -22.5t24 -56.5q0 -35 -24 -58.5t-58 -23.5z" />
    <glyph glyph-name="Agrave" unicode="&#xc0;" horiz-adv-x="1206" 
d="M748 1434h92l233 -1434h-100l-72 446h-616l-265 -446h-104zM889 537l-103 663q-8 52 -10 109h-4l-33 -66l-405 -706h555zM597 1864h98l192 -328h-84z" />
    <glyph glyph-name="Atilde" unicode="&#xc3;" horiz-adv-x="1206" 
d="M748 1434h92l233 -1434h-100l-72 446h-616l-265 -446h-104zM889 537l-103 663q-8 52 -10 109h-4l-33 -66l-405 -706h555zM481 1533q41 221 213 221q43 0 73 -20.5t56 -45t53 -45t63 -20.5q96 0 128 145h74q-48 -223 -213 -223q-45 0 -74.5 20.5t-55 45t-51.5 45t-63 20.5
q-50 0 -82 -32.5t-49 -110.5h-72z" />
    <glyph glyph-name="Otilde" unicode="&#xd5;" horiz-adv-x="1544" 
d="M725 -25q-268 0 -420.5 167.5t-152.5 451.5q0 240 100 439t276 312t394 113q257 0 412 -169.5t155 -442.5q0 -242 -96.5 -444t-271 -314.5t-396.5 -112.5zM729 66q195 0 342 96t231 276t84 402q0 241 -125.5 384.5t-340.5 143.5q-192 0 -344.5 -97.5t-237 -274
t-84.5 -400.5q0 -246 125 -388t350 -142zM592 1532q41 221 213 221q43 0 73 -20.5t56 -45t53 -45t63 -20.5q96 0 128 145h74q-48 -223 -213 -223q-45 0 -74.5 20.5t-55 45t-51.5 45t-63 20.5q-50 0 -82 -32.5t-49 -110.5h-72z" />
    <glyph glyph-name="OE" unicode="&#x152;" horiz-adv-x="1907" 
d="M1715 90l-19 -90h-634l-69 -4q-205 -21 -267 -21q-267 0 -420.5 167.5t-153.5 451.5q0 239 100.5 439t280.5 312.5t406 112.5q77 0 237 -12l172 -12h619l-19 -91h-571l-123 -575h531l-19 -90h-530l-125 -588h604zM1277 1337q-176 31 -338 31q-202 0 -357 -97.5
t-241 -275.5t-86 -399q0 -246 125 -388t350 -142q180 0 287 36z" />
    <glyph glyph-name="oe" unicode="&#x153;" horiz-adv-x="1735" 
d="M879 268q-72 -143 -185 -218t-254 -75q-168 0 -263 105t-95 291t72.5 344t196.5 246t272 88q137 0 224 -75.5t109 -213.5h5q73 139 188 214t252 75q133 0 213 -66.5t80 -183.5q0 -172 -171.5 -253t-564.5 -89l-2 -31v-31q0 -159 80.5 -247.5t227.5 -88.5q127 0 280 84
l-18 -96q-132 -72 -277 -72q-158 0 -248 77.5t-118 215.5h-4zM971 541q320 0 473 59t153 193q0 172 -211 172q-152 0 -264.5 -116t-150.5 -308zM449 59q118 0 218 75.5t158 211t58 299.5q0 157 -71 238.5t-200 81.5q-116 0 -217 -76t-159 -211.5t-58 -298.5
q0 -151 72.5 -235.5t198.5 -84.5z" />
    <glyph glyph-name="endash" unicode="&#x2013;" horiz-adv-x="1024" 
d="M27 645h1024l-19 -90h-1024z" />
    <glyph glyph-name="emdash" unicode="&#x2014;" horiz-adv-x="2048" 
d="M27 645h2048l-19 -90h-2048z" />
    <glyph glyph-name="quotedblleft" unicode="&#x201c;" horiz-adv-x="662" 
d="M645 1434h74l-125 -449h-105zM395 1434h76l-123 -449h-106z" />
    <glyph glyph-name="quotedblright" unicode="&#x201d;" horiz-adv-x="662" 
d="M612 1434h107l-154 -449h-76zM367 1434h104l-156 -449h-73z" />
    <glyph glyph-name="quoteleft" unicode="&#x2018;" horiz-adv-x="414" 
d="M395 1434h76l-123 -449h-106z" />
    <glyph glyph-name="quoteright" unicode="&#x2019;" horiz-adv-x="414" 
d="M367 1434h104l-156 -449h-73z" />
    <glyph glyph-name="divide" unicode="&#xf7;" horiz-adv-x="1331" 
d="M688 866q-32 0 -55 23t-23 55t23 54t55 22t54 -22t22 -54t-22 -55t-54 -23zM233 639h908v-84h-908v84zM610 252q0 32 23 54t55 22t54 -22t22 -54t-22 -55t-54 -23t-55 23t-23 55z" />
    <glyph glyph-name="lozenge" unicode="&#x25ca;" horiz-adv-x="1135" 
d="M129 715l440 719h60l442 -717l-442 -717h-60zM975 717l-375 618l-375 -618l375 -621z" />
    <glyph glyph-name="ydieresis" unicode="&#xff;" horiz-adv-x="928" 
d="M-147 -371q31 -18 73 -18q69 0 127 41t125 147l135 215l-180 1010h94l146 -829l8 -76h4l10 17l541 888h108l-755 -1214q-103 -165 -181.5 -228t-187.5 -63q-57 0 -88 16zM688 1260q0 31 22 50t48 19q29 0 52.5 -19.5t23.5 -49.5q0 -31 -21.5 -51.5t-52.5 -20.5
q-29 0 -50.5 19.5t-21.5 52.5zM354 1260q0 31 22 50t48 19q29 0 52.5 -19.5t23.5 -49.5q0 -31 -21.5 -51.5t-52.5 -20.5q-29 0 -50.5 19.5t-21.5 52.5z" />
    <glyph glyph-name="Ydieresis" unicode="&#x178;" horiz-adv-x="1106" 
d="M496 543l-248 891h104l185 -686q22 -81 26 -109h4q16 29 55 82l508 713h115l-647 -889l-115 -545h-102zM855 1629q0 31 22 50t48 19q29 0 52.5 -19.5t23.5 -49.5q0 -31 -21.5 -51.5t-52.5 -20.5q-29 0 -50.5 19.5t-21.5 52.5zM521 1629q0 31 22 50t48 19q29 0 52.5 -19.5
t23.5 -49.5q0 -31 -21.5 -51.5t-52.5 -20.5q-29 0 -50.5 19.5t-21.5 52.5z" />
    <glyph glyph-name="fraction" unicode="&#x2044;" horiz-adv-x="274" 
d="M664 1434h108l-1161 -1434h-109z" />
    <glyph glyph-name="fraction" unicode="&#x2215;" horiz-adv-x="274" 
d="M664 1434h108l-1161 -1434h-109z" />
    <glyph glyph-name="Euro" unicode="&#x20ac;" horiz-adv-x="1055" 
d="M88 584h150q4 126 28 237h-129l19 84h133q80 262 250.5 407.5t402.5 145.5q115 0 242 -53l-19 -96q-112 65 -231 65q-190 0 -332.5 -122t-214.5 -347h565l-18 -84h-569q-25 -106 -29 -237h549l-19 -84h-530q22 -441 354 -441q69 0 129.5 22t114.5 48l-16 -94
q-76 -34 -129 -47t-119 -13q-199 0 -309.5 135.5t-122.5 389.5h-168z" />
    <glyph glyph-name="guilsinglleft" unicode="&#x2039;" horiz-adv-x="629" 
d="M102 537l349 344h120l-360 -353l203 -327h-105z" />
    <glyph glyph-name="guilsinglright" unicode="&#x203a;" horiz-adv-x="629" 
d="M418 555l-203 328h104l207 -336l-348 -344h-121z" />
    <glyph glyph-name="uniFB01" unicode="&#xfb01;" horiz-adv-x="966" 
d="M283 940h-185l19 84h184l41 193q34 162 121 242.5t219 80.5q61 0 115 -16l-19 -90q-32 22 -106 22q-190 0 -244 -264l-35 -168h271l-19 -84h-270l-273 -1280h-92zM802 1024h93l-154 -727q-24 -120 -24 -174q0 -60 62 -60q43 0 85 17l-17 -77q-49 -23 -98 -23
q-127 0 -127 136q0 47 8.5 94t171.5 814zM919 1282q-31 0 -53.5 22t-22.5 56q0 32 23 53t53 21q31 0 54.5 -20t23.5 -54q0 -32 -23 -55t-55 -23z" />
    <glyph glyph-name="uniFB02" unicode="&#xfb02;" horiz-adv-x="956" 
d="M283 940h-185l19 84h184l41 193q34 162 121 242.5t219 80.5q61 0 115 -16l-19 -90q-32 22 -106 22q-190 0 -244 -264l-35 -168h271l-19 -84h-270l-273 -1280h-92zM896 1516h93l-258 -1219q-24 -120 -24 -174q0 -60 62 -60q43 0 85 17l-17 -77q-49 -23 -98 -23
q-127 0 -127 136q0 45 13 116t271 1284z" />
    <glyph glyph-name="daggerdbl" unicode="&#x2021;" horiz-adv-x="764" 
d="M352 588h-258l19 84h258l71 342h-258l19 84h258l67 321h93l-68 -321h258l-18 -84h-258l-72 -342h258l-19 -84h-258l-69 -332h-92z" />
    <glyph glyph-name="periodcentered" unicode="&#xb7;" horiz-adv-x="455" 
d="M267 625q-34 0 -57 24t-23 58t23 56.5t57 22.5t58 -22.5t24 -56.5t-24 -58t-58 -24z" />
    <glyph glyph-name="quotesinglbase" unicode="&#x201a;" horiz-adv-x="414" 
d="M109 219h104l-156 -444h-73z" />
    <glyph glyph-name="quotedblbase" unicode="&#x201e;" horiz-adv-x="662" 
d="M354 219h107l-154 -448h-76zM109 219h104l-156 -448h-73z" />
    <glyph glyph-name="perthousand" unicode="&#x2030;" horiz-adv-x="2398" 
d="M1939 -20q-119 0 -190.5 74.5t-71.5 201.5q0 193 110 324t271 131q120 0 189 -75t69 -202q0 -195 -106 -324.5t-271 -129.5zM1174 -20q-121 0 -192 74.5t-71 201.5q0 193 110 324t271 131q120 0 189 -75t69 -202q0 -195 -106.5 -324.5t-269.5 -129.5zM1395 1434h108
l-1169 -1434h-109zM416 723q-121 0 -191.5 73t-70.5 203q0 193 110 324t271 131q118 0 188 -74.5t70 -201.5q0 -195 -106.5 -325t-270.5 -130zM1946 59q119 0 199.5 105t80.5 262q0 100 -45.5 152.5t-130.5 52.5q-121 0 -201 -106.5t-80 -262.5q0 -97 46.5 -150t130.5 -53z
M1180 59q119 0 199.5 105t80.5 262q0 100 -45.5 152.5t-130.5 52.5q-121 0 -200.5 -106.5t-79.5 -262.5q0 -97 47 -150t129 -53zM422 803q120 0 200 104.5t80 261.5q0 100 -45.5 152.5t-130.5 52.5q-119 0 -199.5 -105.5t-80.5 -262.5q0 -97 45.5 -150t130.5 -53z" />
    <glyph glyph-name="Acircumflex" unicode="&#xc2;" horiz-adv-x="1206" 
d="M748 1434h92l233 -1434h-100l-72 446h-616l-265 -446h-104zM889 537l-103 663q-8 52 -10 109h-4l-33 -66l-405 -706h555zM834 1871h45l157 -336h-80l-112 246l-205 -246h-86z" />
    <glyph glyph-name="Ecircumflex" unicode="&#xca;" horiz-adv-x="989" 
d="M379 1434h670l-19 -91h-571l-123 -575h530l-18 -90h-531l-124 -588h604l-19 -90h-702zM774 1873h45l157 -336h-80l-112 246l-205 -246h-86z" />
    <glyph glyph-name="Aacute" unicode="&#xc1;" horiz-adv-x="1206" 
d="M748 1434h92l233 -1434h-100l-72 446h-616l-265 -446h-104zM889 537l-103 663q-8 52 -10 109h-4l-33 -66l-405 -706h555zM991 1858h111l-303 -328h-97z" />
    <glyph glyph-name="Edieresis" unicode="&#xcb;" horiz-adv-x="989" 
d="M379 1434h670l-19 -91h-571l-123 -575h530l-18 -90h-531l-124 -588h604l-19 -90h-702zM813 1608q0 31 22 50t48 19q29 0 52.5 -19.5t23.5 -49.5q0 -31 -21.5 -51.5t-52.5 -20.5q-29 0 -50.5 19.5t-21.5 52.5zM479 1608q0 31 22 50t48 19q29 0 52.5 -19.5t23.5 -49.5
q0 -31 -21.5 -51.5t-52.5 -20.5q-29 0 -50.5 19.5t-21.5 52.5z" />
    <glyph glyph-name="Egrave" unicode="&#xc8;" horiz-adv-x="989" 
d="M379 1434h670l-19 -91h-571l-123 -575h530l-18 -90h-531l-124 -588h604l-19 -90h-702zM513 1864h98l192 -328h-84z" />
    <glyph glyph-name="Iacute" unicode="&#xcd;" horiz-adv-x="467" 
d="M379 1434h98l-303 -1434h-98zM664 1864h111l-303 -328h-97z" />
    <glyph glyph-name="Icircumflex" unicode="&#xce;" horiz-adv-x="467" 
d="M379 1434h98l-303 -1434h-98zM475 1873h45l157 -336h-80l-112 246l-205 -246h-86z" />
    <glyph glyph-name="Idieresis" unicode="&#xcf;" horiz-adv-x="467" 
d="M379 1434h98l-303 -1434h-98zM554 1608q0 31 22 50t48 19q29 0 52.5 -19.5t23.5 -49.5q0 -31 -21.5 -51.5t-52.5 -20.5q-29 0 -50.5 19.5t-21.5 52.5zM220 1608q0 31 22 50t48 19q29 0 52.5 -19.5t23.5 -49.5q0 -31 -21.5 -51.5t-52.5 -20.5q-29 0 -50.5 19.5t-21.5 52.5
z" />
    <glyph glyph-name="Igrave" unicode="&#xcc;" horiz-adv-x="467" 
d="M379 1434h98l-303 -1434h-98zM225 1864h98l192 -328h-84z" />
    <glyph glyph-name="Oacute" unicode="&#xd3;" horiz-adv-x="1544" 
d="M725 -25q-268 0 -420.5 167.5t-152.5 451.5q0 240 100 439t276 312t394 113q257 0 412 -169.5t155 -442.5q0 -242 -96.5 -444t-271 -314.5t-396.5 -112.5zM729 66q195 0 342 96t231 276t84 402q0 241 -125.5 384.5t-340.5 143.5q-192 0 -344.5 -97.5t-237 -274
t-84.5 -400.5q0 -246 125 -388t350 -142zM1108 1864h111l-303 -328h-97z" />
    <glyph glyph-name="Ocircumflex" unicode="&#xd4;" horiz-adv-x="1544" 
d="M725 -25q-268 0 -420.5 167.5t-152.5 451.5q0 240 100 439t276 312t394 113q257 0 412 -169.5t155 -442.5q0 -242 -96.5 -444t-271 -314.5t-396.5 -112.5zM729 66q195 0 342 96t231 276t84 402q0 241 -125.5 384.5t-340.5 143.5q-192 0 -344.5 -97.5t-237 -274
t-84.5 -400.5q0 -246 125 -388t350 -142zM970 1872h45l157 -336h-80l-112 246l-205 -246h-86z" />
    <glyph glyph-name="Ograve" unicode="&#xd2;" horiz-adv-x="1544" 
d="M725 -25q-268 0 -420.5 167.5t-152.5 451.5q0 240 100 439t276 312t394 113q257 0 412 -169.5t155 -442.5q0 -242 -96.5 -444t-271 -314.5t-396.5 -112.5zM729 66q195 0 342 96t231 276t84 402q0 241 -125.5 384.5t-340.5 143.5q-192 0 -344.5 -97.5t-237 -274
t-84.5 -400.5q0 -246 125 -388t350 -142zM761 1863h98l192 -328h-84z" />
    <glyph glyph-name="Uacute" unicode="&#xda;" horiz-adv-x="1327" 
d="M358 1434h99l-164 -783q-31 -145 -31 -235q0 -350 348 -350q191 0 299 110.5t158 343.5l193 914h98l-187 -887q-67 -313 -200.5 -442.5t-378.5 -129.5q-202 0 -316 112t-114 312q0 99 24 217zM1040 1863h111l-303 -328h-97z" />
    <glyph glyph-name="Ucircumflex" unicode="&#xdb;" horiz-adv-x="1327" 
d="M358 1434h99l-164 -783q-31 -145 -31 -235q0 -350 348 -350q191 0 299 110.5t158 343.5l193 914h98l-187 -887q-67 -313 -200.5 -442.5t-378.5 -129.5q-202 0 -316 112t-114 312q0 99 24 217zM908 1873h45l157 -336h-80l-112 246l-205 -246h-86z" />
    <glyph glyph-name="Ugrave" unicode="&#xd9;" horiz-adv-x="1327" 
d="M358 1434h99l-164 -783q-31 -145 -31 -235q0 -350 348 -350q191 0 299 110.5t158 343.5l193 914h98l-187 -887q-67 -313 -200.5 -442.5t-378.5 -129.5q-202 0 -316 112t-114 312q0 99 24 217zM662 1864h98l192 -328h-84z" />
    <glyph glyph-name="dotlessi" unicode="&#x131;" horiz-adv-x="428" 
d="M264 1024h93l-154 -727q-24 -120 -24 -174q0 -60 62 -60q43 0 85 17l-17 -77q-49 -23 -98 -23q-127 0 -127 136q0 52 26 185z" />
    <glyph glyph-name="circumflex" unicode="&#x2c6;" horiz-adv-x="614" 
d="M494 1524h45l157 -336h-80l-112 246l-205 -246h-86z" />
    <glyph glyph-name="tilde" unicode="&#x2dc;" horiz-adv-x="614" 
d="M147 1188q41 221 213 221q43 0 73 -20.5t56 -45t53 -45t63 -20.5q96 0 128 145h74q-48 -223 -213 -223q-45 0 -74.5 20.5t-55 45t-51.5 45t-63 20.5q-50 0 -82 -32.5t-49 -110.5h-72z" />
    <glyph glyph-name="uni02C9" unicode="&#x2c9;" horiz-adv-x="635" 
d="M78 1292h508l-17 -84h-508z" />
    <glyph glyph-name="breve" unicode="&#x2d8;" horiz-adv-x="614" 
d="M307 1423l-2 -20q0 -69 43 -104t115 -35q80 0 130 36t81 123h88q-73 -235 -303 -235q-109 0 -171.5 54t-62.5 153l2 28h80z" />
    <glyph glyph-name="dotaccent" unicode="&#x2d9;" horiz-adv-x="614" 
d="M465 1188q-32 0 -55 22.5t-23 55.5t23 53t53 20q31 0 55.5 -19.5t24.5 -53.5q0 -32 -23 -55t-55 -23z" />
    <glyph glyph-name="ring" unicode="&#x2da;" horiz-adv-x="614" 
d="M293 1372q0 79 57 131.5t144 52.5q88 0 144 -50.5t56 -133.5q0 -78 -57.5 -131t-142.5 -53q-88 0 -144.5 51t-56.5 133zM494 1255q57 0 93 32.5t36 84.5q0 54 -34.5 85.5t-94.5 31.5q-57 0 -92 -31.5t-35 -85.5t37 -85.5t90 -31.5z" />
    <glyph glyph-name="cedilla" unicode="&#xb8;" horiz-adv-x="614" 
d="M53 -352q44 -10 90 -10q88 0 127 22t39 70q0 86 -131 86l-63 -4l39 188h73l-24 -117q96 0 145 -38.5t49 -108.5q0 -82 -65 -127t-195 -45q-14 0 -52 4t-46 6z" />
    <glyph glyph-name="hungarumlaut" unicode="&#x2dd;" horiz-adv-x="614" 
d="M664 1505h110l-248 -317h-73zM442 1505h111l-248 -317h-74z" />
    <glyph glyph-name="ogonek" unicode="&#x2db;" horiz-adv-x="614" 
d="M299 -381q-50 -18 -94 -18q-70 0 -113 40.5t-43 112.5q0 60 44.5 126t123.5 120h88q-170 -135 -170 -240q0 -88 84 -88q37 0 80 17v-70z" />
    <glyph glyph-name="caron" unicode="&#x2c7;" horiz-adv-x="614" 
d="M279 1524h79l113 -246l205 246h86l-281 -336h-45z" />
    <glyph glyph-name="Lslash" unicode="&#x141;" horiz-adv-x="868" 
d="M195 565l-121 -73l22 108l123 74l160 760h98l-145 -691l344 209l-23 -108l-346 -211l-114 -543h575l-18 -90h-674z" />
    <glyph glyph-name="lslash" unicode="&#x142;" horiz-adv-x="428" 
d="M184 631l-189 -119l25 109l187 118l165 777h93l-150 -709l188 119l-25 -109l-186 -117l-85 -403q-24 -120 -24 -174q0 -60 62 -60q43 0 85 17l-17 -77q-49 -23 -98 -23q-127 0 -127 136q0 45 12.5 114t83.5 401z" />
    <glyph glyph-name="Scaron" unicode="&#x160;" horiz-adv-x="1018" 
d="M63 164q66 -43 155 -70.5t183 -27.5q161 0 252.5 73.5t91.5 206.5q0 93 -52 167t-177 165q-141 102 -197.5 190t-56.5 203q0 170 130.5 278.5t324.5 108.5q146 0 291 -53l-21 -102q-116 65 -280 65q-154 0 -248 -78.5t-94 -210.5q0 -100 45.5 -168.5t177.5 -165.5
q145 -105 202.5 -188.5t57.5 -198.5q0 -177 -123 -280t-330 -103q-97 0 -189 23.5t-161 60.5zM533 1883h79l113 -246l205 246h86l-281 -336h-45z" />
    <glyph glyph-name="scaron" unicode="&#x161;" horiz-adv-x="795" 
d="M47 143q51 -38 117 -61t129 -23q118 0 182 49t64 146q0 64 -36 109t-134 106q-117 72 -163 133t-46 148q0 128 94.5 213.5t239.5 85.5q53 0 123 -14t116 -38l-20 -96q-98 64 -228 64q-99 0 -164 -55.5t-65 -147.5q0 -71 35.5 -116t132.5 -103q114 -69 162.5 -132.5
t48.5 -146.5q0 -132 -94.5 -210.5t-253.5 -78.5q-147 0 -260 70zM339 1524h79l113 -246l205 246h86l-281 -336h-45z" />
    <glyph glyph-name="Zcaron" unicode="&#x17d;" horiz-adv-x="1167" 
d="M1104 1341h-795l19 93h952l-6 -37l-1147 -1305h854l-18 -92h-1008l8 41zM606 1871h79l113 -246l205 246h86l-281 -336h-45z" />
    <glyph glyph-name="zcaron" unicode="&#x17e;" horiz-adv-x="950" 
d="M825 940h-628l18 84h786l-6 -33l-878 -907h661l-18 -84h-811l8 43zM422 1524h79l113 -246l205 246h86l-281 -336h-45z" />
    <glyph glyph-name="brokenbar" unicode="&#xa6;" horiz-adv-x="463" 
d="M184 1567h95v-852h-95v852zM184 371h95v-852h-95v852z" />
    <glyph glyph-name="Eth" unicode="&#xd0;" horiz-adv-x="1386" 
d="M219 666h-153l18 90h154l145 678h332q301 0 461.5 -149t160.5 -435q0 -260 -104.5 -453t-299 -295t-450.5 -102h-407zM483 90q354 0 553 197t199 555q0 501 -539 501h-235l-125 -587h401l-18 -90h-402l-122 -576h288z" />
    <glyph glyph-name="eth" unicode="&#xf0;" horiz-adv-x="1061" 
d="M336 1208l303 127q-74 82 -215 181h142q70 -53 157 -142l318 133l31 -71l-297 -125q204 -266 204 -635q0 -194 -73 -355t-199.5 -253.5t-269.5 -92.5q-166 0 -261.5 103t-95.5 293q0 176 70 334.5t192 251t263 92.5q81 0 147.5 -33.5t106.5 -100.5h4q-18 88 -65 187
t-105 172l-328 -144zM445 59q111 0 214 81t163.5 222t60.5 304q0 145 -73 222t-199 77q-110 0 -212 -78.5t-162.5 -213.5t-60.5 -294q0 -149 71 -234.5t198 -85.5z" />
    <glyph glyph-name="Yacute" unicode="&#xdd;" horiz-adv-x="1106" 
d="M496 543l-248 891h104l185 -686q22 -81 26 -109h4q16 29 55 82l508 713h115l-647 -889l-115 -545h-102zM934 1895h111l-303 -328h-97z" />
    <glyph glyph-name="yacute" unicode="&#xfd;" horiz-adv-x="928" 
d="M-147 -371q31 -18 73 -18q69 0 127 41t125 147l135 215l-180 1010h94l146 -829l8 -76h4l10 17l541 888h108l-755 -1214q-103 -165 -181.5 -228t-187.5 -63q-57 0 -88 16zM825 1516h111l-303 -328h-97z" />
    <glyph glyph-name="Thorn" unicode="&#xde;" horiz-adv-x="1114" 
d="M379 1434h98l-51 -238h215q196 0 305 -98t109 -281q0 -219 -143.5 -349t-385.5 -130h-14h-266l-72 -338h-98zM518 428q209 0 321.5 99t112.5 288q0 141 -84.5 216t-246.5 75h-213l-144 -678h254z" />
    <glyph glyph-name="thorn" unicode="&#xfe;" horiz-adv-x="1071" 
d="M381 1516h92l-115 -533q-21 -101 -67 -287h4q94 174 196 263.5t220 89.5q137 0 207.5 -94t70.5 -273q0 -200 -81.5 -361.5t-223.5 -253.5t-313 -92q-110 0 -215 41l-107 -497h-92zM172 102q90 -43 213 -43q140 0 258 79t184 218.5t66 309.5q0 148 -49.5 223.5
t-157.5 75.5q-77 0 -175.5 -83.5t-175 -220.5t-106.5 -284z" />
    <glyph glyph-name="minus" unicode="&#x2212;" horiz-adv-x="1331" 
d="M233 639h908v-84h-908v84z" />
    <glyph glyph-name="multiply" unicode="&#xd7;" horiz-adv-x="1331" 
d="M627 596l-334 336l59 59l334 -336l334 336l59 -59l-334 -336l334 -334l-59 -59l-334 336l-334 -336l-59 59z" />
    <glyph glyph-name="one.frac" horiz-adv-x="674" 
d="M117 666h194l144 673l-224 -65l19 88l315 92l-168 -788h191l-19 -82h-471z" />
    <glyph glyph-name="two.frac" horiz-adv-x="674" 
d="M602 1245q0 60 -41 93.5t-104 33.5q-96 0 -213 -78l22 105q114 55 205 55q106 0 164.5 -53t58.5 -144q0 -93 -57 -177.5t-193 -194.5l-260 -209v-2h389l-18 -90h-508l19 90l327 268q121 99 165 163t44 140z" />
    <glyph glyph-name="three.frac" horiz-adv-x="674" 
d="M113 702q92 -59 190 -59q105 0 163 46.5t58 133.5q0 75 -53.5 117.5t-153.5 42.5h-65l18 80h68q120 0 187 49.5t67 134.5q0 54 -37.5 89.5t-103.5 35.5q-103 0 -195 -55l23 96q93 41 184 41q102 0 159.5 -50.5t57.5 -137.5q0 -97 -58 -161.5t-161 -82.5v-4
q69 -16 109 -64t40 -123q0 -124 -85 -196t-230 -72q-122 0 -201 49z" />
    <glyph glyph-name="onehalf" unicode="&#xbd;" horiz-adv-x="1622" 
d="M1338 1434h108l-1161 -1434h-109zM117 666h194l144 673l-224 -65l19 88l315 92l-168 -788h191l-19 -82h-471zM1444 662q0 60 -41 93.5t-104 33.5q-96 0 -213 -78l22 105q114 55 205 55q106 0 164.5 -53t58.5 -144q0 -93 -57 -177.5t-193 -194.5l-260 -209v-2h389l-18 -90
h-508l19 90l327 268q121 99 165 163t44 140z" />
    <glyph glyph-name="onequarter" unicode="&#xbc;" horiz-adv-x="1581" 
d="M1358 1434h108l-1161 -1434h-109zM137 666h194l144 673l-224 -65l19 88l315 92l-168 -788h191l-19 -82h-471zM1357 851h100l-116 -553h112l-16 -78h-111l-47 -219h-84l47 219h-385l11 65zM1257 298l77 368l23 86h-2l-9 -13l-368 -441h279z" />
    <glyph glyph-name="threequarters" unicode="&#xbe;" horiz-adv-x="1581" 
d="M1358 1434h108l-1161 -1434h-109zM1357 851h100l-116 -553h112l-16 -78h-111l-47 -219h-84l47 219h-385l11 65zM1257 298l77 368l23 86h-2l-9 -13l-368 -441h279zM133 702q92 -59 190 -59q105 0 163 46.5t58 133.5q0 75 -53.5 117.5t-153.5 42.5h-65l18 80h68
q120 0 187 49.5t67 134.5q0 54 -37.5 89.5t-103.5 35.5q-103 0 -195 -55l23 96q93 41 184 41q102 0 159.5 -50.5t57.5 -137.5q0 -97 -58 -161.5t-161 -82.5v-4q69 -16 109 -64t40 -123q0 -124 -85 -196t-230 -72q-122 0 -201 49z" />
    <glyph glyph-name="franc" unicode="&#x20a3;" horiz-adv-x="952" 
d="M145 323h-158l19 90h158l217 1021h670l-19 -91h-571l-125 -585h530l-19 -90h-530l-54 -255h272l-19 -90h-272l-69 -323h-99z" />
    <glyph glyph-name="Gbreve" unicode="&#x11e;" horiz-adv-x="1421" 
d="M1176 623h-363l21 90h462l-135 -637q-185 -101 -407 -101q-280 0 -441 169.5t-161 463.5q0 253 101.5 446.5t287 298.5t422.5 105q209 0 413 -94l-24 -100q-112 59 -206 81.5t-204 22.5q-204 0 -361.5 -92t-242 -263.5t-84.5 -398.5q0 -258 132.5 -403t375.5 -145
q163 0 307 61zM811 1780l-2 -20q0 -69 43 -104t115 -35q80 0 130 36t81 123h88q-73 -235 -303 -235q-109 0 -171.5 54t-62.5 153l2 28h80z" />
    <glyph glyph-name="gbreve" unicode="&#x11f;" horiz-adv-x="1071" 
d="M-6 -313q140 -80 276 -80q182 0 286.5 100.5t156.5 327.5l65 289h-4q-103 -185 -199.5 -267t-209.5 -82q-138 0 -210.5 95.5t-72.5 273.5q0 197 82 360t225 254t313 91q51 0 146 -10t164 -27l-201 -940q-64 -296 -195.5 -424.5t-363.5 -128.5q-143 0 -275 71zM905 942
q-100 23 -217 23q-140 0 -258.5 -78.5t-185 -217t-66.5 -309.5q0 -301 199 -301q89 0 184 81.5t174 221.5t109 285zM544 1423l-2 -20q0 -69 43 -104t115 -35q80 0 130 36t81 123h88q-73 -235 -303 -235q-109 0 -171.5 54t-62.5 153l2 28h80z" />
    <glyph glyph-name="Idotaccent" unicode="&#x130;" horiz-adv-x="467" 
d="M379 1434h98l-303 -1434h-98zM457 1557q-32 0 -55 22.5t-23 55.5t23 53t53 20q31 0 55.5 -19.5t24.5 -53.5q0 -32 -23 -55t-55 -23z" />
    <glyph glyph-name="Scedilla" unicode="&#x15e;" horiz-adv-x="1018" 
d="M63 164q66 -43 155 -70.5t183 -27.5q161 0 252.5 73.5t91.5 206.5q0 93 -52 167t-177 165q-141 102 -197.5 190t-56.5 203q0 170 130.5 278.5t324.5 108.5q146 0 291 -53l-21 -102q-116 65 -280 65q-154 0 -248 -78.5t-94 -210.5q0 -100 45.5 -168.5t177.5 -165.5
q145 -105 202.5 -188.5t57.5 -198.5q0 -177 -123 -280t-330 -103q-97 0 -189 23.5t-161 60.5zM273 -352q44 -10 90 -10q88 0 127 22t39 70q0 86 -131 86l-63 -4l39 188h73l-24 -117q96 0 145 -38.5t49 -108.5q0 -82 -65 -127t-195 -45q-14 0 -52 4t-46 6z" />
    <glyph glyph-name="scedilla" unicode="&#x15f;" horiz-adv-x="795" 
d="M47 143q51 -38 117 -61t129 -23q118 0 182 49t64 146q0 64 -36 109t-134 106q-117 72 -163 133t-46 148q0 128 94.5 213.5t239.5 85.5q53 0 123 -14t116 -38l-20 -96q-98 64 -228 64q-99 0 -164 -55.5t-65 -147.5q0 -71 35.5 -116t132.5 -103q114 -69 162.5 -132.5
t48.5 -146.5q0 -132 -94.5 -210.5t-253.5 -78.5q-147 0 -260 70zM150 -352q44 -10 90 -10q88 0 127 22t39 70q0 86 -131 86l-63 -4l39 188h73l-24 -117q96 0 145 -38.5t49 -108.5q0 -82 -65 -127t-195 -45q-14 0 -52 4t-46 6z" />
    <glyph glyph-name="Cacute" unicode="&#x106;" horiz-adv-x="1294" 
d="M713 -25q-264 0 -412.5 164t-148.5 448q0 250 99 446t283 310.5t410 114.5q206 0 383 -96l-20 -109q-151 115 -377 115q-193 0 -348.5 -99t-241.5 -276t-86 -391q0 -256 125.5 -396t347.5 -140q203 0 383 102l-23 -111q-102 -45 -179 -63.5t-189 -18.5h-6zM1092 1875h111
l-303 -328h-97z" />
    <glyph glyph-name="cacute" unicode="&#x107;" horiz-adv-x="838" 
d="M438 -25q-164 0 -260 108.5t-96 297.5q0 187 72 341t198 240.5t275 86.5q69 0 125 -15.5t114 -54.5l-24 -102q-88 88 -224 88q-121 0 -224.5 -76t-161.5 -210t-58 -294q0 -152 72.5 -239t202.5 -87q66 0 126 26t134 81l-25 -115q-76 -43 -130 -59.5t-116 -16.5zM824 1516
h111l-303 -328h-97z" />
    <glyph glyph-name="Ccaron" unicode="&#x10c;" horiz-adv-x="1294" 
d="M713 -25q-264 0 -412.5 164t-148.5 448q0 250 99 446t283 310.5t410 114.5q206 0 383 -96l-20 -109q-151 115 -377 115q-193 0 -348.5 -99t-241.5 -276t-86 -391q0 -256 125.5 -396t347.5 -140q203 0 383 102l-23 -111q-102 -45 -179 -63.5t-189 -18.5h-6zM767 1882h79
l113 -246l205 246h86l-281 -336h-45z" />
    <glyph glyph-name="ccaron" unicode="&#x10d;" horiz-adv-x="838" 
d="M438 -25q-164 0 -260 108.5t-96 297.5q0 187 72 341t198 240.5t275 86.5q69 0 125 -15.5t114 -54.5l-24 -102q-88 88 -224 88q-121 0 -224.5 -76t-161.5 -210t-58 -294q0 -152 72.5 -239t202.5 -87q66 0 126 26t134 81l-25 -115q-76 -43 -130 -59.5t-116 -16.5zM465 1524
h79l113 -246l205 246h86l-281 -336h-45z" />
    <glyph glyph-name="dcroat" unicode="&#x111;" horiz-adv-x="1071" 
d="M739 0q4 120 41 326h-4q-94 -176 -194 -263.5t-220 -87.5q-134 0 -207 95.5t-73 271.5q0 199 82 362.5t224.5 254t309.5 90.5q93 0 222 -33l45 215h-389l18 84h389l43 201h92l-43 -201h136l-18 -84h-136l-191 -907q-7 -34 -19.5 -154t-12.5 -170h-95zM903 930
q-107 35 -215 35q-139 0 -257 -78t-185.5 -217.5t-67.5 -311.5q0 -154 50 -226.5t155 -72.5q82 0 180 85.5t173.5 219.5t107.5 283z" />
    <glyph glyph-name="macron" unicode="&#xaf;" horiz-adv-x="850" 
d="M183 1473h850l-17 -80h-850z" />
    <glyph glyph-name="uni2219" unicode="&#x2219;" horiz-adv-x="455" 
d="M267 625q-34 0 -57 24t-23 58t23 56.5t57 22.5t58 -22.5t24 -56.5t-24 -58t-58 -24z" />
    <glyph glyph-name="Abreve" unicode="&#x102;" horiz-adv-x="1206" 
d="M748 1434h92l233 -1434h-100l-72 446h-616l-265 -446h-104zM889 537l-103 663q-8 52 -10 109h-4l-33 -66l-405 -706h555zM653 1782l-2 -20q0 -69 43 -104t115 -35q80 0 130 36t81 123h88q-73 -235 -303 -235q-109 0 -171.5 54t-62.5 153l2 28h80z" />
    <glyph glyph-name="abreve" unicode="&#x103;" horiz-adv-x="1071" 
d="M739 0q4 111 43 328h-4q-93 -172 -193 -262.5t-220 -90.5q-136 0 -209.5 95.5t-73.5 269.5q0 200 81 363t223.5 254.5t313.5 91.5q130 0 312 -37l-133 -645q-15 -76 -30 -189.5t-15 -177.5h-95zM905 942q-106 23 -213 23q-143 0 -261.5 -78t-185.5 -219t-67 -318
q0 -291 205 -291q81 0 174 79.5t173.5 220t113.5 288.5zM575 1423l-2 -20q0 -69 43 -104t115 -35q80 0 130 36t81 123h88q-73 -235 -303 -235q-109 0 -171.5 54t-62.5 153l2 28h80z" />
    <glyph glyph-name="Aogonek" unicode="&#x104;" horiz-adv-x="1206" 
d="M748 1434h92l233 -1434h-100l-72 446h-616l-265 -446h-104zM889 537l-103 663q-8 52 -10 109h-4l-33 -66l-405 -706h555zM1056 -381q-50 -18 -94 -18q-70 0 -113 40.5t-43 112.5q0 60 44.5 126t123.5 120h88q-170 -135 -170 -240q0 -88 84 -88q37 0 80 17v-70z" />
    <glyph glyph-name="aogonek" unicode="&#x105;" horiz-adv-x="1071" 
d="M739 0q4 111 43 328h-4q-93 -172 -193 -262.5t-220 -90.5q-136 0 -209.5 95.5t-73.5 269.5q0 200 81 363t223.5 254.5t313.5 91.5q130 0 312 -37l-133 -645q-15 -76 -30 -189.5t-15 -177.5h-95zM905 942q-106 23 -213 23q-143 0 -261.5 -78t-185.5 -219t-67 -318
q0 -291 205 -291q81 0 174 79.5t173.5 220t113.5 288.5zM821 -381q-50 -18 -94 -18q-70 0 -113 40.5t-43 112.5q0 60 44.5 126t123.5 120h88q-170 -135 -170 -240q0 -88 84 -88q37 0 80 17v-70z" />
    <glyph glyph-name="Dcaron" unicode="&#x10e;" horiz-adv-x="1386" 
d="M383 1434h332q301 0 461.5 -149t160.5 -435q0 -260 -104.5 -453t-299 -295t-450.5 -102h-407zM483 90q354 0 553 197t199 555q0 501 -539 501h-235l-266 -1253h288zM597 1882h79l113 -246l205 246h86l-281 -336h-45z" />
    <glyph glyph-name="dcaron" unicode="&#x10f;" horiz-adv-x="1252" 
d="M739 0q4 120 41 326h-4q-94 -176 -194 -263.5t-220 -87.5q-134 0 -207 95.5t-73 271.5q0 199 82 362.5t224.5 254t309.5 90.5q93 0 222 -33l106 500h92l-252 -1192q-7 -34 -19.5 -154t-12.5 -170h-95zM903 930q-107 35 -215 35q-139 0 -257 -78t-185.5 -217.5
t-67.5 -311.5q0 -154 50 -226.5t155 -72.5q80 0 178 84.5t175 220.5t108 283zM1378 1516h112l-181 -261h-79z" />
    <glyph glyph-name="Dcroat" unicode="&#x110;" horiz-adv-x="1386" 
d="M219 666h-153l18 90h154l145 678h332q301 0 461.5 -149t160.5 -435q0 -260 -104.5 -453t-299 -295t-450.5 -102h-407zM483 90q354 0 553 197t199 555q0 501 -539 501h-235l-125 -587h401l-18 -90h-402l-122 -576h288z" />
    <glyph glyph-name="Eogonek" unicode="&#x118;" horiz-adv-x="989" 
d="M379 1434h670l-19 -91h-571l-123 -575h530l-18 -90h-531l-124 -588h604l-19 -90h-702zM727 -381q-50 -18 -94 -18q-70 0 -113 40.5t-43 112.5q0 60 44.5 126t123.5 120h88q-170 -135 -170 -240q0 -88 84 -88q37 0 80 17v-70z" />
    <glyph glyph-name="eogonek" unicode="&#x119;" horiz-adv-x="956" 
d="M178 395q0 -157 80.5 -246.5t226.5 -89.5q128 0 281 84l-18 -96q-132 -72 -277 -72q-185 0 -287 112.5t-102 315.5q0 178 74.5 326.5t200 234t266.5 85.5q131 0 211.5 -66t80.5 -180q0 -176 -173.5 -258t-561.5 -88zM193 541q320 0 473 59t153 193q0 172 -211 172
q-149 0 -263.5 -118.5t-151.5 -305.5zM499 -381q-50 -18 -94 -18q-70 0 -113 40.5t-43 112.5q0 60 44.5 126t123.5 120h88q-170 -135 -170 -240q0 -88 84 -88q37 0 80 17v-70z" />
    <glyph glyph-name="Ecaron" unicode="&#x11a;" horiz-adv-x="989" 
d="M379 1434h670l-19 -91h-571l-123 -575h530l-18 -90h-531l-124 -588h604l-19 -90h-702zM545 1882h79l113 -246l205 246h86l-281 -336h-45z" />
    <glyph glyph-name="ecaron" unicode="&#x11b;" horiz-adv-x="956" 
d="M178 395q0 -157 80.5 -246.5t226.5 -89.5q128 0 281 84l-18 -96q-132 -72 -277 -72q-185 0 -287 112.5t-102 315.5q0 178 74.5 326.5t200 234t266.5 85.5q131 0 211.5 -66t80.5 -180q0 -176 -173.5 -258t-561.5 -88zM193 541q320 0 473 59t153 193q0 172 -211 172
q-149 0 -263.5 -118.5t-151.5 -305.5zM464 1524h79l113 -246l205 246h86l-281 -336h-45z" />
    <glyph glyph-name="Lacute" unicode="&#x139;" horiz-adv-x="868" 
d="M379 1434h98l-284 -1344h575l-18 -90h-674zM936 1874h111l-303 -328h-97z" />
    <glyph glyph-name="lacute" unicode="&#x13a;" horiz-adv-x="428" 
d="M368 1516h93l-258 -1219q-24 -120 -24 -174q0 -60 62 -60q43 0 85 17l-17 -77q-49 -23 -98 -23q-127 0 -127 136q0 45 13 116t271 1284zM616 1949h111l-303 -328h-97z" />
    <glyph glyph-name="Lcaron" unicode="&#x13d;" horiz-adv-x="868" 
d="M379 1434h98l-284 -1344h575l-18 -90h-674zM837 1436h112l-181 -261h-79z" />
    <glyph glyph-name="lcaron" unicode="&#x13e;" horiz-adv-x="602" 
d="M368 1516h93l-258 -1219q-24 -120 -24 -174q0 -60 62 -60q43 0 85 17l-17 -77q-49 -23 -98 -23q-127 0 -127 136q0 45 13 116t271 1284zM728 1516h112l-181 -261h-79z" />
    <glyph glyph-name="Ldot" unicode="&#x13f;" horiz-adv-x="868" 
d="M379 1434h98l-284 -1344h575l-18 -90h-674zM707 632q-32 0 -55 22.5t-23 55.5t23 53t53 20q31 0 55.5 -19.5t24.5 -53.5q0 -32 -23 -55t-55 -23z" />
    <glyph glyph-name="ldot" unicode="&#x140;" horiz-adv-x="538" 
d="M368 1516h93l-258 -1219q-24 -120 -24 -174q0 -60 62 -60q43 0 85 17l-17 -77q-49 -23 -98 -23q-127 0 -127 136q0 45 13 116t271 1284zM508 632q-32 0 -55 22.5t-23 55.5t23 53t53 20q31 0 55.5 -19.5t24.5 -53.5q0 -32 -23 -55t-55 -23z" />
    <glyph glyph-name="Nacute" unicode="&#x143;" horiz-adv-x="1452" 
d="M379 1434h67l613 -1149q33 -64 43 -92h4l15 92l243 1149h98l-305 -1434h-55l-621 1159l-41 90h-4l-5 -31l-259 -1218h-96zM1086 1874h111l-303 -328h-97z" />
    <glyph glyph-name="nacute" unicode="&#x144;" horiz-adv-x="1104" 
d="M260 1024h92l-49 -291h4q195 316 428 316q131 0 192.5 -67t61.5 -208q0 -33 -8 -81t-143 -693h-93l121 588q27 135 27 170q0 207 -176 207q-78 0 -179.5 -70t-180.5 -182t-105 -236l-102 -477h-93l158 739q35 170 45 285zM891 1516h111l-303 -328h-97z" />
    <glyph glyph-name="Ncaron" unicode="&#x147;" horiz-adv-x="1452" 
d="M379 1434h67l613 -1149q33 -64 43 -92h4l15 92l243 1149h98l-305 -1434h-55l-621 1159l-41 90h-4l-5 -31l-259 -1218h-96zM749 1882h79l113 -246l205 246h86l-281 -336h-45z" />
    <glyph glyph-name="ncaron" unicode="&#x148;" horiz-adv-x="1104" 
d="M260 1024h92l-49 -291h4q195 316 428 316q131 0 192.5 -67t61.5 -208q0 -33 -8 -81t-143 -693h-93l121 588q27 135 27 170q0 207 -176 207q-78 0 -179.5 -70t-180.5 -182t-105 -236l-102 -477h-93l158 739q35 170 45 285zM497 1524h79l113 -246l205 246h86l-281 -336h-45
z" />
    <glyph glyph-name="Ohungarumlaut" unicode="&#x150;" horiz-adv-x="1544" 
d="M725 -25q-268 0 -420.5 167.5t-152.5 451.5q0 240 100 439t276 312t394 113q257 0 412 -169.5t155 -442.5q0 -242 -96.5 -444t-271 -314.5t-396.5 -112.5zM729 66q195 0 342 96t231 276t84 402q0 241 -125.5 384.5t-340.5 143.5q-192 0 -344.5 -97.5t-237 -274
t-84.5 -400.5q0 -246 125 -388t350 -142zM1159 1864h110l-248 -317h-73zM937 1864h111l-248 -317h-74z" />
    <glyph glyph-name="ohungarumlaut" unicode="&#x151;" horiz-adv-x="1061" 
d="M440 -25q-168 0 -263 105t-95 291t72.5 344t196.5 246t272 88q170 0 263 -106t93 -288q0 -189 -70 -346t-194 -245.5t-275 -88.5zM449 59q118 0 218 75.5t158 211t58 299.5q0 157 -71 238.5t-200 81.5q-116 0 -217 -76t-159 -211.5t-58 -298.5q0 -151 72.5 -235.5
t198.5 -84.5zM903 1505h110l-248 -317h-73zM681 1505h111l-248 -317h-74z" />
    <glyph glyph-name="Racute" unicode="&#x154;" horiz-adv-x="1137" 
d="M379 1434h366q175 0 271 -91t96 -258q0 -177 -121 -295.5t-319 -130.5v-4q95 -43 135 -198l115 -457h-105l-106 432q-26 106 -81.5 156.5t-162.5 50.5h-158l-135 -639h-98zM594 729q194 0 305 94t111 258q0 125 -73.5 193.5t-205.5 68.5h-272l-131 -614h266zM932 1874
h111l-303 -328h-97z" />
    <glyph glyph-name="racute" unicode="&#x155;" horiz-adv-x="684" 
d="M260 1024h92l-37 -242h4q68 136 144.5 201.5t179.5 65.5q58 0 109 -25l-17 -94h-4q-53 35 -106 35q-112 0 -220.5 -144t-156.5 -368l-96 -453h-93l142 665q48 218 59 359zM751 1516h111l-303 -328h-97z" />
    <glyph glyph-name="Rcaron" unicode="&#x158;" horiz-adv-x="1137" 
d="M379 1434h366q175 0 271 -91t96 -258q0 -177 -121 -295.5t-319 -130.5v-4q95 -43 135 -198l115 -457h-105l-106 432q-26 106 -81.5 156.5t-162.5 50.5h-158l-135 -639h-98zM594 729q194 0 305 94t111 258q0 125 -73.5 193.5t-205.5 68.5h-272l-131 -614h266zM527 1882h79
l113 -246l205 246h86l-281 -336h-45z" />
    <glyph glyph-name="rcaron" unicode="&#x159;" horiz-adv-x="684" 
d="M260 1024h92l-37 -242h4q68 136 144.5 201.5t179.5 65.5q58 0 109 -25l-17 -94h-4q-53 35 -106 35q-112 0 -220.5 -144t-156.5 -368l-96 -453h-93l142 665q48 218 59 359zM328 1524h79l113 -246l205 246h86l-281 -336h-45z" />
    <glyph glyph-name="Sacute" unicode="&#x15a;" horiz-adv-x="1018" 
d="M63 164q66 -43 155 -70.5t183 -27.5q161 0 252.5 73.5t91.5 206.5q0 93 -52 167t-177 165q-141 102 -197.5 190t-56.5 203q0 170 130.5 278.5t324.5 108.5q146 0 291 -53l-21 -102q-116 65 -280 65q-154 0 -248 -78.5t-94 -210.5q0 -100 45.5 -168.5t177.5 -165.5
q145 -105 202.5 -188.5t57.5 -198.5q0 -177 -123 -280t-330 -103q-97 0 -189 23.5t-161 60.5zM885 1873h111l-303 -328h-97z" />
    <glyph glyph-name="sacute" unicode="&#x15b;" horiz-adv-x="795" 
d="M47 143q51 -38 117 -61t129 -23q118 0 182 49t64 146q0 64 -36 109t-134 106q-117 72 -163 133t-46 148q0 128 94.5 213.5t239.5 85.5q53 0 123 -14t116 -38l-20 -96q-98 64 -228 64q-99 0 -164 -55.5t-65 -147.5q0 -71 35.5 -116t132.5 -103q114 -69 162.5 -132.5
t48.5 -146.5q0 -132 -94.5 -210.5t-253.5 -78.5q-147 0 -260 70zM738 1516h111l-303 -328h-97z" />
    <glyph glyph-name="Tcommaaccent" unicode="&#x162;" horiz-adv-x="1047" 
d="M649 1343h-413l18 91h926l-19 -91h-413l-285 -1343h-98zM274 -352q44 -10 90 -10q88 0 127 22t39 70q0 86 -131 86l-63 -4l39 188h73l-24 -117q96 0 145 -38.5t49 -108.5q0 -82 -65 -127t-195 -45q-14 0 -52 4t-46 6z" />
    <glyph glyph-name="tcommaaccent" unicode="&#x163;" horiz-adv-x="608" 
d="M285 940h-187l19 84h184l57 266l99 31l-64 -297h275l-21 -84h-270l-137 -643q-19 -95 -19 -137q0 -48 20 -72.5t68 -24.5q43 0 162 52l-20 -88q-37 -20 -86 -33.5t-76 -13.5q-162 0 -162 174q0 63 20 147zM108 -352q44 -10 90 -10q88 0 127 22t39 70q0 86 -131 86l-63 -4
l39 188h73l-24 -117q96 0 145 -38.5t49 -108.5q0 -82 -65 -127t-195 -45q-14 0 -52 4t-46 6z" />
    <glyph glyph-name="Tcaron" unicode="&#x164;" horiz-adv-x="1047" 
d="M649 1343h-413l18 91h926l-19 -91h-413l-285 -1343h-98zM541 1882h79l113 -246l205 246h86l-281 -336h-45z" />
    <glyph glyph-name="tcaron" unicode="&#x165;" horiz-adv-x="723" 
d="M285 940h-187l19 84h184l57 266l99 31l-64 -297h275l-21 -84h-270l-137 -643q-19 -95 -19 -137q0 -48 20 -72.5t68 -24.5q43 0 162 52l-20 -88q-37 -20 -86 -33.5t-76 -13.5q-162 0 -162 174q0 63 20 147zM849 1516h112l-181 -261h-79z" />
    <glyph glyph-name="Uring" unicode="&#x16e;" horiz-adv-x="1327" 
d="M358 1434h99l-164 -783q-31 -145 -31 -235q0 -350 348 -350q191 0 299 110.5t158 343.5l193 914h98l-187 -887q-67 -313 -200.5 -442.5t-378.5 -129.5q-202 0 -316 112t-114 312q0 99 24 217zM691 1733q0 79 57 131.5t144 52.5q88 0 144 -50.5t56 -133.5
q0 -78 -57.5 -131t-142.5 -53q-88 0 -144.5 51t-56.5 133zM892 1616q57 0 93 32.5t36 84.5q0 54 -34.5 85.5t-94.5 31.5q-57 0 -92 -31.5t-35 -85.5t37 -85.5t90 -31.5z" />
    <glyph glyph-name="uring" unicode="&#x16f;" horiz-adv-x="1104" 
d="M266 1024h92l-120 -588q-27 -135 -27 -170q0 -207 176 -207q85 0 185.5 75t180 193.5t99.5 219.5l102 477h93l-158 -739q-35 -170 -45 -285h-92l49 291h-4q-195 -316 -428 -316q-254 0 -254 281q0 20 6.5 68t144.5 700zM511 1372q0 79 57 131.5t144 52.5q88 0 144 -50.5
t56 -133.5q0 -78 -57.5 -131t-142.5 -53q-88 0 -144.5 51t-56.5 133zM712 1255q57 0 93 32.5t36 84.5q0 54 -34.5 85.5t-94.5 31.5q-57 0 -92 -31.5t-35 -85.5t37 -85.5t90 -31.5z" />
    <glyph glyph-name="Uhungarumlaut" unicode="&#x170;" horiz-adv-x="1327" 
d="M358 1434h99l-164 -783q-31 -145 -31 -235q0 -350 348 -350q191 0 299 110.5t158 343.5l193 914h98l-187 -887q-67 -313 -200.5 -442.5t-378.5 -129.5q-202 0 -316 112t-114 312q0 99 24 217zM1085 1863h110l-248 -317h-73zM863 1863h111l-248 -317h-74z" />
    <glyph glyph-name="uhungarumlaut" unicode="&#x171;" horiz-adv-x="1104" 
d="M266 1024h92l-120 -588q-27 -135 -27 -170q0 -207 176 -207q85 0 185.5 75t180 193.5t99.5 219.5l102 477h93l-158 -739q-35 -170 -45 -285h-92l49 291h-4q-195 -316 -428 -316q-254 0 -254 281q0 20 6.5 68t144.5 700zM918 1505h110l-248 -317h-73zM696 1505h111
l-248 -317h-74z" />
    <glyph glyph-name="Zacute" unicode="&#x179;" horiz-adv-x="1167" 
d="M1104 1341h-795l19 93h952l-6 -37l-1147 -1305h854l-18 -92h-1008l8 41zM948 1875h111l-303 -328h-97z" />
    <glyph glyph-name="zacute" unicode="&#x17a;" horiz-adv-x="950" 
d="M825 940h-628l18 84h786l-6 -33l-878 -907h661l-18 -84h-811l8 43zM778 1516h111l-303 -328h-97z" />
    <glyph glyph-name="Zdotaccent" unicode="&#x17b;" horiz-adv-x="1167" 
d="M1104 1341h-795l19 93h952l-6 -37l-1147 -1305h854l-18 -92h-1008l8 41zM805 1545q-32 0 -55 22.5t-23 55.5t23 53t53 20q31 0 55.5 -19.5t24.5 -53.5q0 -32 -23 -55t-55 -23z" />
    <glyph glyph-name="zdotaccent" unicode="&#x17c;" horiz-adv-x="950" 
d="M825 940h-628l18 84h786l-6 -33l-878 -907h661l-18 -84h-811l8 43zM634 1188q-32 0 -55 22.5t-23 55.5t23 53t53 20q31 0 55.5 -19.5t24.5 -53.5q0 -32 -23 -55t-55 -23z" />
    <glyph glyph-name="Gamma" unicode="&#x393;" horiz-adv-x="938" 
d="M379 1434h674l-19 -91h-575l-285 -1343h-98z" />
    <glyph glyph-name="Theta" unicode="&#x398;" horiz-adv-x="1544" 
d="M725 -25q-267 0 -420 163.5t-153 455.5q0 242 100.5 443t276 311t393.5 110q257 0 412 -164t155 -448q0 -250 -98 -448.5t-273 -310.5t-393 -112zM729 66q203 0 347 96t227 278t83 400q0 245 -127 386.5t-339 141.5q-195 0 -346.5 -99t-235.5 -276.5t-84 -396.5
q0 -251 125 -390.5t350 -139.5zM578 762h501l-18 -90h-502z" />
    <glyph glyph-name="Phi" unicode="&#x3a6;" horiz-adv-x="1573" 
d="M662 197h-68q-207 0 -329 123.5t-122 334.5q0 181 81 327.5t227 228t323 81.5h119l35 158h98l-35 -158h68q205 0 327.5 -125t122.5 -333q0 -181 -81.5 -327.5t-225.5 -228t-323 -81.5h-119l-45 -213h-99zM885 287h11q146 0 263.5 67.5t182.5 189t65 269.5
q0 194 -94 291.5t-269 97.5h-71l-195 -915h107zM680 287l194 915h-106q-233 0 -377.5 -146.5t-144.5 -391.5q0 -181 93 -279t269 -98h72z" />
    <glyph glyph-name="alpha" unicode="&#x3b1;" horiz-adv-x="1226" 
d="M869 376q-103 -199 -220 -301t-259 -102q-148 0 -228 98.5t-80 278.5q0 182 78 344.5t211 258.5t271 96q259 0 290 -400h4q97 166 204 375h105q-70 -132 -299 -526q14 -216 40 -306.5t86 -90.5q25 0 43 5l-37 -113l-35 -3q-82 0 -122 87.5t-48 298.5h-4zM858 508
q-10 243 -61.5 350t-159.5 107q-117 0 -223 -85.5t-170 -231.5t-64 -298q0 -138 56 -214.5t162 -76.5q218 0 410 356z" />
    <glyph glyph-name="delta" unicode="&#x3b4;" horiz-adv-x="1150" 
d="M1165 1364q-140 92 -308 92q-152 0 -236 -54t-84 -151q0 -85 45 -146.5t195 -173.5q141 -106 207.5 -218.5t66.5 -251.5q0 -223 -148 -354.5t-396 -131.5q-197 0 -311 109.5t-114 306.5q0 412 535 551q-179 149 -179 309q0 135 112 212t312 77q77 0 170 -19t156 -51z
M687 885q-257 -64 -380.5 -184t-123.5 -310q0 -156 86.5 -244t239.5 -88q205 0 323 106.5t118 293.5q0 123 -60 222.5t-203 203.5z" />
    <glyph glyph-name="epsilon" unicode="&#x3b5;" horiz-adv-x="897" 
d="M383 543q-94 18 -150.5 77t-56.5 138q0 137 110.5 214t298.5 77q103 0 180.5 -21t119.5 -49l-25 -102q-44 38 -125 63t-150 25q-142 0 -227.5 -55t-85.5 -150q0 -86 78 -136.5t201 -50.5h77l77 2l-19 -88l-85 2q-246 0 -358 -56.5t-112 -176.5q0 -94 72 -145.5t213 -51.5
q84 0 190 32t164 75l-25 -119q-62 -31 -158.5 -51.5t-176.5 -20.5q-182 0 -278.5 71.5t-96.5 203.5q0 117 92 194.5t254 94.5z" />
    <glyph glyph-name="sigma" unicode="&#x3c3;" horiz-adv-x="1119" 
d="M1223 1024l-20 -80h-257q47 -141 47 -306q0 -192 -65 -344.5t-183.5 -235.5t-271.5 -83q-188 0 -289.5 106.5t-101.5 291.5q0 306 171.5 478.5t473.5 172.5h496zM704 942q-252 0 -389 -148t-137 -417q0 -147 81.5 -232.5t212.5 -85.5q192 0 308 155t116 421
q0 203 -40 307h-152z" />
    <glyph glyph-name="tau" unicode="&#x3c4;" horiz-adv-x="997" 
d="M528 944h-170q-105 0 -237 -63l18 88q117 55 238 55h688l-18 -80h-426l-142 -668q-16 -70 -16 -112q0 -92 100 -92q44 0 74 10l-16 -80q-42 -14 -86 -14q-82 0 -124 40.5t-42 116.5q0 22 20 142z" />
    <glyph glyph-name="phi" unicode="&#x3c6;" horiz-adv-x="1415" 
d="M545 -25h-33q-207 0 -324.5 110.5t-117.5 303.5q0 361 325 635h123q-187 -153 -268.5 -303.5t-81.5 -331.5q0 -165 95.5 -247.5t277.5 -82.5h22l154 717q55 273 303 273q143 0 233 -111t90 -279q0 -198 -84.5 -355.5t-239.5 -243t-355 -85.5h-27l-96 -456h-92zM690 59
q251 0 404 165.5t153 430.5q0 137 -64 223.5t-167 86.5q-167 0 -207 -187l-154 -719h35z" />
    <glyph glyph-name="underscoredbl" unicode="&#x2017;" horiz-adv-x="850" 
d="M0 -179h850v-84h-850v84zM0 -430h850v-84h-850v84z" />
    <glyph glyph-name="exclamdbl" unicode="&#x203c;" horiz-adv-x="925" 
d="M743 1434h107l-229 -1031h-86zM436 63q0 35 23 57.5t57 22.5t58 -22.5t24 -57.5q0 -34 -24 -57.5t-58 -23.5t-57 23.5t-23 57.5zM401 1434h107l-229 -1031h-86zM94 63q0 35 23 57.5t57 22.5t58 -22.5t24 -57.5q0 -34 -24 -57.5t-58 -23.5t-57 23.5t-23 57.5z" />
    <glyph glyph-name="uni207F" unicode="&#x207f;" horiz-adv-x="803" 
d="M311 1434h85l-30 -136h4q109 156 256 156q96 0 145 -52.5t49 -143.5q0 -22 -11 -94l-95 -449h-85l91 427q14 65 14 101q0 134 -123 134q-84 0 -172 -77t-107 -165l-89 -420h-85z" />
    <glyph glyph-name="peseta" unicode="&#x20a7;" horiz-adv-x="2178" 
d="M373 1434h238q197 0 305.5 -98t108.5 -275q0 -130 -54 -236h175l57 266l98 31l-63 -297h270l-18 -84h-270l-101 -477q-11 -48 -11 -91q0 -110 115 -110q58 0 131 37l-18 -86q-61 -34 -128 -34q-91 0 -142.5 44t-51.5 132q0 56 27 177l87 408h-190l9 42
q-141 -208 -465 -208h-191l-123 -575h-98zM488 666q209 0 322 99.5t113 287.5q0 138 -83.5 214t-248.5 76h-138l-144 -677h179zM1455 148q29 -33 98.5 -61t127.5 -28q120 0 184.5 44t64.5 129q0 55 -38 94t-144 85q-102 43 -145.5 97.5t-43.5 124.5q0 111 92 181.5t233 70.5
q51 0 120.5 -15.5t106.5 -38.5l-21 -100q-48 33 -103.5 52t-103.5 19q-111 0 -172.5 -43.5t-61.5 -124.5q0 -55 35 -88t134 -74q110 -47 157.5 -103t47.5 -127q0 -126 -92.5 -196.5t-256.5 -70.5q-67 0 -135.5 19t-106.5 51z" />
    <glyph glyph-name="IJ" unicode="&#x132;" horiz-adv-x="1131" 
d="M379 1434h98l-303 -1434h-98zM387 100q19 -11 60.5 -22.5t64.5 -11.5q139 0 212 85.5t120 303.5l209 979h98l-209 -975q-59 -272 -157.5 -378t-284.5 -106q-27 0 -71.5 9t-61.5 18z" />
    <glyph glyph-name="ij" unicode="&#x133;" horiz-adv-x="840" 
d="M274 1024h93l-154 -727q-24 -120 -24 -174q0 -60 62 -60q43 0 85 17l-17 -77q-49 -23 -98 -23q-127 0 -127 136q0 47 8.5 94t171.5 814zM391 1282q-31 0 -53.5 22t-22.5 56q0 32 23 53t53 21q31 0 54.5 -20t23.5 -54q0 -32 -23 -55t-55 -23zM28 -348q67 -49 139 -49
q125 0 194 88t119 321l215 1012h93l-209 -981q-60 -286 -157 -405t-267 -119q-39 0 -82.5 12t-65.5 27zM810 1282q-31 0 -53.5 22t-22.5 56q0 32 23 53t53 21q31 0 54.5 -20t23.5 -54q0 -32 -23 -55t-55 -23z" />
    <glyph glyph-name="napostrophe" unicode="&#x149;" horiz-adv-x="1182" 
d="M338 1024h92l-49 -291h4q195 316 428 316q131 0 192.5 -67t61.5 -208q0 -33 -8 -81t-143 -693h-93l121 588q27 135 27 170q0 207 -176 207q-78 0 -179.5 -70t-180.5 -182t-105 -236l-102 -477h-93l158 739q35 170 45 285zM222 1434h104l-156 -449h-73z" />
    <glyph glyph-name="minute" unicode="&#x2032;" horiz-adv-x="500" 
d="M375 1434h116l-96 -457h-84z" />
    <glyph glyph-name="second" unicode="&#x2033;" horiz-adv-x="811" 
d="M376 1434h116l-96 -457h-84zM687 1434h116l-96 -457h-84z" />
    <glyph glyph-name="afii61248" unicode="&#x2105;" horiz-adv-x="1642" 
d="M868 276q0 177 114 311t280 134q129 0 206 -77.5t77 -215.5q0 -182 -111.5 -315t-274.5 -133q-141 0 -216 81t-75 215zM1383 1434h107l-1208 -1434h-107zM1162 60q124 0 207.5 111t83.5 252q0 217 -193 217q-128 0 -214 -112.5t-86 -252.5q0 -215 202 -215zM457 713
q-130 0 -200 80.5t-70 213.5q0 195 115.5 321t296.5 126q120 0 194 -45l-28 -94q-85 55 -180 55q-138 0 -221 -107t-83 -247q0 -219 197 -219q83 0 193 59l-27 -103q-96 -40 -187 -40z" />
    <glyph glyph-name="afii61289" unicode="&#x2113;" horiz-adv-x="662" 
d="M193 677v435q0 200 55.5 289.5t181.5 89.5q100 0 157.5 -56t57.5 -156q0 -108 -76.5 -240.5t-283.5 -376.5v-399q0 -108 31.5 -156t101.5 -48q77 0 198 106v-99q-52 -43 -104.5 -67t-120.5 -24q-100 0 -149 68t-49 220v291l-130 -155l-60 54zM285 785
q129 152 199.5 272.5t70.5 219.5q0 64 -34 98.5t-91 34.5q-78 0 -111.5 -70t-33.5 -232v-323z" />
    <glyph glyph-name="H22073" unicode="&#x25a1;" horiz-adv-x="1237" 
d="M145 944h945v-944h-945v944zM1014 76v792h-793v-792h793z" />
    <glyph glyph-name="H18543" unicode="&#x25aa;" horiz-adv-x="725" 
d="M131 907h463v-463h-463v463z" />
    <glyph glyph-name="H18551" unicode="&#x25ab;" horiz-adv-x="725" 
d="M131 907h463v-463h-463v463zM518 520v311h-311v-311h311z" />
    <glyph glyph-name="H18533" unicode="&#x25cf;" horiz-adv-x="1237" 
d="M178 578q0 121 61 224.5t167.5 159.5t211.5 56q118 0 223.5 -62t161.5 -166.5t56 -211.5q0 -182 -126 -311.5t-312 -129.5q-185 0 -314 127.5t-129 313.5z" />
    <glyph glyph-name="openbullet" unicode="&#x25e6;" horiz-adv-x="725" 
d="M112 678q0 104 73.5 177t177.5 73q103 0 177 -74t74 -176q0 -106 -73 -179t-178 -73q-103 0 -177 73t-74 179zM362 852q-72 0 -123 -51t-51 -123q0 -74 51.5 -125t124.5 -51t123 51t51 125q0 73 -52.5 123.5t-123.5 50.5z" />
    <glyph glyph-name="Amacron" unicode="&#x100;" horiz-adv-x="1206" 
d="M748 1434h92l233 -1434h-100l-72 446h-616l-265 -446h-104zM889 537l-103 663q-8 52 -10 109h-4l-33 -66l-405 -706h555zM566 1639h508l-17 -84h-508z" />
    <glyph glyph-name="amacron" unicode="&#x101;" horiz-adv-x="1071" 
d="M739 0q4 111 43 328h-4q-93 -172 -193 -262.5t-220 -90.5q-136 0 -209.5 95.5t-73.5 269.5q0 200 81 363t223.5 254.5t313.5 91.5q130 0 312 -37l-133 -645q-15 -76 -30 -189.5t-15 -177.5h-95zM905 942q-106 23 -213 23q-143 0 -261.5 -78t-185.5 -219t-67 -318
q0 -291 205 -291q81 0 174 79.5t173.5 220t113.5 288.5zM467 1292h508l-17 -84h-508z" />
    <glyph glyph-name="Ccircumflex" unicode="&#x108;" horiz-adv-x="1294" 
d="M713 -25q-264 0 -412.5 164t-148.5 448q0 250 99 446t283 310.5t410 114.5q206 0 383 -96l-20 -109q-151 115 -377 115q-193 0 -348.5 -99t-241.5 -276t-86 -391q0 -256 125.5 -396t347.5 -140q203 0 383 102l-23 -111q-102 -45 -179 -63.5t-189 -18.5h-6zM986 1883h45
l157 -336h-80l-112 246l-205 -246h-86z" />
    <glyph glyph-name="ccircumflex" unicode="&#x109;" horiz-adv-x="838" 
d="M438 -25q-164 0 -260 108.5t-96 297.5q0 187 72 341t198 240.5t275 86.5q69 0 125 -15.5t114 -54.5l-24 -102q-88 88 -224 88q-121 0 -224.5 -76t-161.5 -210t-58 -294q0 -152 72.5 -239t202.5 -87q66 0 126 26t134 81l-25 -115q-76 -43 -130 -59.5t-116 -16.5zM670 1524
h45l157 -336h-80l-112 246l-205 -246h-86z" />
    <glyph glyph-name="Cdotaccent" unicode="&#x10a;" horiz-adv-x="1294" 
d="M713 -25q-264 0 -412.5 164t-148.5 448q0 250 99 446t283 310.5t410 114.5q206 0 383 -96l-20 -109q-151 115 -377 115q-193 0 -348.5 -99t-241.5 -276t-86 -391q0 -256 125.5 -396t347.5 -140q203 0 383 102l-23 -111q-102 -45 -179 -63.5t-189 -18.5h-6zM970 1536
q-32 0 -55 22.5t-23 55.5t23 53t53 20q31 0 55.5 -19.5t24.5 -53.5q0 -32 -23 -55t-55 -23z" />
    <glyph glyph-name="cdotaccent" unicode="&#x10b;" horiz-adv-x="838" 
d="M438 -25q-164 0 -260 108.5t-96 297.5q0 187 72 341t198 240.5t275 86.5q69 0 125 -15.5t114 -54.5l-24 -102q-88 88 -224 88q-121 0 -224.5 -76t-161.5 -210t-58 -294q0 -152 72.5 -239t202.5 -87q66 0 126 26t134 81l-25 -115q-76 -43 -130 -59.5t-116 -16.5zM667 1188
q-32 0 -55 22.5t-23 55.5t23 53t53 20q31 0 55.5 -19.5t24.5 -53.5q0 -32 -23 -55t-55 -23z" />
    <glyph glyph-name="Emacron" unicode="&#x112;" horiz-adv-x="989" 
d="M379 1434h670l-19 -91h-571l-123 -575h530l-18 -90h-531l-124 -588h604l-19 -90h-702zM480 1639h508l-17 -84h-508z" />
    <glyph glyph-name="emacron" unicode="&#x113;" horiz-adv-x="956" 
d="M178 395q0 -157 80.5 -246.5t226.5 -89.5q128 0 281 84l-18 -96q-132 -72 -277 -72q-185 0 -287 112.5t-102 315.5q0 178 74.5 326.5t200 234t266.5 85.5q131 0 211.5 -66t80.5 -180q0 -176 -173.5 -258t-561.5 -88zM193 541q320 0 473 59t153 193q0 172 -211 172
q-149 0 -263.5 -118.5t-151.5 -305.5zM361 1292h508l-17 -84h-508z" />
    <glyph glyph-name="Ebreve" unicode="&#x114;" horiz-adv-x="989" 
d="M379 1434h670l-19 -91h-571l-123 -575h530l-18 -90h-531l-124 -588h604l-19 -90h-702zM570 1782l-2 -20q0 -69 43 -104t115 -35q80 0 130 36t81 123h88q-73 -235 -303 -235q-109 0 -171.5 54t-62.5 153l2 28h80z" />
    <glyph glyph-name="ebreve" unicode="&#x115;" horiz-adv-x="956" 
d="M178 395q0 -157 80.5 -246.5t226.5 -89.5q128 0 281 84l-18 -96q-132 -72 -277 -72q-185 0 -287 112.5t-102 315.5q0 178 74.5 326.5t200 234t266.5 85.5q131 0 211.5 -66t80.5 -180q0 -176 -173.5 -258t-561.5 -88zM193 541q320 0 473 59t153 193q0 172 -211 172
q-149 0 -263.5 -118.5t-151.5 -305.5zM494 1423l-2 -20q0 -69 43 -104t115 -35q80 0 130 36t81 123h88q-73 -235 -303 -235q-109 0 -171.5 54t-62.5 153l2 28h80z" />
    <glyph glyph-name="Edotaccent" unicode="&#x116;" horiz-adv-x="989" 
d="M379 1434h670l-19 -91h-571l-123 -575h530l-18 -90h-531l-124 -588h604l-19 -90h-702zM734 1546q-32 0 -55 22.5t-23 55.5t23 53t53 20q31 0 55.5 -19.5t24.5 -53.5q0 -32 -23 -55t-55 -23z" />
    <glyph glyph-name="edotaccent" unicode="&#x117;" horiz-adv-x="956" 
d="M178 395q0 -157 80.5 -246.5t226.5 -89.5q128 0 281 84l-18 -96q-132 -72 -277 -72q-185 0 -287 112.5t-102 315.5q0 178 74.5 326.5t200 234t266.5 85.5q131 0 211.5 -66t80.5 -180q0 -176 -173.5 -258t-561.5 -88zM193 541q320 0 473 59t153 193q0 172 -211 172
q-149 0 -263.5 -118.5t-151.5 -305.5zM662 1188q-32 0 -55 22.5t-23 55.5t23 53t53 20q31 0 55.5 -19.5t24.5 -53.5q0 -32 -23 -55t-55 -23z" />
    <glyph glyph-name="Gcircumflex" unicode="&#x11c;" horiz-adv-x="1421" 
d="M1176 623h-363l21 90h462l-135 -637q-185 -101 -407 -101q-280 0 -441 169.5t-161 463.5q0 253 101.5 446.5t287 298.5t422.5 105q209 0 413 -94l-24 -100q-112 59 -206 81.5t-204 22.5q-204 0 -361.5 -92t-242 -263.5t-84.5 -398.5q0 -258 132.5 -403t375.5 -145
q163 0 307 61zM986 1884h45l157 -336h-80l-112 246l-205 -246h-86z" />
    <glyph glyph-name="gcircumflex" unicode="&#x11d;" horiz-adv-x="1071" 
d="M-6 -313q140 -80 276 -80q182 0 286.5 100.5t156.5 327.5l65 289h-4q-103 -185 -199.5 -267t-209.5 -82q-138 0 -210.5 95.5t-72.5 273.5q0 197 82 360t225 254t313 91q51 0 146 -10t164 -27l-201 -940q-64 -296 -195.5 -424.5t-363.5 -128.5q-143 0 -275 71zM905 942
q-100 23 -217 23q-140 0 -258.5 -78.5t-185 -217t-66.5 -309.5q0 -301 199 -301q89 0 184 81.5t174 221.5t109 285zM720 1524h45l157 -336h-80l-112 246l-205 -246h-86z" />
    <glyph glyph-name="Gdotaccent" unicode="&#x120;" horiz-adv-x="1421" 
d="M1176 623h-363l21 90h462l-135 -637q-185 -101 -407 -101q-280 0 -441 169.5t-161 463.5q0 253 101.5 446.5t287 298.5t422.5 105q209 0 413 -94l-24 -100q-112 59 -206 81.5t-204 22.5q-204 0 -361.5 -92t-242 -263.5t-84.5 -398.5q0 -258 132.5 -403t375.5 -145
q163 0 307 61zM981 1546q-32 0 -55 22.5t-23 55.5t23 53t53 20q31 0 55.5 -19.5t24.5 -53.5q0 -32 -23 -55t-55 -23z" />
    <glyph glyph-name="gdotaccent" unicode="&#x121;" horiz-adv-x="1071" 
d="M-6 -313q140 -80 276 -80q182 0 286.5 100.5t156.5 327.5l65 289h-4q-103 -185 -199.5 -267t-209.5 -82q-138 0 -210.5 95.5t-72.5 273.5q0 197 82 360t225 254t313 91q51 0 146 -10t164 -27l-201 -940q-64 -296 -195.5 -424.5t-363.5 -128.5q-143 0 -275 71zM905 942
q-100 23 -217 23q-140 0 -258.5 -78.5t-185 -217t-66.5 -309.5q0 -301 199 -301q89 0 184 81.5t174 221.5t109 285zM729 1188q-32 0 -55 22.5t-23 55.5t23 53t53 20q31 0 55.5 -19.5t24.5 -53.5q0 -32 -23 -55t-55 -23z" />
    <glyph glyph-name="Gcommaaccent" unicode="&#x122;" horiz-adv-x="1421" 
d="M1176 623h-363l21 90h462l-135 -637q-185 -101 -407 -101q-280 0 -441 169.5t-161 463.5q0 253 101.5 446.5t287 298.5t422.5 105q209 0 413 -94l-24 -100q-112 59 -206 81.5t-204 22.5q-204 0 -361.5 -92t-242 -263.5t-84.5 -398.5q0 -258 132.5 -403t375.5 -145
q163 0 307 61zM714 -117h112l-181 -261h-79z" />
    <glyph glyph-name="gcommaaccent" unicode="&#x123;" horiz-adv-x="1071" 
d="M-6 -313q140 -80 276 -80q182 0 286.5 100.5t156.5 327.5l65 289h-4q-103 -185 -199.5 -267t-209.5 -82q-138 0 -210.5 95.5t-72.5 273.5q0 197 82 360t225 254t313 91q51 0 146 -10t164 -27l-201 -940q-64 -296 -195.5 -424.5t-363.5 -128.5q-143 0 -275 71zM905 942
q-100 23 -217 23q-140 0 -258.5 -78.5t-185 -217t-66.5 -309.5q0 -301 199 -301q89 0 184 81.5t174 221.5t109 285zM789.055 1216.19h-111.986l180.979 260.968h78.9902z" />
    <glyph glyph-name="Hcircumflex" unicode="&#x124;" horiz-adv-x="1386" 
d="M379 1434h98l-139 -656h821l139 656h99l-303 -1434h-99l146 688h-822l-145 -688h-98zM936 1882h45l157 -336h-80l-112 246l-205 -246h-86z" />
    <glyph glyph-name="hcircumflex" unicode="&#x125;" horiz-adv-x="1102" 
d="M381 1516h92l-166 -781h4q191 314 424 314q252 0 252 -281q0 -31 -29 -195l-120 -573h-93l121 588q27 135 27 170q0 207 -176 207q-78 0 -179.5 -70t-180.5 -182t-105 -236l-102 -477h-93zM750 1953h45l157 -336h-80l-112 246l-205 -246h-86z" />
    <glyph glyph-name="Hbar" unicode="&#x126;" horiz-adv-x="1386" 
d="M297 1045h-123l20 91h123l63 298h99l-63 -298h821l63 298h98l-63 -298h123l-20 -91h-123l-222 -1045h-98l146 688h-821l-146 -688h-99zM1160 778l57 267h-821l-57 -267h821z" />
    <glyph glyph-name="hbar" unicode="&#x127;" horiz-adv-x="1102" 
d="M320 1231h-136l18 84h136l43 201h92l-43 -201h389l-18 -84h-389l-105 -496h4q191 314 424 314q252 0 252 -281q0 -31 -29 -195l-120 -573h-93l121 588q27 135 27 170q0 207 -176 207q-78 0 -179.5 -70t-180.5 -182t-105 -236l-102 -477h-93z" />
    <glyph glyph-name="Itilde" unicode="&#x128;" horiz-adv-x="467" 
d="M379 1434h98l-303 -1434h-98zM128 1543q41 221 213 221q43 0 73 -20.5t56 -45t53 -45t63 -20.5q96 0 128 145h74q-48 -223 -213 -223q-45 0 -74.5 20.5t-55 45t-51.5 45t-63 20.5q-50 0 -82 -32.5t-49 -110.5h-72z" />
    <glyph glyph-name="itilde" unicode="&#x129;" horiz-adv-x="428" 
d="M264 1024h93l-154 -727q-24 -120 -24 -174q0 -60 62 -60q43 0 85 17l-17 -77q-49 -23 -98 -23q-127 0 -127 136q0 52 26 185zM43 1188q41 221 213 221q43 0 73 -20.5t56 -45t53 -45t63 -20.5q96 0 128 145h74q-48 -223 -213 -223q-45 0 -74.5 20.5t-55 45t-51.5 45
t-63 20.5q-50 0 -82 -32.5t-49 -110.5h-72z" />
    <glyph glyph-name="Imacron" unicode="&#x12a;" horiz-adv-x="467" 
d="M379 1434h98l-303 -1434h-98zM217 1639h508l-17 -84h-508z" />
    <glyph glyph-name="imacron" unicode="&#x12b;" horiz-adv-x="428" 
d="M264 1024h93l-154 -727q-24 -120 -24 -174q0 -60 62 -60q43 0 85 17l-17 -77q-49 -23 -98 -23q-127 0 -127 136q0 52 26 185zM112 1292h508l-17 -84h-508z" />
    <glyph glyph-name="Ibreve" unicode="&#x12c;" horiz-adv-x="467" 
d="M379 1434h98l-303 -1434h-98zM296 1781l-2 -20q0 -69 43 -104t115 -35q80 0 130 36t81 123h88q-73 -235 -303 -235q-109 0 -171.5 54t-62.5 153l2 28h80z" />
    <glyph glyph-name="ibreve" unicode="&#x12d;" horiz-adv-x="428" 
d="M264 1024h93l-154 -727q-24 -120 -24 -174q0 -60 62 -60q43 0 85 17l-17 -77q-49 -23 -98 -23q-127 0 -127 136q0 52 26 185zM185 1423l-2 -20q0 -69 43 -104t115 -35q80 0 130 36t81 123h88q-73 -235 -303 -235q-109 0 -171.5 54t-62.5 153l2 28h80z" />
    <glyph glyph-name="Iogonek" unicode="&#x12e;" horiz-adv-x="467" 
d="M379 1434h98l-303 -1434h-98zM162 -381q-50 -18 -94 -18q-70 0 -113 40.5t-43 112.5q0 60 44.5 126t123.5 120h88q-170 -135 -170 -240q0 -88 84 -88q37 0 80 17v-70z" />
    <glyph glyph-name="iogonek" unicode="&#x12f;" horiz-adv-x="428" 
d="M264 1024h93l-154 -727q-24 -120 -24 -174q0 -60 62 -60q43 0 85 17l-17 -77q-49 -23 -98 -23q-127 0 -127 136q0 47 8.5 94t171.5 814zM381 1282q-31 0 -53.5 22t-22.5 56q0 32 23 53t53 21q31 0 54.5 -20t23.5 -54q0 -32 -23 -55t-55 -23zM295 -381q-50 -18 -94 -18
q-70 0 -113 40.5t-43 112.5q0 60 44.5 126t123.5 120h88q-170 -135 -170 -240q0 -88 84 -88q37 0 80 17v-70z" />
    <glyph glyph-name="Jcircumflex" unicode="&#x134;" horiz-adv-x="655" 
d="M-78 100q19 -11 60.5 -22.5t64.5 -11.5q139 0 212 85.5t120 303.5l209 979h98l-209 -975q-59 -272 -157.5 -378t-284.5 -106q-27 0 -71.5 9t-61.5 18zM656 1882h45l157 -336h-80l-112 246l-205 -246h-86z" />
    <glyph glyph-name="jcircumflex" unicode="&#x135;" horiz-adv-x="428" 
d="M-391 -348q67 -49 139 -49q125 0 194 88t119 321l215 1012h93l-209 -981q-60 -286 -157 -405t-267 -119q-39 0 -82.5 12t-65.5 27zM390 1524h45l157 -336h-80l-112 246l-205 -246h-86z" />
    <glyph glyph-name="Kcommaaccent" unicode="&#x136;" horiz-adv-x="1079" 
d="M379 1434h98l-143 -676h4l19 20l741 656h133l-801 -701l516 -733h-123l-467 678l-26 45h-4l-152 -723h-98zM460 -120h112l-181 -261h-79z" />
    <glyph glyph-name="kcommaaccent" unicode="&#x137;" horiz-adv-x="891" 
d="M381 1516h92l-209 -975h4l570 483h131l-602 -502l403 -522h-117l-389 518h-4l-110 -518h-93zM352 -120h112l-181 -261h-79z" />
    <glyph glyph-name="kgreenlandic" unicode="&#x138;" horiz-adv-x="891" 
d="M276 1024h92l-104 -483h4l570 483h131l-602 -502l403 -522h-117l-389 518h-4l-110 -518h-93z" />
    <glyph glyph-name="Lcommaaccent" unicode="&#x13b;" horiz-adv-x="868" 
d="M379 1434h98l-284 -1344h575l-18 -90h-674zM266 -352q44 -10 90 -10q88 0 127 22t39 70q0 86 -131 86l-63 -4l39 188h73l-24 -117q96 0 145 -38.5t49 -108.5q0 -82 -65 -127t-195 -45q-14 0 -52 4t-46 6z" />
    <glyph glyph-name="lcommaaccent" unicode="&#x13c;" horiz-adv-x="428" 
d="M368 1516h93l-258 -1219q-24 -120 -24 -174q0 -60 62 -60q43 0 85 17l-17 -77q-49 -23 -98 -23q-127 0 -127 136q0 45 13 116t271 1284zM43 -352q44 -10 90 -10q88 0 127 22t39 70q0 86 -131 86l-63 -4l39 188h73l-24 -117q96 0 145 -38.5t49 -108.5q0 -82 -65 -127
t-195 -45q-14 0 -52 4t-46 6z" />
    <glyph glyph-name="Ncommaaccent" unicode="&#x145;" horiz-adv-x="1452" 
d="M379 1434h67l613 -1149q33 -64 43 -92h4l15 92l243 1149h98l-305 -1434h-55l-621 1159l-41 90h-4l-5 -31l-259 -1218h-96zM610 -120h112l-181 -261h-79z" />
    <glyph glyph-name="ncommaaccent" unicode="&#x146;" horiz-adv-x="1104" 
d="M260 1024h92l-49 -291h4q195 316 428 316q131 0 192.5 -67t61.5 -208q0 -33 -8 -81t-143 -693h-93l121 588q27 135 27 170q0 207 -176 207q-78 0 -179.5 -70t-180.5 -182t-105 -236l-102 -477h-93l158 739q35 170 45 285zM424 -120h112l-181 -261h-79z" />
    <glyph glyph-name="Eng" unicode="&#x14a;" horiz-adv-x="1452" 
d="M379 1434h67l602 -1205l43 -92h4l51 267l218 1030h98l-305 -1434q-50 -232 -137 -327.5t-246 -95.5q-81 0 -127 15l21 96q57 -20 106 -20q82 0 136.5 32.5t88.5 96t63 205.5l-581 1157l-41 90h-4l-5 -31l-259 -1218h-96z" />
    <glyph glyph-name="eng" unicode="&#x14b;" horiz-adv-x="1104" 
d="M346 -298q22 -16 62 -28t70 -12q105 0 169 84t99 256l120 586q27 135 27 170q0 207 -176 207q-78 0 -179.5 -70t-180.5 -182t-105 -236l-102 -477h-93l158 739q35 170 45 285h92l-49 -291h4q195 316 428 316q131 0 192.5 -67t61.5 -208q0 -53 -31 -201l-100 -476
q-45 -215 -93 -319.5t-117 -152t-174 -47.5q-79 0 -147 35z" />
    <glyph glyph-name="Omacron" unicode="&#x14c;" horiz-adv-x="1544" 
d="M725 -25q-268 0 -420.5 167.5t-152.5 451.5q0 240 100 439t276 312t394 113q257 0 412 -169.5t155 -442.5q0 -242 -96.5 -444t-271 -314.5t-396.5 -112.5zM729 66q195 0 342 96t231 276t84 402q0 241 -125.5 384.5t-340.5 143.5q-192 0 -344.5 -97.5t-237 -274
t-84.5 -400.5q0 -246 125 -388t350 -142zM700 1639h508l-17 -84h-508z" />
    <glyph glyph-name="omacron" unicode="&#x14d;" horiz-adv-x="1061" 
d="M440 -25q-168 0 -263 105t-95 291t72.5 344t196.5 246t272 88q170 0 263 -106t93 -288q0 -189 -70 -346t-194 -245.5t-275 -88.5zM449 59q118 0 218 75.5t158 211t58 299.5q0 157 -71 238.5t-200 81.5q-116 0 -217 -76t-159 -211.5t-58 -298.5q0 -151 72.5 -235.5
t198.5 -84.5zM410 1292h508l-17 -84h-508z" />
    <glyph glyph-name="Obreve" unicode="&#x14e;" horiz-adv-x="1544" 
d="M725 -25q-268 0 -420.5 167.5t-152.5 451.5q0 240 100 439t276 312t394 113q257 0 412 -169.5t155 -442.5q0 -242 -96.5 -444t-271 -314.5t-396.5 -112.5zM729 66q195 0 342 96t231 276t84 402q0 241 -125.5 384.5t-340.5 143.5q-192 0 -344.5 -97.5t-237 -274
t-84.5 -400.5q0 -246 125 -388t350 -142zM777 1782l-2 -20q0 -69 43 -104t115 -35q80 0 130 36t81 123h88q-73 -235 -303 -235q-109 0 -171.5 54t-62.5 153l2 28h80z" />
    <glyph glyph-name="obreve" unicode="&#x14f;" horiz-adv-x="1061" 
d="M440 -25q-168 0 -263 105t-95 291t72.5 344t196.5 246t272 88q170 0 263 -106t93 -288q0 -189 -70 -346t-194 -245.5t-275 -88.5zM449 59q118 0 218 75.5t158 211t58 299.5q0 157 -71 238.5t-200 81.5q-116 0 -217 -76t-159 -211.5t-58 -298.5q0 -151 72.5 -235.5
t198.5 -84.5zM485 1423l-2 -20q0 -69 43 -104t115 -35q80 0 130 36t81 123h88q-73 -235 -303 -235q-109 0 -171.5 54t-62.5 153l2 28h80z" />
    <glyph glyph-name="Rcommaaccent" unicode="&#x156;" horiz-adv-x="1137" 
d="M379 1434h366q175 0 271 -91t96 -258q0 -177 -121 -295.5t-319 -130.5v-4q95 -43 135 -198l115 -457h-105l-106 432q-26 106 -81.5 156.5t-162.5 50.5h-158l-135 -639h-98zM594 729q194 0 305 94t111 258q0 125 -73.5 193.5t-205.5 68.5h-272l-131 -614h266zM469 -120
h112l-181 -261h-79z" />
    <glyph glyph-name="rcommaaccent" unicode="&#x157;" horiz-adv-x="684" 
d="M260 1024h92l-37 -242h4q68 136 144.5 201.5t179.5 65.5q58 0 109 -25l-17 -94h-4q-53 35 -106 35q-112 0 -220.5 -144t-156.5 -368l-96 -453h-93l142 665q48 218 59 359zM217 -120h112l-181 -261h-79z" />
    <glyph glyph-name="Scircumflex" unicode="&#x15c;" horiz-adv-x="1018" 
d="M63 164q66 -43 155 -70.5t183 -27.5q161 0 252.5 73.5t91.5 206.5q0 93 -52 167t-177 165q-141 102 -197.5 190t-56.5 203q0 170 130.5 278.5t324.5 108.5q146 0 291 -53l-21 -102q-116 65 -280 65q-154 0 -248 -78.5t-94 -210.5q0 -100 45.5 -168.5t177.5 -165.5
q145 -105 202.5 -188.5t57.5 -198.5q0 -177 -123 -280t-330 -103q-97 0 -189 23.5t-161 60.5zM747 1882h45l157 -336h-80l-112 246l-205 -246h-86z" />
    <glyph glyph-name="scircumflex" unicode="&#x15d;" horiz-adv-x="795" 
d="M47 143q51 -38 117 -61t129 -23q118 0 182 49t64 146q0 64 -36 109t-134 106q-117 72 -163 133t-46 148q0 128 94.5 213.5t239.5 85.5q53 0 123 -14t116 -38l-20 -96q-98 64 -228 64q-99 0 -164 -55.5t-65 -147.5q0 -71 35.5 -116t132.5 -103q114 -69 162.5 -132.5
t48.5 -146.5q0 -132 -94.5 -210.5t-253.5 -78.5q-147 0 -260 70zM542 1524h45l157 -336h-80l-112 246l-205 -246h-86z" />
    <glyph glyph-name="Tbar" unicode="&#x166;" horiz-adv-x="1047" 
d="M507 676h-324l19 91h324l123 576h-414l19 91h926l-19 -91h-414l-123 -576h324l-19 -91h-324l-144 -676h-98z" />
    <glyph glyph-name="tbar" unicode="&#x167;" horiz-adv-x="608" 
d="M205 572h-162l18 84h162l62 284h-187l19 84h184l57 266l99 31l-64 -297h275l-21 -84h-270l-61 -284h241l-18 -84h-241l-58 -275q-19 -95 -19 -137q0 -48 20 -72.5t68 -24.5q45 0 162 52l-20 -88q-100 -47 -162 -47q-162 0 -162 174q0 56 20 147z" />
    <glyph glyph-name="Utilde" unicode="&#x168;" horiz-adv-x="1327" 
d="M358 1434h99l-164 -783q-31 -145 -31 -235q0 -350 348 -350q191 0 299 110.5t158 343.5l193 914h98l-187 -887q-67 -313 -200.5 -442.5t-378.5 -129.5q-202 0 -316 112t-114 312q0 99 24 217zM568 1546q41 221 213 221q43 0 73 -20.5t56 -45t53 -45t63 -20.5
q96 0 128 145h74q-48 -223 -213 -223q-45 0 -74.5 20.5t-55 45t-51.5 45t-63 20.5q-50 0 -82 -32.5t-49 -110.5h-72z" />
    <glyph glyph-name="utilde" unicode="&#x169;" horiz-adv-x="1104" 
d="M266 1024h92l-120 -588q-27 -135 -27 -170q0 -207 176 -207q85 0 185.5 75t180 193.5t99.5 219.5l102 477h93l-158 -739q-35 -170 -45 -285h-92l49 291h-4q-195 -316 -428 -316q-254 0 -254 281q0 20 6.5 68t144.5 700zM388 1188q41 221 213 221q43 0 73 -20.5t56 -45
t53 -45t63 -20.5q96 0 128 145h74q-48 -223 -213 -223q-45 0 -74.5 20.5t-55 45t-51.5 45t-63 20.5q-50 0 -82 -32.5t-49 -110.5h-72z" />
    <glyph glyph-name="Umacron" unicode="&#x16a;" horiz-adv-x="1327" 
d="M358 1434h99l-164 -783q-31 -145 -31 -235q0 -350 348 -350q191 0 299 110.5t158 343.5l193 914h98l-187 -887q-67 -313 -200.5 -442.5t-378.5 -129.5q-202 0 -316 112t-114 312q0 99 24 217zM637 1639h508l-17 -84h-508z" />
    <glyph glyph-name="umacron" unicode="&#x16b;" horiz-adv-x="1104" 
d="M266 1024h92l-120 -588q-27 -135 -27 -170q0 -207 176 -207q85 0 185.5 75t180 193.5t99.5 219.5l102 477h93l-158 -739q-35 -170 -45 -285h-92l49 291h-4q-195 -316 -428 -316q-254 0 -254 281q0 20 6.5 68t144.5 700zM453 1292h508l-17 -84h-508z" />
    <glyph glyph-name="Ubreve" unicode="&#x16c;" horiz-adv-x="1327" 
d="M358 1434h99l-164 -783q-31 -145 -31 -235q0 -350 348 -350q191 0 299 110.5t158 343.5l193 914h98l-187 -887q-67 -313 -200.5 -442.5t-378.5 -129.5q-202 0 -316 112t-114 312q0 99 24 217zM718 1781l-2 -20q0 -69 43 -104t115 -35q80 0 130 36t81 123h88
q-73 -235 -303 -235q-109 0 -171.5 54t-62.5 153l2 28h80z" />
    <glyph glyph-name="ubreve" unicode="&#x16d;" horiz-adv-x="1104" 
d="M266 1024h92l-120 -588q-27 -135 -27 -170q0 -207 176 -207q85 0 185.5 75t180 193.5t99.5 219.5l102 477h93l-158 -739q-35 -170 -45 -285h-92l49 291h-4q-195 -316 -428 -316q-254 0 -254 281q0 20 6.5 68t144.5 700zM536 1423l-2 -20q0 -69 43 -104t115 -35
q80 0 130 36t81 123h88q-73 -235 -303 -235q-109 0 -171.5 54t-62.5 153l2 28h80z" />
    <glyph glyph-name="Uogonek" unicode="&#x172;" horiz-adv-x="1327" 
d="M358 1434h99l-164 -783q-31 -145 -31 -235q0 -350 348 -350q191 0 299 110.5t158 343.5l193 914h98l-187 -887q-67 -313 -200.5 -442.5t-378.5 -129.5q-202 0 -316 112t-114 312q0 99 24 217zM679 -381q-50 -18 -94 -18q-70 0 -113 40.5t-43 112.5q0 60 44.5 126
t123.5 120h88q-170 -135 -170 -240q0 -88 84 -88q37 0 80 17v-70z" />
    <glyph glyph-name="uogonek" unicode="&#x173;" horiz-adv-x="1104" 
d="M266 1024h92l-120 -588q-27 -135 -27 -170q0 -207 176 -207q85 0 185.5 75t180 193.5t99.5 219.5l102 477h93l-158 -739q-35 -170 -45 -285h-92l49 291h-4q-195 -316 -428 -316q-254 0 -254 281q0 20 6.5 68t144.5 700zM835 -381q-50 -18 -94 -18q-70 0 -113 40.5
t-43 112.5q0 60 44.5 126t123.5 120h88q-170 -135 -170 -240q0 -88 84 -88q37 0 80 17v-70z" />
    <glyph glyph-name="Wcircumflex" unicode="&#x174;" horiz-adv-x="1767" 
d="M215 1434h104l87 -1149l6 -127h4l26.5 61t630.5 1215h49l82 -1149l6 -127h4l621 1276h111l-723 -1434h-82l-90 1079l-3 133h-5q-16 -57 -54 -131l-567 -1081h-84zM1141 1882h45l157 -336h-80l-112 246l-205 -246h-86z" />
    <glyph glyph-name="wcircumflex" unicode="&#x175;" horiz-adv-x="1386" 
d="M141 1024h95l66 -828v-12v-12l-3 -51h8q9 37 35 86l434 817h62l61 -846l-4 -57h8l16 44l19 42l418 817h100l-538 -1024h-82l-63 766l-2 51l3 41h-4l-7 -17l-444 -841h-83zM859 1524h45l157 -336h-80l-112 246l-205 -246h-86z" />
    <glyph glyph-name="Ycircumflex" unicode="&#x176;" horiz-adv-x="1106" 
d="M496 543l-248 891h104l185 -686q22 -81 26 -109h4q16 29 55 82l508 713h115l-647 -889l-115 -545h-102zM781 1881h45l157 -336h-80l-112 246l-205 -246h-86z" />
    <glyph glyph-name="ycircumflex" unicode="&#x177;" horiz-adv-x="928" 
d="M-147 -371q31 -18 73 -18q69 0 127 41t125 147l135 215l-180 1010h94l146 -829l8 -76h4l10 17l541 888h108l-755 -1214q-103 -165 -181.5 -228t-187.5 -63q-57 0 -88 16zM635 1524h45l157 -336h-80l-112 246l-205 -246h-86z" />
    <glyph glyph-name="longs" unicode="&#x17f;" horiz-adv-x="493" 
d="M657 1540q61 0 115 -16l-19 -90q-32 22 -106 22q-190 0 -244 -264l-326 -1532h-92l332 1557q34 162 121 242.5t219 80.5z" />
    <glyph glyph-name="Aringacute" unicode="&#x1fa;" horiz-adv-x="1206" 
d="M717 1380q-119 42 -119 170q0 79 58 132t143 53q84 0 142 -53.5t58 -131.5q0 -61 -39.5 -110t-109.5 -68l223 -1372h-100l-72 446h-616l-265 -446h-104zM799 1434q57 0 93 32t36 84q0 54 -34.5 85.5t-94.5 31.5q-57 0 -92 -31.5t-35 -85.5q0 -52 36 -84t91 -32zM889 537
l-103 663q-8 52 -10 109h-4q-15 -33 -20.5 -43l-417.5 -729h555zM1020 2131h111l-303 -328h-97z" />
    <glyph glyph-name="aringacute" unicode="&#x1fb;" horiz-adv-x="1071" 
d="M739 0q4 111 43 328h-4q-93 -172 -193 -262.5t-220 -90.5q-136 0 -209.5 95.5t-73.5 269.5q0 200 81 363t223.5 254.5t313.5 91.5q130 0 312 -37l-133 -645q-15 -76 -30 -189.5t-15 -177.5h-95zM905 942q-106 23 -213 23q-143 0 -261.5 -78t-185.5 -219t-67 -318
q0 -291 205 -291q81 0 174 79.5t173.5 220t113.5 288.5zM517 1372q0 79 57 131.5t144 52.5q88 0 144 -50.5t56 -133.5q0 -78 -57.5 -131t-142.5 -53q-88 0 -144.5 51t-56.5 133zM718 1255q57 0 93 32.5t36 84.5q0 54 -34.5 85.5t-94.5 31.5q-57 0 -92 -31.5t-35 -85.5
t37 -85.5t90 -31.5zM902 1948h111l-303 -328h-97z" />
    <glyph glyph-name="AEacute" unicode="&#x1fc;" horiz-adv-x="1636" 
d="M889 1434h807l-21 -97h-571l-121 -571h530l-18 -90h-530l-125 -586h604l-19 -90h-702l94 446h-502l-313 -446h-117zM836 537l172 800h-82l-549 -800h459zM1420 1874h111l-303 -328h-97z" />
    <glyph glyph-name="aeacute" unicode="&#x1fd;" horiz-adv-x="1671" 
d="M797 391q-106 -219 -214.5 -317.5t-242.5 -98.5q-128 0 -193 92t-65 265q0 196 86.5 362t239 260.5t333.5 94.5q94 0 162 -18.5t144 -61.5q119 80 274 80q136 0 222.5 -67.5t86.5 -178.5q0 -174 -173 -256t-564 -86l-2 -31v-31q0 -165 79.5 -252.5t229.5 -87.5
q128 0 281 84l-19 -96q-129 -72 -276 -72q-186 0 -285.5 110.5t-99.5 305.5h-4zM899 545q324 0 479.5 58t155.5 190q0 81 -58 126.5t-167 45.5q-164 0 -272.5 -110t-137.5 -310zM981 913q-101 52 -252 52q-157 0 -285 -82.5t-200 -227.5t-72 -313q0 -138 44.5 -210.5
t131.5 -72.5q141 0 257.5 143.5t200.5 379.5q85 243 175 331zM1193 1516h111l-303 -328h-97z" />
    <glyph glyph-name="Oslashacute" unicode="&#x1fe;" horiz-adv-x="1544" 
d="M246 217q-94 154 -94 377q0 243 99 440.5t278.5 310.5t392.5 113q260 0 409 -158l172 175l60 -58l-181 -180q107 -158 107 -391q0 -248 -96 -447t-272.5 -311.5t-395.5 -112.5q-282 0 -430 175l-176 -177l-62 56zM1260 1229q-127 139 -340 139q-193 0 -346 -98.5
t-236.5 -275.5t-83.5 -398q0 -181 65 -305zM367 221q125 -155 362 -155q194 0 343.5 97.5t231.5 274t82 402.5q0 193 -79 323zM1110 1874h111l-303 -328h-97z" />
    <glyph glyph-name="oslashacute" unicode="&#x1ff;" horiz-adv-x="1061" 
d="M-61 -8l182 176q-39 88 -39 203q0 186 72.5 344t196.5 246t272 88q185 0 280 -125l184 178l58 -58l-201 -194q35 -85 35 -195q0 -189 -70 -346t-194 -245.5t-275 -88.5q-182 0 -276 121l-170 -164zM831 854q-71 111 -219 111q-116 0 -217 -76t-159 -211.5t-58 -298.5
q0 -80 19 -137zM233 166q75 -107 216 -107q118 0 218 75.5t158 211t58 299.5q0 69 -17 131zM856 1516h111l-303 -328h-97z" />
    <glyph glyph-name="anoteleia" unicode="&#x387;" horiz-adv-x="455" 
d="M267 625q-34 0 -57 24t-23 58t23 56.5t57 22.5t58 -22.5t24 -56.5t-24 -58t-58 -24z" />
    <glyph glyph-name="Wgrave" unicode="&#x1e80;" horiz-adv-x="1767" 
d="M215 1434h104l87 -1149l6 -127h4l26.5 61t630.5 1215h49l82 -1149l6 -127h4l621 1276h111l-723 -1434h-82l-90 1079l-3 133h-5q-16 -57 -54 -131l-567 -1081h-84zM953 1874h98l192 -328h-84z" />
    <glyph glyph-name="wgrave" unicode="&#x1e81;" horiz-adv-x="1386" 
d="M141 1024h95l66 -828v-12v-12l-3 -51h8q9 37 35 86l434 817h62l61 -846l-4 -57h8l16 44l19 42l418 817h100l-538 -1024h-82l-63 766l-2 51l3 41h-4l-7 -17l-444 -841h-83zM717 1516h98l192 -328h-84z" />
    <glyph glyph-name="Wacute" unicode="&#x1e82;" horiz-adv-x="1767" 
d="M215 1434h104l87 -1149l6 -127h4l26.5 61t630.5 1215h49l82 -1149l6 -127h4l621 1276h111l-723 -1434h-82l-90 1079l-3 133h-5q-16 -57 -54 -131l-567 -1081h-84zM1266 1874h111l-303 -328h-97z" />
    <glyph glyph-name="wacute" unicode="&#x1e83;" horiz-adv-x="1386" 
d="M141 1024h95l66 -828v-12v-12l-3 -51h8q9 37 35 86l434 817h62l61 -846l-4 -57h8l16 44l19 42l418 817h100l-538 -1024h-82l-63 766l-2 51l3 41h-4l-7 -17l-444 -841h-83zM1026 1516h111l-303 -328h-97z" />
    <glyph glyph-name="Wdieresis" unicode="&#x1e84;" horiz-adv-x="1767" 
d="M215 1434h104l87 -1149l6 -127h4l26.5 61t630.5 1215h49l82 -1149l6 -127h4l621 1276h111l-723 -1434h-82l-90 1079l-3 133h-5q-16 -57 -54 -131l-567 -1081h-84zM1219 1618q0 31 22 50t48 19q29 0 52.5 -19.5t23.5 -49.5q0 -31 -21.5 -51.5t-52.5 -20.5
q-29 0 -50.5 19.5t-21.5 52.5zM885 1618q0 31 22 50t48 19q29 0 52.5 -19.5t23.5 -49.5q0 -31 -21.5 -51.5t-52.5 -20.5q-29 0 -50.5 19.5t-21.5 52.5z" />
    <glyph glyph-name="wdieresis" unicode="&#x1e85;" horiz-adv-x="1386" 
d="M141 1024h95l66 -828v-12v-12l-3 -51h8q9 37 35 86l434 817h62l61 -846l-4 -57h8l16 44l19 42l418 817h100l-538 -1024h-82l-63 766l-2 51l3 41h-4l-7 -17l-444 -841h-83zM936 1260q0 31 22 50t48 19q29 0 52.5 -19.5t23.5 -49.5q0 -31 -21.5 -51.5t-52.5 -20.5
q-29 0 -50.5 19.5t-21.5 52.5zM602 1260q0 31 22 50t48 19q29 0 52.5 -19.5t23.5 -49.5q0 -31 -21.5 -51.5t-52.5 -20.5q-29 0 -50.5 19.5t-21.5 52.5z" />
    <glyph glyph-name="Ygrave" unicode="&#x1ef2;" horiz-adv-x="1106" 
d="M496 543l-248 891h104l185 -686q22 -81 26 -109h4q16 29 55 82l508 713h115l-647 -889l-115 -545h-102zM558 1874h98l192 -328h-84z" />
    <glyph glyph-name="ygrave" unicode="&#x1ef3;" horiz-adv-x="928" 
d="M-147 -371q31 -18 73 -18q69 0 127 41t125 147l135 215l-180 1010h94l146 -829l8 -76h4l10 17l541 888h108l-755 -1214q-103 -165 -181.5 -228t-187.5 -63q-57 0 -88 16zM439 1516h98l192 -328h-84z" />
    <glyph glyph-name="quotereversed" unicode="&#x201b;" horiz-adv-x="414" 
d="M275 1434h104l30 -449h-73z" />
    <glyph glyph-name="uni203E" unicode="&#x203e;" horiz-adv-x="850" 
d="M0 1516h850v-84h-850v84z" />
    <glyph glyph-name="lira" unicode="&#x20a4;" horiz-adv-x="1055" 
d="M362 531h-227l18 90h228l40 183h-226l18 90h227l33 148q45 202 157 309t275 107q106 0 193 -39l-21 -92q-28 19 -75 33t-101 14q-132 0 -218.5 -87.5t-121.5 -256.5l-29 -136h308l-18 -90h-310l-39 -183h307l-18 -90h-308l-16 -74q-60 -276 -276 -373h727l-19 -84h-868
l19 86q272 97 325 365z" />
    <glyph glyph-name="estimated" unicode="&#x212e;" horiz-adv-x="1229" 
d="M613 39q255 0 396 246l71 -43q-103 -150 -212.5 -213.5t-253.5 -63.5q-237 0 -383 161t-146 404q0 254 146 410t380 156q237 0 379 -154t154 -412h-828l1 -370q120 -121 296 -121zM912 604v297q-131 123 -303 123q-175 0 -293 -123v-297h596z" />
    <glyph glyph-name="oneeighth" unicode="&#x215b;" horiz-adv-x="1622" 
d="M1338 1434h108l-1161 -1434h-109zM117 666h194l144 673l-224 -65l19 88l315 92l-168 -788h191l-19 -82h-471zM1131 459q-54 28 -85.5 77.5t-31.5 103.5q0 103 79.5 167t203.5 64q105 0 172 -53t67 -139q0 -81 -50.5 -135.5t-168.5 -90.5q73 -32 114.5 -88.5t41.5 -118.5
q0 -121 -88.5 -192.5t-231.5 -71.5q-120 0 -189 61.5t-69 166.5q0 172 236 249zM1233 492q106 27 156.5 69.5t50.5 108.5q0 52 -41 85.5t-106 33.5q-84 0 -134.5 -39.5t-50.5 -109.5q0 -48 34 -86.5t91 -61.5zM1219 418q-230 -61 -230 -208q0 -66 46.5 -106t125.5 -40
q99 0 158.5 46t59.5 124q0 54 -41 104.5t-119 79.5z" />
    <glyph glyph-name="threeeighths" unicode="&#x215c;" horiz-adv-x="1622" 
d="M1338 1434h108l-1161 -1434h-109zM113 702q92 -59 190 -59q105 0 163 46.5t58 133.5q0 75 -53.5 117.5t-153.5 42.5h-65l18 80h68q120 0 187 49.5t67 134.5q0 54 -37.5 89.5t-103.5 35.5q-103 0 -195 -55l23 96q93 41 184 41q102 0 159.5 -50.5t57.5 -137.5
q0 -97 -58 -161.5t-161 -82.5v-4q69 -16 109 -64t40 -123q0 -124 -85 -196t-230 -72q-122 0 -201 49zM1131 459q-54 28 -85.5 77.5t-31.5 103.5q0 103 79.5 167t203.5 64q105 0 172 -53t67 -139q0 -81 -50.5 -135.5t-168.5 -90.5q73 -32 114.5 -88.5t41.5 -118.5
q0 -121 -88.5 -192.5t-231.5 -71.5q-120 0 -189 61.5t-69 166.5q0 172 236 249zM1233 492q106 27 156.5 69.5t50.5 108.5q0 52 -41 85.5t-106 33.5q-84 0 -134.5 -39.5t-50.5 -109.5q0 -48 34 -86.5t91 -61.5zM1219 418q-230 -61 -230 -208q0 -66 46.5 -106t125.5 -40
q99 0 158.5 46t59.5 124q0 54 -41 104.5t-119 79.5z" />
    <glyph glyph-name="fiveeighths" unicode="&#x215d;" horiz-adv-x="1622" 
d="M1338 1434h108l-1161 -1434h-109zM113 688q82 -49 188 -49q118 0 182 56t64 159q0 156 -185 156q-16 0 -45 -1.5t-66 -4t-44 -3.5l92 433h418l-19 -84h-338l-57 -263l76 5q116 0 187 -61.5t71 -166.5q0 -140 -89.5 -222.5t-250.5 -82.5q-135 0 -203 43zM1131 459
q-54 28 -85.5 77.5t-31.5 103.5q0 103 79.5 167t203.5 64q105 0 172 -53t67 -139q0 -81 -50.5 -135.5t-168.5 -90.5q73 -32 114.5 -88.5t41.5 -118.5q0 -121 -88.5 -192.5t-231.5 -71.5q-120 0 -189 61.5t-69 166.5q0 172 236 249zM1233 492q106 27 156.5 69.5t50.5 108.5
q0 52 -41 85.5t-106 33.5q-84 0 -134.5 -39.5t-50.5 -109.5q0 -48 34 -86.5t91 -61.5zM1219 418q-230 -61 -230 -208q0 -66 46.5 -106t125.5 -40q99 0 158.5 46t59.5 124q0 54 -41 104.5t-119 79.5z" />
    <glyph glyph-name="seveneighths" unicode="&#x215e;" horiz-adv-x="1540" 
d="M1256 1434h108l-1161 -1434h-109zM657 1352h-452l18 82h555l-10 -54l-504 -807h-96zM1050 459q-54 28 -85.5 77.5t-31.5 103.5q0 103 79.5 167t203.5 64q105 0 172 -53t67 -139q0 -81 -50.5 -135.5t-168.5 -90.5q73 -32 114.5 -88.5t41.5 -118.5q0 -121 -88.5 -192.5
t-231.5 -71.5q-120 0 -189 61.5t-69 166.5q0 172 236 249zM1152 492q106 27 156.5 69.5t50.5 108.5q0 52 -41 85.5t-106 33.5q-84 0 -134.5 -39.5t-50.5 -109.5q0 -48 34 -86.5t91 -61.5zM1138 418q-230 -61 -230 -208q0 -66 46.5 -106t125.5 -40q99 0 158.5 46t59.5 124
q0 54 -41 104.5t-119 79.5z" />
    <glyph glyph-name="glyph412" horiz-adv-x="842" 
d="M449 1516h112l-181 -261h-79z" />
    <glyph glyph-name="glyph413" horiz-adv-x="799" 
d="M380 -120h112l-181 -261h-79z" />
    <glyph glyph-name="uni037E" unicode="&#x37e;" horiz-adv-x="455" 
d="M332 881q-34 0 -57 24t-23 58t23 56.5t57 22.5t58 -22.5t24 -56.5t-24 -58t-58 -24zM141 227h107l-205 -475h-86z" />
    <glyph glyph-name="tonos" unicode="&#x384;" horiz-adv-x="559" 
d="M294 1556h105l-225 -369h-49z" />
    <glyph glyph-name="dieresistonos" unicode="&#x385;" horiz-adv-x="581" 
d="M165 1315q0 30 21 50t48 20q29 0 52.5 -19.5t23.5 -50.5t-21.5 -51.5t-52.5 -20.5q-30 0 -50.5 20t-20.5 52zM521 1559h104l-224 -369h-49zM672 1243q-29 0 -50 20.5t-21 51.5q0 30 21 50t48 20q29 0 52.5 -19.5t23.5 -50.5t-21.5 -51.5t-52.5 -20.5z" />
    <glyph glyph-name="Alphatonos" unicode="&#x386;" horiz-adv-x="1318" 
d="M861 1434h92l233 -1434h-100l-72 446h-616l-265 -446h-104zM1002 537l-103 663q-8 52 -10 109h-4l-33 -66l-405 -706h555zM351 1436h105l-225 -369h-49z" />
    <glyph glyph-name="Epsilontonos" unicode="&#x388;" horiz-adv-x="1118" 
d="M508 1434h670l-19 -91h-571l-123 -575h530l-18 -90h-531l-124 -588h604l-19 -90h-702zM263 1436h105l-225 -369h-49z" />
    <glyph glyph-name="Etatonos" unicode="&#x389;" horiz-adv-x="1516" 
d="M509 1434h98l-139 -656h821l139 656h99l-303 -1434h-99l146 688h-822l-145 -688h-98zM263 1436h105l-225 -369h-49z" />
    <glyph glyph-name="Iotatonos" unicode="&#x38a;" horiz-adv-x="595" 
d="M507 1434h98l-303 -1434h-98zM263 1436h105l-225 -369h-49z" />
    <glyph glyph-name="Omicrontonos" unicode="&#x38c;" horiz-adv-x="1606" 
d="M787 -25q-268 0 -420.5 167.5t-152.5 451.5q0 240 100 439t276 312t394 113q257 0 412 -169.5t155 -442.5q0 -242 -96.5 -444t-271 -314.5t-396.5 -112.5zM791 66q195 0 342 96t231 276t84 402q0 241 -125.5 384.5t-340.5 143.5q-192 0 -344.5 -97.5t-237 -274
t-84.5 -400.5q0 -246 125 -388t350 -142zM263 1436h105l-225 -369h-49z" />
    <glyph glyph-name="Upsilontonos" unicode="&#x38e;" horiz-adv-x="1271" 
d="M662 543l-248 891h104l185 -686q22 -81 26 -109h4q16 29 55 82l508 713h115l-647 -889l-115 -545h-102zM263 1436h105l-225 -369h-49z" />
    <glyph glyph-name="Omegatonos" unicode="&#x38f;" horiz-adv-x="1617" 
d="M90 90h359q-236 208 -236 522q0 240 104 434.5t286.5 303t400.5 108.5q171 0 307 -72.5t211.5 -203t75.5 -291.5q0 -244 -134.5 -455.5t-377.5 -345.5h344l-19 -90h-477l19 90q255 130 396.5 336.5t141.5 458.5q0 211 -137 347t-352 136q-193 0 -350.5 -97.5t-245.5 -271
t-88 -383.5q0 -171 53 -281.5t197 -244.5l-19 -90h-477zM263 1436h105l-225 -369h-49z" />
    <glyph glyph-name="iotadieresistonos" unicode="&#x390;" horiz-adv-x="518" 
d="M274 1024h93l-157 -748q-19 -83 -19 -122q0 -42 23.5 -63t59.5 -21q55 0 93 12l-17 -80q-42 -14 -86 -14q-82 0 -124 40.5t-42 116.5q0 44 19 134zM84 1315q0 30 21 50t48 20q29 0 52.5 -19.5t23.5 -50.5t-21.5 -51.5t-52.5 -20.5q-30 0 -50.5 20t-20.5 52zM440 1559h104
l-224 -369h-49zM591 1243q-29 0 -50 20.5t-21 51.5q0 30 21 50t48 20q29 0 52.5 -19.5t23.5 -50.5t-21.5 -51.5t-52.5 -20.5z" />
    <glyph glyph-name="Alpha" unicode="&#x391;" horiz-adv-x="1206" 
d="M748 1434h92l233 -1434h-100l-72 446h-616l-265 -446h-104zM889 537l-103 663q-8 52 -10 109h-4l-33 -66l-405 -706h555z" />
    <glyph glyph-name="Beta" unicode="&#x392;" horiz-adv-x="1106" 
d="M379 1434h348q152 0 242 -82.5t90 -223.5q0 -156 -85.5 -258.5t-232.5 -130.5v-4q111 -25 171.5 -104.5t60.5 -194.5q0 -209 -127.5 -322.5t-364.5 -113.5h-405zM569 788q185 0 286 88.5t101 241.5q0 109 -66.5 167t-184.5 58h-244l-121 -555h229zM471 90q399 0 399 338
q0 130 -87.5 200t-250.5 70h-210l-127 -608h276z" />
    <glyph glyph-name="Epsilon" unicode="&#x395;" horiz-adv-x="989" 
d="M379 1434h670l-19 -91h-571l-123 -575h530l-18 -90h-531l-124 -588h604l-19 -90h-702z" />
    <glyph glyph-name="Zeta" unicode="&#x396;" horiz-adv-x="1167" 
d="M1104 1341h-795l19 93h952l-6 -37l-1147 -1305h854l-18 -92h-1008l8 41z" />
    <glyph glyph-name="Eta" unicode="&#x397;" horiz-adv-x="1386" 
d="M379 1434h98l-139 -656h821l139 656h99l-303 -1434h-99l146 688h-822l-145 -688h-98z" />
    <glyph glyph-name="Iota" unicode="&#x399;" horiz-adv-x="467" 
d="M379 1434h98l-303 -1434h-98z" />
    <glyph glyph-name="Kappa" unicode="&#x39a;" horiz-adv-x="1079" 
d="M379 1434h98l-143 -676h4l19 20l741 656h133l-801 -701l516 -733h-123l-467 678l-26 45h-4l-152 -723h-98z" />
    <glyph glyph-name="Lambda" unicode="&#x39b;" horiz-adv-x="1253" 
d="M795 1434h94l231 -1434h-102l-187 1200q-3 17 -10 109h-4l-19 -40l-61 -109l-669 -1160h-117z" />
    <glyph glyph-name="Mu" unicode="&#x39c;" horiz-adv-x="1706" 
d="M379 1434h84l319 -793q28 -69 41 -128h6l84 106l707 815h96l-307 -1434h-92l233 1095l40 173h-4q-35 -58 -65 -92l-701 -802h-33l-322 796q-20 47 -28 97h-4q-4 -35 -14.5 -95.5t-246.5 -1171.5h-96z" />
    <glyph glyph-name="Nu" unicode="&#x39d;" horiz-adv-x="1452" 
d="M379 1434h67l613 -1149q33 -64 43 -92h4l15 92l243 1149h98l-305 -1434h-55l-621 1159l-41 90h-4l-5 -31l-259 -1218h-96z" />
    <glyph glyph-name="Xi" unicode="&#x39e;" horiz-adv-x="1044" 
d="M291 1434h852l-19 -91h-852zM295 768h561l-18 -90h-562zM-23 90h910l-19 -90h-909z" />
    <glyph glyph-name="Omicron" unicode="&#x39f;" horiz-adv-x="1544" 
d="M725 -25q-268 0 -420.5 167.5t-152.5 451.5q0 240 100 439t276 312t394 113q257 0 412 -169.5t155 -442.5q0 -242 -96.5 -444t-271 -314.5t-396.5 -112.5zM729 66q195 0 342 96t231 276t84 402q0 241 -125.5 384.5t-340.5 143.5q-192 0 -344.5 -97.5t-237 -274
t-84.5 -400.5q0 -246 125 -388t350 -142z" />
    <glyph glyph-name="Pi" unicode="&#x3a0;" horiz-adv-x="1417" 
d="M379 1434h1048l-303 -1434h-98l285 1343h-852l-285 -1343h-98z" />
    <glyph glyph-name="Rho" unicode="&#x3a1;" horiz-adv-x="1114" 
d="M379 1434h313q196 0 305 -98t109 -275q0 -226 -146.5 -356t-396.5 -130h-266l-123 -575h-98zM569 666q209 0 322 99.5t113 287.5q0 139 -84 214.5t-248 75.5h-213l-144 -677h254z" />
    <glyph glyph-name="Sigma" unicode="&#x3a3;" horiz-adv-x="1057" 
d="M621 762l-334 639l6 33h856l-19 -91h-704l309 -589l-649 -664h823l-18 -90h-981l10 49z" />
    <glyph glyph-name="Tau" unicode="&#x3a4;" horiz-adv-x="1047" 
d="M649 1343h-413l18 91h926l-19 -91h-413l-285 -1343h-98z" />
    <glyph glyph-name="Upsilon" unicode="&#x3a5;" horiz-adv-x="1106" 
d="M496 543l-248 891h104l185 -686q22 -81 26 -109h4q16 29 55 82l508 713h115l-647 -889l-115 -545h-102z" />
    <glyph glyph-name="Chi" unicode="&#x3a7;" horiz-adv-x="1153" 
d="M-57 0l616 727l-270 707h112l199 -539l33 -100h4l33.5 48.5t486.5 590.5h119l-588 -709l275 -725h-113l-205 547l-33 106h-4q-19 -33 -80 -106l-456 -547h-129z" />
    <glyph glyph-name="Psi" unicode="&#x3a8;" horiz-adv-x="1589" 
d="M723 410h-92q-199 0 -309.5 100t-110.5 276q0 64 14 127l111 521h98l-108 -514q-15 -69 -15 -125q0 -144 86.5 -219.5t251.5 -75.5h92l199 934h98l-198 -934h114q203 0 318 98t164 322l108 514h98l-110 -521q-55 -259 -195.5 -381t-384.5 -122h-131l-86 -410h-98z" />
    <glyph glyph-name="Omega" unicode="&#x3a9;" horiz-adv-x="1546" 
d="M20 90h359q-236 208 -236 522q0 240 104 434.5t286.5 303t400.5 108.5q171 0 307 -72.5t211.5 -203t75.5 -291.5q0 -244 -134.5 -455.5t-377.5 -345.5h344l-19 -90h-477l19 90q255 130 396.5 336.5t141.5 458.5q0 211 -137 347t-352 136q-193 0 -350.5 -97.5t-245.5 -271
t-88 -383.5q0 -171 53 -281.5t197 -244.5l-19 -90h-477z" />
    <glyph glyph-name="Iotadieresis" unicode="&#x3aa;" horiz-adv-x="467" 
d="M379 1434h98l-303 -1434h-98zM554 1608q0 31 22 50t48 19q29 0 52.5 -19.5t23.5 -49.5q0 -31 -21.5 -51.5t-52.5 -20.5q-29 0 -50.5 19.5t-21.5 52.5zM220 1608q0 31 22 50t48 19q29 0 52.5 -19.5t23.5 -49.5q0 -31 -21.5 -51.5t-52.5 -20.5q-29 0 -50.5 19.5t-21.5 52.5
z" />
    <glyph glyph-name="Upsilondieresis" unicode="&#x3ab;" horiz-adv-x="1106" 
d="M496 543l-248 891h104l185 -686q22 -81 26 -109h4q16 29 55 82l508 713h115l-647 -889l-115 -545h-102zM855 1629q0 31 22 50t48 19q29 0 52.5 -19.5t23.5 -49.5q0 -31 -21.5 -51.5t-52.5 -20.5q-29 0 -50.5 19.5t-21.5 52.5zM521 1629q0 31 22 50t48 19q29 0 52.5 -19.5
t23.5 -49.5q0 -31 -21.5 -51.5t-52.5 -20.5q-29 0 -50.5 19.5t-21.5 52.5z" />
    <glyph glyph-name="alphatonos" unicode="&#x3ac;" horiz-adv-x="1226" 
d="M869 376q-103 -199 -220 -301t-259 -102q-148 0 -228 98.5t-80 278.5q0 182 78 344.5t211 258.5t271 96q259 0 290 -400h4q97 166 204 375h105q-70 -132 -299 -526q14 -216 40 -306.5t86 -90.5q25 0 43 5l-37 -113l-35 -3q-82 0 -122 87.5t-48 298.5h-4zM858 508
q-10 243 -61.5 350t-159.5 107q-117 0 -223 -85.5t-170 -231.5t-64 -298q0 -138 56 -214.5t162 -76.5q218 0 410 356zM829 1556h105l-225 -369h-49z" />
    <glyph glyph-name="epsilontonos" unicode="&#x3ad;" horiz-adv-x="897" 
d="M383 543q-94 18 -150.5 77t-56.5 138q0 137 110.5 214t298.5 77q103 0 180.5 -21t119.5 -49l-25 -102q-44 38 -125 63t-150 25q-142 0 -227.5 -55t-85.5 -150q0 -86 78 -136.5t201 -50.5h77l77 2l-19 -88l-85 2q-246 0 -358 -56.5t-112 -176.5q0 -94 72 -145.5t213 -51.5
q84 0 190 32t164 75l-25 -119q-62 -31 -158.5 -51.5t-176.5 -20.5q-182 0 -278.5 71.5t-96.5 203.5q0 117 92 194.5t254 94.5zM713 1556h105l-225 -369h-49z" />
    <glyph glyph-name="etatonos" unicode="&#x3ae;" horiz-adv-x="1112" 
d="M247 883q0 61 -63 61l-37 -3l16 79q20 4 54 4q127 0 127 -102q0 -41 -33 -189h4q195 316 428 316q125 0 189.5 -70.5t64.5 -204.5q0 -65 -31 -201l-223 -1054h-92l223 1069q27 131 27 182q0 195 -176 195q-78 0 -179.5 -70t-180.5 -182t-105 -236l-102 -477h-93l150 700
q32 143 32 183zM844 1556h105l-225 -369h-49z" />
    <glyph glyph-name="iotatonos" unicode="&#x3af;" horiz-adv-x="518" 
d="M274 1024h93l-157 -748q-19 -83 -19 -122q0 -42 23.5 -63t59.5 -21q55 0 93 12l-17 -80q-42 -14 -86 -14q-82 0 -124 40.5t-42 116.5q0 44 19 134zM463 1556h105l-225 -369h-49z" />
    <glyph glyph-name="upsilondieresistonos" unicode="&#x3b0;" horiz-adv-x="1155" 
d="M237 883q0 61 -63 61l-37 -3l16 79q20 4 54 4q127 0 127 -102q0 -43 -32 -189l-59 -276q-18 -83 -18 -142q0 -256 270 -256q205 0 327 179t122 487q0 152 -38 299h98q37 -133 37 -295q0 -226 -68 -398t-193.5 -264t-289.5 -92q-182 0 -270.5 85.5t-88.5 242.5
q0 65 16 135l56 262q34 158 34 183zM390 1315q0 30 21 50t48 20q29 0 52.5 -19.5t23.5 -50.5t-21.5 -51.5t-52.5 -20.5q-30 0 -50.5 20t-20.5 52zM746 1559h104l-224 -369h-49zM897 1243q-29 0 -50 20.5t-21 51.5q0 30 21 50t48 20q29 0 52.5 -19.5t23.5 -50.5t-21.5 -51.5
t-52.5 -20.5z" />
    <glyph glyph-name="beta" unicode="&#x3b2;" horiz-adv-x="1061" 
d="M729 1532q138 0 225 -82t87 -214q0 -168 -90.5 -270t-272.5 -147v-4q132 -35 209.5 -132.5t77.5 -229.5q0 -223 -129.5 -350.5t-352.5 -127.5q-81 0 -169 27t-146 70l-121 -553h-92l342 1597q89 416 432 416zM939 1226q0 103 -59.5 162.5t-156.5 59.5
q-138 0 -218.5 -86.5t-117.5 -259.5l-199 -934q76 -52 146 -80.5t147 -28.5q180 0 281.5 104t101.5 290q0 135 -88 219.5t-252 106.5l17 80q220 38 309 123.5t89 243.5z" />
    <glyph glyph-name="gamma" unicode="&#x3b3;" horiz-adv-x="1063" 
d="M227 -481q31 106 111 481q-5 559 -199 1024h103q176 -452 184 -944h4q278 290 403.5 510.5t155.5 433.5h105q-29 -174 -108 -338.5t-201.5 -327.5t-360.5 -405l-96 -434h-101z" />
    <glyph glyph-name="zeta" unicode="&#x3b6;" horiz-adv-x="941" 
d="M609 -309q44 37 66.5 77.5t22.5 75.5q0 51 -26.5 80.5t-86.5 53.5t-174 50q-165 37 -247 130t-82 253q0 296 272 559q119 115 226 196t364 261v5h-478l19 84h603l-19 -77l-225 -162q-250 -178 -391 -315.5t-206 -263t-65 -271.5q0 -90 24.5 -146.5t77 -91.5t173.5 -72
l126 -39q109 -33 159 -85t50 -132q0 -43 -25.5 -94t-60.5 -76h-97z" />
    <glyph glyph-name="eta" unicode="&#x3b7;" horiz-adv-x="1112" 
d="M247 883q0 61 -63 61l-37 -3l16 79q20 4 54 4q127 0 127 -102q0 -41 -33 -189h4q195 316 428 316q125 0 189.5 -70.5t64.5 -204.5q0 -65 -31 -201l-223 -1054h-92l223 1069q27 131 27 182q0 195 -176 195q-78 0 -179.5 -70t-180.5 -182t-105 -236l-102 -477h-93l150 700
q32 143 32 183z" />
    <glyph glyph-name="theta" unicode="&#x3b8;" horiz-adv-x="1135" 
d="M120 435q0 253 90.5 533.5t235 426t335.5 145.5q159 0 243.5 -111t84.5 -319q0 -196 -52 -422.5t-139.5 -387t-203.5 -243t-251 -82.5q-167 0 -255 119.5t-88 340.5zM984 813q35 166 35 285q0 175 -63 266.5t-184 91.5q-172 0 -310 -178.5t-194 -464.5h716zM249 729
q-34 -160 -34 -284q0 -190 63.5 -288t188.5 -98q174 0 303 170t196 500h-717z" />
    <glyph glyph-name="iota" unicode="&#x3b9;" horiz-adv-x="518" 
d="M274 1024h93l-157 -748q-19 -83 -19 -122q0 -42 23.5 -63t59.5 -21q55 0 93 12l-17 -80q-42 -14 -86 -14q-82 0 -124 40.5t-42 116.5q0 44 19 134z" />
    <glyph glyph-name="kappa" unicode="&#x3ba;" horiz-adv-x="1073" 
d="M274 1024h93l-123 -580l428 402q124 116 184.5 153t114.5 37q34 0 51 -4l-18 -82l-17 2q-33 0 -69.5 -18t-85.5 -56t-304 -270l338 -608h-108l-297 547l-246 -232l-65 -315h-93z" />
    <glyph glyph-name="lambda" unicode="&#x3bb;" horiz-adv-x="1020" 
d="M612 1030l-32 209q-17 110 -55.5 154.5t-112.5 44.5q-38 0 -97 -13l21 88q55 9 96 9q109 0 164.5 -60t79.5 -209l192 -1253h-98l-131 918l-600 -918h-109z" />
    <glyph glyph-name="mu" unicode="&#x3bc;" horiz-adv-x="1130" 
d="M266 1024h92l-120 -588q-27 -135 -27 -170q0 -207 176 -207q83 0 188 76t179 187.5t98 224.5l102 477h93l-160 -748q-16 -72 -16 -129q0 -35 20 -55t58 -20q44 0 74 10l-17 -80q-42 -14 -96 -14q-64 0 -97.5 34.5t-33.5 95.5q0 41 22 173h-4q-195 -316 -428 -316
q-152 0 -207 123l-125 -579h-92z" />
    <glyph glyph-name="nu" unicode="&#x3bd;" horiz-adv-x="1077" 
d="M141 1024h97l182 -930q529 529 529 891l-1 39h103q0 -150 -71.5 -315t-209 -350t-317.5 -359h-111z" />
    <glyph glyph-name="xi" unicode="&#x3be;" horiz-adv-x="911" 
d="M585 -309q44 37 66.5 77.5t22.5 75.5q0 67 -57.5 102.5t-229.5 71.5q-169 37 -244.5 114.5t-75.5 223.5q0 101 66 204.5t180 178t244 99.5q-97 23 -158 91t-61 152q0 123 109.5 216t305.5 133v6l-347 -4l19 84h580l-18 -84q-551 -104 -551 -342q0 -85 75 -148.5
t193 -81.5l129 4l-18 -90l-90 4q-229 0 -395 -126t-166 -296q0 -109 61.5 -164.5t203.5 -88.5q168 -40 223 -67.5t85.5 -69t30.5 -105.5q0 -43 -25.5 -94t-60.5 -76h-97z" />
    <glyph glyph-name="omicron" unicode="&#x3bf;" horiz-adv-x="1061" 
d="M440 -25q-168 0 -263 105t-95 291t72.5 344t196.5 246t272 88q170 0 263 -106t93 -288q0 -189 -70 -346t-194 -245.5t-275 -88.5zM449 59q118 0 218 75.5t158 211t58 299.5q0 157 -71 238.5t-200 81.5q-116 0 -217 -76t-159 -211.5t-58 -298.5q0 -151 72.5 -235.5
t198.5 -84.5z" />
    <glyph glyph-name="rho" unicode="&#x3c1;" horiz-adv-x="1133" 
d="M706 1049q154 0 249.5 -111t95.5 -289q0 -188 -68.5 -343t-191 -243t-269.5 -88q-209 0 -322 161h-4l-131 -617h-92l217 1016q55 259 180 386.5t336 127.5zM219 246q45 -84 127 -135.5t176 -51.5q118 0 217 76t155.5 209.5t56.5 292.5q0 155 -70.5 241.5t-190.5 86.5
q-326 0 -408 -426z" />
    <glyph glyph-name="sigma1" unicode="&#x3c2;" horiz-adv-x="900" 
d="M583 -309q44 37 66.5 77.5t22.5 75.5q0 51 -26.5 80.5t-86.5 53.5t-174 50q-165 37 -247 130t-82 253q0 173 75.5 320.5t209.5 232.5t286 85q69 0 125 -15.5t114 -54.5l-24 -102q-88 88 -224 88q-122 0 -230 -71.5t-170 -195.5t-62 -271q0 -90 24.5 -146.5t77 -91.5
t173.5 -72l126 -39q109 -33 159 -85t50 -132q0 -43 -25.5 -94t-60.5 -76h-97z" />
    <glyph glyph-name="upsilon" unicode="&#x3c5;" horiz-adv-x="1155" 
d="M237 883q0 61 -63 61l-37 -3l16 79q20 4 54 4q127 0 127 -102q0 -43 -32 -189l-59 -276q-18 -83 -18 -142q0 -256 270 -256q205 0 327 179t122 487q0 152 -38 299h98q37 -133 37 -295q0 -226 -68 -398t-193.5 -264t-289.5 -92q-182 0 -270.5 85.5t-88.5 242.5
q0 65 16 135l56 262q34 158 34 183z" />
    <glyph glyph-name="chi" unicode="&#x3c7;" horiz-adv-x="1102" 
d="M469 354l-102 437q-21 91 -48.5 132.5t-72.5 41.5q-24 0 -49 -9l18 86q18 7 55 7q74 0 115.5 -44t63.5 -147l92 -416l446 582h113l-527 -682l134 -559q20 -84 50.5 -131t86.5 -47q25 0 55 8l-18 -86q-32 -6 -68 -6q-79 0 -127.5 68t-85.5 231l-98 434l-553 -721h-113z
" />
    <glyph glyph-name="psi" unicode="&#x3c8;" horiz-adv-x="1536" 
d="M596 -25h-43q-195 0 -309.5 110t-114.5 300q0 84 18 164l103 475h96l-102 -475q-19 -88 -19 -152q0 -158 88.5 -248t243.5 -90h57l271 1272h92l-270 -1272h57q197 0 333.5 129t186.5 361l102 475h97l-101 -473q-58 -277 -218.5 -426.5t-401.5 -149.5h-74l-96 -456h-92z
" />
    <glyph glyph-name="omega" unicode="&#x3c9;" horiz-adv-x="1615" 
d="M740 211q-65 -124 -150 -180t-197 -56q-144 0 -223.5 86.5t-79.5 247.5q0 170 59.5 331t206.5 384h113q-145 -197 -214 -365t-69 -337q0 -127 52.5 -195t157.5 -68q134 0 225 106t133 310l57 275h93l-58 -275q-20 -97 -20 -166q0 -114 59 -182t162 -68q176 0 269.5 162
t93.5 467q0 166 -37 336h100q37 -167 37 -326q0 -340 -121.5 -531.5t-343.5 -191.5q-124 0 -203.5 63.5t-97.5 172.5h-4z" />
    <glyph glyph-name="iotadieresis" unicode="&#x3ca;" horiz-adv-x="518" 
d="M274 1024h93l-157 -748q-19 -83 -19 -122q0 -42 23.5 -63t59.5 -21q55 0 93 12l-17 -80q-42 -14 -86 -14q-82 0 -124 40.5t-42 116.5q0 44 19 134zM451 1260q0 31 22 50t48 19q29 0 52.5 -19.5t23.5 -49.5q0 -31 -21.5 -51.5t-52.5 -20.5q-29 0 -50.5 19.5t-21.5 52.5z
M117 1260q0 31 22 50t48 19q29 0 52.5 -19.5t23.5 -49.5q0 -31 -21.5 -51.5t-52.5 -20.5q-29 0 -50.5 19.5t-21.5 52.5z" />
    <glyph glyph-name="upsilondieresis" unicode="&#x3cb;" horiz-adv-x="1155" 
d="M237 883q0 61 -63 61l-37 -3l16 79q20 4 54 4q127 0 127 -102q0 -43 -32 -189l-59 -276q-18 -83 -18 -142q0 -256 270 -256q205 0 327 179t122 487q0 152 -38 299h98q37 -133 37 -295q0 -226 -68 -398t-193.5 -264t-289.5 -92q-182 0 -270.5 85.5t-88.5 242.5
q0 65 16 135l56 262q34 158 34 183zM764 1260q0 31 22 50t48 19q29 0 52.5 -19.5t23.5 -49.5q0 -31 -21.5 -51.5t-52.5 -20.5q-29 0 -50.5 19.5t-21.5 52.5zM430 1260q0 31 22 50t48 19q29 0 52.5 -19.5t23.5 -49.5q0 -31 -21.5 -51.5t-52.5 -20.5q-29 0 -50.5 19.5
t-21.5 52.5z" />
    <glyph glyph-name="omicrontonos" unicode="&#x3cc;" horiz-adv-x="1061" 
d="M440 -25q-168 0 -263 105t-95 291t72.5 344t196.5 246t272 88q170 0 263 -106t93 -288q0 -189 -70 -346t-194 -245.5t-275 -88.5zM449 59q118 0 218 75.5t158 211t58 299.5q0 157 -71 238.5t-200 81.5q-116 0 -217 -76t-159 -211.5t-58 -298.5q0 -151 72.5 -235.5
t198.5 -84.5zM753 1556h105l-225 -369h-49z" />
    <glyph glyph-name="upsilontonos" unicode="&#x3cd;" horiz-adv-x="1155" 
d="M237 883q0 61 -63 61l-37 -3l16 79q20 4 54 4q127 0 127 -102q0 -43 -32 -189l-59 -276q-18 -83 -18 -142q0 -256 270 -256q205 0 327 179t122 487q0 152 -38 299h98q37 -133 37 -295q0 -226 -68 -398t-193.5 -264t-289.5 -92q-182 0 -270.5 85.5t-88.5 242.5
q0 65 16 135l56 262q34 158 34 183zM774 1556h105l-225 -369h-49z" />
    <glyph glyph-name="omegatonos" unicode="&#x3ce;" horiz-adv-x="1615" 
d="M740 211q-65 -124 -150 -180t-197 -56q-144 0 -223.5 86.5t-79.5 247.5q0 170 59.5 331t206.5 384h113q-145 -197 -214 -365t-69 -337q0 -127 52.5 -195t157.5 -68q134 0 225 106t133 310l57 275h93l-58 -275q-20 -97 -20 -166q0 -114 59 -182t162 -68q176 0 269.5 162
t93.5 467q0 166 -37 336h100q37 -167 37 -326q0 -340 -121.5 -531.5t-343.5 -191.5q-124 0 -203.5 63.5t-97.5 172.5h-4zM1035 1556h105l-225 -369h-49z" />
    <glyph glyph-name="afii10023" unicode="&#x401;" horiz-adv-x="989" 
d="M379 1434h670l-19 -91h-571l-123 -575h530l-18 -90h-531l-124 -588h604l-19 -90h-702zM813 1608q0 31 22 50t48 19q29 0 52.5 -19.5t23.5 -49.5q0 -31 -21.5 -51.5t-52.5 -20.5q-29 0 -50.5 19.5t-21.5 52.5zM479 1608q0 31 22 50t48 19q29 0 52.5 -19.5t23.5 -49.5
q0 -31 -21.5 -51.5t-52.5 -20.5q-29 0 -50.5 19.5t-21.5 52.5z" />
    <glyph glyph-name="afii10051" unicode="&#x402;" horiz-adv-x="1448" 
d="M649 1343h-413l18 91h967l-19 -91h-454l-117 -544h295q178 0 279.5 -95.5t101.5 -267.5q0 -198 -128.5 -329.5t-322.5 -131.5q-41 0 -95 8t-81 17l20 100q76 -32 154 -32q147 0 245.5 105.5t98.5 258.5q0 132 -80.5 204.5t-224.5 72.5h-281l-149 -709h-98z" />
    <glyph glyph-name="afii10052" unicode="&#x403;" horiz-adv-x="938" 
d="M379 1434h674l-19 -91h-575l-285 -1343h-98zM933 1863h111l-303 -328h-97z" />
    <glyph glyph-name="afii10053" unicode="&#x404;" horiz-adv-x="1272" 
d="M954 795l-20 -93h-674q-6 -47 -6 -100q0 -256 125.5 -396t347.5 -140q203 0 383 102l-23 -111q-102 -45 -179 -63.5t-189 -18.5h-6q-264 0 -412.5 164t-148.5 448q0 250 99 446t283 310.5t410 114.5q206 0 383 -96l-20 -109q-151 115 -377 115q-248 0 -425.5 -154.5
t-232.5 -418.5h682z" />
    <glyph glyph-name="afii10054" unicode="&#x405;" horiz-adv-x="1018" 
d="M63 164q66 -43 155 -70.5t183 -27.5q161 0 252.5 73.5t91.5 206.5q0 93 -52 167t-177 165q-141 102 -197.5 190t-56.5 203q0 170 130.5 278.5t324.5 108.5q146 0 291 -53l-21 -102q-116 65 -280 65q-154 0 -248 -78.5t-94 -210.5q0 -100 45.5 -168.5t177.5 -165.5
q145 -105 202.5 -188.5t57.5 -198.5q0 -177 -123 -280t-330 -103q-97 0 -189 23.5t-161 60.5z" />
    <glyph glyph-name="afii10056" unicode="&#x407;" horiz-adv-x="467" 
d="M379 1434h98l-303 -1434h-98zM554 1608q0 31 22 50t48 19q29 0 52.5 -19.5t23.5 -49.5q0 -31 -21.5 -51.5t-52.5 -20.5q-29 0 -50.5 19.5t-21.5 52.5zM220 1608q0 31 22 50t48 19q29 0 52.5 -19.5t23.5 -49.5q0 -31 -21.5 -51.5t-52.5 -20.5q-29 0 -50.5 19.5t-21.5 52.5
z" />
    <glyph glyph-name="afii10058" unicode="&#x409;" horiz-adv-x="1919" 
d="M-92 96q42 -20 88 -20q83 0 138.5 55t118.5 193t169 431l235 679h646l-136 -637h193q195 0 309.5 -95.5t114.5 -261.5q0 -211 -137 -325.5t-392 -114.5h-354l285 1341h-461q-165 -486 -268 -760.5t-164.5 -388.5t-129 -162t-171.5 -48q-63 0 -105 14zM1253 90
q426 0 426 344q0 133 -85 203t-246 70h-199l-131 -617h235z" />
    <glyph glyph-name="afii10059" unicode="&#x40a;" horiz-adv-x="1972" 
d="M379 1434h98l-135 -637h739l136 637h98l-135 -637h233q195 0 309.5 -95.5t114.5 -261.5q0 -211 -137 -325.5t-391 -114.5h-396l150 707h-739l-150 -707h-98zM1307 90q426 0 426 344q0 133 -84.5 203t-247.5 70h-240l-131 -617h277z" />
    <glyph glyph-name="afii10060" unicode="&#x40b;" horiz-adv-x="1419" 
d="M649 1343h-413l18 91h926l-19 -91h-413l-111 -524h283q176 0 266 -76t90 -223q0 -31 -6.5 -71.5t-91.5 -448.5h-99l80 383q17 79 17 123q0 223 -263 223h-297l-153 -729h-98z" />
    <glyph glyph-name="afii10061" unicode="&#x40c;" horiz-adv-x="1079" 
d="M379 1434h98l-143 -676h4l19 20l741 656h133l-801 -701l516 -733h-123l-467 678l-26 45h-4l-152 -723h-98zM944 1875h111l-303 -328h-97z" />
    <glyph glyph-name="afii10062" unicode="&#x40e;" horiz-adv-x="1098" 
d="M-2 113q70 -45 141 -45q70 0 115 22.5t100.5 88t153.5 208.5l-252 1047h102l187 -811l28 -131h5l591 942h113l-680 -1057q-131 -204 -193 -276t-118.5 -99t-151.5 -27q-91 0 -164 35zM561 1795q6 -100 61.5 -154.5t153.5 -54.5q97 0 168 53t104 156h103
q-51 -139 -149 -212t-227 -73q-137 0 -217 73.5t-89 211.5h92z" />
    <glyph glyph-name="afii10145" unicode="&#x40f;" horiz-adv-x="1386" 
d="M379 1434h98l-284 -1344h821l284 1344h99l-303 -1434h-467l-80 -383h-96l84 383h-459z" />
    <glyph glyph-name="afii10017" unicode="&#x410;" horiz-adv-x="1206" 
d="M748 1434h92l233 -1434h-100l-72 446h-616l-265 -446h-104zM889 537l-103 663q-8 52 -10 109h-4l-33 -66l-405 -706h555z" />
    <glyph glyph-name="afii10018" unicode="&#x411;" horiz-adv-x="1102" 
d="M379 1434h702l-18 -91h-606l-115 -546h233q195 0 309.5 -95.5t114.5 -261.5q0 -211 -137 -325.5t-391 -114.5h-395zM469 90q426 0 426 344q0 134 -85.5 203.5t-246.5 69.5h-239l-131 -617h276z" />
    <glyph glyph-name="afii10019" unicode="&#x412;" horiz-adv-x="1106" 
d="M379 1434h348q152 0 242 -82.5t90 -223.5q0 -156 -85.5 -258.5t-232.5 -130.5v-4q111 -25 171.5 -104.5t60.5 -194.5q0 -209 -127.5 -322.5t-364.5 -113.5h-405zM569 788q185 0 286 88.5t101 241.5q0 109 -66.5 167t-184.5 58h-244l-121 -555h229zM471 90q399 0 399 338
q0 130 -87.5 200t-250.5 70h-210l-127 -608h276z" />
    <glyph glyph-name="afii10020" unicode="&#x413;" horiz-adv-x="938" 
d="M379 1434h674l-19 -91h-575l-285 -1343h-98z" />
    <glyph glyph-name="afii10021" unicode="&#x414;" horiz-adv-x="1413" 
d="M-25 90h109q156 124 261.5 285t191 403.5t178.5 655.5h626l-284 -1344h211l-99 -463h-96l80 373h-1102l-78 -373h-96zM958 90l267 1253h-430q-118 -496 -258 -803.5t-318 -449.5h739z" />
    <glyph glyph-name="afii10022" unicode="&#x415;" horiz-adv-x="989" 
d="M379 1434h670l-19 -91h-571l-123 -575h530l-18 -90h-531l-124 -588h604l-19 -90h-702z" />
    <glyph glyph-name="afii10024" unicode="&#x416;" horiz-adv-x="1573" 
d="M678 745l-436 689h116l402 -648l18 -34h4l146 682h98l-143 -676h4q7 9 708 676h129l-741 -701l467 -733h-129l-422 690l-18 33h-4l-154 -723h-98l151 719h-4l-23 -25l-722 -694h-140z" />
    <glyph glyph-name="afii10025" unicode="&#x417;" horiz-adv-x="1022" 
d="M-10 176q76 -49 189 -80t208 -31q189 0 295.5 91.5t106.5 251.5q0 290 -359 290h-131l20 90h123q467 0 467 347q0 109 -68 171t-184 62q-74 0 -168.5 -24.5t-187.5 -73.5l18 108q76 37 169.5 58.5t177.5 21.5q162 0 253 -85.5t91 -229.5q0 -154 -97.5 -261.5
t-271.5 -140.5v-4q113 -22 180.5 -110.5t67.5 -210.5q0 -202 -139 -321.5t-373 -119.5q-210 0 -412 102z" />
    <glyph glyph-name="afii10026" unicode="&#x418;" horiz-adv-x="1452" 
d="M379 1434h98l-237 -1121q-8 -42 -31 -120h4l162 176l1003 1065h84l-303 -1434h-98l237 1122l29 127h-4l-78 -90l-1091 -1159h-78z" />
    <glyph glyph-name="afii10027" unicode="&#x419;" horiz-adv-x="1452" 
d="M379 1434h98l-237 -1121q-8 -42 -31 -120h4l162 176l1003 1065h84l-303 -1434h-98l237 1122l29 127h-4l-78 -90l-1091 -1159h-78zM725 1795q6 -100 61.5 -154.5t153.5 -54.5q97 0 168 53t104 156h103q-51 -139 -149 -212t-227 -73q-137 0 -217 73.5t-89 211.5h92z" />
    <glyph glyph-name="afii10028" unicode="&#x41a;" horiz-adv-x="1079" 
d="M379 1434h98l-143 -676h4l19 20l741 656h133l-801 -701l516 -733h-123l-467 678l-26 45h-4l-152 -723h-98z" />
    <glyph glyph-name="afii10029" unicode="&#x41b;" horiz-adv-x="1292" 
d="M-92 96q42 -20 88 -20q95 0 162 84t173.5 353t325.5 921h646l-304 -1434h-98l285 1341h-461q-209 -616 -305 -858t-155 -331t-120.5 -129.5t-152.5 -40.5q-63 0 -105 14z" />
    <glyph glyph-name="afii10030" unicode="&#x41c;" horiz-adv-x="1706" 
d="M379 1434h84l319 -793q28 -69 41 -128h6l84 106l707 815h96l-307 -1434h-92l233 1095l40 173h-4q-35 -58 -65 -92l-701 -802h-33l-322 796q-20 47 -28 97h-4q-4 -35 -14.5 -95.5t-246.5 -1171.5h-96z" />
    <glyph glyph-name="afii10031" unicode="&#x41d;" horiz-adv-x="1386" 
d="M379 1434h98l-139 -656h821l139 656h99l-303 -1434h-99l146 688h-822l-145 -688h-98z" />
    <glyph glyph-name="afii10032" unicode="&#x41e;" horiz-adv-x="1544" 
d="M725 -25q-268 0 -420.5 167.5t-152.5 451.5q0 240 100 439t276 312t394 113q257 0 412 -169.5t155 -442.5q0 -242 -96.5 -444t-271 -314.5t-396.5 -112.5zM729 66q195 0 342 96t231 276t84 402q0 241 -125.5 384.5t-340.5 143.5q-192 0 -344.5 -97.5t-237 -274
t-84.5 -400.5q0 -246 125 -388t350 -142z" />
    <glyph glyph-name="afii10033" unicode="&#x41f;" horiz-adv-x="1417" 
d="M379 1434h1048l-303 -1434h-98l285 1343h-852l-285 -1343h-98z" />
    <glyph glyph-name="afii10034" unicode="&#x420;" horiz-adv-x="1114" 
d="M379 1434h313q196 0 305 -98t109 -275q0 -226 -146.5 -356t-396.5 -130h-266l-123 -575h-98zM569 666q209 0 322 99.5t113 287.5q0 139 -84 214.5t-248 75.5h-213l-144 -677h254z" />
    <glyph glyph-name="afii10035" unicode="&#x421;" horiz-adv-x="1294" 
d="M713 -25q-264 0 -412.5 164t-148.5 448q0 250 99 446t283 310.5t410 114.5q206 0 383 -96l-20 -109q-151 115 -377 115q-193 0 -348.5 -99t-241.5 -276t-86 -391q0 -256 125.5 -396t347.5 -140q203 0 383 102l-23 -111q-102 -45 -179 -63.5t-189 -18.5h-6z" />
    <glyph glyph-name="afii10036" unicode="&#x422;" horiz-adv-x="1047" 
d="M649 1343h-413l18 91h926l-19 -91h-413l-285 -1343h-98z" />
    <glyph glyph-name="afii10037" unicode="&#x423;" horiz-adv-x="1098" 
d="M-2 113q70 -45 141 -45q70 0 115 22.5t100.5 88t153.5 208.5l-252 1047h102l187 -811l28 -131h5l591 942h113l-680 -1057q-131 -204 -193 -276t-118.5 -99t-151.5 -27q-91 0 -164 35z" />
    <glyph glyph-name="afii10038" unicode="&#x424;" horiz-adv-x="1573" 
d="M662 197h-68q-207 0 -329 123.5t-122 334.5q0 181 81 327.5t227 228t323 81.5h119l35 158h98l-35 -158h68q205 0 327.5 -125t122.5 -333q0 -181 -81.5 -327.5t-225.5 -228t-323 -81.5h-119l-45 -213h-99zM885 287q232 0 377 150t145 388q0 182 -94 279.5t-269 97.5h-71
l-195 -915h107zM680 287l194 915h-106q-233 0 -377.5 -146.5t-144.5 -391.5q0 -181 93 -279t269 -98h72z" />
    <glyph glyph-name="afii10039" unicode="&#x425;" horiz-adv-x="1153" 
d="M-57 0l616 727l-270 707h112l199 -539l33 -100h4l33.5 48.5t486.5 590.5h119l-588 -709l275 -725h-113l-205 547l-33 106h-4q-19 -33 -80 -106l-456 -547h-129z" />
    <glyph glyph-name="afii10040" unicode="&#x426;" horiz-adv-x="1436" 
d="M379 1434h98l-284 -1344h821l284 1344h99l-285 -1344h182l-98 -463h-96l80 373h-1104z" />
    <glyph glyph-name="afii10041" unicode="&#x427;" horiz-adv-x="1255" 
d="M1008 676q-280 -135 -457 -135q-318 0 -318 258q0 32 8 75l117 560h99l-113 -529q-12 -56 -12 -102q0 -82 55.5 -127t167.5 -45q116 0 231 37t240 94l141 672h99l-303 -1434h-99z" />
    <glyph glyph-name="afii10042" unicode="&#x428;" horiz-adv-x="1776" 
d="M379 1434h98l-284 -1344h552l285 1344h100l-284 -1344h555l285 1344h100l-303 -1434h-1407z" />
    <glyph glyph-name="afii10043" unicode="&#x429;" horiz-adv-x="1825" 
d="M379 1434h98l-284 -1344h552l285 1344h100l-284 -1344h555l285 1344h100l-285 -1344h182l-98 -463h-96l80 373h-1493z" />
    <glyph glyph-name="afii10044" unicode="&#x42a;" horiz-adv-x="1423" 
d="M651 1343h-413l18 91h512l-135 -637h233q195 0 309.5 -95.5t114.5 -261.5q0 -211 -137 -325.5t-391 -114.5h-395zM760 90q426 0 426 344q0 132 -84.5 202.5t-247.5 70.5h-240l-131 -617h277z" />
    <glyph glyph-name="afii10045" unicode="&#x42b;" horiz-adv-x="1503" 
d="M1415 1434h98l-303 -1434h-98zM379 1434h98l-135 -637h193q197 0 310 -97t113 -260q0 -211 -137 -325.5t-391 -114.5h-354zM428 90q426 0 426 344q0 134 -85.5 203.5t-246.5 69.5h-198l-131 -617h235z" />
    <glyph glyph-name="afii10046" unicode="&#x42c;" horiz-adv-x="1135" 
d="M379 1434h98l-135 -637h233q195 0 309.5 -95.5t114.5 -261.5q0 -211 -137 -325.5t-391 -114.5h-395zM469 90q426 0 426 344q0 134 -85.5 203.5t-246.5 69.5h-239l-131 -617h276z" />
    <glyph glyph-name="afii10047" unicode="&#x42d;" horiz-adv-x="1274" 
d="M57 152q157 -86 336 -86q254 0 448 169.5t246 436.5h-688l21 92h682q10 64 10 123q0 219 -130.5 350t-354.5 131q-180 0 -346 -78l22 109q147 59 332 59q269 0 426.5 -152.5t157.5 -410.5q0 -261 -105 -471t-296 -329.5t-429 -119.5q-222 0 -356 70z" />
    <glyph glyph-name="afii10048" unicode="&#x42e;" horiz-adv-x="1919" 
d="M379 1434h98l-135 -643h303q51 299 239 483t444 184q252 0 394 -165t142 -447q0 -247 -92 -447t-255 -312t-358 -112q-246 0 -388 163t-142 456l4 106h-311l-148 -700h-98zM1163 66q169 0 306.5 97.5t214.5 275t77 401.5q0 243 -115 385.5t-309 142.5q-172 0 -311.5 -98
t-217 -275t-77.5 -399q0 -252 113.5 -391t318.5 -139z" />
    <glyph glyph-name="afii10049" unicode="&#x42f;" horiz-adv-x="1137" 
d="M506 666q-102 18 -179 112t-77 208v11v10q0 189 139.5 308t373.5 119h7h377l-303 -1434h-99l136 639h-199q-99 0 -169.5 -48t-156.5 -175l-280 -416h-119l311 453q106 155 236 209zM899 729l131 614h-260q-195 0 -305.5 -93t-110.5 -253q0 -120 84 -194t221 -74h240z" />
    <glyph glyph-name="afii10065" unicode="&#x430;" horiz-adv-x="1071" 
d="M739 0q4 111 43 328h-4q-93 -172 -193 -262.5t-220 -90.5q-136 0 -209.5 95.5t-73.5 269.5q0 200 81 363t223.5 254.5t313.5 91.5q130 0 312 -37l-133 -645q-15 -76 -30 -189.5t-15 -177.5h-95zM905 942q-106 23 -213 23q-143 0 -261.5 -78t-185.5 -219t-67 -318
q0 -291 205 -291q81 0 174 79.5t173.5 220t113.5 288.5z" />
    <glyph glyph-name="afii10066" unicode="&#x431;" horiz-adv-x="1083" 
d="M253 809q161 215 410 215q155 0 246.5 -105.5t91.5 -283.5q0 -186 -68.5 -338t-191 -237t-271.5 -85q-357 0 -357 432q0 248 72.5 509.5t161.5 374t249 159.5t537 61l-23 -98q-281 -5 -367 -14.5t-140 -26.5t-96 -45t-79.5 -73t-71.5 -117t-65 -164.5t-44 -163.5h6z
M209 400q0 -341 269 -341q188 0 307.5 157.5t119.5 407.5q0 155 -67 233.5t-194 78.5q-120 0 -225.5 -68.5t-187.5 -201.5q-22 -104 -22 -266z" />
    <glyph glyph-name="afii10067" unicode="&#x432;" horiz-adv-x="989" 
d="M659 539q106 -7 165.5 -62.5t59.5 -152.5t-56 -178.5t-156.5 -126t-229.5 -44.5q-184 0 -272 87t-88 270q0 307 153 512t420 205q129 0 206 -60t77 -166q0 -115 -71.5 -188.5t-207.5 -95.5zM203 553q268 10 394 37t185 79t59 138q0 75 -52 116.5t-146 41.5
q-164 0 -277.5 -105t-162.5 -307zM178 328q0 -139 68.5 -204t207.5 -65q146 0 239.5 72t93.5 182q0 88 -62.5 131t-196.5 43q-36 0 -84 -1.5t-96.5 -4t-91 -5t-65.5 -3.5q-13 -59 -13 -145z" />
    <glyph glyph-name="afii10068" unicode="&#x433;" horiz-adv-x="795" 
d="M336 -25q-145 0 -228 66t-83 180q0 111 71 177.5t297 154.5q160 61 220.5 114.5t60.5 141.5q0 73 -54 114.5t-153 41.5q-68 0 -142 -21t-132 -53l24 104q38 21 111 37.5t143 16.5q138 0 217.5 -65t79.5 -173t-75 -183t-267 -149q-146 -56 -204 -89.5t-80.5 -70.5
t-22.5 -96q0 -72 63 -118t160 -46q154 0 297 97l-27 -115q-49 -29 -122 -47.5t-154 -18.5z" />
    <glyph glyph-name="afii10069" unicode="&#x434;" horiz-adv-x="1073" 
d="M649 1516q191 0 291 -124t100 -365q0 -305 -79.5 -546.5t-222 -373.5t-320.5 -132q-150 0 -243 108.5t-93 289.5q0 180 71.5 330.5t197 236.5t272.5 86q96 0 183 -53.5t129 -130.5h4q2 11 5.5 76.5t3.5 106.5q0 407 -311 407q-63 0 -140.5 -20.5t-125.5 -50.5l22 102
q35 20 108.5 36.5t147.5 16.5zM922 718q-39 100 -126 162t-182 62q-118 0 -219.5 -73.5t-159 -203.5t-57.5 -288q0 -145 68.5 -231.5t179.5 -86.5q119 0 223 80t175 230t98 349z" />
    <glyph glyph-name="afii10070" unicode="&#x435;" horiz-adv-x="956" 
d="M178 395q0 -157 80.5 -246.5t226.5 -89.5q128 0 281 84l-18 -96q-132 -72 -277 -72q-185 0 -287 112.5t-102 315.5q0 178 74.5 326.5t200 234t266.5 85.5q131 0 211.5 -66t80.5 -180q0 -176 -173.5 -258t-561.5 -88zM193 541q320 0 473 59t153 193q0 172 -211 172
q-149 0 -263.5 -118.5t-151.5 -305.5z" />
    <glyph glyph-name="afii10072" unicode="&#x436;" horiz-adv-x="1362" 
d="M545 526l-387 498h108l371 -489h4l104 489h93l-105 -489h4l580 489h119l-611 -504l400 -520h-119l-375 502h-4l-106 -502h-93l107 502h-4l-588 -502h-129z" />
    <glyph glyph-name="afii10073" unicode="&#x437;" horiz-adv-x="887" 
d="M18 162q163 -103 342 -103q143 0 222.5 61.5t79.5 174.5q0 100 -70.5 146t-214.5 46h-146l19 84h127q163 0 251.5 59.5t88.5 168.5q0 166 -230 166q-161 0 -340 -97l21 105q153 76 324 76q156 0 239.5 -66.5t83.5 -181.5q0 -219 -262 -266v-5q92 -14 149.5 -78.5
t57.5 -152.5q0 -142 -112 -233t-294 -91q-84 0 -191 25t-163 59z" />
    <glyph glyph-name="afii10074" unicode="&#x438;" horiz-adv-x="1104" 
d="M266 1024h92l-120 -588q-27 -135 -27 -170q0 -207 176 -207q85 0 185.5 75t180 193.5t99.5 219.5l102 477h93l-158 -739q-35 -170 -45 -285h-92l49 291h-4q-195 -316 -428 -316q-254 0 -254 281q0 20 6.5 68t144.5 700z" />
    <glyph glyph-name="afii10075" unicode="&#x439;" horiz-adv-x="1104" 
d="M266 1024h92l-120 -588q-27 -135 -27 -170q0 -207 176 -207q85 0 185.5 75t180 193.5t99.5 219.5l102 477h93l-158 -739q-35 -170 -45 -285h-92l49 291h-4q-195 -316 -428 -316q-254 0 -254 281q0 20 6.5 68t144.5 700zM466 1446q6 -100 61.5 -154.5t153.5 -54.5
q97 0 168 53t104 156h103q-51 -139 -149 -212t-227 -73q-137 0 -217 73.5t-89 211.5h92z" />
    <glyph glyph-name="afii10076" unicode="&#x43a;" horiz-adv-x="891" 
d="M274 1024h93l-103 -483h4l570 483h131l-602 -502l403 -522h-117l-389 518h-4l-110 -518h-93z" />
    <glyph glyph-name="afii10077" unicode="&#x43b;" horiz-adv-x="1001" 
d="M-86 76q22 -8 55 -8q98 0 168 78.5t143.5 265t194.5 612.5h473l-217 -1024h-92l199 940h-299q-141 -483 -213.5 -643.5t-156 -235.5t-198.5 -75q-47 0 -73 8z" />
    <glyph glyph-name="afii10078" unicode="&#x43c;" horiz-adv-x="1320" 
d="M274 1024h111l156 -719q22 -102 35 -192l44 80l63 108l453 723h131l-217 -1024h-90l187 890l-557 -890h-74l-152 696l-32 194l-187 -890h-88z" />
    <glyph glyph-name="afii10079" unicode="&#x43d;" horiz-adv-x="1116" 
d="M274 1024h93l-97 -451h604l97 451h92l-217 -1024h-92l102 489h-604l-102 -489h-93z" />
    <glyph glyph-name="afii10080" unicode="&#x43e;" horiz-adv-x="1061" 
d="M440 -25q-168 0 -263 105t-95 291t72.5 344t196.5 246t272 88q170 0 263 -106t93 -288q0 -189 -70 -346t-194 -245.5t-275 -88.5zM449 59q118 0 218 75.5t158 211t58 299.5q0 157 -71 238.5t-200 81.5q-116 0 -217 -76t-159 -211.5t-58 -298.5q0 -151 72.5 -235.5
t198.5 -84.5z" />
    <glyph glyph-name="afii10081" unicode="&#x43f;" horiz-adv-x="1104" 
d="M260 1024h92l-49 -291h4q195 316 428 316q131 0 192.5 -67t61.5 -208q0 -33 -8 -81t-143 -693h-93l121 588q27 135 27 170q0 207 -176 207q-78 0 -179.5 -70t-180.5 -182t-105 -236l-102 -477h-93l158 739q35 170 45 285z" />
    <glyph glyph-name="afii10082" unicode="&#x440;" horiz-adv-x="1071" 
d="M240 1024h94q-5 -74 -20 -181t-23 -147h4q94 174 196 263.5t220 89.5q137 0 207.5 -94t70.5 -273q0 -200 -81.5 -361.5t-223.5 -253.5t-313 -92q-110 0 -215 41l-107 -497h-92l250 1181q8 38 20.5 155.5t12.5 168.5zM172 102q90 -43 213 -43q140 0 258 79t184 218.5
t66 309.5q0 148 -49.5 223.5t-157.5 75.5q-77 0 -175.5 -83.5t-175 -220.5t-106.5 -284z" />
    <glyph glyph-name="afii10083" unicode="&#x441;" horiz-adv-x="838" 
d="M438 -25q-164 0 -260 108.5t-96 297.5q0 187 72 341t198 240.5t275 86.5q69 0 125 -15.5t114 -54.5l-24 -102q-88 88 -224 88q-121 0 -224.5 -76t-161.5 -210t-58 -294q0 -152 72.5 -239t202.5 -87q66 0 126 26t134 81l-25 -115q-76 -43 -130 -59.5t-116 -16.5z" />
    <glyph glyph-name="afii10084" unicode="&#x442;" horiz-adv-x="1704" 
d="M260 1024h92l-49 -291h4q197 316 408 316q121 0 175 -74.5t54 -241.5q94 153 202 234.5t214 81.5q229 0 229 -273q0 -67 -28 -203l-121 -573h-92l120 588q27 140 27 187q0 190 -154 190q-79 0 -173.5 -72.5t-171.5 -189t-99 -222.5l-102 -481h-93l121 588q27 128 27 170
q0 100 -34.5 153.5t-119.5 53.5q-81 0 -178.5 -77.5t-170.5 -192t-95 -218.5l-102 -477h-93l158 739q35 170 45 285z" />
    <glyph glyph-name="afii10085" unicode="&#x443;" horiz-adv-x="928" 
d="M-147 -371q31 -18 73 -18q69 0 127 41t125 147l135 215l-180 1010h94l146 -829l8 -76h4l10 17l541 888h108l-755 -1214q-103 -165 -181.5 -228t-187.5 -63q-57 0 -88 16z" />
    <glyph glyph-name="afii10086" unicode="&#x444;" horiz-adv-x="1574" 
d="M308 -387q30 -12 63 -12q92 0 150 77.5t96 245.5l31 137q-132 -86 -271 -86q-129 0 -212 103t-83 272q0 195 67 355.5t186.5 252t262.5 91.5q165 0 242 -84l50 229q34 156 114 239t195 83q43 0 82 -11l-6 -84q-25 13 -66 13q-85 0 -144 -60t-85 -180l-49 -231
q121 86 270 86q134 0 212.5 -102t78.5 -273q0 -195 -67 -356t-186.5 -252t-258.5 -91q-165 0 -242 84l-29 -129q-47 -212 -128.5 -311.5t-209.5 -99.5q-37 0 -71 12zM758 158q32 -46 92.5 -72.5t125.5 -26.5q118 0 214.5 77t151 216.5t54.5 313.5q0 141 -54.5 220t-153.5 79
q-154 0 -278 -99zM816 866q-24 42 -84.5 70.5t-128.5 28.5q-120 0 -217.5 -77t-152.5 -217t-55 -313q0 -135 57.5 -217t154.5 -82q149 0 274 99z" />
    <glyph glyph-name="afii10087" unicode="&#x445;" horiz-adv-x="883" 
d="M387 504l-229 520h102l152 -367l34 -92h5l51 68l332 391h114l-463 -526l232 -498h-109l-147 348l-35 88h-4l-51 -66l-316 -370h-121z" />
    <glyph glyph-name="afii10088" unicode="&#x446;" horiz-adv-x="1139" 
d="M887 0q-113 0 -113 98q0 74 27 193h-4q-106 -168 -211.5 -242t-216.5 -74q-254 0 -254 281q0 20 6.5 68t144.5 700h92l-120 -588q-27 -135 -27 -170q0 -207 176 -207q80 0 187.5 79t180.5 189t97 220l102 477h93l-140 -657q-35 -161 -35 -220q0 -63 78 -63q31 0 47 4
l-118 -461h-101z" />
    <glyph glyph-name="afii10089" unicode="&#x447;" horiz-adv-x="1057" 
d="M803 516q-190 -141 -369 -141q-127 0 -198.5 67t-71.5 176q0 27 3 55t73 351h92l-62 -289q-14 -70 -14 -108q0 -76 46 -122t147 -46q97 0 178.5 32t189.5 105l94 428h93l-218 -1024h-92z" />
    <glyph glyph-name="afii10090" unicode="&#x448;" horiz-adv-x="1704" 
d="M264 1024h92l-120 -588q-27 -140 -27 -170q0 -107 37 -157t116 -50q75 0 169 69t173.5 188.5t102.5 226.5l102 481h92l-120 -588q-27 -140 -27 -170q0 -108 37.5 -157.5t116.5 -49.5q80 0 174 72t170 189t100 227l102 477h93l-158 -739q-35 -170 -45 -285h-92l49 291h-4
q-197 -316 -408 -316q-124 0 -176.5 72t-52.5 244q-94 -153 -202 -234.5t-214 -81.5q-229 0 -229 281q0 59 28 195z" />
    <glyph glyph-name="afii10091" unicode="&#x449;" horiz-adv-x="1739" 
d="M264 1024h92l-120 -588q-27 -140 -27 -170q0 -100 34.5 -153.5t118.5 -53.5q75 0 169 69t173.5 188.5t102.5 226.5l102 481h92l-120 -588q-27 -140 -27 -170q0 -100 34.5 -153.5t119.5 -53.5q80 0 174 72t170 189t100 227l102 477h93l-158 -739q-16 -70 -16 -138
q0 -63 77 -63q31 0 47 4l-120 -461h-101l111 373q-113 0 -113 98q0 61 27 193h-4q-197 -316 -408 -316q-124 0 -176.5 72t-52.5 244q-94 -153 -202 -234.5t-214 -81.5q-229 0 -229 281q0 59 28 195z" />
    <glyph glyph-name="afii10092" unicode="&#x44a;" horiz-adv-x="1180" 
d="M121 1024h413l-96 -456q155 52 304 52q158 0 239 -73.5t81 -202.5q0 -164 -117.5 -266.5t-311.5 -102.5q-171 0 -250.5 68t-79.5 215q0 107 36 283l85 399h-322zM396 271q0 -115 55 -163.5t188 -48.5q142 0 234.5 77t92.5 191q0 211 -237 211q-139 0 -308 -51
q-25 -127 -25 -216z" />
    <glyph glyph-name="afii10093" unicode="&#x44b;" horiz-adv-x="1308" 
d="M1163 1024h92l-217 -1024h-92zM248 1024h92l-96 -456q143 52 285 52q144 0 221.5 -71.5t77.5 -204.5q0 -161 -112 -265t-294 -104q-163 0 -238 67.5t-75 215.5q0 114 36 283zM202 271q0 -114 53 -163t173 -49q132 0 218 75.5t86 192.5q0 211 -220 211q-128 0 -287 -51
q-23 -124 -23 -216z" />
    <glyph glyph-name="afii10094" unicode="&#x44c;" horiz-adv-x="986" 
d="M248 1024h92l-96 -456q155 52 304 52q158 0 239 -73.5t81 -202.5q0 -164 -117.5 -266.5t-311.5 -102.5q-171 0 -250.5 68t-79.5 215q0 118 36 283zM202 271q0 -115 55 -163.5t188 -48.5q143 0 235 75t92 190q0 108 -58 161t-179 53q-139 0 -308 -51q-25 -135 -25 -216z
" />
    <glyph glyph-name="afii10095" unicode="&#x44d;" horiz-adv-x="942" 
d="M47 143q33 -33 106.5 -58.5t139.5 -25.5q178 0 303 115.5t162 314.5h-510l18 80h502l4 74q0 153 -77 237.5t-220 84.5q-130 0 -293 -97l23 113q51 29 123.5 48.5t150.5 19.5q182 0 283.5 -107.5t101.5 -294.5q0 -191 -73.5 -346t-204.5 -240.5t-291 -85.5
q-73 0 -150.5 19t-117.5 49z" />
    <glyph glyph-name="afii10096" unicode="&#x44e;" horiz-adv-x="1466" 
d="M274 1024h93l-97 -451h299q48 216 179.5 346t304.5 130q156 0 243.5 -104t87.5 -290q0 -189 -65 -346t-180.5 -245.5t-255.5 -88.5q-157 0 -245.5 106t-88.5 290q0 72 8 118h-305l-102 -489h-93zM891 59q107 0 198.5 74.5t145 210.5t53.5 301q0 157 -64.5 238.5
t-181.5 81.5q-106 0 -198.5 -76t-145.5 -211.5t-53 -298.5q0 -150 65 -235t181 -85z" />
    <glyph glyph-name="afii10097" unicode="&#x44f;" horiz-adv-x="987" 
d="M395 475q-80 10 -141 81.5t-61 158.5q0 151 98.5 230t292.5 79h350l-217 -1024h-96l94 446h-185q-134 0 -251 -182l-170 -264h-113l188 285q48 72 97 118.5t114 71.5zM733 530l86 414h-241q-281 0 -281 -227q0 -85 63 -136t164 -51h209z" />
    <glyph glyph-name="afii10071" unicode="&#x451;" horiz-adv-x="956" 
d="M178 395q0 -157 80.5 -246.5t226.5 -89.5q128 0 281 84l-18 -96q-132 -72 -277 -72q-185 0 -287 112.5t-102 315.5q0 178 74.5 326.5t200 234t266.5 85.5q131 0 211.5 -66t80.5 -180q0 -176 -173.5 -258t-561.5 -88zM193 541q320 0 473 59t153 193q0 172 -211 172
q-149 0 -263.5 -118.5t-151.5 -305.5zM707 1260q0 31 22 50t48 19q29 0 52.5 -19.5t23.5 -49.5q0 -31 -21.5 -51.5t-52.5 -20.5q-29 0 -50.5 19.5t-21.5 52.5zM373 1260q0 31 22 50t48 19q29 0 52.5 -19.5t23.5 -49.5q0 -31 -21.5 -51.5t-52.5 -20.5q-29 0 -50.5 19.5
t-21.5 52.5z" />
    <glyph glyph-name="afii10099" unicode="&#x452;" horiz-adv-x="1114" 
d="M285 -305q61 -23 110 -23q119 0 233.5 137t190.5 375t76 478q0 278 -182 278q-82 0 -187.5 -75.5t-179.5 -187t-98 -224.5l-98 -453h-93l262 1231h-133l19 84h133l43 201h92l-43 -201h391l-18 -84h-391l-109 -520h4q193 313 424 313q120 0 190 -94t70 -258
q0 -266 -83 -520t-222.5 -410t-288.5 -156q-79 0 -133 19z" />
    <glyph glyph-name="afii10100" unicode="&#x453;" horiz-adv-x="795" 
d="M336 -25q-145 0 -228 66t-83 180q0 111 71 177.5t297 154.5q160 61 220.5 114.5t60.5 141.5q0 73 -54 114.5t-153 41.5q-68 0 -142 -21t-132 -53l24 104q38 21 111 37.5t143 16.5q138 0 217.5 -65t79.5 -173t-75 -183t-267 -149q-146 -56 -204 -89.5t-80.5 -70.5
t-22.5 -96q0 -72 63 -118t160 -46q154 0 297 97l-27 -115q-49 -29 -122 -47.5t-154 -18.5zM691 1516h111l-303 -328h-97z" />
    <glyph glyph-name="afii10101" unicode="&#x454;" horiz-adv-x="868" 
d="M698 569l-18 -80h-498l-8 -104q0 -152 72.5 -239t202.5 -87q135 0 290 107l-24 -115q-136 -76 -277 -76q-164 0 -260 108.5t-96 297.5q0 187 72 341t198 240.5t275 86.5q152 0 256 -70l-25 -102q-40 40 -107 64t-133 24q-151 0 -265 -108.5t-156 -287.5h501z" />
    <glyph glyph-name="afii10102" unicode="&#x455;" horiz-adv-x="795" 
d="M47 143q51 -38 117 -61t129 -23q118 0 182 49t64 146q0 64 -36 109t-134 106q-117 72 -163 133t-46 148q0 128 94.5 213.5t239.5 85.5q53 0 123 -14t116 -38l-20 -96q-98 64 -228 64q-99 0 -164 -55.5t-65 -147.5q0 -71 35.5 -116t132.5 -103q114 -69 162.5 -132.5
t48.5 -146.5q0 -132 -94.5 -210.5t-253.5 -78.5q-147 0 -260 70z" />
    <glyph glyph-name="afii10104" unicode="&#x457;" horiz-adv-x="428" 
d="M264 1024h93l-154 -727q-24 -120 -24 -174q0 -60 62 -60q43 0 85 17l-17 -77q-49 -23 -98 -23q-127 0 -127 136q0 52 26 185zM446 1260q0 31 22 50t48 19q29 0 52.5 -19.5t23.5 -49.5q0 -31 -21.5 -51.5t-52.5 -20.5q-29 0 -50.5 19.5t-21.5 52.5zM112 1260q0 31 22 50
t48 19q29 0 52.5 -19.5t23.5 -49.5q0 -31 -21.5 -51.5t-52.5 -20.5q-29 0 -50.5 19.5t-21.5 52.5z" />
    <glyph glyph-name="afii10106" unicode="&#x459;" horiz-adv-x="1578" 
d="M-61 76q22 -8 55 -8q99 0 172.5 86.5t149.5 283.5t184 586h472l-96 -456q143 52 285 52q144 0 221.5 -71.5t77.5 -204.5q0 -161 -112 -265t-294 -104q-163 0 -238 67.5t-75 215.5q0 114 36 283l85 399h-299q-125 -436 -200.5 -619t-157 -259t-213.5 -76q-44 0 -70 8z
M834 271q0 -114 53 -163t173 -49q132 0 218 75.5t86 192.5q0 211 -220 211q-128 0 -287 -51q-23 -124 -23 -216z" />
    <glyph glyph-name="afii10107" unicode="&#x45a;" horiz-adv-x="1566" 
d="M274 1024h93l-93 -428h502l92 428h92l-96 -456q143 52 285 52q144 0 221.5 -71.5t77.5 -204.5q0 -161 -112 -265t-294 -104q-163 0 -238 67.5t-75 215.5q0 102 30 254h-501l-108 -512h-93zM822 271q0 -114 53 -163t173 -49q132 0 218 75.5t86 192.5q0 211 -220 211
q-128 0 -287 -51q-23 -124 -23 -216z" />
    <glyph glyph-name="afii10108" unicode="&#x45b;" horiz-adv-x="1102" 
d="M319 1231h-133l19 84h133l43 201h92l-43 -201h391l-18 -84h-391l-105 -496h4q191 314 424 314q252 0 252 -281q0 -31 -29 -195l-120 -573h-93l121 588q27 135 27 170q0 207 -176 207q-78 0 -179.5 -70t-180.5 -182t-105 -236l-102 -477h-93z" />
    <glyph glyph-name="afii10109" unicode="&#x45c;" horiz-adv-x="891" 
d="M274 1024h93l-103 -483h4l570 483h131l-602 -502l403 -522h-117l-389 518h-4l-110 -518h-93zM851 1516h111l-303 -328h-97z" />
    <glyph glyph-name="afii10110" unicode="&#x45e;" horiz-adv-x="928" 
d="M-147 -371q31 -18 73 -18q69 0 127 41t125 147l135 215l-180 1010h94l146 -829l8 -76h4l10 17l541 888h108l-755 -1214q-103 -165 -181.5 -228t-187.5 -63q-57 0 -88 16zM380 1446q6 -100 61.5 -154.5t153.5 -54.5q97 0 168 53t104 156h103q-51 -139 -149 -212t-227 -73
q-137 0 -217 73.5t-89 211.5h92z" />
    <glyph glyph-name="afii10193" unicode="&#x45f;" horiz-adv-x="1104" 
d="M266 1024h92l-120 -588q-27 -135 -27 -170q0 -207 176 -207q85 0 185.5 75t180 193.5t99.5 219.5l102 477h93l-158 -739q-35 -170 -45 -285h-92l49 291h-4q-195 -316 -428 -316q-254 0 -254 281q0 20 6.5 68t144.5 700zM371 -114h87l-76 -328h-87z" />
    <glyph glyph-name="afii10050" unicode="&#x490;" horiz-adv-x="918" 
d="M379 1434h582l57 264h92l-76 -355h-575l-285 -1343h-98z" />
    <glyph glyph-name="afii10098" unicode="&#x491;" horiz-adv-x="694" 
d="M274 1024h435l57 270h84l-76 -354h-426l-198 -940h-93z" />
    <glyph glyph-name="afii00208" unicode="&#x2015;" horiz-adv-x="2048" 
d="M27 645h2048l-19 -90h-2048z" />
    <glyph glyph-name="afii61352" unicode="&#x2116;" horiz-adv-x="2320" 
d="M1485 920q0 143 62.5 265t173.5 191.5t243 69.5q150 0 232.5 -81.5t82.5 -227.5q0 -141 -62.5 -264t-170 -193t-235.5 -70q-158 0 -242 82t-84 228zM1401 428h708l-16 -78h-709zM379 1434h88l530 -1149l39 -99h4l263 1248h98l-303 -1434h-82l-535 1159l-39 96h-4
q-5 -46 -16 -92l-21 -91l-227 -1072h-98zM1812 690q158 0 264.5 125.5t106.5 310.5q0 117 -61 177.5t-170 60.5q-156 0 -263.5 -126t-107.5 -310q0 -112 61 -175t170 -63z" />
    <glyph glyph-name="pi" unicode="&#x3c0;" horiz-adv-x="1284" 
d="M152 0q45 104 77 258l146 682q-66 -2 -139.5 -24t-112.5 -44l20 97q120 55 250 55h869l-19 -84h-215l-139 -664q-17 -79 -17 -112q0 -43 26 -67.5t75 -24.5q44 0 74 10l-17 -80q-42 -14 -86 -14q-82 0 -124 40.5t-42 116.5q0 19 2 38t156 757h-469l-145 -682
q-35 -160 -76 -258h-94z" />
    <glyph glyph-name="four.frac" horiz-adv-x="674" 
d="M598 1434h100l-116 -553h112l-16 -78h-111l-47 -219h-84l47 219h-385l11 65zM498 881l77 368l23 86h-2l-9 -13l-368 -441h279z" />
    <glyph glyph-name="five.frac" horiz-adv-x="674" 
d="M113 688q82 -49 188 -49q118 0 182 56t64 159q0 156 -185 156q-16 0 -45 -1.5t-66 -4t-44 -3.5l92 433h418l-19 -84h-338l-57 -263l76 5q116 0 187 -61.5t71 -166.5q0 -140 -89.5 -222.5t-250.5 -82.5q-135 0 -203 43z" />
    <glyph glyph-name="seven.frac" horiz-adv-x="674" 
d="M657 1352h-452l18 82h555l-10 -54l-504 -807h-96z" />
    <glyph glyph-name="eight.frac" horiz-adv-x="674" 
d="M330 1042q-54 28 -85.5 77.5t-31.5 103.5q0 103 79.5 167t203.5 64q105 0 172 -53t67 -139q0 -81 -50.5 -135.5t-168.5 -90.5q73 -32 114.5 -88.5t41.5 -118.5q0 -121 -88.5 -192.5t-231.5 -71.5q-120 0 -189 61.5t-69 166.5q0 172 236 249zM432 1075q106 27 156.5 69.5
t50.5 108.5q0 52 -41 85.5t-106 33.5q-84 0 -134.5 -39.5t-50.5 -109.5q0 -48 34 -86.5t91 -61.5zM418 1001q-230 -61 -230 -208q0 -66 46.5 -106t125.5 -40q99 0 158.5 46t59.5 124q0 54 -41 104.5t-119 79.5z" />
    <glyph glyph-name="glyph572" horiz-adv-x="428" 
d="M264 1024h93l-154 -727q-24 -120 -24 -174q0 -60 62 -60q43 0 85 17l-17 -77q-49 -23 -98 -23q-127 0 -127 136q0 52 26 185z" />
    <glyph glyph-name="Scommaaccent" unicode="&#x218;" horiz-adv-x="1018" 
d="M63 164q66 -43 155 -70.5t183 -27.5q161 0 252.5 73.5t91.5 206.5q0 93 -52 167t-177 165q-141 102 -197.5 190t-56.5 203q0 170 130.5 278.5t324.5 108.5q146 0 291 -53l-21 -102q-116 65 -280 65q-154 0 -248 -78.5t-94 -210.5q0 -100 45.5 -168.5t177.5 -165.5
q145 -105 202.5 -188.5t57.5 -198.5q0 -177 -123 -280t-330 -103q-97 0 -189 23.5t-161 60.5zM416 -120h112l-181 -261h-79z" />
    <glyph glyph-name="scommaaccent" unicode="&#x219;" horiz-adv-x="795" 
d="M47 143q51 -38 117 -61t129 -23q118 0 182 49t64 146q0 64 -36 109t-134 106q-117 72 -163 133t-46 148q0 128 94.5 213.5t239.5 85.5q53 0 123 -14t116 -38l-20 -96q-98 64 -228 64q-99 0 -164 -55.5t-65 -147.5q0 -71 35.5 -116t132.5 -103q114 -69 162.5 -132.5
t48.5 -146.5q0 -132 -94.5 -210.5t-253.5 -78.5q-147 0 -260 70zM315 -120h112l-181 -261h-79z" />
    <glyph glyph-name="currency" unicode="&#xa4;" horiz-adv-x="1139" 
d="M133 354l137 131q-84 115 -84 240q0 139 84 240l-137 133l60 61l135 -135q112 84 241 84q136 0 240 -84l137 135l60 -61l-138 -133q84 -101 84 -240q0 -132 -84 -240l138 -131l-60 -61l-135 135q-106 -86 -242 -86q-140 0 -241 86l-135 -135zM569 426q119 0 209 89
t90 212q0 120 -88.5 208.5t-208.5 88.5q-126 0 -213.5 -87.5t-87.5 -209.5q0 -119 89 -210t210 -91z" />
    <glyph glyph-name="Ohorn" unicode="&#x1a0;" horiz-adv-x="1593" 
d="M1393 1271h-20l-20 1q136 -161 136 -426q0 -241 -100 -444t-273.5 -315t-390.5 -112q-269 0 -421 163.5t-152 455.5q0 241 100 440t276 311.5t394 112.5q196 0 336 -99q39 -12 122 -12q114 0 165.5 47.5t51.5 149.5l-3 54h86l3 -62q0 -123 -77.5 -194t-212.5 -71zM729 66
q191 0 338.5 95.5t233 278t85.5 400.5q0 241 -125.5 384.5t-340.5 143.5q-191 0 -343.5 -97.5t-237.5 -274.5t-85 -400q0 -252 125 -391t350 -139z" />
    <glyph glyph-name="ohorn" unicode="&#x1a1;" horiz-adv-x="1102" 
d="M1179 1266l3 -62q0 -123 -77.5 -194t-215.5 -71q90 -104 90 -284q0 -189 -71 -347.5t-193 -245.5t-275 -87q-167 0 -262.5 104.5t-95.5 291.5q0 177 68 334.5t193 250.5t280 93q79 0 142 -24q39 -10 114 -10q114 0 165.5 47.5t51.5 149.5l-3 54h86zM449 59
q117 0 217.5 76t158.5 210t58 300q0 158 -70.5 239t-200.5 81q-116 0 -217 -76t-159 -211.5t-58 -298.5q0 -151 72.5 -235.5t198.5 -84.5z" />
    <glyph glyph-name="Uhorn" unicode="&#x1af;" horiz-adv-x="1376" 
d="M358 1434h99l-164 -783q-31 -145 -31 -235q0 -350 348 -350q190 0 298.5 108t158.5 346l193 914h113q114 0 165.5 47.5t51.5 149.5l-3 54h86l3 -62q0 -123 -77.5 -194t-212.5 -71h-44l-171 -811q-67 -313 -200.5 -442.5t-378.5 -129.5q-202 0 -316 112t-114 312
q0 99 24 217z" />
    <glyph glyph-name="uhorn" unicode="&#x1b0;" horiz-adv-x="1163" 
d="M266 1024h92l-120 -588q-27 -135 -27 -170q0 -207 176 -207q83 0 188 76t179 187.5t98 224.5l102 477h82q108 0 157 48.5t49 148.5l-3 54h86l3 -62q0 -125 -79 -195t-218 -70l-142 -663q-34 -156 -45 -285h-92l49 291h-4q-195 -316 -428 -316q-254 0 -254 281
q0 39 30 195z" />
    <glyph glyph-name="hookabovecomb" unicode="&#x309;" horiz-adv-x="614" 
d="M394 1387q0 38 -30.5 59t-84.5 21q-44 0 -79 -5l13 66q37 6 75 6q96 0 145 -37.5t49 -103.5q0 -65 -43.5 -108t-130.5 -50l-11 -58h-73l24 117q146 0 146 93z" />
    <glyph glyph-name="dotbelowcomb" unicode="&#x323;" horiz-adv-x="614" 
d="M338 -292q-32 0 -55 22.5t-23 55.5t23 53t53 20q31 0 55.5 -19.5t24.5 -53.5q0 -32 -23 -55t-55 -23z" />
    <glyph glyph-name="gravecomb" unicode="&#x300;" horiz-adv-x="614" 
d="M281 1516h98l192 -328h-84z" />
    <glyph glyph-name="acutecomb" unicode="&#x301;" horiz-adv-x="614" 
d="M604 1516h111l-303 -328h-97z" />
    <glyph glyph-name="glyph584" horiz-adv-x="614" 
d="M485 1441h45l166 -253h-80l-119 174l-198 -174h-86zM835 1581h111l-231 -245h-97z" />
    <glyph glyph-name="glyph585" horiz-adv-x="614" 
d="M111 1581h98l144 -245h-84zM485 1441h45l166 -253h-80l-119 174l-198 -174h-86z" />
    <glyph glyph-name="glyph586" horiz-adv-x="614" 
d="M485 1441h45l166 -253h-80l-119 174l-198 -174h-86zM814 1530q0 32 -30.5 49t-84.5 17q-44 0 -79 -5l13 66q37 6 75 6q100 0 149.5 -34t49.5 -93q0 -131 -194 -142l-11 -58h-73l24 117q89 0 125 19.5t36 57.5z" />
    <glyph glyph-name="glyph587" horiz-adv-x="614" 
d="M485 1441h45l166 -253h-80l-119 174l-198 -174h-86zM208 1447q41 221 213 221q43 0 73 -20.5t56 -45t53 -45t63 -20.5q96 0 128 145h74q-48 -223 -213 -223q-45 0 -74.5 20.5t-55 45t-51.5 45t-63 20.5q-50 0 -82 -32.5t-49 -110.5h-72z" />
    <glyph glyph-name="glyph588" horiz-adv-x="614" 
d="M307 1423l-2 -34q0 -58 43 -91.5t115 -33.5q80 0 130 36t81 123h88q-73 -235 -303 -235q-109 0 -171.5 54t-62.5 153l2 28h80zM625 1631h111l-231 -245h-97z" />
    <glyph glyph-name="glyph589" horiz-adv-x="614" 
d="M307 1423l-2 -34q0 -58 43 -91.5t115 -33.5q80 0 130 36t81 123h88q-73 -235 -303 -235q-109 0 -171.5 54t-62.5 153l2 28h80zM311 1631h98l144 -245h-84z" />
    <glyph glyph-name="glyph590" horiz-adv-x="614" 
d="M589 1580q0 32 -30.5 49t-84.5 17q-44 0 -79 -5l13 66q37 6 75 6q100 0 149.5 -34t49.5 -93q0 -131 -194 -142l-11 -58h-73l24 117q89 0 125 19.5t36 57.5zM307 1423l-2 -34q0 -58 43 -91.5t115 -33.5q80 0 130 36t81 123h88q-73 -235 -303 -235q-109 0 -171.5 54
t-62.5 153l2 28h80z" />
    <glyph glyph-name="glyph591" horiz-adv-x="614" 
d="M307 1423l-2 -34q0 -58 43 -91.5t115 -33.5q80 0 130 36t81 123h88q-73 -235 -303 -235q-109 0 -171.5 54t-62.5 153l2 28h80zM203 1487q41 221 213 221q43 0 73 -20.5t56 -45t53 -45t63 -20.5q96 0 128 145h74q-48 -223 -213 -223q-45 0 -74.5 20.5t-55 45t-51.5 45
t-63 20.5q-50 0 -82 -32.5t-49 -110.5h-72z" />
    <glyph glyph-name="glyph592" horiz-adv-x="614" 
d="M574 1387q0 38 -30.5 59t-84.5 21q-44 0 -79 -5l13 66q37 6 75 6q96 0 145 -37.5t49 -103.5q0 -65 -43.5 -108t-130.5 -50l-11 -58h-73l24 117q146 0 146 93z" />
    <glyph glyph-name="glyph593" horiz-adv-x="614" 
d="M485 1441h45l166 -253h-80l-119 174l-198 -174h-86zM208 1447q41 221 213 221q43 0 73 -20.5t56 -45t53 -45t63 -20.5q96 0 128 145h74q-48 -223 -213 -223q-45 0 -74.5 20.5t-55 45t-51.5 45t-63 20.5q-50 0 -82 -32.5t-49 -110.5h-72z" />
    <glyph glyph-name="glyph594" horiz-adv-x="614" 
d="M307 1423l-2 -34q0 -58 43 -91.5t115 -33.5q80 0 130 36t81 123h88q-73 -235 -303 -235q-109 0 -171.5 54t-62.5 153l2 28h80zM625 1631h111l-231 -245h-97z" />
    <glyph glyph-name="glyph595" horiz-adv-x="614" 
d="M307 1423l-2 -34q0 -58 43 -91.5t115 -33.5q80 0 130 36t81 123h88q-73 -235 -303 -235q-109 0 -171.5 54t-62.5 153l2 28h80zM311 1631h98l144 -245h-84z" />
    <glyph glyph-name="glyph596" horiz-adv-x="614" 
d="M589 1580q0 32 -30.5 49t-84.5 17q-44 0 -79 -5l13 66q37 6 75 6q100 0 149.5 -34t49.5 -93q0 -131 -194 -142l-11 -58h-73l24 117q89 0 125 19.5t36 57.5zM307 1423l-2 -34q0 -58 43 -91.5t115 -33.5q80 0 130 36t81 123h88q-73 -235 -303 -235q-109 0 -171.5 54
t-62.5 153l2 28h80z" />
    <glyph glyph-name="glyph597" horiz-adv-x="614" 
d="M307 1423l-2 -34q0 -58 43 -91.5t115 -33.5q80 0 130 36t81 123h88q-73 -235 -303 -235q-109 0 -171.5 54t-62.5 153l2 28h80zM203 1487q41 221 213 221q43 0 73 -20.5t56 -45t53 -45t63 -20.5q96 0 128 145h74q-48 -223 -213 -223q-45 0 -74.5 20.5t-55 45t-51.5 45
t-63 20.5q-50 0 -82 -32.5t-49 -110.5h-72z" />
    <glyph glyph-name="glyph598" horiz-adv-x="614" 
d="M485 1441h45l166 -253h-80l-119 174l-198 -174h-86zM814 1530q0 32 -30.5 49t-84.5 17q-44 0 -79 -5l13 66q37 6 75 6q100 0 149.5 -34t49.5 -93q0 -131 -194 -142l-11 -58h-73l24 117q89 0 125 19.5t36 57.5z" />
    <glyph glyph-name="uni1EA0" unicode="&#x1ea0;" horiz-adv-x="1206" 
d="M748 1434h92l233 -1434h-100l-72 446h-616l-265 -446h-104zM889 537l-103 663q-8 52 -10 109h-4l-33 -66l-405 -706h555zM463 -292q-32 0 -55 22.5t-23 55.5t23 53t53 20q31 0 55.5 -19.5t24.5 -53.5q0 -32 -23 -55t-55 -23z" />
    <glyph glyph-name="uni1EA1" unicode="&#x1ea1;" horiz-adv-x="1071" 
d="M739 0q4 111 43 328h-4q-93 -172 -193 -262.5t-220 -90.5q-136 0 -209.5 95.5t-73.5 269.5q0 200 81 363t223.5 254.5t313.5 91.5q130 0 312 -37l-133 -645q-15 -76 -30 -189.5t-15 -177.5h-95zM905 942q-106 23 -213 23q-143 0 -261.5 -78t-185.5 -219t-67 -318
q0 -291 205 -291q81 0 174 79.5t173.5 220t113.5 288.5zM403 -292q-32 0 -55 22.5t-23 55.5t23 53t53 20q31 0 55.5 -19.5t24.5 -53.5q0 -32 -23 -55t-55 -23z" />
    <glyph glyph-name="uni1EA2" unicode="&#x1ea2;" horiz-adv-x="1206" 
d="M748 1434h92l233 -1434h-100l-72 446h-616l-265 -446h-104zM889 537l-103 663q-8 52 -10 109h-4l-33 -66l-405 -706h555zM918 1734q0 38 -30.5 59t-84.5 21q-44 0 -79 -5l13 66q37 6 75 6q96 0 145 -37.5t49 -103.5q0 -65 -43.5 -108t-130.5 -50l-11 -58h-73l24 117
q146 0 146 93z" />
    <glyph glyph-name="uni1EA3" unicode="&#x1ea3;" horiz-adv-x="1071" 
d="M739 0q4 111 43 328h-4q-93 -172 -193 -262.5t-220 -90.5q-136 0 -209.5 95.5t-73.5 269.5q0 200 81 363t223.5 254.5t313.5 91.5q130 0 312 -37l-133 -645q-15 -76 -30 -189.5t-15 -177.5h-95zM905 942q-106 23 -213 23q-143 0 -261.5 -78t-185.5 -219t-67 -318
q0 -291 205 -291q81 0 174 79.5t173.5 220t113.5 288.5zM818 1387q0 38 -30.5 59t-84.5 21q-44 0 -79 -5l13 66q37 6 75 6q96 0 145 -37.5t49 -103.5q0 -65 -43.5 -108t-130.5 -50l-11 -58h-73l24 117q146 0 146 93z" />
    <glyph glyph-name="uni1EA4" unicode="&#x1ea4;" horiz-adv-x="1206" 
d="M748 1434h92l233 -1434h-100l-72 446h-616l-265 -446h-104zM889 537l-103 663q-8 52 -10 109h-4l-33 -66l-405 -706h555zM825 1788h45l166 -253h-80l-119 174l-198 -174h-86zM1175 1928h111l-231 -245h-97z" />
    <glyph glyph-name="uni1EA5" unicode="&#x1ea5;" horiz-adv-x="1071" 
d="M739 0q4 111 43 328h-4q-93 -172 -193 -262.5t-220 -90.5q-136 0 -209.5 95.5t-73.5 269.5q0 200 81 363t223.5 254.5t313.5 91.5q130 0 312 -37l-133 -645q-15 -76 -30 -189.5t-15 -177.5h-95zM905 942q-106 23 -213 23q-143 0 -261.5 -78t-185.5 -219t-67 -318
q0 -291 205 -291q81 0 174 79.5t173.5 220t113.5 288.5zM739 1441h45l166 -253h-80l-119 174l-198 -174h-86zM1089 1581h111l-231 -245h-97z" />
    <glyph glyph-name="uni1EA6" unicode="&#x1ea6;" horiz-adv-x="1206" 
d="M748 1434h92l233 -1434h-100l-72 446h-616l-265 -446h-104zM889 537l-103 663q-8 52 -10 109h-4l-33 -66l-405 -706h555zM451 1928h98l144 -245h-84zM825 1788h45l166 -253h-80l-119 174l-198 -174h-86z" />
    <glyph glyph-name="uni1EA7" unicode="&#x1ea7;" horiz-adv-x="1071" 
d="M739 0q4 111 43 328h-4q-93 -172 -193 -262.5t-220 -90.5q-136 0 -209.5 95.5t-73.5 269.5q0 200 81 363t223.5 254.5t313.5 91.5q130 0 312 -37l-133 -645q-15 -76 -30 -189.5t-15 -177.5h-95zM905 942q-106 23 -213 23q-143 0 -261.5 -78t-185.5 -219t-67 -318
q0 -291 205 -291q81 0 174 79.5t173.5 220t113.5 288.5zM365 1581h98l144 -245h-84zM739 1441h45l166 -253h-80l-119 174l-198 -174h-86z" />
    <glyph glyph-name="uni1EA8" unicode="&#x1ea8;" horiz-adv-x="1206" 
d="M748 1434h92l233 -1434h-100l-72 446h-616l-265 -446h-104zM889 537l-103 663q-8 52 -10 109h-4l-33 -66l-405 -706h555zM825 1788h45l166 -253h-80l-119 174l-198 -174h-86zM1154 1877q0 32 -30.5 49t-84.5 17q-44 0 -79 -5l13 66q37 6 75 6q100 0 149.5 -34t49.5 -93
q0 -131 -194 -142l-11 -58h-73l24 117q89 0 125 19.5t36 57.5z" />
    <glyph glyph-name="uni1EA9" unicode="&#x1ea9;" horiz-adv-x="1071" 
d="M739 0q4 111 43 328h-4q-93 -172 -193 -262.5t-220 -90.5q-136 0 -209.5 95.5t-73.5 269.5q0 200 81 363t223.5 254.5t313.5 91.5q130 0 312 -37l-133 -645q-15 -76 -30 -189.5t-15 -177.5h-95zM905 942q-106 23 -213 23q-143 0 -261.5 -78t-185.5 -219t-67 -318
q0 -291 205 -291q81 0 174 79.5t173.5 220t113.5 288.5zM739 1441h45l166 -253h-80l-119 174l-198 -174h-86zM1068 1530q0 32 -30.5 49t-84.5 17q-44 0 -79 -5l13 66q37 6 75 6q100 0 149.5 -34t49.5 -93q0 -131 -194 -142l-11 -58h-73l24 117q89 0 125 19.5t36 57.5z" />
    <glyph glyph-name="uni1EAA" unicode="&#x1eaa;" horiz-adv-x="1206" 
d="M748 1434h92l233 -1434h-100l-72 446h-616l-265 -446h-104zM889 537l-103 663q-8 52 -10 109h-4l-33 -66l-405 -706h555zM825 1788h45l166 -253h-80l-119 174l-198 -174h-86zM548 1794q41 221 213 221q43 0 73 -20.5t56 -45t53 -45t63 -20.5q96 0 128 145h74
q-48 -223 -213 -223q-45 0 -74.5 20.5t-55 45t-51.5 45t-63 20.5q-50 0 -82 -32.5t-49 -110.5h-72z" />
    <glyph glyph-name="uni1EAB" unicode="&#x1eab;" horiz-adv-x="1071" 
d="M739 0q4 111 43 328h-4q-93 -172 -193 -262.5t-220 -90.5q-136 0 -209.5 95.5t-73.5 269.5q0 200 81 363t223.5 254.5t313.5 91.5q130 0 312 -37l-133 -645q-15 -76 -30 -189.5t-15 -177.5h-95zM905 942q-106 23 -213 23q-143 0 -261.5 -78t-185.5 -219t-67 -318
q0 -291 205 -291q81 0 174 79.5t173.5 220t113.5 288.5zM739 1441h45l166 -253h-80l-119 174l-198 -174h-86zM462 1447q41 221 213 221q43 0 73 -20.5t56 -45t53 -45t63 -20.5q96 0 128 145h74q-48 -223 -213 -223q-45 0 -74.5 20.5t-55 45t-51.5 45t-63 20.5
q-50 0 -82 -32.5t-49 -110.5h-72z" />
    <glyph glyph-name="uni1EAC" unicode="&#x1eac;" horiz-adv-x="1206" 
d="M748 1434h92l233 -1434h-100l-72 446h-616l-265 -446h-104zM889 537l-103 663q-8 52 -10 109h-4l-33 -66l-405 -706h555zM834 1871h45l157 -336h-80l-112 246l-205 -246h-86zM463 -292q-32 0 -55 22.5t-23 55.5t23 53t53 20q31 0 55.5 -19.5t24.5 -53.5q0 -32 -23 -55
t-55 -23z" />
    <glyph glyph-name="uni1EAD" unicode="&#x1ead;" horiz-adv-x="1071" 
d="M739 0q4 111 43 328h-4q-93 -172 -193 -262.5t-220 -90.5q-136 0 -209.5 95.5t-73.5 269.5q0 200 81 363t223.5 254.5t313.5 91.5q130 0 312 -37l-133 -645q-15 -76 -30 -189.5t-15 -177.5h-95zM905 942q-106 23 -213 23q-143 0 -261.5 -78t-185.5 -219t-67 -318
q0 -291 205 -291q81 0 174 79.5t173.5 220t113.5 288.5zM748 1524h45l157 -336h-80l-112 246l-205 -246h-86zM403 -292q-32 0 -55 22.5t-23 55.5t23 53t53 20q31 0 55.5 -19.5t24.5 -53.5q0 -32 -23 -55t-55 -23z" />
    <glyph glyph-name="uni1EAE" unicode="&#x1eae;" horiz-adv-x="1206" 
d="M748 1434h92l233 -1434h-100l-72 446h-616l-265 -446h-104zM889 537l-103 663q-8 52 -10 109h-4l-33 -66l-405 -706h555zM653 1770l-2 -34q0 -58 43 -91.5t115 -33.5q80 0 130 36t81 123h88q-73 -235 -303 -235q-109 0 -171.5 54t-62.5 153l2 28h80zM971 1978h111
l-231 -245h-97z" />
    <glyph glyph-name="uni1EAF" unicode="&#x1eaf;" horiz-adv-x="1071" 
d="M739 0q4 111 43 328h-4q-93 -172 -193 -262.5t-220 -90.5q-136 0 -209.5 95.5t-73.5 269.5q0 200 81 363t223.5 254.5t313.5 91.5q130 0 312 -37l-133 -645q-15 -76 -30 -189.5t-15 -177.5h-95zM905 942q-106 23 -213 23q-143 0 -261.5 -78t-185.5 -219t-67 -318
q0 -291 205 -291q81 0 174 79.5t173.5 220t113.5 288.5zM575 1423l-2 -34q0 -58 43 -91.5t115 -33.5q80 0 130 36t81 123h88q-73 -235 -303 -235q-109 0 -171.5 54t-62.5 153l2 28h80zM893 1631h111l-231 -245h-97z" />
    <glyph glyph-name="uni1EB0" unicode="&#x1eb0;" horiz-adv-x="1206" 
d="M748 1434h92l233 -1434h-100l-72 446h-616l-265 -446h-104zM889 537l-103 663q-8 52 -10 109h-4l-33 -66l-405 -706h555zM653 1770l-2 -34q0 -58 43 -91.5t115 -33.5q80 0 130 36t81 123h88q-73 -235 -303 -235q-109 0 -171.5 54t-62.5 153l2 28h80zM657 1978h98
l144 -245h-84z" />
    <glyph glyph-name="uni1EB1" unicode="&#x1eb1;" horiz-adv-x="1071" 
d="M739 0q4 111 43 328h-4q-93 -172 -193 -262.5t-220 -90.5q-136 0 -209.5 95.5t-73.5 269.5q0 200 81 363t223.5 254.5t313.5 91.5q130 0 312 -37l-133 -645q-15 -76 -30 -189.5t-15 -177.5h-95zM905 942q-106 23 -213 23q-143 0 -261.5 -78t-185.5 -219t-67 -318
q0 -291 205 -291q81 0 174 79.5t173.5 220t113.5 288.5zM575 1423l-2 -34q0 -58 43 -91.5t115 -33.5q80 0 130 36t81 123h88q-73 -235 -303 -235q-109 0 -171.5 54t-62.5 153l2 28h80zM579 1631h98l144 -245h-84z" />
    <glyph glyph-name="uni1EB2" unicode="&#x1eb2;" horiz-adv-x="1206" 
d="M748 1434h92l233 -1434h-100l-72 446h-616l-265 -446h-104zM889 537l-103 663q-8 52 -10 109h-4l-33 -66l-405 -706h555zM935 1927q0 32 -30.5 49t-84.5 17q-44 0 -79 -5l13 66q37 6 75 6q100 0 149.5 -34t49.5 -93q0 -131 -194 -142l-11 -58h-73l24 117q89 0 125 19.5
t36 57.5zM653 1770l-2 -34q0 -58 43 -91.5t115 -33.5q80 0 130 36t81 123h88q-73 -235 -303 -235q-109 0 -171.5 54t-62.5 153l2 28h80z" />
    <glyph glyph-name="uni1EB3" unicode="&#x1eb3;" horiz-adv-x="1071" 
d="M739 0q4 111 43 328h-4q-93 -172 -193 -262.5t-220 -90.5q-136 0 -209.5 95.5t-73.5 269.5q0 200 81 363t223.5 254.5t313.5 91.5q130 0 312 -37l-133 -645q-15 -76 -30 -189.5t-15 -177.5h-95zM905 942q-106 23 -213 23q-143 0 -261.5 -78t-185.5 -219t-67 -318
q0 -291 205 -291q81 0 174 79.5t173.5 220t113.5 288.5zM857 1580q0 32 -30.5 49t-84.5 17q-44 0 -79 -5l13 66q37 6 75 6q100 0 149.5 -34t49.5 -93q0 -131 -194 -142l-11 -58h-73l24 117q89 0 125 19.5t36 57.5zM575 1423l-2 -34q0 -58 43 -91.5t115 -33.5q80 0 130 36
t81 123h88q-73 -235 -303 -235q-109 0 -171.5 54t-62.5 153l2 28h80z" />
    <glyph glyph-name="uni1EB4" unicode="&#x1eb4;" horiz-adv-x="1206" 
d="M748 1434h92l233 -1434h-100l-72 446h-616l-265 -446h-104zM889 537l-103 663q-8 52 -10 109h-4l-33 -66l-405 -706h555zM653 1770l-2 -34q0 -58 43 -91.5t115 -33.5q80 0 130 36t81 123h88q-73 -235 -303 -235q-109 0 -171.5 54t-62.5 153l2 28h80zM549 1834
q41 221 213 221q43 0 73 -20.5t56 -45t53 -45t63 -20.5q96 0 128 145h74q-48 -223 -213 -223q-45 0 -74.5 20.5t-55 45t-51.5 45t-63 20.5q-50 0 -82 -32.5t-49 -110.5h-72z" />
    <glyph glyph-name="uni1EB5" unicode="&#x1eb5;" horiz-adv-x="1071" 
d="M739 0q4 111 43 328h-4q-93 -172 -193 -262.5t-220 -90.5q-136 0 -209.5 95.5t-73.5 269.5q0 200 81 363t223.5 254.5t313.5 91.5q130 0 312 -37l-133 -645q-15 -76 -30 -189.5t-15 -177.5h-95zM905 942q-106 23 -213 23q-143 0 -261.5 -78t-185.5 -219t-67 -318
q0 -291 205 -291q81 0 174 79.5t173.5 220t113.5 288.5zM575 1423l-2 -34q0 -58 43 -91.5t115 -33.5q80 0 130 36t81 123h88q-73 -235 -303 -235q-109 0 -171.5 54t-62.5 153l2 28h80zM471 1487q41 221 213 221q43 0 73 -20.5t56 -45t53 -45t63 -20.5q96 0 128 145h74
q-48 -223 -213 -223q-45 0 -74.5 20.5t-55 45t-51.5 45t-63 20.5q-50 0 -82 -32.5t-49 -110.5h-72z" />
    <glyph glyph-name="uni1EB6" unicode="&#x1eb6;" horiz-adv-x="1206" 
d="M748 1434h92l233 -1434h-100l-72 446h-616l-265 -446h-104zM889 537l-103 663q-8 52 -10 109h-4l-33 -66l-405 -706h555zM653 1770l-2 -20q0 -69 43 -104t115 -35q80 0 130 36t81 123h88q-73 -235 -303 -235q-109 0 -171.5 54t-62.5 153l2 28h80zM463 -292
q-32 0 -55 22.5t-23 55.5t23 53t53 20q31 0 55.5 -19.5t24.5 -53.5q0 -32 -23 -55t-55 -23z" />
    <glyph glyph-name="uni1EB7" unicode="&#x1eb7;" horiz-adv-x="1071" 
d="M739 0q4 111 43 328h-4q-93 -172 -193 -262.5t-220 -90.5q-136 0 -209.5 95.5t-73.5 269.5q0 200 81 363t223.5 254.5t313.5 91.5q130 0 312 -37l-133 -645q-15 -76 -30 -189.5t-15 -177.5h-95zM905 942q-106 23 -213 23q-143 0 -261.5 -78t-185.5 -219t-67 -318
q0 -291 205 -291q81 0 174 79.5t173.5 220t113.5 288.5zM575 1423l-2 -20q0 -69 43 -104t115 -35q80 0 130 36t81 123h88q-73 -235 -303 -235q-109 0 -171.5 54t-62.5 153l2 28h80zM403 -292q-32 0 -55 22.5t-23 55.5t23 53t53 20q31 0 55.5 -19.5t24.5 -53.5q0 -32 -23 -55
t-55 -23z" />
    <glyph glyph-name="uni1EB8" unicode="&#x1eb8;" horiz-adv-x="989" 
d="M379 1434h670l-19 -91h-571l-123 -575h530l-18 -90h-531l-124 -588h604l-19 -90h-702zM394 -292q-32 0 -55 22.5t-23 55.5t23 53t53 20q31 0 55.5 -19.5t24.5 -53.5q0 -32 -23 -55t-55 -23z" />
    <glyph glyph-name="uni1EB9" unicode="&#x1eb9;" horiz-adv-x="956" 
d="M178 395q0 -157 80.5 -246.5t226.5 -89.5q128 0 281 84l-18 -96q-132 -72 -277 -72q-185 0 -287 112.5t-102 315.5q0 178 74.5 326.5t200 234t266.5 85.5q131 0 211.5 -66t80.5 -180q0 -176 -173.5 -258t-561.5 -88zM193 541q320 0 473 59t153 193q0 172 -211 172
q-149 0 -263.5 -118.5t-151.5 -305.5zM408 -292q-32 0 -55 22.5t-23 55.5t23 53t53 20q31 0 55.5 -19.5t24.5 -53.5q0 -32 -23 -55t-55 -23z" />
    <glyph glyph-name="uni1EBA" unicode="&#x1eba;" horiz-adv-x="989" 
d="M379 1434h670l-19 -91h-571l-123 -575h530l-18 -90h-531l-124 -588h604l-19 -90h-702zM824 1734q0 38 -30.5 59t-84.5 21q-44 0 -79 -5l13 66q37 6 75 6q96 0 145 -37.5t49 -103.5q0 -65 -43.5 -108t-130.5 -50l-11 -58h-73l24 117q146 0 146 93z" />
    <glyph glyph-name="uni1EBB" unicode="&#x1ebb;" horiz-adv-x="956" 
d="M178 395q0 -157 80.5 -246.5t226.5 -89.5q128 0 281 84l-18 -96q-132 -72 -277 -72q-185 0 -287 112.5t-102 315.5q0 178 74.5 326.5t200 234t266.5 85.5q131 0 211.5 -66t80.5 -180q0 -176 -173.5 -258t-561.5 -88zM193 541q320 0 473 59t153 193q0 172 -211 172
q-149 0 -263.5 -118.5t-151.5 -305.5zM751 1387q0 38 -30.5 59t-84.5 21q-44 0 -79 -5l13 66q37 6 75 6q96 0 145 -37.5t49 -103.5q0 -65 -43.5 -108t-130.5 -50l-11 -58h-73l24 117q146 0 146 93z" />
    <glyph glyph-name="uni1EBC" unicode="&#x1ebc;" horiz-adv-x="989" 
d="M379 1434h670l-19 -91h-571l-123 -575h530l-18 -90h-531l-124 -588h604l-19 -90h-702zM427 1535q41 221 213 221q43 0 73 -20.5t56 -45t53 -45t63 -20.5q96 0 128 145h74q-48 -223 -213 -223q-45 0 -74.5 20.5t-55 45t-51.5 45t-63 20.5q-50 0 -82 -32.5t-49 -110.5h-72z
" />
    <glyph glyph-name="uni1EBD" unicode="&#x1ebd;" horiz-adv-x="956" 
d="M178 395q0 -157 80.5 -246.5t226.5 -89.5q128 0 281 84l-18 -96q-132 -72 -277 -72q-185 0 -287 112.5t-102 315.5q0 178 74.5 326.5t200 234t266.5 85.5q131 0 211.5 -66t80.5 -180q0 -176 -173.5 -258t-561.5 -88zM193 541q320 0 473 59t153 193q0 172 -211 172
q-149 0 -263.5 -118.5t-151.5 -305.5zM323 1188q41 221 213 221q43 0 73 -20.5t56 -45t53 -45t63 -20.5q96 0 128 145h74q-48 -223 -213 -223q-45 0 -74.5 20.5t-55 45t-51.5 45t-63 20.5q-50 0 -82 -32.5t-49 -110.5h-72z" />
    <glyph glyph-name="uni1EBE" unicode="&#x1ebe;" horiz-adv-x="989" 
d="M379 1434h670l-19 -91h-571l-123 -575h530l-18 -90h-531l-124 -588h604l-19 -90h-702zM765 1788h45l166 -253h-80l-119 174l-198 -174h-86zM1115 1928h111l-231 -245h-97z" />
    <glyph glyph-name="uni1EBF" unicode="&#x1ebf;" horiz-adv-x="956" 
d="M178 395q0 -157 80.5 -246.5t226.5 -89.5q128 0 281 84l-18 -96q-132 -72 -277 -72q-185 0 -287 112.5t-102 315.5q0 178 74.5 326.5t200 234t266.5 85.5q131 0 211.5 -66t80.5 -180q0 -176 -173.5 -258t-561.5 -88zM193 541q320 0 473 59t153 193q0 172 -211 172
q-149 0 -263.5 -118.5t-151.5 -305.5zM661 1441h45l166 -253h-80l-119 174l-198 -174h-86zM1011 1581h111l-231 -245h-97z" />
    <glyph glyph-name="uni1EC0" unicode="&#x1ec0;" horiz-adv-x="989" 
d="M379 1434h670l-19 -91h-571l-123 -575h530l-18 -90h-531l-124 -588h604l-19 -90h-702zM391 1928h98l144 -245h-84zM765 1788h45l166 -253h-80l-119 174l-198 -174h-86z" />
    <glyph glyph-name="uni1EC1" unicode="&#x1ec1;" horiz-adv-x="956" 
d="M178 395q0 -157 80.5 -246.5t226.5 -89.5q128 0 281 84l-18 -96q-132 -72 -277 -72q-185 0 -287 112.5t-102 315.5q0 178 74.5 326.5t200 234t266.5 85.5q131 0 211.5 -66t80.5 -180q0 -176 -173.5 -258t-561.5 -88zM193 541q320 0 473 59t153 193q0 172 -211 172
q-149 0 -263.5 -118.5t-151.5 -305.5zM287 1581h98l144 -245h-84zM661 1441h45l166 -253h-80l-119 174l-198 -174h-86z" />
    <glyph glyph-name="uni1EC2" unicode="&#x1ec2;" horiz-adv-x="989" 
d="M379 1434h670l-19 -91h-571l-123 -575h530l-18 -90h-531l-124 -588h604l-19 -90h-702zM765 1788h45l166 -253h-80l-119 174l-198 -174h-86zM1094 1877q0 32 -30.5 49t-84.5 17q-44 0 -79 -5l13 66q37 6 75 6q100 0 149.5 -34t49.5 -93q0 -131 -194 -142l-11 -58h-73
l24 117q89 0 125 19.5t36 57.5z" />
    <glyph glyph-name="uni1EC3" unicode="&#x1ec3;" horiz-adv-x="956" 
d="M178 395q0 -157 80.5 -246.5t226.5 -89.5q128 0 281 84l-18 -96q-132 -72 -277 -72q-185 0 -287 112.5t-102 315.5q0 178 74.5 326.5t200 234t266.5 85.5q131 0 211.5 -66t80.5 -180q0 -176 -173.5 -258t-561.5 -88zM193 541q320 0 473 59t153 193q0 172 -211 172
q-149 0 -263.5 -118.5t-151.5 -305.5zM661 1441h45l166 -253h-80l-119 174l-198 -174h-86zM990 1530q0 32 -30.5 49t-84.5 17q-44 0 -79 -5l13 66q37 6 75 6q100 0 149.5 -34t49.5 -93q0 -131 -194 -142l-11 -58h-73l24 117q89 0 125 19.5t36 57.5z" />
    <glyph glyph-name="uni1EC4" unicode="&#x1ec4;" horiz-adv-x="989" 
d="M379 1434h670l-19 -91h-571l-123 -575h530l-18 -90h-531l-124 -588h604l-19 -90h-702zM750 1788h45l166 -253h-80l-119 174l-198 -174h-86zM473 1794q41 221 213 221q43 0 73 -20.5t56 -45t53 -45t63 -20.5q96 0 128 145h74q-48 -223 -213 -223q-45 0 -74.5 20.5t-55 45
t-51.5 45t-63 20.5q-50 0 -82 -32.5t-49 -110.5h-72z" />
    <glyph glyph-name="uni1EC5" unicode="&#x1ec5;" horiz-adv-x="956" 
d="M178 395q0 -157 80.5 -246.5t226.5 -89.5q128 0 281 84l-18 -96q-132 -72 -277 -72q-185 0 -287 112.5t-102 315.5q0 178 74.5 326.5t200 234t266.5 85.5q131 0 211.5 -66t80.5 -180q0 -176 -173.5 -258t-561.5 -88zM193 541q320 0 473 59t153 193q0 172 -211 172
q-149 0 -263.5 -118.5t-151.5 -305.5zM661 1441h45l166 -253h-80l-119 174l-198 -174h-86zM384 1447q41 221 213 221q43 0 73 -20.5t56 -45t53 -45t63 -20.5q96 0 128 145h74q-48 -223 -213 -223q-45 0 -74.5 20.5t-55 45t-51.5 45t-63 20.5q-50 0 -82 -32.5t-49 -110.5h-72
z" />
    <glyph glyph-name="uni1EC6" unicode="&#x1ec6;" horiz-adv-x="989" 
d="M379 1434h670l-19 -91h-571l-123 -575h530l-18 -90h-531l-124 -588h604l-19 -90h-702zM774 1871h45l157 -336h-80l-112 246l-205 -246h-86zM394 -292q-32 0 -55 22.5t-23 55.5t23 53t53 20q31 0 55.5 -19.5t24.5 -53.5q0 -32 -23 -55t-55 -23z" />
    <glyph glyph-name="uni1EC7" unicode="&#x1ec7;" horiz-adv-x="956" 
d="M178 395q0 -157 80.5 -246.5t226.5 -89.5q128 0 281 84l-18 -96q-132 -72 -277 -72q-185 0 -287 112.5t-102 315.5q0 178 74.5 326.5t200 234t266.5 85.5q131 0 211.5 -66t80.5 -180q0 -176 -173.5 -258t-561.5 -88zM193 541q320 0 473 59t153 193q0 172 -211 172
q-149 0 -263.5 -118.5t-151.5 -305.5zM670 1524h45l157 -336h-80l-112 246l-205 -246h-86zM408 -292q-32 0 -55 22.5t-23 55.5t23 53t53 20q31 0 55.5 -19.5t24.5 -53.5q0 -32 -23 -55t-55 -23z" />
    <glyph glyph-name="uni1EC8" unicode="&#x1ec8;" horiz-adv-x="467" 
d="M379 1434h98l-303 -1434h-98zM568 1734q0 38 -30.5 59t-84.5 21q-44 0 -79 -5l13 66q37 6 75 6q96 0 145 -37.5t49 -103.5q0 -65 -43.5 -108t-130.5 -50l-11 -58h-73l24 117q146 0 146 93z" />
    <glyph glyph-name="uni1EC9" unicode="&#x1ec9;" horiz-adv-x="428" 
d="M264 1024h93l-154 -727q-24 -120 -24 -174q0 -60 62 -60q43 0 85 17l-17 -77q-49 -23 -98 -23q-127 0 -127 136q0 52 26 185zM467 1387q0 38 -30.5 59t-84.5 21q-44 0 -79 -5l13 66q37 6 75 6q96 0 145 -37.5t49 -103.5q0 -65 -43.5 -108t-130.5 -50l-11 -58h-73l24 117
q146 0 146 93z" />
    <glyph glyph-name="uni1ECA" unicode="&#x1eca;" horiz-adv-x="467" 
d="M379 1434h98l-303 -1434h-98zM82 -292q-32 0 -55 22.5t-23 55.5t23 53t53 20q31 0 55.5 -19.5t24.5 -53.5q0 -32 -23 -55t-55 -23z" />
    <glyph glyph-name="uni1ECB" unicode="&#x1ecb;" horiz-adv-x="428" 
d="M264 1024h93l-154 -727q-24 -120 -24 -174q0 -60 62 -60q43 0 85 17l-17 -77q-49 -23 -98 -23q-127 0 -127 136q0 47 8.5 94t171.5 814zM381 1282q-31 0 -53.5 22t-22.5 56q0 32 23 53t53 21q31 0 54.5 -20t23.5 -54q0 -32 -23 -55t-55 -23zM155 -292q-32 0 -55 22.5
t-23 55.5t23 53t53 20q31 0 55.5 -19.5t24.5 -53.5q0 -32 -23 -55t-55 -23z" />
    <glyph glyph-name="uni1ECC" unicode="&#x1ecc;" horiz-adv-x="1544" 
d="M725 -25q-268 0 -420.5 167.5t-152.5 451.5q0 240 100 439t276 312t394 113q257 0 412 -169.5t155 -442.5q0 -242 -96.5 -444t-271 -314.5t-396.5 -112.5zM729 66q195 0 342 96t231 276t84 402q0 241 -125.5 384.5t-340.5 143.5q-192 0 -344.5 -97.5t-237 -274
t-84.5 -400.5q0 -246 125 -388t350 -142zM682 -292q-32 0 -55 22.5t-23 55.5t23 53t53 20q31 0 55.5 -19.5t24.5 -53.5q0 -32 -23 -55t-55 -23z" />
    <glyph glyph-name="uni1ECD" unicode="&#x1ecd;" horiz-adv-x="1061" 
d="M440 -25q-168 0 -263 105t-95 291t72.5 344t196.5 246t272 88q170 0 263 -106t93 -288q0 -189 -70 -346t-194 -245.5t-275 -88.5zM449 59q118 0 218 75.5t158 211t58 299.5q0 157 -71 238.5t-200 81.5q-116 0 -217 -76t-159 -211.5t-58 -298.5q0 -151 72.5 -235.5
t198.5 -84.5zM410 -292q-32 0 -55 22.5t-23 55.5t23 53t53 20q31 0 55.5 -19.5t24.5 -53.5q0 -32 -23 -55t-55 -23z" />
    </font>
</defs>
</svg>
