<?xml version="1.0" encoding="UTF-8" standalone="no"?>
<!DOCTYPE svg PUBLIC "-//W3C//DTD SVG 1.1//EN" "http://www.w3.org/Graphics/SVG/1.1/DTD/svg11.dtd">
<svg xmlns="http://www.w3.org/2000/svg" width="100%" height="100%">
<metadata>
Created by FontXChange 20110222 at Fri Jul 27 17:13:19 2012
 By Ted Hoot
(c) 2009 Microsoft Corporation. All Rights Reserved.
</metadata>
<defs>
<font id="SegoeUI-Light" horiz-adv-x="0">
  <font-face font-family="Segoe UI Light" font-weight="300" font-stretch="normal" units-per-em="2048" panose-1="2 11 5 2 4 2 4 2 2 3" ascent="1638" descent="-410" x-height="1024" cap-height="1434" bbox="-890 -550 2677 2138" underline-thickness="119" underline-position="-119" unicode-range="U+000D-FE23"/>
<missing-glyph horiz-adv-x="1322" d="M166 0v1398h990v-1398h-990zM314 148h694v1102h-694v-1102z"/>
    <glyph glyph-name=".notdef" horiz-adv-x="1322" d="M166 0v1398h990v-1398h-990zM314 148h694v1102h-694v-1102z"/>
    <glyph glyph-name="uni000D" unicode=""/>
    <glyph glyph-name="nonmarkingreturn" horiz-adv-x="199"/>
    <glyph glyph-name="space" unicode=" " horiz-adv-x="561"/>
    <glyph glyph-name="exclam" unicode="!" horiz-adv-x="582" d="M332 403h-86l-10 1031h106zM291 -18q-34 0 -57 23.5t-23 57.5q0 35 23 57.5t57 22.5t58 -22.5t24 -57.5q0 -34 -24 -57.5t-58 -23.5z"/>
    <glyph glyph-name="quotedbl" unicode="&quot;" horiz-adv-x="686" d="M506 985h-76l-10 449h96zM258 985h-76l-10 449h96z"/>
    <glyph glyph-name="numbersign" unicode="#" horiz-adv-x="1237" d="M1128 946h-272l-76 -346h285l-18 -78h-283l-86 -399h-80l86 399h-268l-86 -399h-80l86 399h-283l19 78h280l76 346h-293l19 78h290l88 410h80l-88 -410h269l88 410h80l-89 -410h275zM508 946l-76 -346h268l76 346h-268z"/>
    <glyph glyph-name="dollar" unicode="$" horiz-adv-x="1055" d="M567 4v-213h-78v209q-188 0 -327 80v102q152 -98 327 -98v598q-197 113 -262 194.5t-65 194.5q0 136 88 237t239 124v182h78v-180q152 0 260 -43v-103q-103 60 -260 60v-607q184 -101 255 -185.5t71 -199.5q0 -140 -85.5 -235t-240.5 -117zM489 1346q-107 -17 -169 -88 t-62 -175q0 -88 46 -152.5t185 -144.5v560zM567 635v-549q114 20 172 87.5t58 164.5q0 92 -48.5 156t-181.5 141z"/>
    <glyph glyph-name="percent" unicode="%" horiz-adv-x="1606" d="M414 729q-154 0 -243 101t-89 262q0 175 94.5 272.5t247.5 97.5q150 0 238 -97t88 -271q0 -156 -91.5 -260.5t-244.5 -104.5zM422 1380q-115 0 -181.5 -76.5t-66.5 -213.5q0 -129 64.5 -205t177.5 -76q114 0 178.5 78t64.5 209q0 141 -64 212.5t-173 71.5zM416 -33h-99 l863 1465h96zM1198 -25q-153 0 -242.5 101t-89.5 262q0 177 96 274t246 97t238 -98t88 -271q0 -156 -91.5 -260.5t-244.5 -104.5zM1206 627q-114 0 -181 -78t-67 -213q0 -129 64.5 -205t177.5 -76q115 0 179.5 77.5t64.5 209.5q0 141 -64 213t-174 72z"/>
    <glyph glyph-name="ampersand" unicode="&amp;" horiz-adv-x="1427" d="M1260 0l-193 188q-201 -213 -479 -213q-211 0 -329 108.5t-118 276.5q0 276 332 424q-162 187 -162 342q0 139 98.5 235.5t254.5 96.5q143 0 225 -81.5t82 -207.5q0 -137 -83 -233.5t-261 -177.5q150 -159 440 -434q125 186 133 434h96q-7 -267 -166 -498 q171 -168 273 -262zM563 823q174 77 242.5 154t68.5 180q0 99 -63 158t-156 59q-113 0 -180 -72.5t-67 -177.5q0 -128 155 -301zM1006 250q-332 321 -469 469q-299 -130 -299 -352q0 -135 95.5 -221.5t262.5 -86.5q229 0 410 191z"/>
    <glyph glyph-name="quotesingle" unicode="'" horiz-adv-x="438" d="M258 985h-76l-10 449h96z"/>
    <glyph glyph-name="parenleft" unicode="(" horiz-adv-x="578" d="M453 -326q-303 354 -303 871q0 540 307 889h98q-313 -360 -313 -887q0 -497 309 -873h-98z"/>
    <glyph glyph-name="parenright" unicode=")" horiz-adv-x="578" d="M125 -326h-98q309 376 309 873q0 527 -313 887h98q307 -351 307 -889q0 -519 -303 -871z"/>
    <glyph glyph-name="asterisk" unicode="*" horiz-adv-x="831" d="M469 1051l199 -267l-76 -51l-174 277l-178 -277l-74 51l199 267l-295 75l26 86l289 -102l-16 324h94l-14 -324l286 102l27 -86z"/>
    <glyph glyph-name="plus" unicode="+" horiz-adv-x="1331" d="M709 555v-412h-84v412h-412v84h412v412h84v-412h411v-84h-411z"/>
    <glyph glyph-name="comma" unicode="," horiz-adv-x="455" d="M125 -248h-78l150 475h102z"/>
    <glyph glyph-name="hyphen" unicode="-" horiz-adv-x="815" d="M145 555v90h547v-90h-547z"/>
    <glyph glyph-name="period" unicode="." horiz-adv-x="455" d="M227 -18q-34 0 -57 23.5t-23 57.5q0 35 23 57.5t57 22.5t58 -22.5t24 -57.5q0 -34 -24 -57.5t-58 -23.5z"/>
    <glyph glyph-name="slash" unicode="/" horiz-adv-x="750" d="M63 -238h-92l693 1672h96z"/>
    <glyph glyph-name="zero" unicode="0" horiz-adv-x="1055" d="M516 -25q-198 0 -310 182t-112 529q0 383 117.5 577.5t335.5 194.5q414 0 414 -735q0 -366 -117 -557t-328 -191zM539 1374q-165 0 -257 -169t-92 -507q0 -308 88 -473.5t250 -165.5q159 0 247.5 168.5t88.5 481.5q0 665 -325 665z"/>
    <glyph glyph-name="one" unicode="1" horiz-adv-x="1055" d="M170 0v84h328v1280l-351 -125v92l443 154v-1401h323v-84h-743z"/>
    <glyph glyph-name="two" unicode="2" horiz-adv-x="1055" d="M82 0v98l391 416q209 223 274.5 329t65.5 236q0 140 -78 217.5t-221 77.5q-190 0 -358 -149v108q164 125 370 125q184 0 283.5 -99t99.5 -265q0 -148 -71 -268t-303 -367l-351 -371v-4h717v-84h-819z"/>
    <glyph glyph-name="three" unicode="3" horiz-adv-x="1055" d="M115 51v105q164 -97 309 -97q173 0 271 88.5t98 231.5q0 159 -112.5 241t-320.5 82h-110v84h98q192 0 292.5 81.5t100.5 230.5q0 129 -73 202.5t-213 73.5q-135 0 -283 -94v98q162 80 297 80q170 0 269.5 -92t99.5 -244q0 -291 -279 -370v-4q150 -15 240 -111.5 t90 -243.5q0 -188 -130 -303t-337 -115q-160 0 -307 76z"/>
    <glyph glyph-name="four" unicode="4" horiz-adv-x="1055" d="M782 406v-406h-92v406h-661v77l661 951h92v-945h191v-83h-191zM690 1169q0 81 4 129h-4q-27 -50 -51 -86l-502 -723h553v680z"/>
    <glyph glyph-name="five" unicode="5" horiz-adv-x="1055" d="M156 29v106q138 -76 274 -76q177 0 276 97t99 258q0 350 -399 350q-90 0 -211 -12v682h645v-84h-553v-510q108 8 153 8q227 0 344 -111.5t117 -310.5q0 -201 -124 -326t-355 -125q-155 0 -266 54z"/>
    <glyph glyph-name="six" unicode="6" horiz-adv-x="1055" d="M889 1423v-98q-103 49 -211 49q-212 0 -336.5 -200.5t-124.5 -524.5h4q105 248 359 248q176 0 283.5 -126.5t107.5 -315.5q0 -211 -120.5 -345.5t-307.5 -134.5q-197 0 -308.5 167.5t-111.5 486.5q0 379 146.5 604t410.5 225q119 0 209 -35zM559 813q-143 0 -236.5 -107 t-93.5 -237q0 -168 89 -289t233 -121q138 0 230.5 106.5t92.5 270.5q0 169 -84 273t-231 104z"/>
    <glyph glyph-name="seven" unicode="7" horiz-adv-x="1055" d="M379 0h-100l557 1350h-746v84h864v-25z"/>
    <glyph glyph-name="eight" unicode="8" horiz-adv-x="1055" d="M430 745v5q-272 131 -272 360q0 149 109.5 248.5t281.5 99.5q157 0 255.5 -91t98.5 -234q0 -244 -289 -379v-4q336 -122 336 -398q0 -167 -117 -272t-333 -105q-176 0 -283.5 101.5t-107.5 261.5q0 271 321 407zM526 797q281 111 281 325q0 119 -75.5 185.5t-196.5 66.5 q-118 0 -199.5 -72t-81.5 -178q0 -214 272 -327zM518 700q-167 -68 -240 -150t-73 -208q0 -123 88 -203t237 -80q152 0 238 80.5t86 200.5q0 133 -82.5 217.5t-253.5 142.5z"/>
    <glyph glyph-name="nine" unicode="9" horiz-adv-x="1055" d="M178 12v101q115 -54 211 -54q227 0 346 181.5t119 535.5h-4q-99 -231 -352 -231q-176 0 -286 123.5t-110 316.5q0 212 122.5 342.5t310.5 130.5q192 0 303.5 -162.5t111.5 -486.5q0 -402 -144.5 -618t-418.5 -216q-106 0 -209 37zM522 1374q-141 0 -232 -105t-91 -265 q0 -174 89 -274.5t232 -100.5q132 0 227 96.5t95 230.5q0 185 -89.5 301.5t-230.5 116.5z"/>
    <glyph glyph-name="colon" unicode=":" horiz-adv-x="455" d="M227 881q-34 0 -57 24t-23 58t23 56.5t57 22.5t58 -22.5t24 -56.5t-24 -58t-58 -24zM227 -18q-34 0 -57 23.5t-23 57.5q0 35 23 57.5t57 22.5t58 -22.5t24 -57.5q0 -34 -24 -57.5t-58 -23.5z"/>
    <glyph glyph-name="semicolon" unicode=";" horiz-adv-x="455" d="M236 881q-35 0 -57.5 24t-22.5 58t22.5 56.5t57.5 22.5q34 0 57.5 -22.5t23.5 -56.5t-23.5 -58t-57.5 -24zM125 -248h-78l150 475h102z"/>
    <glyph glyph-name="less" unicode="&lt;" horiz-adv-x="1331" d="M250 580v18l833 467v-94l-677 -379v-4l677 -334v-96z"/>
    <glyph glyph-name="equal" unicode="=" horiz-adv-x="1331" d="M213 750v84h907v-84h-907zM213 362v84h907v-84h-907z"/>
    <glyph glyph-name="greater" unicode="&gt;" horiz-adv-x="1331" d="M250 158v96l678 334v4l-678 379v94l833 -467v-18z"/>
    <glyph glyph-name="question" unicode="?" horiz-adv-x="881" d="M377 398q-10 25 -17.5 65.5t-7.5 80.5q0 47 12.5 85.5t35 72.5t54 66t69.5 65q32 29 63 60.5t55 67.5t38.5 78.5t14.5 93.5q0 55 -18.5 98.5t-51.5 74t-79.5 46.5t-102.5 16q-94 0 -173.5 -33t-149.5 -90v107q71 54 149.5 80t174.5 26q74 0 137.5 -21t110 -61.5t73 -99 t26.5 -133.5q0 -57 -16 -104t-41.5 -87t-58.5 -75t-67 -68q-53 -50 -86.5 -84.5t-52.5 -62.5t-26.5 -54.5t-7.5 -62.5q0 -46 8 -83.5t16 -63.5h-81zM412 -18q-34 0 -56.5 23.5t-22.5 57.5q0 35 22.5 57.5t56.5 22.5q35 0 58.5 -22.5t23.5 -57.5q0 -34 -23.5 -57.5 t-58.5 -23.5z"/>
    <glyph glyph-name="at" unicode="@" horiz-adv-x="1933" d="M1153 426h-4q-90 -238 -293 -238q-140 0 -221.5 100.5t-81.5 268.5q0 227 114 378.5t300 151.5q78 0 137 -40t78 -93h4q4 61 10 119h88l-51 -584q0 -217 153 -217q124 0 204.5 125t80.5 322q0 299 -181 477t-507 178q-318 0 -518.5 -218t-200.5 -540q0 -327 191 -523.5 t520 -196.5q249 0 426 88v-93q-196 -79 -436 -79q-361 0 -579 223t-218 581q0 359 235.5 600.5t589.5 241.5q351 0 562.5 -206t211.5 -523q0 -237 -107.5 -389t-268.5 -152q-222 0 -238 238zM963 1004q-144 0 -229 -120t-85 -319q0 -135 57.5 -214t159.5 -79 q136 0 216.5 139t80.5 355q0 117 -53.5 177.5t-146.5 60.5z"/>
    <glyph glyph-name="A" unicode="A" horiz-adv-x="1288" d="M1118 0l-164 446h-622l-164 -446h-109l541 1434h94l535 -1434h-111zM678 1200q-11 30 -18 59q-7 25 -15 50h-4q-17 -66 -33 -107l-241 -665h553z"/>
    <glyph glyph-name="B" unicode="B" horiz-adv-x="1114" d="M184 0v1434h377q169 0 269 -91t100 -241q0 -125 -66.5 -216.5t-185.5 -129.5v-4q149 -14 235 -106.5t86 -235.5q0 -181 -117 -295.5t-313 -114.5h-385zM283 1343v-555h200q156 0 250 80t94 217q0 258 -305 258h-239zM283 698v-608h266q169 0 258.5 81t89.5 230 q0 297 -403 297h-211z"/>
    <glyph glyph-name="C" unicode="C" horiz-adv-x="1272" d="M1137 47q-174 -72 -363 -72q-294 0 -479.5 197.5t-185.5 515.5q0 349 201 559.5t511 210.5q165 0 316 -53v-105q-151 68 -318 68q-270 0 -439 -183t-169 -487q0 -293 161.5 -462.5t409.5 -169.5q198 0 355 77v-96z"/>
    <glyph glyph-name="D" unicode="D" horiz-adv-x="1380" d="M184 0v1434h359q357 0 543 -178t186 -519q0 -328 -199.5 -532.5t-550.5 -204.5h-338zM283 1343v-1253h225q319 0 490 165.5t171 477.5q0 610 -641 610h-245z"/>
    <glyph glyph-name="E" unicode="E" horiz-adv-x="1024" d="M184 0v1434h670v-91h-571v-575h530v-90h-530v-588h604v-90h-703z"/>
    <glyph glyph-name="F" unicode="F" horiz-adv-x="952" d="M283 1343v-585h530v-90h-530v-668h-99v1434h670v-91h-571z"/>
    <glyph glyph-name="G" unicode="G" horiz-adv-x="1368" d="M1221 100q-222 -125 -457 -125q-293 0 -474 199t-181 522q0 326 195 544t521 218q189 0 367 -76v-108q-195 94 -381 94q-271 0 -435.5 -185t-164.5 -472q0 -302 154.5 -473.5t416.5 -171.5q194 0 340 84v473h-338v90h437v-613z"/>
    <glyph glyph-name="H" unicode="H" horiz-adv-x="1386" d="M1104 0v688h-821v-688h-99v1434h99v-656h821v656h98v-1434h-98z"/>
    <glyph glyph-name="I" unicode="I" horiz-adv-x="463" d="M421 1434v-90h-140v-1254h140v-90h-379v90h140v1254h-140v90h379z"/>
    <glyph glyph-name="J" unicode="J" horiz-adv-x="664" d="M487 494q0 -519 -360 -519q-56 0 -109 15v96q59 -20 111 -20q138 0 199 104.5t61 325.5v938h98v-940z"/>
    <glyph glyph-name="K" unicode="K" horiz-adv-x="1079" d="M922 0l-611 686q-17 19 -24 33h-4v-719h-99v1434h99v-676h4q12 21 26 35l580 641h129l-629 -695l668 -739h-139z"/>
    <glyph glyph-name="L" unicode="L" horiz-adv-x="938" d="M184 0v1434h99v-1344h575v-90h-674z"/>
    <glyph glyph-name="M" unicode="M" horiz-adv-x="1706" d="M1427 0v1018q0 37 11 211h-4q-31 -81 -52 -125l-510 -1104h-32l-512 1098q-25 53 -47 135h-5q7 -96 7 -191v-1042h-99v1434h92l535 -1155q5 -10 11 -27t13 -34q10 -26 21 -58h6l11 32q1 4 34 95l527 1147h88v-1434h-95z"/>
    <glyph glyph-name="N" unicode="N" horiz-adv-x="1452" d="M1198 0l-854 1159q-26 35 -46 70l-13 20h-4q2 -26 2 -63v-1186h-99v1434h76l848 -1149q28 -38 61 -92h5q-5 70 -5 120v1121h99v-1434h-70z"/>
    <glyph glyph-name="O" unicode="O" horiz-adv-x="1559" d="M774 -25q-304 0 -484.5 202t-180.5 525q0 343 185.5 549.5t506.5 206.5q290 0 469.5 -198.5t179.5 -520.5q0 -356 -184 -560t-492 -204zM784 1368q-250 0 -411.5 -181t-161.5 -474q0 -296 153 -471.5t408 -175.5q266 0 421 173.5t155 483.5q0 304 -151.5 474.5 t-412.5 170.5z"/>
    <glyph glyph-name="P" unicode="P" horiz-adv-x="1114" d="M283 575v-575h-99v1434h346q221 0 338 -102.5t117 -299.5q0 -200 -130.5 -328.5t-365.5 -128.5h-206zM283 1343v-677h204q194 0 295 92.5t101 261.5q0 323 -371 323h-229z"/>
    <glyph glyph-name="Q" unicode="Q" horiz-adv-x="1544" d="M756 -24q-140 0 -261 50.5t-212 150.5q-181 199 -181 523q0 347 184 552q185 206 508 206q289 0 469 -200t180 -523q0 -139 -34 -266.5t-104.5 -229t-179 -169.5t-258.5 -88q63 -67 118 -118.5t110 -87t114.5 -53.5t130.5 -18q16 0 35 1.5t38.5 5t37.5 8t33 10.5v-94 q-27 -10 -70.5 -17t-83.5 -7q-96 0 -172 28.5t-143 78t-129 115.5t-130 142zM778 1368q-255 0 -415 -180q-80 -91 -119.5 -208t-39.5 -265q0 -290 155 -471q157 -178 407 -178q267 0 421 170t154 476q0 314 -150 485t-413 171z"/>
    <glyph glyph-name="R" unicode="R" horiz-adv-x="1137" d="M918 0l-191 420q-59 130 -118 174.5t-148 44.5h-178v-639h-99v1434h398q190 0 298.5 -102.5t108.5 -270.5q0 -155 -89 -259t-249 -134v-4q85 -34 166 -207l213 -457h-112zM283 1343v-614h247q164 0 260.5 86t96.5 236q0 137 -87 214.5t-249 77.5h-268z"/>
    <glyph glyph-name="S" unicode="S" horiz-adv-x="1018" d="M139 51v113q154 -98 312 -98q168 0 255 69.5t87 194.5q0 110 -58.5 175.5t-253.5 178.5q-218 127 -276 212.5t-58 197.5q0 152 118 258t315 106q128 0 256 -43v-104q-126 57 -269 57q-146 0 -231.5 -74t-85.5 -188q0 -110 58.5 -175t252.5 -177q201 -114 267.5 -202.5 t66.5 -203.5q0 -165 -114.5 -269t-323.5 -104q-74 0 -170.5 23t-147.5 53z"/>
    <glyph glyph-name="T" unicode="T" horiz-adv-x="1047" d="M573 1343v-1343h-98v1343h-414v91h926v-91h-414z"/>
    <glyph glyph-name="U" unicode="U" horiz-adv-x="1327" d="M1161 573q0 -598 -510 -598q-485 0 -485 576v883h98v-869q0 -499 406 -499q393 0 393 485v883h98v-861z"/>
    <glyph glyph-name="V" unicode="V" horiz-adv-x="1237" d="M639 0h-74l-524 1434h111l415 -1155q26 -72 37 -136h4q10 51 41 138l441 1153h106z"/>
    <glyph glyph-name="W" unicode="W" horiz-adv-x="1833" d="M1362 0h-82l-319 1079q-24 83 -27 135h-4q-3 -44 -31 -133l-340 -1081h-82l-426 1434h111l327 -1149q22 -78 31 -127h4q6 37 35 127l354 1149h50l325 -1149q23 -80 31 -127h4q5 28 16 64l336 1212h107z"/>
    <glyph glyph-name="X" unicode="X" horiz-adv-x="1153" d="M961 0l-330 547q-31 51 -53 100h-5q-27 -55 -57 -100l-336 -547h-119l453 723l-426 711h119l321 -539q25 -42 52 -96h4l53 96l319 539h115l-430 -709l440 -725h-120z"/>
    <glyph glyph-name="Y" unicode="Y" horiz-adv-x="1106" d="M598 545v-545h-98v543l-439 891h111l334 -691q18 -36 45 -106h4q14 37 49 104l350 693h107z"/>
    <glyph glyph-name="Z" unicode="Z" horiz-adv-x="1167" d="M215 90h858v-90h-1007v31l868 1312h-799v91h952v-27z"/>
    <glyph glyph-name="bracketleft" unicode="[" horiz-adv-x="578" d="M209 -326v1760h317v-84h-225v-1592h225v-84h-317z"/>
    <glyph glyph-name="backslash" unicode="\" horiz-adv-x="750" d="M668 -238l-697 1672h97l692 -1672h-92z"/>
    <glyph glyph-name="bracketright" unicode="]" horiz-adv-x="578" d="M51 -326v84h225v1592h-225v84h318v-1760h-318z"/>
    <glyph glyph-name="asciicircum" unicode="^" horiz-adv-x="1331" d="M975 702l-307 613h-4l-308 -613h-96l385 756h41l385 -756h-96z"/>
    <glyph glyph-name="underscore" unicode="_" horiz-adv-x="850" d="M0 -268v90h850v-90h-850z"/>
    <glyph glyph-name="grave" unicode="`" horiz-adv-x="508" d="M324 1188l-248 328h104l234 -328h-90z"/>
    <glyph glyph-name="a" unicode="a" horiz-adv-x="1012" d="M776 0v205h-4q-49 -105 -142.5 -167.5t-207.5 -62.5q-146 0 -231 82t-85 207q0 268 355 324l315 47q0 330 -248 330q-169 0 -329 -136v111q57 45 154.5 77t183.5 32q158 0 244.5 -98t86.5 -285v-666h-92zM494 510q-161 -23 -226 -74.5t-65 -167.5q0 -91 60.5 -150 t168.5 -59q148 0 246 109.5t98 282.5v100z"/>
    <glyph glyph-name="b" unicode="b" horiz-adv-x="1147" d="M260 182h-4v-182h-92v1516h92v-703h4q55 113 157.5 174.5t225.5 61.5q195 0 304.5 -134.5t109.5 -365.5q0 -257 -127 -415.5t-330 -158.5q-230 0 -340 207zM256 563v-129q0 -154 97 -264.5t255 -110.5q157 0 255 134.5t98 353.5q0 192 -90 305t-240 113q-179 0 -277 -120 t-98 -282z"/>
    <glyph glyph-name="c" unicode="c" horiz-adv-x="909" d="M827 45q-114 -70 -272 -70q-209 0 -337 143.5t-128 375.5q0 244 144 399.5t370 155.5q117 0 227 -48v-104q-110 68 -241 68q-180 0 -292 -129.5t-112 -335.5q0 -199 102.5 -320t270.5 -121q154 0 268 82v-96z"/>
    <glyph glyph-name="d" unicode="d" horiz-adv-x="1147" d="M891 0v186h-4q-50 -97 -148 -154t-221 -57q-189 0 -308.5 138t-119.5 381q0 248 130.5 401.5t338.5 153.5q230 0 328 -189h4v656h92v-1516h-92zM891 623q0 143 -90.5 242.5t-243.5 99.5q-161 0 -266 -123.5t-105 -339.5q0 -212 94.5 -327.5t243.5 -115.5q175 0 271 108.5 t96 264.5v191z"/>
    <glyph glyph-name="e" unicode="e" horiz-adv-x="1034" d="M186 508q0 -211 97.5 -330t267.5 -119q172 0 336 127v-98q-159 -113 -355 -113q-198 0 -320 142t-122 401q0 224 127.5 377.5t331.5 153.5q191 0 293 -134t102 -366v-41h-758zM848 592q-6 177 -85 275t-218 98q-144 0 -238.5 -96.5t-116.5 -276.5h658z"/>
    <glyph glyph-name="f" unicode="f" horiz-adv-x="565" d="M612 1419q-37 29 -112 29q-189 0 -189 -254v-170h271v-84h-271v-940h-92v940h-184v84h184v178q0 162 81.5 246t203.5 84q65 0 108 -19v-94z"/>
    <glyph glyph-name="g" unicode="g" horiz-adv-x="1147" d="M983 76q0 -289 -126 -423t-392 -134q-148 0 -305 78v96q162 -90 307 -90q424 0 424 448v133h-4q-121 -209 -369 -209q-189 0 -308.5 137t-119.5 382t129 400t340 155q226 0 328 -187h4v162h92v-948zM891 631q0 136 -91.5 235t-238.5 99q-169 0 -272 -127t-103 -336 q0 -210 94.5 -326.5t249.5 -116.5q165 0 263 107t98 262v203z"/>
    <glyph glyph-name="h" unicode="h" horiz-adv-x="1096" d="M860 0v614q0 182 -66 266.5t-206 84.5q-132 0 -232 -103t-100 -295v-567h-92v1516h92v-676h4q121 209 352 209q166 0 253 -107t87 -307v-635h-92z"/>
    <glyph glyph-name="i" unicode="i" horiz-adv-x="420" d="M209 1282q-30 0 -53 22t-23 56q0 33 23.5 53.5t52.5 20.5q31 0 54.5 -20t23.5 -54q0 -32 -23 -55t-55 -23zM164 0v1024h92v-1024h-92z"/>
    <glyph glyph-name="j" unicode="j" horiz-adv-x="420" d="M209 1282q-30 0 -53 22t-23 56q0 33 23.5 53.5t52.5 20.5q31 0 54.5 -20t23.5 -54q0 -32 -23 -55t-55 -23zM256 29q0 -510 -362 -510q-72 0 -146 35v96q80 -47 156 -47q260 0 260 409v1012h92v-995z"/>
    <glyph glyph-name="k" unicode="k" horiz-adv-x="909" d="M750 0l-490 506h-4v-506h-92v1516h92v-977h4l465 485h119l-486 -496l525 -528h-133z"/>
    <glyph glyph-name="l" unicode="l" horiz-adv-x="420" d="M164 0v1516h92v-1516h-92z"/>
    <glyph glyph-name="m" unicode="m" horiz-adv-x="1683" d="M1448 0v616q0 193 -60.5 271t-191.5 78q-121 0 -209 -104t-88 -261v-600h-92v623q0 342 -260 342q-125 0 -208 -104.5t-83 -270.5v-590h-92v1024h92v-170h4q107 195 313 195q112 0 191.5 -64.5t107.5 -169.5q48 111 137.5 172.5t194.5 61.5q336 0 336 -416v-633h-92z"/>
    <glyph glyph-name="n" unicode="n" horiz-adv-x="1096" d="M860 0v596q0 369 -266 369q-148 0 -243 -108.5t-95 -268.5v-588h-92v1024h92v-186h4q112 211 350 211q166 0 254 -110.5t88 -315.5v-623h-92z"/>
    <glyph glyph-name="o" unicode="o" horiz-adv-x="1149" d="M575 -25q-224 0 -354.5 147.5t-130.5 383.5q0 255 136.5 399t359.5 144q219 0 346 -143t127 -396q0 -239 -129.5 -387t-354.5 -148zM582 965q-181 0 -288.5 -122t-107.5 -339q0 -201 105 -323t287 -122q185 0 285 120t100 333q0 219 -99.5 336t-281.5 117z"/>
    <glyph glyph-name="p" unicode="p" horiz-adv-x="1147" d="M260 182h-4v-653h-92v1495h92v-211h4q55 113 157.5 174.5t225.5 61.5q195 0 304.5 -134.5t109.5 -365.5q0 -257 -125.5 -415.5t-331.5 -158.5q-230 0 -340 207zM256 563v-129q0 -154 97 -264.5t255 -110.5q157 0 255 134.5t98 353.5q0 192 -90 305t-240 113 q-179 0 -277 -120t-98 -282z"/>
    <glyph glyph-name="q" unicode="q" horiz-adv-x="1147" d="M891 -471v659h-4q-114 -213 -371 -213q-192 0 -309 141t-117 380q0 255 133 404t338 149q229 0 326 -191h4v166h92v-1495h-92zM891 614q0 153 -89 252t-247 99q-159 0 -264 -122.5t-105 -342.5q0 -206 93.5 -323.5t242.5 -117.5q179 0 274 110t95 269v176z"/>
    <glyph glyph-name="r" unicode="r" horiz-adv-x="676" d="M647 928q-46 33 -108 33q-121 0 -203 -125t-82 -355v-481h-90v1024h90v-227h4q35 117 111 182t176 65q57 0 102 -18v-98z"/>
    <glyph glyph-name="s" unicode="s" horiz-adv-x="795" d="M111 45v111q52 -45 126 -71t128 -26q241 0 241 197q0 68 -53 116t-172 99q-147 64 -206.5 132.5t-59.5 166.5q0 125 95.5 202t235.5 77q132 0 226 -54v-104q-114 74 -236 74q-101 0 -163 -52.5t-62 -136.5q0 -73 39 -118.5t172 -104.5q160 -72 220 -133.5t60 -163.5 q0 -122 -91.5 -201.5t-252.5 -79.5q-148 0 -247 70z"/>
    <glyph glyph-name="t" unicode="t" horiz-adv-x="608" d="M569 14q-72 -34 -135 -34q-227 0 -227 272v688h-184v84h184v266q22 8 46 16q24 7 46 15v-297h270v-84h-270v-676q0 -106 33.5 -153.5t113.5 -47.5q57 0 123 37v-86z"/>
    <glyph glyph-name="u" unicode="u" horiz-adv-x="1096" d="M840 0v186h-4q-107 -211 -330 -211q-363 0 -363 457v592h93v-569q0 -208 68.5 -302t215.5 -94q143 0 231.5 105t88.5 280v580h92v-1024h-92z"/>
    <glyph glyph-name="v" unicode="v" horiz-adv-x="928" d="M500 0h-84l-396 1024h103l305 -815q22 -59 31 -107h4q13 63 29 103l315 819h100z"/>
    <glyph glyph-name="w" unicode="w" horiz-adv-x="1386" d="M1032 0h-86l-223 772q-9 32 -16 86h-5q-2 -23 -20 -84l-250 -774h-86l-309 1024h102l238 -817q9 -32 14 -86h8q2 29 19 86l260 817h63l232 -817q8 -29 14 -86h8q0 29 17 86l243 817h95z"/>
    <glyph glyph-name="x" unicode="x" horiz-adv-x="862" d="M481 502l334 -502h-117l-270 432h-4l-36 -57q-7 -12 -17 -27l-226 -348h-112l342 500l-336 524h108l228 -367q44 -71 53 -88h4l51 84l238 371h108z"/>
    <glyph glyph-name="y" unicode="y" horiz-adv-x="928" d="M414 -209q-56 -138 -124 -205t-175 -67q-45 0 -80 14v92q36 -14 84 -14q123 0 194 170l95 227l-388 1016h103l309 -834q10 -27 14 -41q4 -19 9 -34h4l24 69l330 840h100z"/>
    <glyph glyph-name="z" unicode="z" horiz-adv-x="950" d="M207 84h661v-84h-811v35l680 905h-631v84h787v-25z"/>
    <glyph glyph-name="braceleft" unicode="{" horiz-adv-x="578" d="M506 -326q-127 5 -191.5 72t-64.5 219v297q0 237 -156 260v64q156 22 156 243v314q0 152 64.5 219t191.5 72v-84q-88 -5 -124 -57t-36 -179v-293q0 -222 -145 -266v-4q145 -46 145 -281v-276q0 -127 36 -179t124 -57v-84z"/>
    <glyph glyph-name="bar" unicode="|" horiz-adv-x="463" d="M184 -481v2048h95v-2048h-95z"/>
    <glyph glyph-name="braceright" unicode="}" horiz-adv-x="578" d="M483 522q-155 -23 -155 -260v-297q0 -153 -64.5 -219.5t-191.5 -71.5v84q82 5 120.5 53t38.5 183v276q0 235 146 281v4q-146 45 -146 266v293q0 135 -38.5 183t-120.5 53v84q127 -5 191.5 -71.5t64.5 -219.5v-314q0 -221 155 -243v-64z"/>
    <glyph glyph-name="asciitilde" unicode="~" horiz-adv-x="1331" d="M1087 711q-7 -114 -68.5 -178t-164.5 -64q-95 0 -201 84q-105 84 -176 84q-141 0 -153 -158h-78q6 113 68 177.5t165 64.5q95 0 195 -80q70 -55 105 -72.5t79 -17.5q133 0 152 160h77z"/>
    <glyph glyph-name="Adieresis" unicode="Ä" horiz-adv-x="1288" d="M1118 0l-164 446h-622l-164 -446h-109l541 1434h94l535 -1434h-111zM678 1200q-11 30 -18 59q-7 25 -15 50h-4q-17 -66 -33 -107l-241 -665h553zM812 1530q-27 0 -49 19.5t-22 52.5q0 31 21.5 50t47.5 19q29 0 52.5 -19.5t23.5 -49.5q0 -31 -21.5 -51.5t-52.5 -20.5z M479 1530q-28 0 -50 19.5t-22 52.5q0 31 22 50t48 19q29 0 52 -19.5t23 -49.5q0 -31 -21 -51.5t-52 -20.5z"/>
    <glyph glyph-name="Aring" unicode="Å" horiz-adv-x="1288" d="M1118 0l-164 446h-622l-164 -446h-109l519 1374q-134 42 -134 176q0 81 59 133t142 52q86 0 143.5 -50.5t57.5 -134.5q0 -129 -131 -174l514 -1376h-111zM645 1667q-57 0 -92 -32t-35 -85q0 -52 36.5 -84t90.5 -32q57 0 93 32t36 84q0 57 -37.5 87t-91.5 30zM678 1200 q-11 30 -18 59q-7 25 -15 50h-4q-17 -66 -33 -107l-241 -665h553z"/>
    <glyph glyph-name="Ccedilla" unicode="Ç" horiz-adv-x="1272" d="M1137 47q-216 -85 -420 -70v-94q225 0 225 -147q0 -170 -254 -170q-36 0 -80 4v74q50 -6 86 -6q160 0 160 92q0 86 -145 86q-32 0 -64 -4v174q-252 46 -394 237t-142 465q0 349 201 559.5t511 210.5q165 0 316 -53v-105q-151 68 -318 68q-270 0 -439 -183t-169 -487 q0 -293 161.5 -462.5t409.5 -169.5q198 0 355 77v-96z"/>
    <glyph glyph-name="Eacute" unicode="É" horiz-adv-x="1024" d="M184 0v1434h670v-91h-571v-575h530v-90h-530v-588h604v-90h-703zM506 1533h-90l234 328h104z"/>
    <glyph glyph-name="Ntilde" unicode="Ñ" horiz-adv-x="1452" d="M1198 0l-854 1159q-26 35 -46 70l-13 20h-4q2 -26 2 -63v-1186h-99v1434h76l848 -1149q28 -38 61 -92h5q-5 70 -5 120v1121h99v-1434h-70zM1101 1768q0 -103 -48.5 -163t-130.5 -60q-66 0 -151 76q-64 55 -119 55q-102 0 -102 -143h-72q0 100 48 160.5t128 60.5 q72 0 160 -72q67 -59 117 -59q40 0 68 37t28 108h74z"/>
    <glyph glyph-name="Odieresis" unicode="Ö" horiz-adv-x="1559" d="M774 -25q-304 0 -484.5 202t-180.5 525q0 343 185.5 549.5t506.5 206.5q290 0 469.5 -198.5t179.5 -520.5q0 -356 -184 -560t-492 -204zM784 1368q-250 0 -411.5 -181t-161.5 -474q0 -296 153 -471.5t408 -175.5q266 0 421 173.5t155 483.5q0 304 -151.5 474.5 t-412.5 170.5zM950 1533q-27 0 -49 19.5t-22 52.5q0 31 21.5 50t47.5 19q29 0 52.5 -19.5t23.5 -49.5q0 -31 -21.5 -51.5t-52.5 -20.5zM617 1533q-28 0 -50 19.5t-22 52.5q0 31 22 50t48 19q29 0 52 -19.5t23 -49.5q0 -31 -21 -51.5t-52 -20.5z"/>
    <glyph glyph-name="Udieresis" unicode="Ü" horiz-adv-x="1327" d="M1161 573q0 -598 -510 -598q-485 0 -485 576v883h98v-869q0 -499 406 -499q393 0 393 485v883h98v-861zM860 1537q-27 0 -49 19.5t-22 52.5q0 31 21.5 50t47.5 19q29 0 52.5 -19.5t23.5 -49.5q0 -31 -21.5 -51.5t-52.5 -20.5zM527 1537q-28 0 -50 19.5t-22 52.5 q0 31 22 50t48 19q29 0 52 -19.5t23 -49.5q0 -31 -21 -51.5t-52 -20.5z"/>
    <glyph glyph-name="aacute" unicode="á" horiz-adv-x="1012" d="M776 0v205h-4q-49 -105 -142.5 -167.5t-207.5 -62.5q-146 0 -231 82t-85 207q0 268 355 324l315 47q0 330 -248 330q-169 0 -329 -136v111q57 45 154.5 77t183.5 32q158 0 244.5 -98t86.5 -285v-666h-92zM494 510q-161 -23 -226 -74.5t-65 -167.5q0 -91 60.5 -150 t168.5 -59q148 0 246 109.5t98 282.5v100zM452 1188h-90l234 328h104z"/>
    <glyph glyph-name="agrave" unicode="à" horiz-adv-x="1012" d="M776 0v205h-4q-49 -105 -142.5 -167.5t-207.5 -62.5q-146 0 -231 82t-85 207q0 268 355 324l315 47q0 330 -248 330q-169 0 -329 -136v111q57 45 154.5 77t183.5 32q158 0 244.5 -98t86.5 -285v-666h-92zM494 510q-161 -23 -226 -74.5t-65 -167.5q0 -91 60.5 -150 t168.5 -59q148 0 246 109.5t98 282.5v100zM519 1188l-248 328h104l234 -328h-90z"/>
    <glyph glyph-name="acircumflex" unicode="â" horiz-adv-x="1012" d="M776 0v205h-4q-49 -105 -142.5 -167.5t-207.5 -62.5q-146 0 -231 82t-85 207q0 268 355 324l315 47q0 330 -248 330q-169 0 -329 -136v111q57 45 154.5 77t183.5 32q158 0 244.5 -98t86.5 -285v-666h-92zM494 510q-161 -23 -226 -74.5t-65 -167.5q0 -91 60.5 -150 t168.5 -59q148 0 246 109.5t98 282.5v100zM670 1188l-157 239l-160 -239h-82l221 336h45l219 -336h-86z"/>
    <glyph glyph-name="adieresis" unicode="ä" horiz-adv-x="1012" d="M776 0v205h-4q-49 -105 -142.5 -167.5t-207.5 -62.5q-146 0 -231 82t-85 207q0 268 355 324l315 47q0 330 -248 330q-169 0 -329 -136v111q57 45 154.5 77t183.5 32q158 0 244.5 -98t86.5 -285v-666h-92zM494 510q-161 -23 -226 -74.5t-65 -167.5q0 -91 60.5 -150 t168.5 -59q148 0 246 109.5t98 282.5v100zM665 1188q-27 0 -49 19.5t-22 52.5q0 31 21.5 50t47.5 19q29 0 52.5 -19.5t23.5 -49.5q0 -31 -21.5 -51.5t-52.5 -20.5zM332 1188q-28 0 -50 19.5t-22 52.5q0 31 22 50t48 19q29 0 52 -19.5t23 -49.5q0 -31 -21 -51.5t-52 -20.5z "/>
    <glyph glyph-name="atilde" unicode="ã" horiz-adv-x="1012" d="M776 0v205h-4q-49 -105 -142.5 -167.5t-207.5 -62.5q-146 0 -231 82t-85 207q0 268 355 324l315 47q0 330 -248 330q-169 0 -329 -136v111q57 45 154.5 77t183.5 32q158 0 244.5 -98t86.5 -285v-666h-92zM494 510q-161 -23 -226 -74.5t-65 -167.5q0 -91 60.5 -150 t168.5 -59q148 0 246 109.5t98 282.5v100zM824 1423q0 -103 -48.5 -163t-130.5 -60q-66 0 -151 76q-64 55 -119 55q-102 0 -102 -143h-72q0 100 48 160.5t128 60.5q72 0 160 -72q67 -59 117 -59q40 0 68 37t28 108h74z"/>
    <glyph glyph-name="aring" unicode="å" horiz-adv-x="1012" d="M776 0v205h-4q-49 -105 -142.5 -167.5t-207.5 -62.5q-146 0 -231 82t-85 207q0 268 355 324l315 47q0 330 -248 330q-169 0 -329 -136v111q57 45 154.5 77t183.5 32q158 0 244.5 -98t86.5 -285v-666h-92zM494 510q-161 -23 -226 -74.5t-65 -167.5q0 -91 60.5 -150 t168.5 -59q148 0 246 109.5t98 282.5v100zM521 1188q-86 0 -143.5 50.5t-57.5 133.5q0 80 57 132t144 52q88 0 144.5 -50.5t56.5 -133.5q0 -80 -58 -132t-143 -52zM521 1489q-57 0 -92 -32t-35 -85t36.5 -85t90.5 -32q57 0 93 32.5t36 84.5q0 57 -37.5 87t-91.5 30z"/>
    <glyph glyph-name="ccedilla" unicode="ç" horiz-adv-x="909" d="M827 45q-114 -70 -272 -70q-209 0 -337 143.5t-128 375.5q0 244 144 399.5t370 155.5q117 0 227 -48v-104q-110 68 -241 68q-180 0 -292 -129.5t-112 -335.5q0 -199 102.5 -320t270.5 -121q154 0 268 82v-96zM403 -430v74q50 -6 86 -6q160 0 160 92q0 86 -145 86 q-32 0 -64 -4v188h72v-117q225 0 225 -147q0 -170 -254 -170q-36 0 -80 4z"/>
    <glyph glyph-name="eacute" unicode="é" horiz-adv-x="1034" d="M186 508q0 -211 97.5 -330t267.5 -119q172 0 336 127v-98q-159 -113 -355 -113q-198 0 -320 142t-122 401q0 224 127.5 377.5t331.5 153.5q191 0 293 -134t102 -366v-41h-758zM848 592q-6 177 -85 275t-218 98q-144 0 -238.5 -96.5t-116.5 -276.5h658zM489 1188h-90 l234 328h104z"/>
    <glyph glyph-name="egrave" unicode="è" horiz-adv-x="1034" d="M186 508q0 -211 97.5 -330t267.5 -119q172 0 336 127v-98q-159 -113 -355 -113q-198 0 -320 142t-122 401q0 224 127.5 377.5t331.5 153.5q191 0 293 -134t102 -366v-41h-758zM848 592q-6 177 -85 275t-218 98q-144 0 -238.5 -96.5t-116.5 -276.5h658zM569 1188l-248 328 h104l234 -328h-90z"/>
    <glyph glyph-name="ecircumflex" unicode="ê" horiz-adv-x="1034" d="M186 508q0 -211 97.5 -330t267.5 -119q172 0 336 127v-98q-159 -113 -355 -113q-198 0 -320 142t-122 401q0 224 127.5 377.5t331.5 153.5q191 0 293 -134t102 -366v-41h-758zM848 592q-6 177 -85 275t-218 98q-144 0 -238.5 -96.5t-116.5 -276.5h658zM704 1188l-157 239 l-160 -239h-82l221 336h45l219 -336h-86z"/>
    <glyph glyph-name="edieresis" unicode="ë" horiz-adv-x="1034" d="M186 508q0 -211 97.5 -330t267.5 -119q172 0 336 127v-98q-159 -113 -355 -113q-198 0 -320 142t-122 401q0 224 127.5 377.5t331.5 153.5q191 0 293 -134t102 -366v-41h-758zM848 592q-6 177 -85 275t-218 98q-144 0 -238.5 -96.5t-116.5 -276.5h658zM702 1188 q-27 0 -49 19.5t-22 52.5q0 31 21.5 50t47.5 19q29 0 52.5 -19.5t23.5 -49.5q0 -31 -21.5 -51.5t-52.5 -20.5zM369 1188q-28 0 -50 19.5t-22 52.5q0 31 22 50t48 19q29 0 52 -19.5t23 -49.5q0 -31 -21 -51.5t-52 -20.5z"/>
    <glyph glyph-name="iacute" unicode="í" horiz-adv-x="420" d="M164 0v1024h92v-1024h-92zM173 1188h-90l234 328h104z"/>
    <glyph glyph-name="igrave" unicode="ì" horiz-adv-x="420" d="M164 0v1024h92v-1024h-92zM254 1188l-248 328h104l234 -328h-90z"/>
    <glyph glyph-name="icircumflex" unicode="î" horiz-adv-x="420" d="M164 0v1024h92v-1024h-92zM369 1188l-157 239l-160 -239h-82l221 336h45l219 -336h-86z"/>
    <glyph glyph-name="idieresis" unicode="ï" horiz-adv-x="420" d="M164 0v1024h92v-1024h-92zM377 1188q-27 0 -49 19.5t-22 52.5q0 31 21.5 50t47.5 19q29 0 52.5 -19.5t23.5 -49.5q0 -31 -21.5 -51.5t-52.5 -20.5zM44 1188q-28 0 -50 19.5t-22 52.5q0 31 22 50t48 19q29 0 52 -19.5t23 -49.5q0 -31 -21 -51.5t-52 -20.5z"/>
    <glyph glyph-name="ntilde" unicode="ñ" horiz-adv-x="1096" d="M860 0v596q0 369 -266 369q-148 0 -243 -108.5t-95 -268.5v-588h-92v1024h92v-186h4q112 211 350 211q166 0 254 -110.5t88 -315.5v-623h-92zM896 1423q0 -103 -48.5 -163t-130.5 -60q-66 0 -151 76q-64 55 -119 55q-102 0 -102 -143h-72q0 100 48 160.5t128 60.5 q72 0 160 -72q67 -59 117 -59q40 0 68 37t28 108h74z"/>
    <glyph glyph-name="oacute" unicode="ó" horiz-adv-x="1149" d="M575 -25q-224 0 -354.5 147.5t-130.5 383.5q0 255 136.5 399t359.5 144q219 0 346 -143t127 -396q0 -239 -129.5 -387t-354.5 -148zM582 965q-181 0 -288.5 -122t-107.5 -339q0 -201 105 -323t287 -122q185 0 285 120t100 333q0 219 -99.5 336t-281.5 117zM541 1188h-90 l234 328h104z"/>
    <glyph glyph-name="ograve" unicode="ò" horiz-adv-x="1149" d="M575 -25q-224 0 -354.5 147.5t-130.5 383.5q0 255 136.5 399t359.5 144q219 0 346 -143t127 -396q0 -239 -129.5 -387t-354.5 -148zM582 965q-181 0 -288.5 -122t-107.5 -339q0 -201 105 -323t287 -122q185 0 285 120t100 333q0 219 -99.5 336t-281.5 117zM592 1188 l-248 328h104l234 -328h-90z"/>
    <glyph glyph-name="ocircumflex" unicode="ô" horiz-adv-x="1149" d="M575 -25q-224 0 -354.5 147.5t-130.5 383.5q0 255 136.5 399t359.5 144q219 0 346 -143t127 -396q0 -239 -129.5 -387t-354.5 -148zM582 965q-181 0 -288.5 -122t-107.5 -339q0 -201 105 -323t287 -122q185 0 285 120t100 333q0 219 -99.5 336t-281.5 117zM748 1188 l-157 239l-160 -239h-82l221 336h45l219 -336h-86z"/>
    <glyph glyph-name="odieresis" unicode="ö" horiz-adv-x="1149" d="M575 -25q-224 0 -354.5 147.5t-130.5 383.5q0 255 136.5 399t359.5 144q219 0 346 -143t127 -396q0 -239 -129.5 -387t-354.5 -148zM582 965q-181 0 -288.5 -122t-107.5 -339q0 -201 105 -323t287 -122q185 0 285 120t100 333q0 219 -99.5 336t-281.5 117zM749 1188 q-27 0 -49 19.5t-22 52.5q0 31 21.5 50t47.5 19q29 0 52.5 -19.5t23.5 -49.5q0 -31 -21.5 -51.5t-52.5 -20.5zM416 1188q-28 0 -50 19.5t-22 52.5q0 31 22 50t48 19q29 0 52 -19.5t23 -49.5q0 -31 -21 -51.5t-52 -20.5z"/>
    <glyph glyph-name="otilde" unicode="õ" horiz-adv-x="1149" d="M575 -25q-224 0 -354.5 147.5t-130.5 383.5q0 255 136.5 399t359.5 144q219 0 346 -143t127 -396q0 -239 -129.5 -387t-354.5 -148zM582 965q-181 0 -288.5 -122t-107.5 -339q0 -201 105 -323t287 -122q185 0 285 120t100 333q0 219 -99.5 336t-281.5 117zM911 1423 q0 -103 -48.5 -163t-130.5 -60q-66 0 -151 76q-64 55 -119 55q-102 0 -102 -143h-72q0 100 48 160.5t128 60.5q72 0 160 -72q67 -59 117 -59q40 0 68 37t28 108h74z"/>
    <glyph glyph-name="uacute" unicode="ú" horiz-adv-x="1096" d="M840 0v186h-4q-107 -211 -330 -211q-363 0 -363 457v592h93v-569q0 -208 68.5 -302t215.5 -94q143 0 231.5 105t88.5 280v580h92v-1024h-92zM543 1188h-90l234 328h104z"/>
    <glyph glyph-name="ugrave" unicode="ù" horiz-adv-x="1096" d="M840 0v186h-4q-107 -211 -330 -211q-363 0 -363 457v592h93v-569q0 -208 68.5 -302t215.5 -94q143 0 231.5 105t88.5 280v580h92v-1024h-92zM558 1188l-248 328h104l234 -328h-90z"/>
    <glyph glyph-name="ucircumflex" unicode="û" horiz-adv-x="1096" d="M840 0v186h-4q-107 -211 -330 -211q-363 0 -363 457v592h93v-569q0 -208 68.5 -302t215.5 -94q143 0 231.5 105t88.5 280v580h92v-1024h-92zM726 1188l-157 239l-160 -239h-82l221 336h45l219 -336h-86z"/>
    <glyph glyph-name="udieresis" unicode="ü" horiz-adv-x="1096" d="M840 0v186h-4q-107 -211 -330 -211q-363 0 -363 457v592h93v-569q0 -208 68.5 -302t215.5 -94q143 0 231.5 105t88.5 280v580h92v-1024h-92zM735 1188q-27 0 -49 19.5t-22 52.5q0 31 21.5 50t47.5 19q29 0 52.5 -19.5t23.5 -49.5q0 -31 -21.5 -51.5t-52.5 -20.5z M402 1188q-28 0 -50 19.5t-22 52.5q0 31 22 50t48 19q29 0 52 -19.5t23 -49.5q0 -31 -21 -51.5t-52 -20.5z"/>
    <glyph glyph-name="dagger" unicode="†" horiz-adv-x="756" d="M708 933l-272 30l-30 -734h-36l-30 734l-292 -30v110l312 -20l-30 410h116l-30 -410l292 20v-110z"/>
    <glyph glyph-name="degree" unicode="°" horiz-adv-x="791" d="M397 930q-104 0 -179 75t-75 179q0 102 73.5 176t176.5 74q105 0 179.5 -73.5t74.5 -176.5q0 -105 -73.5 -179.5t-176.5 -74.5zM397 1358q-71 0 -121.5 -51.5t-50.5 -122.5q0 -73 49.5 -125.5t118.5 -52.5q70 0 120 52.5t50 125.5q0 74 -48 124t-118 50z"/>
    <glyph glyph-name="cent" unicode="¢" horiz-adv-x="1055" d="M903 209q-91 -56 -221 -68v-198h-92v198q-194 17 -309 157.5t-115 358.5q0 215 114.5 365.5t309.5 183.5v199h92v-193q118 0 225 -47v-104q-104 63 -225 67v-903q130 10 221 80v-96zM590 1122q-153 -29 -240.5 -153.5t-87.5 -304.5q0 -183 87 -300.5t241 -138.5v897z"/>
    <glyph glyph-name="sterling" unicode="£" horiz-adv-x="1055" d="M80 0v86q248 103 248 365v211h-228v90h228v290q0 188 99 302t263 114q96 0 182 -35v-94q-90 45 -186 45q-125 0 -195.5 -88t-70.5 -256v-278h307v-90h-307v-177q0 -295 -213 -401h741v-84h-868z"/>
    <glyph glyph-name="section" unicode="§" horiz-adv-x="918" d="M618 403q95 -71 95 -200q0 -114 -89 -191.5t-231 -77.5q-107 0 -217 50v98q118 -64 219 -64q109 0 165 50.5t56 132.5q0 54 -30.5 102t-140.5 101q-177 84 -228 160.5t-51 172.5q0 172 162 256q-123 83 -123 219q0 125 82 202t227 77q110 0 195 -37v-96q-86 49 -197 49 q-211 0 -211 -188q0 -80 55.5 -132t212.5 -122q203 -94 203 -279q0 -162 -154 -283zM406 946q-144 -65 -144 -203q0 -98 59 -155.5t224 -130.5q69 51 100 100t31 129q0 77 -48 130t-222 130z"/>
    <glyph glyph-name="bullet" unicode="•" horiz-adv-x="811" d="M408 477q-101 0 -172.5 70t-71.5 166q0 97 71.5 169t172.5 72q99 0 169 -71t70 -170q0 -98 -70 -167t-169 -69z"/>
    <glyph glyph-name="paragraph" unicode="¶" horiz-adv-x="971" d="M733 1348v-1348h-86v1348h-198v-1348h-87v903q-105 0 -177 76t-72 188q0 121 75.5 194t180.5 73h495v-86h-131z"/>
    <glyph glyph-name="germandbls" unicode="ß" horiz-adv-x="1061" d="M430 -6v94q73 -29 141 -29q141 0 224.5 88t83.5 234q0 155 -109 257t-307 134v80q307 70 307 332q0 122 -64.5 193t-179.5 71q-128 0 -199 -91t-71 -255v-1100h-92v1114q0 196 101 306t270 110q149 0 240 -92t91 -242q0 -264 -256 -375v-4q170 -45 267.5 -161.5 t97.5 -270.5q0 -179 -111 -295.5t-289 -116.5q-69 0 -145 19z"/>
    <glyph glyph-name="uni00AD" unicode="­" horiz-adv-x="815" d="M145 555v90h547v-90h-547z"/>
    <glyph glyph-name="registered" unicode="®" horiz-adv-x="1804" d="M903 -25q-311 0 -529 216.5t-218 523.5q0 310 219.5 526.5t525.5 216.5q308 0 528 -217t220 -524q0 -308 -218.5 -525t-527.5 -217zM901 1382q-272 0 -468.5 -196t-196.5 -471q0 -273 195 -468.5t470 -195.5q277 0 472.5 196t195.5 468q0 275 -196.5 471t-471.5 196z M1155 242l-115 247q-50 107 -97 144t-105 37h-117v-428h-92v966h264q159 0 245.5 -69.5t86.5 -184.5q0 -222 -252 -268v-4q84 -17 160 -174l127 -266h-105zM721 1137v-396h194q98 0 156.5 54.5t58.5 142.5q0 199 -239 199h-170z"/>
    <glyph glyph-name="copyright" unicode="©" horiz-adv-x="1804" d="M903 -25q-311 0 -529 216.5t-218 523.5q0 310 219.5 526.5t525.5 216.5q308 0 528 -217t220 -524q0 -308 -218.5 -525t-527.5 -217zM901 1382q-272 0 -468.5 -196t-196.5 -471q0 -273 195 -468.5t470 -195.5q277 0 472.5 196t195.5 468q0 275 -196.5 471t-471.5 196z M1182 270q-123 -71 -250 -71q-209 0 -352.5 141t-143.5 350q0 246 145.5 390.5t366.5 144.5q127 0 230 -54v-86q-106 58 -246 58q-170 0 -287 -117.5t-117 -314.5q0 -192 121.5 -310t292.5 -118q130 0 240 67v-80z"/>
    <glyph glyph-name="trademark" unicode="™" horiz-adv-x="1585" d="M1294 772v533h-4l-227 -533h-68l-217 533h-4v-533h-82v662h115l223 -545h4l234 545h108v-662h-82zM373 1356v-584h-82v584h-221v78h526v-78h-223z"/>
    <glyph glyph-name="acute" unicode="´" horiz-adv-x="508" d="M227 1188h-90l234 328h104z"/>
    <glyph glyph-name="dieresis" unicode="¨" horiz-adv-x="817" d="M575 1188q-27 0 -49 19.5t-22 52.5q0 31 21.5 50t47.5 19q29 0 52.5 -19.5t23.5 -49.5q0 -31 -21.5 -51.5t-52.5 -20.5zM242 1188q-28 0 -50 19.5t-22 52.5q0 31 22 50t48 19q29 0 52 -19.5t23 -49.5q0 -31 -21 -51.5t-52 -20.5z"/>
    <glyph glyph-name="notequal" unicode="≠" horiz-adv-x="1331" d="M586 362l-187 -362h-92l189 362h-283v84h326l155 304h-481v84h526l183 354h90l-183 -354h291v-84h-334l-157 -304h491v-84h-534z"/>
    <glyph glyph-name="AE" unicode="Æ" horiz-adv-x="1706" d="M846 0v446h-502l-219 -446h-109l697 1434h803v-97h-572v-571h531v-90h-531v-586h604v-90h-702zM846 1337h-78l-383 -800h461v800z"/>
    <glyph glyph-name="Oslash" unicode="Ø" horiz-adv-x="1559" d="M317 147l-170 -202l-63 51l178 213q-153 200 -153 493q0 343 185.5 549.5t506.5 206.5q235 0 399 -131l139 166l64 -53l-141 -168q188 -201 188 -533q0 -356 -184 -560t-492 -204q-274 0 -457 172zM1139 1253q-144 115 -355 115q-250 0 -411.5 -181t-161.5 -474 q0 -258 117 -426zM1198 1196l-817 -973q153 -157 391 -157q266 0 421 173.5t155 483.5q0 298 -150 473z"/>
    <glyph glyph-name="infinity" unicode="∞" horiz-adv-x="1673" d="M836 512q-82 -143 -185 -218t-202 -75q-159 0 -258 103t-99 270q0 155 103 268t254 113q237 0 389 -293q80 142 184 217.5t205 75.5q160 0 258 -103.5t98 -269.5q0 -155 -102.5 -268t-253.5 -113q-235 0 -391 293zM877 596q141 -295 350 -295q123 0 196.5 84t73.5 215 q0 125 -76.5 209t-193.5 84q-192 0 -350 -297zM799 596q-144 297 -350 297q-123 0 -198 -84.5t-75 -216.5q0 -123 77 -207t196 -84q191 0 350 295z"/>
    <glyph glyph-name="plusminus" unicode="±" horiz-adv-x="1331" d="M709 633v-412h-84v412h-412v84h412v411h84v-411h411v-84h-411zM213 0v84h907v-84h-907z"/>
    <glyph glyph-name="lessequal" unicode="≤" horiz-adv-x="1331" d="M250 672v18l833 467v-94l-677 -379v-4l677 -334v-96zM213 63v84h907v-84h-907z"/>
    <glyph glyph-name="greaterequal" unicode="≥" horiz-adv-x="1331" d="M250 250v96l678 334v4l-678 379v94l833 -467v-18zM213 63v84h907v-84h-907z"/>
    <glyph glyph-name="yen" unicode="¥" horiz-adv-x="1055" d="M602 745h344v-83h-373v-246h373v-84h-373v-332h-92v332h-372v84h372v246h-372v83h342l-377 689h102l307 -572q37 -68 47 -96h5q20 66 43 100l311 568h96z"/>
    <glyph glyph-name="uni00B5" unicode="µ" horiz-adv-x="1116" d="M860 0v186h-4q-105 -211 -330 -211q-176 0 -262 123h-8v-489h-92v1415h92v-569q0 -210 69.5 -303t215.5 -93q144 0 231.5 105.5t87.5 279.5v580h92v-1024h-92z"/>
    <glyph glyph-name="partialdiff" unicode="∂" horiz-adv-x="1065" d="M889 821h4q8 46 8 148q0 432 -295 432q-118 0 -235 -84l22 102q117 66 225 66q185 0 280 -131.5t95 -382.5q0 -205 -63.5 -450.5t-201.5 -395.5t-320 -150q-158 0 -242 99t-84 268q0 250 144 466t386 216q192 0 277 -203zM874 705q-65 233 -270 233q-193 0 -309.5 -183.5 t-116.5 -408.5q0 -131 62.5 -209t175.5 -78q169 0 292 176t166 470z"/>
    <glyph glyph-name="summation" unicode="∑" horiz-adv-x="1251" d="M37 -471v35l721 925l-660 897v48h1055v-91h-903l627 -851l-676 -873h1016v-90h-1180z"/>
    <glyph glyph-name="product" unicode="∏" horiz-adv-x="1530" d="M1243 -471v1814h-954v-1814h-99v1905h1151v-1905h-98z"/>
    <glyph glyph-name="integral" unicode="∫" horiz-adv-x="1055" d="M874 1419q-37 29 -112 29q-189 0 -189 -254v-1360q0 -163 -81.5 -246.5t-202.5 -83.5q-66 0 -109 19v94q37 -29 113 -29q188 0 188 254v1360q0 162 81.5 246t203.5 84q65 0 108 -19v-94z"/>
    <glyph glyph-name="ordfeminine" unicode="ª" horiz-adv-x="745" d="M557 717v143h-4q-37 -75 -106.5 -117.5t-147.5 -42.5q-105 0 -164 59t-59 144q0 200 256 236l225 32q0 203 -166 203q-134 0 -254 -92v96q129 76 262 76q248 0 248 -274v-463h-90zM369 1069q-114 -16 -157.5 -50.5t-43.5 -111.5q0 -57 39 -92t110 -35q96 0 168 83t72 188 v45z"/>
    <glyph glyph-name="ordmasculine" unicode="º" horiz-adv-x="811" d="M420 696q-158 0 -253 106t-95 271q0 179 98.5 280t255.5 101q158 0 250 -101t92 -278q0 -163 -94 -271t-254 -108zM424 1374q-117 0 -187.5 -81t-70.5 -222q0 -133 70 -213t186 -80q119 0 184.5 79.5t65.5 219.5q0 139 -65 218t-183 79z"/>
    <glyph glyph-name="uni2126" unicode="Ω" horiz-adv-x="1546" d="M973 0v90q37 28 79 63.5t83.5 80.5t80 100t68 121.5t47 146t17.5 172.5q0 141 -41 251t-114.5 186.5t-176 116.5t-225.5 40q-134 0 -241.5 -42.5t-182.5 -119.5t-115.5 -186t-40.5 -242q0 -134 34.5 -240.5t89.5 -189.5t121.5 -146.5t131.5 -111.5v-90h-477v90h352 q-53 39 -115 100.5t-115 146.5t-88.5 195.5t-35.5 247.5q0 157 49.5 283t138 213.5t211.5 134.5t270 47t270 -43.5t212.5 -129t139.5 -211t50 -290.5q0 -123 -31.5 -229t-82 -194t-113.5 -156t-127 -115h354v-90h-477z"/>
    <glyph glyph-name="ae" unicode="æ" horiz-adv-x="1718" d="M868 508q0 -211 97.5 -330t267.5 -119q172 0 336 127v-98q-159 -113 -355 -113q-136 0 -240 74.5t-151 210.5h-4q-133 -285 -391 -285q-150 0 -236 80.5t-86 208.5q0 143 99 225t287 91l284 12q0 373 -239 373q-186 0 -338 -134v109q161 109 348 109q230 0 295 -254h4 q126 254 383 254q190 0 293.5 -133t103.5 -367v-41h-758zM1530 592q-6 177 -85 275t-218 98q-144 0 -238.5 -96.5t-116.5 -276.5h658zM776 508l-264 -8q-156 -5 -232.5 -58.5t-76.5 -173.5q0 -98 63.5 -153.5t171.5 -55.5q136 0 237 107.5t101 259.5v82z"/>
    <glyph glyph-name="oslash" unicode="ø" horiz-adv-x="1149" d="M961 870q98 -140 98 -360q0 -239 -129.5 -387t-354.5 -148q-192 0 -319 113l-166 -184l-61 57l170 189q-109 146 -109 356q0 255 136.5 399t359.5 144q199 0 321 -115l172 190l62 -55zM846 866q-99 99 -264 99q-181 0 -288.5 -122t-107.5 -339q0 -167 76 -285zM897 799 l-582 -643q104 -97 263 -97q185 0 285 120t100 333q0 171 -66 287z"/>
    <glyph glyph-name="questiondown" unicode="¿" horiz-adv-x="881" d="M557 626q10 -25 17.5 -65.5t7.5 -80.5q0 -47 -12.5 -85.5t-35 -72.5t-54 -66t-69.5 -65q-32 -29 -63 -60.5t-55 -67.5t-38.5 -78.5t-14.5 -93.5q0 -55 18.5 -98.5t51.5 -74t79.5 -46.5t102.5 -16q94 0 173.5 33t149.5 90v-107q-71 -54 -149.5 -80t-174.5 -26 q-74 0 -137.5 21t-110 61.5t-73 99t-26.5 133.5q0 57 16 104t41.5 87t58.5 75t67 68q52 50 86 84.5t53 62.5t26.5 54.5t7.5 62.5q0 46 -8 83.5t-16 63.5h81zM522 1042q34 0 56.5 -23.5t22.5 -57.5q0 -35 -22.5 -57.5t-56.5 -22.5q-35 0 -58.5 22.5t-23.5 57.5 q0 34 23.5 57.5t58.5 23.5z"/>
    <glyph glyph-name="uni00A0" unicode=" " horiz-adv-x="561"/>
    <glyph glyph-name="exclamdown" unicode="¡" horiz-adv-x="582" d="M293 881q-34 0 -58 22.5t-24 57.5q0 34 24 57.5t58 23.5t57 -23.5t23 -57.5q0 -35 -23 -57.5t-57 -22.5zM242 -408l10 1031h86l10 -1031h-106z"/>
    <glyph glyph-name="logicalnot" unicode="¬" horiz-adv-x="1331" d="M1034 147v408h-821v84h907v-492h-86z"/>
    <glyph glyph-name="radical" unicode="√" horiz-adv-x="1331" d="M700 -2h-77l-320 778h-164v82h228l286 -713l344 1371h82z"/>
    <glyph glyph-name="florin" unicode="ƒ" horiz-adv-x="1055" d="M911 1339q-32 13 -69 13q-178 0 -207 -201l-33 -231h172v-82h-184l-98 -705q-31 -221 -107.5 -316.5t-200.5 -95.5q-34 0 -71 13v82q41 -13 67 -13q176 0 219 324l97 711h-105v82h117l33 231q20 141 96.5 212t191.5 71q45 0 82 -11v-84z"/>
    <glyph glyph-name="approxequal" unicode="≈" horiz-adv-x="1331" d="M1087 907q-7 -113 -68.5 -177t-164.5 -64q-98 0 -201 84q-105 84 -176 84q-141 0 -153 -158h-78q6 113 68 177.5t165 64.5q95 0 195 -80q70 -55 105 -72.5t79 -17.5q134 0 152 159h77zM1087 518q-7 -114 -68.5 -178t-164.5 -64q-95 0 -201 84q-105 84 -176 84 q-141 0 -153 -157h-78q6 113 68.5 177t164.5 64q58 0 108 -24.5t132 -90.5q68 -55 139 -55q133 0 152 160h77z"/>
    <glyph glyph-name="uni0394" unicode="Δ" horiz-adv-x="1288" d="M82 0v59l518 1375h94l512 -1375v-59h-1124zM678 1200q-12 34 -18.5 59t-14.5 50h-4q-6 -23 -14.5 -52t-18.5 -55l-407 -1112h884z"/>
    <glyph glyph-name="guillemotleft" unicode="«" horiz-adv-x="952" d="M717 201l-277 336l277 344h114l-282 -344l280 -336h-112zM399 201l-276 336l276 344h113l-281 -344l281 -336h-113z"/>
    <glyph glyph-name="guillemotright" unicode="»" horiz-adv-x="952" d="M553 201h-113l283 344l-283 336h113l278 -336zM238 201h-117l285 344l-285 336h115l276 -336z"/>
    <glyph glyph-name="ellipsis" unicode="…" horiz-adv-x="1364" d="M1139 -16q-34 0 -57 23.5t-23 58.5q0 34 23 56.5t57 22.5t58 -22.5t24 -56.5q0 -35 -24 -58.5t-58 -23.5zM678 -16q-34 0 -57 23.5t-23 58.5q0 34 23 56.5t57 22.5t58 -22.5t24 -56.5q0 -35 -24 -58.5t-58 -23.5zM221 -16q-34 0 -57 23.5t-23 58.5q0 34 23 56.5t57 22.5 t58 -22.5t24 -56.5q0 -35 -24 -58.5t-58 -23.5z"/>
    <glyph glyph-name="Agrave" unicode="À" horiz-adv-x="1288" d="M1118 0l-164 446h-622l-164 -446h-109l541 1434h94l535 -1434h-111zM678 1200q-11 30 -18 59q-7 25 -15 50h-4q-17 -66 -33 -107l-241 -665h553zM719 1536l-248 328h104l234 -328h-90z"/>
    <glyph glyph-name="Atilde" unicode="Ã" horiz-adv-x="1288" d="M1118 0l-164 446h-622l-164 -446h-109l541 1434h94l535 -1434h-111zM678 1200q-11 30 -18 59q-7 25 -15 50h-4q-17 -66 -33 -107l-241 -665h553zM965 1768q0 -103 -48.5 -163t-130.5 -60q-66 0 -151 76q-64 55 -119 55q-102 0 -102 -143h-72q0 100 48 160.5t128 60.5 q72 0 160 -72q67 -59 117 -59q40 0 68 37t28 108h74z"/>
    <glyph glyph-name="Otilde" unicode="Õ" horiz-adv-x="1559" d="M774 -25q-304 0 -484.5 202t-180.5 525q0 343 185.5 549.5t506.5 206.5q290 0 469.5 -198.5t179.5 -520.5q0 -356 -184 -560t-492 -204zM784 1368q-250 0 -411.5 -181t-161.5 -474q0 -296 153 -471.5t408 -175.5q266 0 421 173.5t155 483.5q0 304 -151.5 474.5 t-412.5 170.5zM1091 1767q0 -103 -48.5 -163t-130.5 -60q-66 0 -151 76q-64 55 -119 55q-102 0 -102 -143h-72q0 100 48 160.5t128 60.5q72 0 160 -72q67 -59 117 -59q40 0 68 37t28 108h74z"/>
    <glyph glyph-name="OE" unicode="Œ" horiz-adv-x="1935" d="M1077 0q-174 -25 -282 -25q-326 0 -506 203t-180 524q0 344 187 550t515 206q141 0 266 -24h670v-91h-571v-575h530v-90h-530v-588h604v-90h-703zM1077 1341q-130 27 -272 27q-273 0 -433.5 -183t-160.5 -472q0 -292 152 -469.5t430 -177.5q139 0 284 30v1245z"/>
    <glyph glyph-name="oe" unicode="œ" horiz-adv-x="1886" d="M1057 508q0 -209 96.5 -329t267.5 -120q174 0 336 127v-98q-157 -113 -350 -113q-294 0 -395 297h-4q-116 -297 -433 -297q-226 0 -355.5 149t-129.5 382q0 258 137 400.5t359 142.5q156 0 268 -80t156 -217h4q115 297 407 297q190 0 292 -132.5t102 -367.5v-41h-758z M1718 592q-6 177 -85 275t-218 98q-145 0 -240 -98t-114 -275h657zM582 965q-181 0 -288.5 -122t-107.5 -339q0 -201 105 -323t287 -122q185 0 285 120t100 333q0 219 -99.5 336t-281.5 117z"/>
    <glyph glyph-name="endash" unicode="–" horiz-adv-x="1024" d="M0 555v90h1024v-90h-1024z"/>
    <glyph glyph-name="emdash" unicode="—" horiz-adv-x="2048" d="M0 555v90h2048v-90h-2048z"/>
    <glyph glyph-name="quotedblleft" unicode="“" horiz-adv-x="686" d="M465 985h-105l156 449h74zM219 985h-106l153 449h76z"/>
    <glyph glyph-name="quotedblright" unicode="”" horiz-adv-x="686" d="M436 985h-76l123 449h107zM186 985h-73l125 449h104z"/>
    <glyph glyph-name="quoteleft" unicode="‘" horiz-adv-x="438" d="M219 985h-106l153 449h76z"/>
    <glyph glyph-name="quoteright" unicode="’" horiz-adv-x="438" d="M186 985h-73l125 449h104z"/>
    <glyph glyph-name="divide" unicode="÷" horiz-adv-x="1331" d="M668 866q-32 0 -55 23t-23 55t23 54t55 22t53.5 -22t21.5 -54t-21.5 -55t-53.5 -23zM213 555v84h907v-84h-907zM668 174q-32 0 -55 23t-23 55t23 54t55 22t53.5 -22t21.5 -54t-21.5 -55t-53.5 -23z"/>
    <glyph glyph-name="lozenge" unicode="◊" horiz-adv-x="1135" d="M598 0h-59l-441 715l441 719h59l442 -717zM569 1335l-374 -618l374 -621l375 621z"/>
    <glyph glyph-name="ydieresis" unicode="ÿ" horiz-adv-x="928" d="M414 -209q-56 -138 -124 -205t-175 -67q-45 0 -80 14v92q36 -14 84 -14q123 0 194 170l95 227l-388 1016h103l309 -834q10 -27 14 -41q4 -19 9 -34h4l24 69l330 840h100zM636 1188q-27 0 -49 19.5t-22 52.5q0 31 21.5 50t47.5 19q29 0 52.5 -19.5t23.5 -49.5 q0 -31 -21.5 -51.5t-52.5 -20.5zM303 1188q-28 0 -50 19.5t-22 52.5q0 31 22 50t48 19q29 0 52 -19.5t23 -49.5q0 -31 -21 -51.5t-52 -20.5z"/>
    <glyph glyph-name="Ydieresis" unicode="Ÿ" horiz-adv-x="1106" d="M598 545v-545h-98v543l-439 891h111l334 -691q18 -36 45 -106h4q14 37 49 104l350 693h107zM716 1535q-27 0 -49 19.5t-22 52.5q0 31 21.5 50t47.5 19q29 0 52.5 -19.5t23.5 -49.5q0 -31 -21.5 -51.5t-52.5 -20.5zM383 1535q-28 0 -50 19.5t-22 52.5q0 31 22 50t48 19 q29 0 52 -19.5t23 -49.5q0 -31 -21 -51.5t-52 -20.5z"/>
    <glyph glyph-name="fraction" unicode="⁄" horiz-adv-x="246" d="M-244 0h-98l862 1434h96z"/>
    <glyph glyph-name="fraction" unicode="∕" horiz-adv-x="246" d="M-244 0h-98l862 1434h96z"/>
    <glyph glyph-name="Euro" unicode="€" horiz-adv-x="1055" d="M963 53q-130 -78 -275 -78q-178 0 -303 135t-162 390h-145v84h137q-4 48 -4 102q0 71 6 135h-139v84h149q44 264 178 408.5t324 144.5q128 0 234 -53v-102q-118 71 -242 71q-146 0 -254 -119.5t-145 -349.5h542v-84h-553q-4 -34 -4 -123q0 -58 4 -114h553v-84h-542 q33 -219 134 -330t244 -111q126 0 263 93v-99z"/>
    <glyph glyph-name="guilsinglleft" unicode="‹" horiz-adv-x="635" d="M401 201l-278 336l278 344h113l-283 -344l281 -336h-111z"/>
    <glyph glyph-name="guilsinglright" unicode="›" horiz-adv-x="635" d="M238 201h-115l285 344l-283 336h113l276 -336z"/>
    <glyph glyph-name="uniFB01" unicode="ﬁ" horiz-adv-x="985" d="M774 1282q-30 0 -53 22t-23 56q0 33 23.5 53.5t52.5 20.5q31 0 54.5 -20t23.5 -54q0 -32 -23 -55t-55 -23zM729 0v1024h92v-1024h-92zM612 1419q-37 29 -112 29q-189 0 -189 -254v-170h271v-84h-271v-940h-92v940h-184v84h184v178q0 162 81.5 246t203.5 84q65 0 108 -19 v-94z"/>
    <glyph glyph-name="uniFB02" unicode="ﬂ" horiz-adv-x="985" d="M612 1419q-37 29 -112 29q-189 0 -189 -254v-170h271v-84h-271v-940h-92v940h-184v84h184v178q0 162 81.5 246t203.5 84q65 0 108 -19v-94zM729 0v1516h92v-1516h-92z"/>
    <glyph glyph-name="daggerdbl" unicode="‡" horiz-adv-x="756" d="M708 519l-292 30l30 -320h-116l30 320l-312 -30v110l292 -20l38 222l-38 222l-292 -20v110l312 -30l-30 320h116l-30 -320l292 30v-110l-272 20l-38 -222l38 -222l272 20v-110z"/>
    <glyph glyph-name="periodcentered" unicode="·" horiz-adv-x="455" d="M227 625q-34 0 -57 24t-23 58t23 56.5t57 22.5t58 -22.5t24 -56.5t-24 -58t-58 -24z"/>
    <glyph glyph-name="quotesinglbase" unicode="‚" horiz-adv-x="438" d="M152 -225h-74l125 444h104z"/>
    <glyph glyph-name="quotedblbase" unicode="„" horiz-adv-x="686" d="M401 -229h-75l123 448h106zM152 -229h-74l125 448h104z"/>
    <glyph glyph-name="perthousand" unicode="‰" horiz-adv-x="2445" d="M414 729q-154 0 -243 101t-89 262q0 175 94.5 272.5t247.5 97.5q150 0 238 -97t88 -271q0 -156 -91.5 -260.5t-244.5 -104.5zM422 1380q-115 0 -181.5 -76.5t-66.5 -213.5q0 -129 64.5 -205t177.5 -76q114 0 178.5 78t64.5 209q0 141 -64 212.5t-173 71.5zM416 -33h-99 l863 1465h96zM2021 -25q-154 0 -242.5 101t-88.5 262q0 177 96 274t246 97t237.5 -98.5t87.5 -270.5q0 -156 -91.5 -260.5t-244.5 -104.5zM2030 627q-113 0 -180.5 -76.5t-67.5 -214.5q0 -128 64 -204.5t177 -76.5q115 0 179.5 77.5t64.5 209.5q0 142 -64 213.5t-173 71.5z M1198 -25q-153 0 -242.5 101t-89.5 262q0 177 96 274t246 97t238 -98t88 -271q0 -156 -91.5 -260.5t-244.5 -104.5zM1206 627q-114 0 -181 -78t-67 -213q0 -129 64.5 -205t177.5 -76q115 0 179.5 77.5t64.5 209.5q0 141 -64 213t-174 72z"/>
    <glyph glyph-name="Acircumflex" unicode="Â" horiz-adv-x="1288" d="M1118 0l-164 446h-622l-164 -446h-109l541 1434h94l535 -1434h-111zM678 1200q-11 30 -18 59q-7 25 -15 50h-4q-17 -66 -33 -107l-241 -665h553zM799 1535l-157 239l-160 -239h-82l221 336h45l219 -336h-86z"/>
    <glyph glyph-name="Ecircumflex" unicode="Ê" horiz-adv-x="1024" d="M184 0v1434h670v-91h-571v-575h530v-90h-530v-588h604v-90h-703zM699 1537l-157 239l-160 -239h-82l221 336h45l219 -336h-86z"/>
    <glyph glyph-name="Aacute" unicode="Á" horiz-adv-x="1288" d="M1118 0l-164 446h-622l-164 -446h-109l541 1434h94l535 -1434h-111zM678 1200q-11 30 -18 59q-7 25 -15 50h-4q-17 -66 -33 -107l-241 -665h553zM564 1530h-90l234 328h104z"/>
    <glyph glyph-name="Edieresis" unicode="Ë" horiz-adv-x="1024" d="M184 0v1434h670v-91h-571v-575h530v-90h-530v-588h604v-90h-703zM714 1536q-27 0 -49 19.5t-22 52.5q0 31 21.5 50t47.5 19q29 0 52.5 -19.5t23.5 -49.5q0 -31 -21.5 -51.5t-52.5 -20.5zM381 1536q-28 0 -50 19.5t-22 52.5q0 31 22 50t48 19q29 0 52 -19.5t23 -49.5 q0 -31 -21 -51.5t-52 -20.5z"/>
    <glyph glyph-name="Egrave" unicode="È" horiz-adv-x="1024" d="M184 0v1434h670v-91h-571v-575h530v-90h-530v-588h604v-90h-703zM556 1536l-248 328h104l234 -328h-90z"/>
    <glyph glyph-name="Iacute" unicode="Í" horiz-adv-x="463" d="M421 1434v-90h-140v-1254h140v-90h-379v90h140v1254h-140v90h379zM260 1536h-90l234 328h104z"/>
    <glyph glyph-name="Icircumflex" unicode="Î" horiz-adv-x="463" d="M421 1434v-90h-140v-1254h140v-90h-379v90h140v1254h-140v90h379zM389 1537l-157 239l-160 -239h-82l221 336h45l219 -336h-86z"/>
    <glyph glyph-name="Idieresis" unicode="Ï" horiz-adv-x="463" d="M421 1434v-90h-140v-1254h140v-90h-379v90h140v1254h-140v90h379zM397 1536q-27 0 -49 19.5t-22 52.5q0 31 21.5 50t47.5 19q29 0 52.5 -19.5t23.5 -49.5q0 -31 -21.5 -51.5t-52.5 -20.5zM64 1536q-28 0 -50 19.5t-22 52.5q0 31 22 50t48 19q29 0 52 -19.5t23 -49.5 q0 -31 -21 -51.5t-52 -20.5z"/>
    <glyph glyph-name="Igrave" unicode="Ì" horiz-adv-x="463" d="M421 1434v-90h-140v-1254h140v-90h-379v90h140v1254h-140v90h379zM211 1536l-248 328h104l234 -328h-90z"/>
    <glyph glyph-name="Oacute" unicode="Ó" horiz-adv-x="1559" d="M774 -25q-304 0 -484.5 202t-180.5 525q0 343 185.5 549.5t506.5 206.5q290 0 469.5 -198.5t179.5 -520.5q0 -356 -184 -560t-492 -204zM784 1368q-250 0 -411.5 -181t-161.5 -474q0 -296 153 -471.5t408 -175.5q266 0 421 173.5t155 483.5q0 304 -151.5 474.5 t-412.5 170.5zM731 1536h-90l234 328h104z"/>
    <glyph glyph-name="Ocircumflex" unicode="Ô" horiz-adv-x="1559" d="M774 -25q-304 0 -484.5 202t-180.5 525q0 343 185.5 549.5t506.5 206.5q290 0 469.5 -198.5t179.5 -520.5q0 -356 -184 -560t-492 -204zM784 1368q-250 0 -411.5 -181t-161.5 -474q0 -296 153 -471.5t408 -175.5q266 0 421 173.5t155 483.5q0 304 -151.5 474.5 t-412.5 170.5zM935 1536l-157 239l-160 -239h-82l221 336h45l219 -336h-86z"/>
    <glyph glyph-name="Ograve" unicode="Ò" horiz-adv-x="1559" d="M774 -25q-304 0 -484.5 202t-180.5 525q0 343 185.5 549.5t506.5 206.5q290 0 469.5 -198.5t179.5 -520.5q0 -356 -184 -560t-492 -204zM784 1368q-250 0 -411.5 -181t-161.5 -474q0 -296 153 -471.5t408 -175.5q266 0 421 173.5t155 483.5q0 304 -151.5 474.5 t-412.5 170.5zM866 1535l-248 328h104l234 -328h-90z"/>
    <glyph glyph-name="Uacute" unicode="Ú" horiz-adv-x="1327" d="M1161 573q0 -598 -510 -598q-485 0 -485 576v883h98v-869q0 -499 406 -499q393 0 393 485v883h98v-861zM663 1535h-90l234 328h104z"/>
    <glyph glyph-name="Ucircumflex" unicode="Û" horiz-adv-x="1327" d="M1161 573q0 -598 -510 -598q-485 0 -485 576v883h98v-869q0 -499 406 -499q393 0 393 485v883h98v-861zM859 1537l-157 239l-160 -239h-82l221 336h45l219 -336h-86z"/>
    <glyph glyph-name="Ugrave" unicode="Ù" horiz-adv-x="1327" d="M1161 573q0 -598 -510 -598q-485 0 -485 576v883h98v-869q0 -499 406 -499q393 0 393 485v883h98v-861zM683 1536l-248 328h104l234 -328h-90z"/>
    <glyph glyph-name="dotlessi" unicode="ı" horiz-adv-x="420" d="M164 0v1024h92v-1024h-92z"/>
    <glyph glyph-name="circumflex" unicode="ˆ" horiz-adv-x="766" d="M528 1188l-157 239l-160 -239h-82l221 336h45l219 -336h-86z"/>
    <glyph glyph-name="tilde" unicode="˜" horiz-adv-x="649" d="M664 1423q0 -103 -48.5 -163t-130.5 -60q-66 0 -151 76q-64 55 -119 55q-102 0 -102 -143h-72q0 100 48 160.5t128 60.5q72 0 160 -72q67 -59 117 -59q40 0 68 37t28 108h74z"/>
    <glyph glyph-name="uni02C9" unicode="ˉ" horiz-adv-x="635" d="M61 1188v84h508v-84h-508z"/>
    <glyph glyph-name="breve" unicode="˘" horiz-adv-x="610" d="M573 1423q-16 -108 -89.5 -171.5t-182.5 -63.5q-110 0 -182.5 62t-81.5 173h84q6 -75 55.5 -117t126.5 -42q68 0 120.5 43.5t61.5 115.5h88z"/>
    <glyph glyph-name="dotaccent" unicode="˙" horiz-adv-x="365" d="M182 1188q-31 0 -54.5 22t-23.5 56t23.5 53.5t52.5 19.5q31 0 55.5 -19.5t24.5 -53.5q0 -32 -23 -55t-55 -23z"/>
    <glyph glyph-name="ring" unicode="˚" horiz-adv-x="594" d="M297 1188q-86 0 -143.5 50.5t-57.5 133.5q0 80 57 132t144 52q88 0 144.5 -50.5t56.5 -133.5q0 -80 -58 -132t-143 -52zM297 1489q-57 0 -92 -32t-35 -85t36.5 -85t90.5 -32q57 0 93 32.5t36 84.5q0 57 -37.5 87t-91.5 30z"/>
    <glyph glyph-name="cedilla" unicode="¸" horiz-adv-x="412" d="M57 -430v74q50 -6 86 -6q160 0 160 92q0 86 -145 86q-32 0 -64 -4v188h72v-117q225 0 225 -147q0 -170 -254 -170q-36 0 -80 4z"/>
    <glyph glyph-name="hungarumlaut" unicode="˝" horiz-adv-x="633" d="M365 1188h-74l211 317h110zM143 1188h-73l211 317h110z"/>
    <glyph glyph-name="ogonek" unicode="˛" horiz-adv-x="362" d="M305 0q-170 -135 -170 -240q0 -88 84 -88q38 0 80 17v-70q-49 -18 -94 -18q-70 0 -113 40.5t-43 112.5q0 55 42.5 122t125.5 124h88z"/>
    <glyph glyph-name="caron" unicode="ˇ" horiz-adv-x="766" d="M412 1188h-45l-220 336h86l158 -240l160 240h82z"/>
    <glyph glyph-name="Lslash" unicode="Ł" horiz-adv-x="938" d="M184 0v569l-114 -69v96l114 70v768h99v-709l366 223v-96l-366 -223v-539h575v-90h-674z"/>
    <glyph glyph-name="lslash" unicode="ł" horiz-adv-x="502" d="M297 700v-700h-92v631l-180 -137v96l180 137v789h92v-719l182 135v-96z"/>
    <glyph glyph-name="Scaron" unicode="Š" horiz-adv-x="1018" d="M139 51v113q154 -98 312 -98q168 0 255 69.5t87 194.5q0 110 -58.5 175.5t-253.5 178.5q-218 127 -276 212.5t-58 197.5q0 152 118 258t315 106q128 0 256 -43v-104q-126 57 -269 57q-146 0 -231.5 -74t-85.5 -188q0 -110 58.5 -175t252.5 -177q201 -114 267.5 -202.5 t66.5 -203.5q0 -165 -114.5 -269t-323.5 -104q-74 0 -170.5 23t-147.5 53zM566 1567h-45l-220 336h86l158 -240l160 240h82z"/>
    <glyph glyph-name="scaron" unicode="š" horiz-adv-x="795" d="M111 45v111q52 -45 126 -71t128 -26q241 0 241 197q0 68 -53 116t-172 99q-147 64 -206.5 132.5t-59.5 166.5q0 125 95.5 202t235.5 77q132 0 226 -54v-104q-114 74 -236 74q-101 0 -163 -52.5t-62 -136.5q0 -73 39 -118.5t172 -104.5q160 -72 220 -133.5t60 -163.5 q0 -122 -91.5 -201.5t-252.5 -79.5q-148 0 -247 70zM445 1188h-45l-220 336h86l158 -240l160 240h82z"/>
    <glyph glyph-name="Zcaron" unicode="Ž" horiz-adv-x="1167" d="M215 90h858v-90h-1007v31l868 1312h-799v91h952v-27zM648 1535h-45l-220 336h86l158 -240l160 240h82z"/>
    <glyph glyph-name="zcaron" unicode="ž" horiz-adv-x="950" d="M207 84h661v-84h-811v35l680 905h-631v84h787v-25zM530 1188h-45l-220 336h86l158 -240l160 240h82z"/>
    <glyph glyph-name="brokenbar" unicode="¦" horiz-adv-x="463" d="M184 715v852h95v-852h-95zM184 -481v852h95v-852h-95z"/>
    <glyph glyph-name="Eth" unicode="Ð" horiz-adv-x="1380" d="M184 0v668h-149v88h149v678h359q358 0 543.5 -177.5t185.5 -519.5q0 -332 -201.5 -534.5t-548.5 -202.5h-338zM283 1343v-587h403v-88h-403v-578h225q318 0 489.5 165t171.5 478q0 610 -641 610h-245z"/>
    <glyph glyph-name="eth" unicode="ð" horiz-adv-x="1090" d="M801 956l4 5q-102 180 -219 296l-299 -149l-35 70l276 133q-127 115 -252 202h150q81 -58 186 -155l301 149l35 -71l-280 -136q163 -169 247 -377t84 -413q0 -235 -121 -385t-331 -150q-220 0 -338.5 144t-118.5 387q0 241 128.5 392t338.5 151q147 0 244 -93zM557 965 q-167 0 -269 -127t-102 -334t96.5 -326t266.5 -119q163 0 258.5 122t95.5 331q0 453 -346 453z"/>
    <glyph glyph-name="Yacute" unicode="Ý" horiz-adv-x="1106" d="M598 545v-545h-98v543l-439 891h111l334 -691q18 -36 45 -106h4q14 37 49 104l350 693h107zM532 1567h-90l234 328h104z"/>
    <glyph glyph-name="yacute" unicode="ý" horiz-adv-x="928" d="M414 -209q-56 -138 -124 -205t-175 -67q-45 0 -80 14v92q36 -14 84 -14q123 0 194 170l95 227l-388 1016h103l309 -834q10 -27 14 -41q4 -19 9 -34h4l24 69l330 840h100zM448 1188h-90l234 328h104z"/>
    <glyph glyph-name="Thorn" unicode="Þ" horiz-adv-x="1114" d="M283 338v-338h-99v1434h99v-238h247q455 0 455 -403q0 -204 -133 -329.5t-367 -125.5h-202zM283 1106v-678h204q191 0 293.5 91.5t102.5 260.5q0 326 -371 326h-229z"/>
    <glyph glyph-name="thorn" unicode="þ" horiz-adv-x="1147" d="M260 182h-4v-653h-92v1987h92v-703h4q55 113 157.5 174.5t225.5 61.5q195 0 304.5 -134.5t109.5 -365.5q0 -257 -125.5 -415.5t-331.5 -158.5q-230 0 -340 207zM256 563v-129q0 -154 97 -264.5t255 -110.5q157 0 255 134.5t98 353.5q0 192 -90 305t-240 113 q-179 0 -277 -120t-98 -282z"/>
    <glyph glyph-name="minus" unicode="−" horiz-adv-x="1331" d="M213 555v84h907v-84h-907z"/>
    <glyph glyph-name="multiply" unicode="×" horiz-adv-x="1331" d="M999 203l-333 336l-334 -336l-60 59l334 334l-334 336l60 59l334 -336l333 336l60 -59l-334 -336l334 -334z"/>
    <glyph glyph-name="onenumerator" horiz-adv-x="674" d="M600 584h-471v82h195v682l-209 -70v88l295 94v-794h190v-82z"/>
    <glyph glyph-name="twonumerator" horiz-adv-x="674" d="M596 584h-518v100l239 234q61 59 97.5 102t56 77t25.5 62.5t6 59.5q0 153 -158 153q-109 0 -221 -98v102q56 38 112 58t115 20q57 0 102 -16t76.5 -45.5t48.5 -70.5t17 -91q0 -39 -9.5 -77t-34 -81t-67 -94t-108.5 -115l-193 -186v-4h414v-90z"/>
    <glyph glyph-name="threenumerator" horiz-adv-x="674" d="M561 811q0 -54 -19 -100t-55 -79.5t-88 -53t-118 -19.5q-107 0 -193 47v96q100 -63 195 -63q91 0 141.5 47t50.5 125q0 168 -235 168h-70v80h61q215 0 215 172q0 137 -153 137q-71 0 -172 -53v90q49 23 96.5 34t93.5 11q52 0 93.5 -15t70.5 -42.5t44.5 -65.5t15.5 -84 q0 -162 -148 -215v-4q85 -19 129.5 -77t44.5 -136z"/>
    <glyph glyph-name="onehalf" unicode="½" horiz-adv-x="1622" d="M600 584h-471v82h195v682l-209 -70v88l295 94v-794h190v-82zM430 0h-98l862 1434h96zM1542 0h-518v100l240 234q60 59 96.5 102t56 77t25.5 62.5t6 59.5q0 153 -158 153q-111 0 -221 -98v103q112 77 227 77q57 0 102 -16t76.5 -45.5t48.5 -70.5t17 -91q0 -38 -9.5 -76 t-34 -81t-67 -94t-108.5 -115l-193 -187v-4h414v-90z"/>
    <glyph glyph-name="onequarter" unicode="¼" horiz-adv-x="1513" d="M600 584h-471v82h195v682l-209 -70v88l295 94v-794h190v-82zM430 0h-98l862 1434h96zM1358 219v-219h-82v219h-393v64l385 567h90v-553h110v-78h-110zM1274 741q-33 -61 -45 -77l-246 -367h293v369l2 75h-4z"/>
    <glyph glyph-name="threequarters" unicode="¾" horiz-adv-x="1513" d="M561 811q0 -54 -19 -100t-55 -79.5t-88 -53t-118 -19.5q-107 0 -193 47v96q100 -63 195 -63q91 0 141.5 47t50.5 125q0 168 -235 168h-70v80h61q215 0 215 172q0 137 -153 137q-71 0 -172 -53v90q49 23 96.5 34t93.5 11q52 0 93.5 -15t70.5 -42.5t44.5 -65.5t15.5 -84 q0 -162 -148 -215v-4q85 -19 129.5 -77t44.5 -136zM430 0h-98l862 1434h96zM1358 219v-219h-82v219h-393v64l385 567h90v-553h110v-78h-110zM1274 741q-33 -61 -45 -77l-246 -367h293v369l2 75h-4z"/>
    <glyph glyph-name="franc" unicode="₣" horiz-adv-x="952" d="M555 323h-272v-323h-99v323h-159v90h159v1021h670v-91h-571v-585h530v-90h-530v-255h272v-90z"/>
    <glyph glyph-name="Gbreve" unicode="Ğ" horiz-adv-x="1368" d="M1221 100q-222 -125 -457 -125q-293 0 -474 199t-181 522q0 326 195 544t521 218q189 0 367 -76v-108q-195 94 -381 94q-271 0 -435.5 -185t-164.5 -472q0 -302 154.5 -473.5t416.5 -171.5q194 0 340 84v473h-338v90h437v-613zM1054 1770q-16 -108 -89.5 -171.5 t-182.5 -63.5q-110 0 -182.5 62t-81.5 173h84q6 -75 55.5 -117t126.5 -42q68 0 120.5 43.5t61.5 115.5h88z"/>
    <glyph glyph-name="gbreve" unicode="ğ" horiz-adv-x="1147" d="M983 76q0 -289 -126 -423t-392 -134q-148 0 -305 78v96q162 -90 307 -90q424 0 424 448v133h-4q-121 -209 -369 -209q-189 0 -308.5 137t-119.5 382t129 400t340 155q226 0 328 -187h4v162h92v-948zM891 631q0 136 -91.5 235t-238.5 99q-169 0 -272 -127t-103 -336 q0 -210 94.5 -326.5t249.5 -116.5q165 0 263 107t98 262v203zM846 1423q-16 -108 -89.5 -171.5t-182.5 -63.5q-110 0 -182.5 62t-81.5 173h84q6 -75 55.5 -117t126.5 -42q68 0 120.5 43.5t61.5 115.5h88z"/>
    <glyph glyph-name="Idotaccent" unicode="İ" horiz-adv-x="463" d="M421 1434v-90h-140v-1254h140v-90h-379v90h140v1254h-140v90h379zM231 1537q-31 0 -54.5 22t-23.5 56t23.5 53.5t52.5 19.5q31 0 55.5 -19.5t24.5 -53.5q0 -32 -23 -55t-55 -23z"/>
    <glyph glyph-name="Scedilla" unicode="Ş" horiz-adv-x="1018" d="M139 51v113q154 -98 312 -98q168 0 255 69.5t87 194.5q0 110 -58.5 175.5t-253.5 178.5q-218 127 -276 212.5t-58 197.5q0 152 118 258t315 106q128 0 256 -43v-104q-126 57 -269 57q-146 0 -231.5 -74t-85.5 -188q0 -110 58.5 -175t252.5 -177q201 -114 267.5 -202.5 t66.5 -203.5q0 -165 -114.5 -269t-323.5 -104q-74 0 -170.5 23t-147.5 53zM397 -430v74q50 -6 86 -6q160 0 160 92q0 86 -145 86q-32 0 -64 -4v188h72v-117q225 0 225 -147q0 -170 -254 -170q-36 0 -80 4z"/>
    <glyph glyph-name="scedilla" unicode="ş" horiz-adv-x="795" d="M111 45v111q52 -45 126 -71t128 -26q241 0 241 197q0 68 -53 116t-172 99q-147 64 -206.5 132.5t-59.5 166.5q0 125 95.5 202t235.5 77q132 0 226 -54v-104q-114 74 -236 74q-101 0 -163 -52.5t-62 -136.5q0 -73 39 -118.5t172 -104.5q160 -72 220 -133.5t60 -163.5 q0 -122 -91.5 -201.5t-252.5 -79.5q-148 0 -247 70zM277 -430v74q50 -6 86 -6q160 0 160 92q0 86 -145 86q-32 0 -64 -4v188h72v-117q225 0 225 -147q0 -170 -254 -170q-36 0 -80 4z"/>
    <glyph glyph-name="Cacute" unicode="Ć" horiz-adv-x="1272" d="M1137 47q-174 -72 -363 -72q-294 0 -479.5 197.5t-185.5 515.5q0 349 201 559.5t511 210.5q165 0 316 -53v-105q-151 68 -318 68q-270 0 -439 -183t-169 -487q0 -293 161.5 -462.5t409.5 -169.5q198 0 355 77v-96zM696 1536h-90l234 328h104z"/>
    <glyph glyph-name="cacute" unicode="ć" horiz-adv-x="909" d="M827 45q-114 -70 -272 -70q-209 0 -337 143.5t-128 375.5q0 244 144 399.5t370 155.5q117 0 227 -48v-104q-110 68 -241 68q-180 0 -292 -129.5t-112 -335.5q0 -199 102.5 -320t270.5 -121q154 0 268 82v-96zM510 1188h-90l234 328h104z"/>
    <glyph glyph-name="Ccaron" unicode="Č" horiz-adv-x="1272" d="M1137 47q-174 -72 -363 -72q-294 0 -479.5 197.5t-185.5 515.5q0 349 201 559.5t511 210.5q165 0 316 -53v-105q-151 68 -318 68q-270 0 -439 -183t-169 -487q0 -293 161.5 -462.5t409.5 -169.5q198 0 355 77v-96zM802 1536h-45l-220 336h86l158 -240l160 240h82z"/>
    <glyph glyph-name="ccaron" unicode="č" horiz-adv-x="909" d="M827 45q-114 -70 -272 -70q-209 0 -337 143.5t-128 375.5q0 244 144 399.5t370 155.5q117 0 227 -48v-104q-110 68 -241 68q-180 0 -292 -129.5t-112 -335.5q0 -199 102.5 -320t270.5 -121q154 0 268 82v-96zM598 1188h-45l-220 336h86l158 -240l160 240h82z"/>
    <glyph glyph-name="dcroat" unicode="đ" horiz-adv-x="1147" d="M891 0v186h-4q-50 -97 -148 -154t-221 -57q-189 0 -308.5 138t-119.5 381q0 248 130.5 401.5t338.5 153.5q230 0 328 -189h4v371h-335v84h335v201h92v-201h135v-84h-135v-1231h-92zM891 623q0 143 -90.5 242.5t-243.5 99.5q-161 0 -266 -123.5t-105 -339.5 q0 -212 94.5 -327.5t243.5 -115.5q175 0 271 108.5t96 264.5v191z"/>
    <glyph glyph-name="uni00AF" unicode="¯" horiz-adv-x="850" d="M0 1641v90h850v-90h-850z"/>
    <glyph glyph-name="uni2219" unicode="∙" horiz-adv-x="444" d="M227 625q-34 0 -57 24t-23 58t23 56.5t57 22.5t58 -22.5t24 -56.5t-24 -58t-58 -24z"/>
    <glyph glyph-name="Abreve" unicode="Ă" horiz-adv-x="1288" d="M1118 0l-164 446h-622l-164 -446h-109l541 1434h94l535 -1434h-111zM678 1200q-11 30 -18 59q-7 25 -15 50h-4q-17 -66 -33 -107l-241 -665h553zM919 1772q-16 -108 -89.5 -171.5t-182.5 -63.5q-110 0 -182.5 62t-81.5 173h84q6 -75 55.5 -117t126.5 -42q68 0 120.5 43.5 t61.5 115.5h88z"/>
    <glyph glyph-name="abreve" unicode="ă" horiz-adv-x="1012" d="M776 0v205h-4q-49 -105 -142.5 -167.5t-207.5 -62.5q-146 0 -231 82t-85 207q0 268 355 324l315 47q0 330 -248 330q-169 0 -329 -136v111q57 45 154.5 77t183.5 32q158 0 244.5 -98t86.5 -285v-666h-92zM494 510q-161 -23 -226 -74.5t-65 -167.5q0 -91 60.5 -150 t168.5 -59q148 0 246 109.5t98 282.5v100zM784 1423q-16 -108 -89.5 -171.5t-182.5 -63.5q-110 0 -182.5 62t-81.5 173h84q6 -75 55.5 -117t126.5 -42q68 0 120.5 43.5t61.5 115.5h88z"/>
    <glyph glyph-name="Aogonek" unicode="Ą" horiz-adv-x="1288" d="M1118 0l-164 446h-622l-164 -446h-109l541 1434h94l535 -1434h-111zM678 1200q-11 30 -18 59q-7 25 -15 50h-4q-17 -66 -33 -107l-241 -665h553zM1206 0q-170 -135 -170 -240q0 -88 84 -88q38 0 80 17v-70q-49 -18 -94 -18q-70 0 -113 40.5t-43 112.5q0 55 42.5 122 t125.5 124h88z"/>
    <glyph glyph-name="aogonek" unicode="ą" horiz-adv-x="1012" d="M776 0v205h-4q-49 -105 -142.5 -167.5t-207.5 -62.5q-146 0 -231 82t-85 207q0 268 355 324l315 47q0 330 -248 330q-169 0 -329 -136v111q57 45 154.5 77t183.5 32q158 0 244.5 -98t86.5 -285v-666h-92zM494 510q-161 -23 -226 -74.5t-65 -167.5q0 -91 60.5 -150 t168.5 -59q148 0 246 109.5t98 282.5v100zM864 0q-170 -135 -170 -240q0 -88 84 -88q38 0 80 17v-70q-49 -18 -94 -18q-70 0 -113 40.5t-43 112.5q0 55 42.5 122t125.5 124h88z"/>
    <glyph glyph-name="Dcaron" unicode="Ď" horiz-adv-x="1380" d="M184 0v1434h359q357 0 543 -178t186 -519q0 -328 -199.5 -532.5t-550.5 -204.5h-338zM283 1343v-1253h225q319 0 490 165.5t171 477.5q0 610 -641 610h-245zM691 1536h-45l-220 336h86l158 -240l160 240h82z"/>
    <glyph glyph-name="dcaron" unicode="ď" horiz-adv-x="1254" d="M891 0v186h-4q-50 -97 -148 -154t-221 -57q-189 0 -308.5 138t-119.5 381q0 248 130.5 401.5t338.5 153.5q230 0 328 -189h4v656h92v-1516h-92zM891 623q0 143 -90.5 242.5t-243.5 99.5q-161 0 -266 -123.5t-105 -339.5q0 -212 94.5 -327.5t243.5 -115.5q175 0 271 108.5 t96 264.5v191zM1301 1516l-126 -261h-79l93 261h112z"/>
    <glyph glyph-name="Dcroat" unicode="Đ" horiz-adv-x="1380" d="M184 0v668h-149v88h149v678h359q358 0 543.5 -177.5t185.5 -519.5q0 -332 -201.5 -534.5t-548.5 -202.5h-338zM283 1343v-587h403v-88h-403v-578h225q318 0 489.5 165t171.5 478q0 610 -641 610h-245z"/>
    <glyph glyph-name="Eogonek" unicode="Ę" horiz-adv-x="1024" d="M184 0v1434h670v-91h-571v-575h530v-90h-530v-588h604v-90h-703zM845 0q-170 -135 -170 -240q0 -88 84 -88q38 0 80 17v-70q-49 -18 -94 -18q-70 0 -113 40.5t-43 112.5q0 55 42.5 122t125.5 124h88z"/>
    <glyph glyph-name="eogonek" unicode="ę" horiz-adv-x="1034" d="M186 508q0 -211 97.5 -330t267.5 -119q172 0 336 127v-98q-159 -113 -355 -113q-198 0 -320 142t-122 401q0 224 127.5 377.5t331.5 153.5q191 0 293 -134t102 -366v-41h-758zM848 592q-6 177 -85 275t-218 98q-144 0 -238.5 -96.5t-116.5 -276.5h658zM675 0 q-170 -135 -170 -240q0 -88 84 -88q38 0 80 17v-70q-49 -18 -94 -18q-70 0 -113 40.5t-43 112.5q0 55 42.5 122t125.5 124h88z"/>
    <glyph glyph-name="Ecaron" unicode="Ě" horiz-adv-x="1024" d="M184 0v1434h670v-91h-571v-575h530v-90h-530v-588h604v-90h-703zM542 1536h-45l-220 336h86l158 -240l160 240h82z"/>
    <glyph glyph-name="ecaron" unicode="ě" horiz-adv-x="1034" d="M186 508q0 -211 97.5 -330t267.5 -119q172 0 336 127v-98q-159 -113 -355 -113q-198 0 -320 142t-122 401q0 224 127.5 377.5t331.5 153.5q191 0 293 -134t102 -366v-41h-758zM848 592q-6 177 -85 275t-218 98q-144 0 -238.5 -96.5t-116.5 -276.5h658zM556 1188h-45 l-220 336h86l158 -240l160 240h82z"/>
    <glyph glyph-name="Lacute" unicode="Ĺ" horiz-adv-x="938" d="M184 0v1434h99v-1344h575v-90h-674zM559 1536h-90l234 328h104z"/>
    <glyph glyph-name="lacute" unicode="ĺ" horiz-adv-x="420" d="M164 0v1516h92v-1516h-92zM239 1621h-90l234 328h104z"/>
    <glyph glyph-name="Lcaron" unicode="Ľ" horiz-adv-x="938" d="M184 0v1434h99v-1344h575v-90h-674zM825 1434l-126 -261h-79l93 261h112z"/>
    <glyph glyph-name="lcaron" unicode="ľ" horiz-adv-x="527" d="M164 0v1516h92v-1516h-92zM574 1516l-126 -261h-79l93 261h112z"/>
    <glyph glyph-name="Ldot" unicode="Ŀ" horiz-adv-x="938" d="M184 0v1434h99v-1344h575v-90h-674zM655 625q-34 0 -57 24t-23 58t23 56.5t57 22.5t58 -22.5t24 -56.5t-24 -58t-58 -24z"/>
    <glyph glyph-name="ldot" unicode="ŀ" horiz-adv-x="538" d="M164 0v1516h92v-1516h-92zM455 625q-34 0 -57 24t-23 58t23 56.5t57 22.5t58 -22.5t24 -56.5t-24 -58t-58 -24z"/>
    <glyph glyph-name="Nacute" unicode="Ń" horiz-adv-x="1452" d="M1198 0l-854 1159q-26 35 -46 70l-13 20h-4q2 -26 2 -63v-1186h-99v1434h76l848 -1149q28 -38 61 -92h5q-5 70 -5 120v1121h99v-1434h-70zM709 1536h-90l234 328h104z"/>
    <glyph glyph-name="nacute" unicode="ń" horiz-adv-x="1096" d="M860 0v596q0 369 -266 369q-148 0 -243 -108.5t-95 -268.5v-588h-92v1024h92v-186h4q112 211 350 211q166 0 254 -110.5t88 -315.5v-623h-92zM539 1188h-90l234 328h104z"/>
    <glyph glyph-name="Ncaron" unicode="Ň" horiz-adv-x="1452" d="M1198 0l-854 1159q-26 35 -46 70l-13 20h-4q2 -26 2 -63v-1186h-99v1434h76l848 -1149q28 -38 61 -92h5q-5 70 -5 120v1121h99v-1434h-70zM763 1536h-45l-220 336h86l158 -240l160 240h82z"/>
    <glyph glyph-name="ncaron" unicode="ň" horiz-adv-x="1096" d="M860 0v596q0 369 -266 369q-148 0 -243 -108.5t-95 -268.5v-588h-92v1024h92v-186h4q112 211 350 211q166 0 254 -110.5t88 -315.5v-623h-92zM594 1188h-45l-220 336h86l158 -240l160 240h82z"/>
    <glyph glyph-name="Ohungarumlaut" unicode="Ő" horiz-adv-x="1559" d="M774 -25q-304 0 -484.5 202t-180.5 525q0 343 185.5 549.5t506.5 206.5q290 0 469.5 -198.5t179.5 -520.5q0 -356 -184 -560t-492 -204zM784 1368q-250 0 -411.5 -181t-161.5 -474q0 -296 153 -471.5t408 -175.5q266 0 421 173.5t155 483.5q0 304 -151.5 474.5 t-412.5 170.5zM865 1537h-74l211 317h110zM643 1537h-73l211 317h110z"/>
    <glyph glyph-name="ohungarumlaut" unicode="ő" horiz-adv-x="1149" d="M575 -25q-224 0 -354.5 147.5t-130.5 383.5q0 255 136.5 399t359.5 144q219 0 346 -143t127 -396q0 -239 -129.5 -387t-354.5 -148zM582 965q-181 0 -288.5 -122t-107.5 -339q0 -201 105 -323t287 -122q185 0 285 120t100 333q0 219 -99.5 336t-281.5 117zM676 1188h-74 l211 317h110zM454 1188h-73l211 317h110z"/>
    <glyph glyph-name="Racute" unicode="Ŕ" horiz-adv-x="1137" d="M918 0l-191 420q-59 130 -118 174.5t-148 44.5h-178v-639h-99v1434h398q190 0 298.5 -102.5t108.5 -270.5q0 -155 -89 -259t-249 -134v-4q85 -34 166 -207l213 -457h-112zM283 1343v-614h247q164 0 260.5 86t96.5 236q0 137 -87 214.5t-249 77.5h-268zM555 1536h-90 l234 328h104z"/>
    <glyph glyph-name="racute" unicode="ŕ" horiz-adv-x="676" d="M647 928q-46 33 -108 33q-121 0 -203 -125t-82 -355v-481h-90v1024h90v-227h4q35 117 111 182t176 65q57 0 102 -18v-98zM391 1188h-90l234 328h104z"/>
    <glyph glyph-name="Rcaron" unicode="Ř" horiz-adv-x="1137" d="M918 0l-191 420q-59 130 -118 174.5t-148 44.5h-178v-639h-99v1434h398q190 0 298.5 -102.5t108.5 -270.5q0 -155 -89 -259t-249 -134v-4q85 -34 166 -207l213 -457h-112zM283 1343v-614h247q164 0 260.5 86t96.5 236q0 137 -87 214.5t-249 77.5h-268zM576 1536h-45 l-220 336h86l158 -240l160 240h82z"/>
    <glyph glyph-name="rcaron" unicode="ř" horiz-adv-x="676" d="M647 928q-46 33 -108 33q-121 0 -203 -125t-82 -355v-481h-90v1024h90v-227h4q35 117 111 182t176 65q57 0 102 -18v-98zM412 1188h-45l-220 336h86l158 -240l160 240h82z"/>
    <glyph glyph-name="Sacute" unicode="Ś" horiz-adv-x="1018" d="M139 51v113q154 -98 312 -98q168 0 255 69.5t87 194.5q0 110 -58.5 175.5t-253.5 178.5q-218 127 -276 212.5t-58 197.5q0 152 118 258t315 106q128 0 256 -43v-104q-126 57 -269 57q-146 0 -231.5 -74t-85.5 -188q0 -110 58.5 -175t252.5 -177q201 -114 267.5 -202.5 t66.5 -203.5q0 -165 -114.5 -269t-323.5 -104q-74 0 -170.5 23t-147.5 53zM498 1535h-90l234 328h104z"/>
    <glyph glyph-name="sacute" unicode="ś" horiz-adv-x="795" d="M111 45v111q52 -45 126 -71t128 -26q241 0 241 197q0 68 -53 116t-172 99q-147 64 -206.5 132.5t-59.5 166.5q0 125 95.5 202t235.5 77q132 0 226 -54v-104q-114 74 -236 74q-101 0 -163 -52.5t-62 -136.5q0 -73 39 -118.5t172 -104.5q160 -72 220 -133.5t60 -163.5 q0 -122 -91.5 -201.5t-252.5 -79.5q-148 0 -247 70zM381 1188h-90l234 328h104z"/>
    <glyph glyph-name="uni0162" unicode="Ţ" horiz-adv-x="1047" d="M573 1343v-1343h-98v1343h-414v91h926v-91h-414zM447 -430v74q50 -6 86 -6q160 0 160 92q0 86 -145 86q-32 0 -64 -4v188h72v-117q225 0 225 -147q0 -170 -254 -170q-36 0 -80 4z"/>
    <glyph glyph-name="uni0163" unicode="ţ" horiz-adv-x="608" d="M569 14q-72 -34 -135 -34q-227 0 -227 272v688h-184v84h184v266q22 8 46 16q24 7 46 15v-297h270v-84h-270v-676q0 -106 33.5 -153.5t113.5 -47.5q57 0 123 37v-86zM278 -430v74q50 -6 86 -6q160 0 160 92q0 86 -145 86q-32 0 -64 -4v188h72v-117q225 0 225 -147 q0 -170 -254 -170q-36 0 -80 4z"/>
    <glyph glyph-name="Tcaron" unicode="Ť" horiz-adv-x="1047" d="M573 1343v-1343h-98v1343h-414v91h926v-91h-414zM547 1536h-45l-220 336h86l158 -240l160 240h82z"/>
    <glyph glyph-name="tcaron" unicode="ť" horiz-adv-x="664" d="M569 14q-72 -34 -135 -34q-227 0 -227 272v688h-184v84h184v266q22 8 46 16q24 7 46 15v-297h270v-84h-270v-676q0 -106 33.5 -153.5t113.5 -47.5q57 0 123 37v-86zM675 1516l-126 -261h-79l93 261h112z"/>
    <glyph glyph-name="Uring" unicode="Ů" horiz-adv-x="1327" d="M1161 573q0 -598 -510 -598q-485 0 -485 576v883h98v-869q0 -499 406 -499q393 0 393 485v883h98v-861zM673 1535q-86 0 -143.5 50.5t-57.5 133.5q0 80 57 132t144 52q88 0 144.5 -50.5t56.5 -133.5q0 -80 -58 -132t-143 -52zM673 1836q-57 0 -92 -32t-35 -85t36.5 -85 t90.5 -32q57 0 93 32.5t36 84.5q0 57 -37.5 87t-91.5 30z"/>
    <glyph glyph-name="uring" unicode="ů" horiz-adv-x="1096" d="M840 0v186h-4q-107 -211 -330 -211q-363 0 -363 457v592h93v-569q0 -208 68.5 -302t215.5 -94q143 0 231.5 105t88.5 280v580h92v-1024h-92zM538 1188q-86 0 -143.5 50.5t-57.5 133.5q0 80 57 132t144 52q88 0 144.5 -50.5t56.5 -133.5q0 -80 -58 -132t-143 -52z M538 1489q-57 0 -92 -32t-35 -85t36.5 -85t90.5 -32q57 0 93 32.5t36 84.5q0 57 -37.5 87t-91.5 30z"/>
    <glyph glyph-name="Uhungarumlaut" unicode="Ű" horiz-adv-x="1327" d="M1161 573q0 -598 -510 -598q-485 0 -485 576v883h98v-869q0 -499 406 -499q393 0 393 485v883h98v-861zM758 1536h-74l211 317h110zM536 1536h-73l211 317h110z"/>
    <glyph glyph-name="uhungarumlaut" unicode="ű" horiz-adv-x="1096" d="M840 0v186h-4q-107 -211 -330 -211q-363 0 -363 457v592h93v-569q0 -208 68.5 -302t215.5 -94q143 0 231.5 105t88.5 280v580h92v-1024h-92zM643 1188h-74l211 317h110zM421 1188h-73l211 317h110z"/>
    <glyph glyph-name="Zacute" unicode="Ź" horiz-adv-x="1167" d="M215 90h858v-90h-1007v31l868 1312h-799v91h952v-27zM596 1537h-90l234 328h104z"/>
    <glyph glyph-name="zacute" unicode="ź" horiz-adv-x="950" d="M207 84h661v-84h-811v35l680 905h-631v84h787v-25zM481 1188h-90l234 328h104z"/>
    <glyph glyph-name="Zdotaccent" unicode="Ż" horiz-adv-x="1167" d="M215 90h858v-90h-1007v31l868 1312h-799v91h952v-27zM613 1535q-31 0 -54.5 22t-23.5 56t23.5 53.5t52.5 19.5q31 0 55.5 -19.5t24.5 -53.5q0 -32 -23 -55t-55 -23z"/>
    <glyph glyph-name="zdotaccent" unicode="ż" horiz-adv-x="950" d="M207 84h661v-84h-811v35l680 905h-631v84h787v-25zM499 1188q-31 0 -54.5 22t-23.5 56t23.5 53.5t52.5 19.5q31 0 55.5 -19.5t24.5 -53.5q0 -32 -23 -55t-55 -23z"/>
    <glyph glyph-name="Gamma" unicode="Γ" horiz-adv-x="938" d="M283 1343v-1343h-99v1434h674v-91h-575z"/>
    <glyph glyph-name="Theta" unicode="Θ" horiz-adv-x="1559" d="M1450 739q0 -191 -52 -334t-142.5 -238.5t-214 -143.5t-267.5 -48q-162 0 -286 57t-208.5 155.5t-127.5 231t-43 283.5q0 163 45 301.5t132.5 239.5t217 158t297.5 57q149 0 269 -53.5t204.5 -148.5t130 -227.5t45.5 -289.5zM1348 723q0 160 -41.5 280.5t-116 201.5 t-178.5 122t-228 41q-123 0 -227.5 -46t-181.5 -131t-120.5 -206.5t-43.5 -271.5q0 -149 40 -269t113.5 -204t177 -129t230.5 -45t232.5 41.5t182 124t119 205.5t42.5 286zM528 672v90h502v-90h-502z"/>
    <glyph glyph-name="Phi" unicode="Φ" horiz-adv-x="1573" d="M1464 750q0 -99 -21.5 -179t-60 -141.5t-90.5 -105.5t-113 -72t-128.5 -41.5t-135.5 -13.5h-79v-213h-99v213h-78q-128 0 -229.5 38.5t-173 109.5t-109.5 173t-38 230q0 135 43.5 236.5t118.5 169.5t175.5 102t215.5 34h75v160h99v-160h75q128 0 230.5 -39t174 -110.5 t110 -171t38.5 -219.5zM1362 748q0 106 -31 190t-89.5 142.5t-142 89t-188.5 30.5h-75v-913h79q104 0 187 30.5t140.5 89.5t88.5 144.5t31 196.5zM737 1200h-75q-91 0 -172.5 -25.5t-143.5 -80.5t-98.5 -141.5t-36.5 -207.5q0 -124 36.5 -211t98 -142t142.5 -80t171 -25h78 v913z"/>
    <glyph glyph-name="alpha" unicode="α" horiz-adv-x="1223" d="M883 502q-27 93 -53.5 177t-64 147.5t-91 101t-133.5 37.5q-83 0 -148.5 -35.5t-111.5 -99.5t-70 -153.5t-24 -197.5q0 -98 22 -176t62.5 -132t98.5 -83t130 -29q61 0 113 26.5t96 76t81 119.5t69 157zM1105 -12q-35 0 -60.5 21.5t-46.5 67t-40 116t-41 168.5h-4 q-43 -104 -89 -177t-98 -119.5t-112.5 -68t-133.5 -21.5q-87 0 -159 35t-123 100t-79.5 157t-28.5 206q0 127 30 232.5t87 182t140.5 119t191.5 42.5q62 0 111.5 -17t88 -46.5t67.5 -70t52 -86.5t40 -95.5t32 -98.5h2q10 34 28 84t37.5 104t38 107t30.5 94h104 q-18 -49 -43.5 -116t-53.5 -138t-55.5 -141t-48.5 -125q23 -95 41 -163.5t32.5 -116.5t26.5 -78t23 -46.5t21.5 -22t21.5 -5.5q15 0 28 2.5t27 7.5v-80q-21 -7 -41 -10.5t-44 -3.5z"/>
    <glyph glyph-name="delta" unicode="δ" horiz-adv-x="1184" d="M1094 459q0 -107 -36 -196t-102 -153t-160 -99.5t-210 -35.5q-111 0 -202 36t-156.5 98.5t-101.5 147t-36 181.5q0 110 40 195.5t104.5 150t147 109t167.5 72.5q-39 25 -84.5 56t-85 71t-66 90.5t-26.5 115.5q0 59 28 104.5t78.5 76t119.5 46t150 15.5q96 0 175.5 -21.5 t144.5 -50.5v-106q-35 21 -74 38t-80 29.5t-83 19.5t-81 7q-136 0 -208 -43.5t-72 -122.5q0 -47 21.5 -84t64.5 -74t108 -77t152 -92q81 -48 148 -103.5t115 -118.5t74 -133.5t26 -148.5zM997 444q0 87 -31 156.5t-82 125.5t-115.5 101.5t-131.5 83.5q-41 -13 -91 -31.5 t-100 -44.5t-97 -61.5t-83 -82.5t-58 -108t-22 -137q0 -93 33.5 -165.5t89.5 -121.5t130.5 -74.5t156.5 -25.5t155 25.5t127.5 75t86.5 121t32 163.5z"/>
    <glyph glyph-name="epsilon" unicode="ε" horiz-adv-x="897" d="M827 29q-27 -11 -65.5 -20.5t-82.5 -17t-89.5 -12t-85.5 -4.5q-112 0 -192 24t-131 64.5t-75 95t-24 115.5q0 56 22 102t59 79.5t85 55t100 28.5v4q-41 8 -82 27t-73 48t-52 68t-20 88q0 78 34 131t88.5 85t123.5 45.5t139 13.5q34 0 72.5 -5t76 -12.5t70.5 -16t57 -16.5 v-96q-29 12 -64 23.5t-72 20t-74 13.5t-68 5q-148 0 -217.5 -50.5t-69.5 -142.5q0 -62 35.5 -101t89 -61t116.5 -29.5t117 -7.5h27h32.5t32 0.5t25.5 1.5v-88q-19 0 -41 1q-19 0 -44 0.5t-54 0.5q-184 0 -279.5 -52t-95.5 -165q0 -44 19 -83t60 -68t106 -45.5t157 -16.5 q38 0 79.5 6t82 15.5t78 21t67.5 23.5v-96z"/>
    <glyph glyph-name="sigma" unicode="σ" horiz-adv-x="1149" d="M874 944q27 -39 53 -83.5t47 -99.5t33.5 -122t12.5 -152q0 -104 -29.5 -197t-87.5 -163t-144 -111t-198 -41q-109 0 -196.5 39t-148.5 108.5t-93.5 166.5t-32.5 213q0 121 29.5 218t91.5 164.5t157.5 103.5t227.5 36h537v-80h-259zM924 500q0 80 -14 145.5t-35 119.5 t-46.5 98t-48.5 81h-168q-112 0 -192.5 -29t-132.5 -86t-76.5 -140t-24.5 -191q0 -98 28 -178.5t77.5 -138.5t118.5 -90t151 -32q84 0 151 32.5t114 90.5t72.5 139t25.5 179z"/>
    <glyph glyph-name="tau" unicode="τ" horiz-adv-x="997" d="M530 944v-692q0 -50 11.5 -84.5t31 -55.5t46 -30.5t57.5 -9.5q14 0 41 3t49 9v-82q-29 -8 -52 -11t-46 -3q-123 0 -176.5 76.5t-53.5 216.5v663h-170q-65 0 -124 -20t-101 -43v88q40 21 95.5 38t129.5 17h688v-80h-426z"/>
    <glyph glyph-name="phi" unicode="φ" horiz-adv-x="1415" d="M1327 508q0 -101 -32.5 -197t-96.5 -170.5t-159 -120t-220 -45.5h-67v-456h-93v456h-61q-114 0 -207.5 36.5t-161 105.5t-104.5 168.5t-37 224.5q0 82 17 157t45.5 140.5t65.5 120t77 96.5h106q-42 -49 -81 -104.5t-68.5 -119.5t-47.5 -137t-18 -157q0 -117 36 -201 t94 -139t131.5 -81t148.5 -26h65v734q0 118 65 187t191 69q94 0 170.5 -40.5t130 -112.5t82.5 -171.5t29 -216.5zM1231 514q0 104 -26 187.5t-69.5 142t-99.5 90t-116 31.5q-44 0 -75.5 -13t-52 -36t-30.5 -54t-10 -67v-736h67q92 0 168 34.5t130 95.5t84 144t30 181z"/>
    <glyph glyph-name="underscoredbl" unicode="‗" horiz-adv-x="850" d="M0 -550v90h850v-90h-850zM0 -268v90h850v-90h-850z"/>
    <glyph glyph-name="exclamdbl" unicode="‼" horiz-adv-x="925" d="M332 403h-86l-10 1031h106zM291 -18q-34 0 -57 23.5t-23 57.5q0 35 23 57.5t57 22.5t58 -22.5t24 -57.5q0 -34 -24 -57.5t-58 -23.5zM673 403h-86l-10 1031h106zM632 -18q-34 0 -57 23.5t-23 57.5q0 35 23 57.5t57 22.5t58 -22.5t24 -57.5q0 -34 -24 -57.5t-58 -23.5z "/>
    <glyph glyph-name="uni207F" unicode="ⁿ" horiz-adv-x="803" d="M598 717v406q0 251 -165 251q-94 0 -155 -74t-61 -183v-400h-92v717h86v-130h2q74 148 231 148q120 0 183 -77.5t63 -220.5v-437h-92z"/>
    <glyph glyph-name="peseta" unicode="₧" horiz-adv-x="2218" d="M283 575v-575h-99v1434h296q223 0 339 -102t116 -300q0 -200 -131 -329q-131 -128 -365 -128h-156zM283 1343v-677h154q195 0 295.5 92t100.5 262q0 323 -371 323h-179zM1488 14q-71 -34 -135 -34q-227 0 -227 272v489h-154v84h154v266l92 31v-297h270v-84h-270v-477 q0 -98 33.5 -149.5t113.5 -51.5q58 0 123 37v-86zM1578 45v111q20 -21 49 -38.5t61.5 -30.5t65 -20.5t58.5 -7.5q103 0 163 40.5t60 118.5q0 37 -15 64t-43.5 48.5t-68.5 39.5t-91 36q-52 19 -95.5 40.5t-74.5 50t-48 66.5t-17 89q0 56 24 99.5t63.5 73t91 45t106.5 15.5 q58 0 117.5 -12t103.5 -35v-100q-24 15 -51.5 27t-56.5 20.5t-58 12.5t-54 4q-41 0 -77 -9t-63 -27t-42.5 -46.5t-15.5 -67.5q0 -33 12.5 -58t36.5 -44.5t59.5 -35.5t82.5 -33q56 -20 104 -42.5t83.5 -52.5t56 -70t20.5 -95q0 -63 -24 -109.5t-65.5 -76.5t-97 -45 t-118.5 -15q-67 0 -132 17.5t-110 52.5z"/>
    <glyph glyph-name="IJ" unicode="Ĳ" horiz-adv-x="1151" d="M974 494q0 -519 -360 -519q-56 0 -109 15v96q59 -20 111 -20q138 0 199 104.5t61 325.5v938h98v-940zM421 1434v-90h-140v-1254h140v-90h-379v90h140v1254h-140v90h379z"/>
    <glyph glyph-name="ij" unicode="ĳ" horiz-adv-x="840" d="M209 1282q-30 0 -53 22t-23 56q0 33 23.5 53.5t52.5 20.5q31 0 54.5 -20t23.5 -54q0 -32 -23 -55t-55 -23zM164 0v1024h92v-1024h-92zM629 1282q-30 0 -53 22t-23 56q0 33 23.5 53.5t52.5 20.5q31 0 54.5 -20t23.5 -54q0 -32 -23 -55t-55 -23zM676 29q0 -510 -362 -510 q-72 0 -146 35v96q80 -47 156 -47q260 0 260 409v1012h92v-995z"/>
    <glyph glyph-name="napostrophe" unicode="ŉ" horiz-adv-x="1176" d="M940 0v596q0 369 -266 369q-148 0 -243 -108.5t-95 -268.5v-588h-92v1024h92v-186h4q112 211 350 211q166 0 254 -110.5t88 -315.5v-623h-92zM47 985h-73l125 449h104z"/>
    <glyph glyph-name="minute" unicode="′" horiz-adv-x="500" d="M340 1434l-96 -457h-84l64 457h116z"/>
    <glyph glyph-name="second" unicode="″" horiz-adv-x="811" d="M340 1434l-96 -457h-84l64 457h116zM651 1434l-96 -457h-84l64 457h116z"/>
    <glyph glyph-name="uni2105" unicode="℅" horiz-adv-x="1642" d="M1506 428q0 -177 -106 -309q-113 -139 -280 -139q-157 0 -233 103q-58 79 -58 193q0 172 107 303q115 142 287 142q130 0 206.5 -77.5t76.5 -215.5zM1451 1434l-1208 -1434h-107l1208 1434h107zM1414 423q0 217 -193 217q-133 0 -221 -122q-79 -111 -79 -243 q0 -215 202 -215q126 0 210 113q81 106 81 250zM726 1315q-86 55 -180 55q-147 0 -233 -124q-71 -103 -71 -230q0 -219 197 -219q83 0 193 59l-27 -103q-98 -40 -187 -40q-132 0 -203 85q-67 79 -67 209q0 184 107 311q116 136 305 136q120 0 194 -45z"/>
    <glyph glyph-name="uni2113" unicode="ℓ" horiz-adv-x="662" d="M3 453l190 224v435q0 72 8 140t33 121.5t72 85.5t124 32q48 0 87.5 -14t68 -41t44 -66.5t15.5 -90.5q0 -57 -22 -120.5t-67 -137.5t-112.5 -162.5t-158.5 -196.5v-399q0 -48 6.5 -85.5t21.5 -64t40.5 -40.5t64.5 -14q45 0 94.5 29.5t103.5 76.5v-99q-52 -44 -104.5 -67.5 t-120.5 -23.5q-100 0 -149 68t-49 220v291l-130 -155zM285 785q129 152 199.5 272.5t70.5 219.5q0 36 -10.5 61t-27.5 41t-39.5 23.5t-47.5 7.5q-48 0 -76.5 -24.5t-44 -66t-20 -96.5t-4.5 -115v-323z"/>
    <glyph glyph-name="uni25A1" unicode="□" horiz-adv-x="1237" d="M145 944h945v-944h-945v944zM221 868v-792h793v792h-793z"/>
    <glyph glyph-name="uni25AA" unicode="▪" horiz-adv-x="725" d="M594 907v-463h-463v463h463z"/>
    <glyph glyph-name="uni25AB" unicode="▫" horiz-adv-x="725" d="M594 907v-463h-463v463h463zM518 831h-311v-311h311v311z"/>
    <glyph glyph-name="uni25CF" unicode="●" horiz-adv-x="1237" d="M618 1018q116 0 220.5 -59.5t160.5 -159.5q60 -107 60 -221q0 -184 -127.5 -312.5t-310.5 -128.5q-184 0 -313.5 128.5t-129.5 312.5q0 119 60 223t165.5 160.5t214.5 56.5z"/>
    <glyph glyph-name="openbullet" unicode="◦" horiz-adv-x="725" d="M363 928q104 0 177.5 -73.5t73.5 -176.5q0 -105 -73 -178.5t-178 -73.5q-104 0 -177.5 74t-73.5 178q0 102 73.5 176t177.5 74zM362 852q-72 0 -123 -51t-51 -123q0 -74 51 -125t125 -51q73 0 123.5 51t50.5 125q0 73 -51.5 123.5t-124.5 50.5z"/>
    <glyph glyph-name="Amacron" unicode="Ā" horiz-adv-x="1288" d="M1118 0l-164 446h-622l-164 -446h-109l541 1434h94l535 -1434h-111zM678 1200q-11 30 -18 59q-7 25 -15 50h-4q-17 -66 -33 -107l-241 -665h553zM388 1536v84h508v-84h-508z"/>
    <glyph glyph-name="amacron" unicode="ā" horiz-adv-x="1012" d="M776 0v205h-4q-49 -105 -142.5 -167.5t-207.5 -62.5q-146 0 -231 82t-85 207q0 268 355 324l315 47q0 330 -248 330q-169 0 -329 -136v111q57 45 154.5 77t183.5 32q158 0 244.5 -98t86.5 -285v-666h-92zM494 510q-161 -23 -226 -74.5t-65 -167.5q0 -91 60.5 -150 t168.5 -59q148 0 246 109.5t98 282.5v100zM267 1188v84h508v-84h-508z"/>
    <glyph glyph-name="Ccircumflex" unicode="Ĉ" horiz-adv-x="1272" d="M1137 47q-174 -72 -363 -72q-294 0 -479.5 197.5t-185.5 515.5q0 349 201 559.5t511 210.5q165 0 316 -53v-105q-151 68 -318 68q-270 0 -439 -183t-169 -487q0 -293 161.5 -462.5t409.5 -169.5q198 0 355 77v-96zM920 1537l-157 239l-160 -239h-82l221 336h45l219 -336 h-86z"/>
    <glyph glyph-name="ccircumflex" unicode="ĉ" horiz-adv-x="909" d="M827 45q-114 -70 -272 -70q-209 0 -337 143.5t-128 375.5q0 244 144 399.5t370 155.5q117 0 227 -48v-104q-110 68 -241 68q-180 0 -292 -129.5t-112 -335.5q0 -199 102.5 -320t270.5 -121q154 0 268 82v-96zM704 1188l-157 239l-160 -239h-82l221 336h45l219 -336h-86z "/>
    <glyph glyph-name="Cdotaccent" unicode="Ċ" horiz-adv-x="1272" d="M1137 47q-174 -72 -363 -72q-294 0 -479.5 197.5t-185.5 515.5q0 349 201 559.5t511 210.5q165 0 316 -53v-105q-151 68 -318 68q-270 0 -439 -183t-169 -487q0 -293 161.5 -462.5t409.5 -169.5q198 0 355 77v-96zM767 1536q-31 0 -54.5 22t-23.5 56t23.5 53.5t52.5 19.5 q31 0 55.5 -19.5t24.5 -53.5q0 -32 -23 -55t-55 -23z"/>
    <glyph glyph-name="cdotaccent" unicode="ċ" horiz-adv-x="909" d="M827 45q-114 -70 -272 -70q-209 0 -337 143.5t-128 375.5q0 244 144 399.5t370 155.5q117 0 227 -48v-104q-110 68 -241 68q-180 0 -292 -129.5t-112 -335.5q0 -199 102.5 -320t270.5 -121q154 0 268 82v-96zM560 1188q-31 0 -54.5 22t-23.5 56t23.5 53.5t52.5 19.5 q31 0 55.5 -19.5t24.5 -53.5q0 -32 -23 -55t-55 -23z"/>
    <glyph glyph-name="Emacron" unicode="Ē" horiz-adv-x="1024" d="M184 0v1434h670v-91h-571v-575h530v-90h-530v-588h604v-90h-703zM273 1535v84h508v-84h-508z"/>
    <glyph glyph-name="emacron" unicode="ē" horiz-adv-x="1034" d="M186 508q0 -211 97.5 -330t267.5 -119q172 0 336 127v-98q-159 -113 -355 -113q-198 0 -320 142t-122 401q0 224 127.5 377.5t331.5 153.5q191 0 293 -134t102 -366v-41h-758zM848 592q-6 177 -85 275t-218 98q-144 0 -238.5 -96.5t-116.5 -276.5h658zM285 1188v84h508 v-84h-508z"/>
    <glyph glyph-name="Ebreve" unicode="Ĕ" horiz-adv-x="1024" d="M184 0v1434h670v-91h-571v-575h530v-90h-530v-588h604v-90h-703zM805 1772q-16 -108 -89.5 -171.5t-182.5 -63.5q-110 0 -182.5 62t-81.5 173h84q6 -75 55.5 -117t126.5 -42q68 0 120.5 43.5t61.5 115.5h88z"/>
    <glyph glyph-name="ebreve" unicode="ĕ" horiz-adv-x="1034" d="M186 508q0 -211 97.5 -330t267.5 -119q172 0 336 127v-98q-159 -113 -355 -113q-198 0 -320 142t-122 401q0 224 127.5 377.5t331.5 153.5q191 0 293 -134t102 -366v-41h-758zM848 592q-6 177 -85 275t-218 98q-144 0 -238.5 -96.5t-116.5 -276.5h658zM810 1423 q-16 -108 -89.5 -171.5t-182.5 -63.5q-110 0 -182.5 62t-81.5 173h84q6 -75 55.5 -117t126.5 -42q68 0 120.5 43.5t61.5 115.5h88z"/>
    <glyph glyph-name="Edotaccent" unicode="Ė" horiz-adv-x="1024" d="M184 0v1434h670v-91h-571v-575h530v-90h-530v-588h604v-90h-703zM524 1536q-31 0 -54.5 22t-23.5 56t23.5 53.5t52.5 19.5q31 0 55.5 -19.5t24.5 -53.5q0 -32 -23 -55t-55 -23z"/>
    <glyph glyph-name="edotaccent" unicode="ė" horiz-adv-x="1034" d="M186 508q0 -211 97.5 -330t267.5 -119q172 0 336 127v-98q-159 -113 -355 -113q-198 0 -320 142t-122 401q0 224 127.5 377.5t331.5 153.5q191 0 293 -134t102 -366v-41h-758zM848 592q-6 177 -85 275t-218 98q-144 0 -238.5 -96.5t-116.5 -276.5h658zM541 1188 q-31 0 -54.5 22t-23.5 56t23.5 53.5t52.5 19.5q31 0 55.5 -19.5t24.5 -53.5q0 -32 -23 -55t-55 -23z"/>
    <glyph glyph-name="Gcircumflex" unicode="Ĝ" horiz-adv-x="1368" d="M1221 100q-222 -125 -457 -125q-293 0 -474 199t-181 522q0 326 195 544t521 218q189 0 367 -76v-108q-195 94 -381 94q-271 0 -435.5 -185t-164.5 -472q0 -302 154.5 -473.5t416.5 -171.5q194 0 340 84v473h-338v90h437v-613zM934 1538l-157 239l-160 -239h-82l221 336 h45l219 -336h-86z"/>
    <glyph glyph-name="gcircumflex" unicode="ĝ" horiz-adv-x="1147" d="M983 76q0 -289 -126 -423t-392 -134q-148 0 -305 78v96q162 -90 307 -90q424 0 424 448v133h-4q-121 -209 -369 -209q-189 0 -308.5 137t-119.5 382t129 400t340 155q226 0 328 -187h4v162h92v-948zM891 631q0 136 -91.5 235t-238.5 99q-169 0 -272 -127t-103 -336 q0 -210 94.5 -326.5t249.5 -116.5q165 0 263 107t98 262v203zM729 1188l-157 239l-160 -239h-82l221 336h45l219 -336h-86z"/>
    <glyph glyph-name="Gdotaccent" unicode="Ġ" horiz-adv-x="1368" d="M1221 100q-222 -125 -457 -125q-293 0 -474 199t-181 522q0 326 195 544t521 218q189 0 367 -76v-108q-195 94 -381 94q-271 0 -435.5 -185t-164.5 -472q0 -302 154.5 -473.5t416.5 -171.5q194 0 340 84v473h-338v90h437v-613zM772 1536q-31 0 -54.5 22t-23.5 56 t23.5 53.5t52.5 19.5q31 0 55.5 -19.5t24.5 -53.5q0 -32 -23 -55t-55 -23z"/>
    <glyph glyph-name="gdotaccent" unicode="ġ" horiz-adv-x="1147" d="M983 76q0 -289 -126 -423t-392 -134q-148 0 -305 78v96q162 -90 307 -90q424 0 424 448v133h-4q-121 -209 -369 -209q-189 0 -308.5 137t-119.5 382t129 400t340 155q226 0 328 -187h4v162h92v-948zM891 631q0 136 -91.5 235t-238.5 99q-169 0 -272 -127t-103 -336 q0 -210 94.5 -326.5t249.5 -116.5q165 0 263 107t98 262v203zM558 1188q-31 0 -54.5 22t-23.5 56t23.5 53.5t52.5 19.5q31 0 55.5 -19.5t24.5 -53.5q0 -32 -23 -55t-55 -23z"/>
    <glyph glyph-name="Gcommaaccent" unicode="Ģ" horiz-adv-x="1368" d="M1221 100q-222 -125 -457 -125q-293 0 -474 199t-181 522q0 326 195 544t521 218q189 0 367 -76v-108q-195 94 -381 94q-271 0 -435.5 -185t-164.5 -472q0 -302 154.5 -473.5t416.5 -171.5q194 0 340 84v473h-338v90h437v-613zM658 -430v74q50 -6 86 -6q160 0 160 92 q0 86 -145 86q-32 0 -64 -4v188h72v-117q225 0 225 -147q0 -170 -254 -170q-36 0 -80 4z"/>
    <glyph glyph-name="gcommaaccent" unicode="ģ" horiz-adv-x="1147" d="M470 1219l126 261h79l-93 -261h-112zM983 76q0 -289 -126 -423t-392 -134q-148 0 -305 78v96q162 -90 307 -90q424 0 424 448v133h-4q-121 -209 -369 -209q-189 0 -308.5 137t-119.5 382t129 400t340 155q226 0 328 -187h4v162h92v-948zM891 631q0 136 -91.5 235 t-238.5 99q-169 0 -272 -127t-103 -336q0 -210 94.5 -326.5t249.5 -116.5q165 0 263 107t98 262v203z"/>
    <glyph glyph-name="Hcircumflex" unicode="Ĥ" horiz-adv-x="1386" d="M1104 0v688h-821v-688h-99v1434h99v-656h821v656h98v-1434h-98zM848 1536l-157 239l-160 -239h-82l221 336h45l219 -336h-86z"/>
    <glyph glyph-name="hcircumflex" unicode="ĥ" horiz-adv-x="1096" d="M860 0v614q0 182 -66 266.5t-206 84.5q-132 0 -232 -103t-100 -295v-567h-92v1516h92v-676h4q121 209 352 209q166 0 253 -107t87 -307v-635h-92zM731 1617l-157 239l-160 -239h-82l221 336h45l219 -336h-86z"/>
    <glyph glyph-name="Hbar" unicode="Ħ" horiz-adv-x="1386" d="M61 1045v91h123v298h99v-298h821v298h98v-298h123v-91h-123v-1045h-98v688h-821v-688h-99v1045h-123zM1104 778v267h-821v-267h821z"/>
    <glyph glyph-name="hbar" unicode="ħ" horiz-adv-x="1096" d="M883 0v590q0 181 -66.5 265.5t-206.5 84.5q-29 0 -65 -7.5t-72.5 -25.5t-71.5 -48t-62 -74t-43.5 -104t-16.5 -138v-543h-93v1231h-135v84h135v201h93v-201h389v-84h-389v-416h4q24 44 58.5 82t78.5 66.5t97.5 44.5t117.5 16q86 0 150 -28.5t106 -82t63 -130t21 -173.5 v-610h-92z"/>
    <glyph glyph-name="Itilde" unicode="Ĩ" horiz-adv-x="463" d="M421 1434v-90h-140v-1254h140v-90h-379v90h140v1254h-140v90h379zM545 1769q0 -103 -48.5 -163t-130.5 -60q-66 0 -151 76q-64 55 -119 55q-102 0 -102 -143h-72q0 100 48 160.5t128 60.5q72 0 160 -72q67 -59 117 -59q40 0 68 37t28 108h74z"/>
    <glyph glyph-name="itilde" unicode="ĩ" horiz-adv-x="420" d="M164 0v1024h92v-1024h-92zM524 1423q0 -103 -48.5 -163t-130.5 -60q-66 0 -151 76q-64 55 -119 55q-102 0 -102 -143h-72q0 100 48 160.5t128 60.5q72 0 160 -72q67 -59 117 -59q40 0 68 37t28 108h74z"/>
    <glyph glyph-name="Imacron" unicode="Ī" horiz-adv-x="463" d="M421 1434v-90h-140v-1254h140v-90h-379v90h140v1254h-140v90h379zM-20 1536v84h508v-84h-508z"/>
    <glyph glyph-name="imacron" unicode="ī" horiz-adv-x="420" d="M164 0v1024h92v-1024h-92zM-44 1188v84h508v-84h-508z"/>
    <glyph glyph-name="Ibreve" unicode="Ĭ" horiz-adv-x="463" d="M421 1434v-90h-140v-1254h140v-90h-379v90h140v1254h-140v90h379zM499 1771q-16 -108 -89.5 -171.5t-182.5 -63.5q-110 0 -182.5 62t-81.5 173h84q6 -75 55.5 -117t126.5 -42q68 0 120.5 43.5t61.5 115.5h88z"/>
    <glyph glyph-name="ibreve" unicode="ĭ" horiz-adv-x="420" d="M164 0v1024h92v-1024h-92zM478 1423q-16 -108 -89.5 -171.5t-182.5 -63.5q-110 0 -182.5 62t-81.5 173h84q6 -75 55.5 -117t126.5 -42q68 0 120.5 43.5t61.5 115.5h88z"/>
    <glyph glyph-name="Iogonek" unicode="Į" horiz-adv-x="463" d="M421 1434v-90h-140v-1254h140v-90h-379v90h140v1254h-140v90h379zM360 0q-170 -135 -170 -240q0 -88 84 -88q38 0 80 17v-70q-49 -18 -94 -18q-70 0 -113 40.5t-43 112.5q0 55 42.5 122t125.5 124h88z"/>
    <glyph glyph-name="iogonek" unicode="į" horiz-adv-x="420" d="M209 1282q-30 0 -53 22t-23 56q0 33 23.5 53.5t52.5 20.5q31 0 54.5 -20t23.5 -54q0 -32 -23 -55t-55 -23zM164 0v1024h92v-1024h-92zM258 0q-170 -135 -170 -240q0 -88 84 -88q38 0 80 17v-70q-49 -18 -94 -18q-70 0 -113 40.5t-43 112.5q0 55 42.5 122t125.5 124h88z "/>
    <glyph glyph-name="Jcircumflex" unicode="Ĵ" horiz-adv-x="664" d="M487 494q0 -519 -360 -519q-56 0 -109 15v96q59 -20 111 -20q138 0 199 104.5t61 325.5v938h98v-940zM591 1536l-157 239l-160 -239h-82l221 336h45l219 -336h-86z"/>
    <glyph glyph-name="jcircumflex" unicode="ĵ" horiz-adv-x="420" d="M256 29q0 -510 -362 -510q-72 0 -146 35v96q80 -47 156 -47q260 0 260 409v1012h92v-995zM360 1188l-157 239l-160 -239h-82l221 336h45l219 -336h-86z"/>
    <glyph glyph-name="Kcommaaccent" unicode="Ķ" horiz-adv-x="1079" d="M922 0l-611 686q-17 19 -24 33h-4v-719h-99v1434h99v-676h4q12 21 26 35l580 641h129l-629 -695l668 -739h-139zM668 -118l-126 -261h-79l93 261h112z"/>
    <glyph glyph-name="kcommaaccent" unicode="ķ" horiz-adv-x="909" d="M750 0l-490 506h-4v-506h-92v1516h92v-977h4l465 485h119l-486 -496l525 -528h-133zM561 -118l-126 -261h-79l93 261h112z"/>
    <glyph glyph-name="kgreenlandic" unicode="ĸ" horiz-adv-x="909" d="M750 0l-490 506h-4v-506h-92v1024h92v-485h4l465 485h119l-486 -496l525 -528h-133z"/>
    <glyph glyph-name="Lcommaaccent" unicode="Ļ" horiz-adv-x="938" d="M184 0v1434h99v-1344h575v-90h-674zM426 -430v74q50 -6 86 -6q160 0 160 92q0 86 -145 86q-32 0 -64 -4v188h72v-117q225 0 225 -147q0 -170 -254 -170q-36 0 -80 4z"/>
    <glyph glyph-name="lcommaaccent" unicode="ļ" horiz-adv-x="420" d="M164 0v1516h92v-1516h-92zM130 -430v74q50 -6 86 -6q160 0 160 92q0 86 -145 86q-32 0 -64 -4v188h72v-117q225 0 225 -147q0 -170 -254 -170q-36 0 -80 4z"/>
    <glyph glyph-name="Ncommaaccent" unicode="Ņ" horiz-adv-x="1452" d="M1198 0l-854 1159q-26 35 -46 70l-13 20h-4q2 -26 2 -63v-1186h-99v1434h76l848 -1149q28 -38 61 -92h5q-5 70 -5 120v1121h99v-1434h-70zM800 -118l-126 -261h-79l93 261h112z"/>
    <glyph glyph-name="ncommaaccent" unicode="ņ" horiz-adv-x="1096" d="M860 0v596q0 369 -266 369q-148 0 -243 -108.5t-95 -268.5v-588h-92v1024h92v-186h4q112 211 350 211q166 0 254 -110.5t88 -315.5v-623h-92zM627 -118l-126 -261h-79l93 261h112z"/>
    <glyph glyph-name="Eng" unicode="Ŋ" horiz-adv-x="1444" d="M1268 0q0 -423 -329 -423q-57 0 -109 15v96q60 -20 111 -20q127 0 183 79t56 251v3l-836 1158q-13 17 -24.5 35t-21.5 35l-13 20h-4q1 -13 1.5 -28.5t0.5 -34.5v-1186h-99v1434h76l848 -1172q14 -19 29 -42t32 -50h5q-2 35 -3.5 65t-1.5 55v1144h99v-1434z"/>
    <glyph glyph-name="eng" unicode="ŋ" horiz-adv-x="1096" d="M952 2q0 -215 -73.5 -319.5t-221.5 -104.5q-30 0 -67 9t-66 26v96q32 -23 67 -35t66 -12q106 0 154.5 83.5t48.5 256.5v594q0 369 -266 369q-149 0 -243 -109q-95 -109 -95 -268v-588h-92v1024h92v-186h4q112 211 350 211q167 0 254.5 -110t87.5 -316v-621z"/>
    <glyph glyph-name="Omacron" unicode="Ō" horiz-adv-x="1559" d="M774 -25q-304 0 -484.5 202t-180.5 525q0 343 185.5 549.5t506.5 206.5q290 0 469.5 -198.5t179.5 -520.5q0 -356 -184 -560t-492 -204zM784 1368q-250 0 -411.5 -181t-161.5 -474q0 -296 153 -471.5t408 -175.5q266 0 421 173.5t155 483.5q0 304 -151.5 474.5 t-412.5 170.5zM536 1536v84h508v-84h-508z"/>
    <glyph glyph-name="omacron" unicode="ō" horiz-adv-x="1149" d="M575 -25q-224 0 -354.5 147.5t-130.5 383.5q0 255 136.5 399t359.5 144q219 0 346 -143t127 -396q0 -239 -129.5 -387t-354.5 -148zM582 965q-181 0 -288.5 -122t-107.5 -339q0 -201 105 -323t287 -122q185 0 285 120t100 333q0 219 -99.5 336t-281.5 117zM334 1188v84 h508v-84h-508z"/>
    <glyph glyph-name="Obreve" unicode="Ŏ" horiz-adv-x="1559" d="M774 -25q-304 0 -484.5 202t-180.5 525q0 343 185.5 549.5t506.5 206.5q290 0 469.5 -198.5t179.5 -520.5q0 -356 -184 -560t-492 -204zM784 1368q-250 0 -411.5 -181t-161.5 -474q0 -296 153 -471.5t408 -175.5q266 0 421 173.5t155 483.5q0 304 -151.5 474.5 t-412.5 170.5zM1059 1772q-16 -108 -89.5 -171.5t-182.5 -63.5q-110 0 -182.5 62t-81.5 173h84q6 -75 55.5 -117t126.5 -42q68 0 120.5 43.5t61.5 115.5h88z"/>
    <glyph glyph-name="obreve" unicode="ŏ" horiz-adv-x="1149" d="M575 -25q-224 0 -354.5 147.5t-130.5 383.5q0 255 136.5 399t359.5 144q219 0 346 -143t127 -396q0 -239 -129.5 -387t-354.5 -148zM582 965q-181 0 -288.5 -122t-107.5 -339q0 -201 105 -323t287 -122q185 0 285 120t100 333q0 219 -99.5 336t-281.5 117zM852 1423 q-16 -108 -89.5 -171.5t-182.5 -63.5q-110 0 -182.5 62t-81.5 173h84q6 -75 55.5 -117t126.5 -42q68 0 120.5 43.5t61.5 115.5h88z"/>
    <glyph glyph-name="Rcommaaccent" unicode="Ŗ" horiz-adv-x="1137" d="M918 0l-191 420q-59 130 -118 174.5t-148 44.5h-178v-639h-99v1434h398q190 0 298.5 -102.5t108.5 -270.5q0 -155 -89 -259t-249 -134v-4q85 -34 166 -207l213 -457h-112zM283 1343v-614h247q164 0 260.5 86t96.5 236q0 137 -87 214.5t-249 77.5h-268zM641 -118 l-126 -261h-79l93 261h112z"/>
    <glyph glyph-name="rcommaaccent" unicode="ŗ" horiz-adv-x="676" d="M647 928q-46 33 -108 33q-121 0 -203 -125t-82 -355v-481h-90v1024h90v-227h4q35 117 111 182t176 65q57 0 102 -18v-98zM502 -118l-126 -261h-79l93 261h112z"/>
    <glyph glyph-name="Scircumflex" unicode="Ŝ" horiz-adv-x="1018" d="M139 51v113q154 -98 312 -98q168 0 255 69.5t87 194.5q0 110 -58.5 175.5t-253.5 178.5q-218 127 -276 212.5t-58 197.5q0 152 118 258t315 106q128 0 256 -43v-104q-126 57 -269 57q-146 0 -231.5 -74t-85.5 -188q0 -110 58.5 -175t252.5 -177q201 -114 267.5 -202.5 t66.5 -203.5q0 -165 -114.5 -269t-323.5 -104q-74 0 -170.5 23t-147.5 53zM681 1536l-157 239l-160 -239h-82l221 336h45l219 -336h-86z"/>
    <glyph glyph-name="scircumflex" unicode="ŝ" horiz-adv-x="795" d="M111 45v111q52 -45 126 -71t128 -26q241 0 241 197q0 68 -53 116t-172 99q-147 64 -206.5 132.5t-59.5 166.5q0 125 95.5 202t235.5 77q132 0 226 -54v-104q-114 74 -236 74q-101 0 -163 -52.5t-62 -136.5q0 -73 39 -118.5t172 -104.5q160 -72 220 -133.5t60 -163.5 q0 -122 -91.5 -201.5t-252.5 -79.5q-148 0 -247 70zM576 1188l-157 239l-160 -239h-82l221 336h45l219 -336h-86z"/>
    <glyph glyph-name="Tbar" unicode="Ŧ" horiz-adv-x="1047" d="M573 1343v-576h324v-91h-324v-676h-98v676h-324v91h324v576h-414v91h926v-91h-414z"/>
    <glyph glyph-name="tbar" unicode="ŧ" horiz-adv-x="608" d="M569 14q-72 -34 -135 -34q-227 0 -227 272v320h-164v84h164v284h-184v84h184v266q22 8 46 16q24 7 46 15v-297h270v-84h-270v-284h240v-84h-240v-308q0 -106 33.5 -153.5t113.5 -47.5q57 0 123 37v-86z"/>
    <glyph glyph-name="Utilde" unicode="Ũ" horiz-adv-x="1327" d="M1161 573q0 -598 -510 -598q-485 0 -485 576v883h98v-869q0 -499 406 -499q393 0 393 485v883h98v-861zM978 1771q0 -103 -48.5 -163t-130.5 -60q-66 0 -151 76q-64 55 -119 55q-102 0 -102 -143h-72q0 100 48 160.5t128 60.5q72 0 160 -72q67 -59 117 -59q40 0 68 37 t28 108h74z"/>
    <glyph glyph-name="utilde" unicode="ũ" horiz-adv-x="1096" d="M840 0v186h-4q-107 -211 -330 -211q-363 0 -363 457v592h93v-569q0 -208 68.5 -302t215.5 -94q143 0 231.5 105t88.5 280v580h92v-1024h-92zM851 1423q0 -103 -48.5 -163t-130.5 -60q-66 0 -151 76q-64 55 -119 55q-102 0 -102 -143h-72q0 100 48 160.5t128 60.5 q72 0 160 -72q67 -59 117 -59q40 0 68 37t28 108h74z"/>
    <glyph glyph-name="Umacron" unicode="Ū" horiz-adv-x="1327" d="M1161 573q0 -598 -510 -598q-485 0 -485 576v883h98v-869q0 -499 406 -499q393 0 393 485v883h98v-861zM408 1535v84h508v-84h-508z"/>
    <glyph glyph-name="umacron" unicode="ū" horiz-adv-x="1096" d="M840 0v186h-4q-107 -211 -330 -211q-363 0 -363 457v592h93v-569q0 -208 68.5 -302t215.5 -94q143 0 231.5 105t88.5 280v580h92v-1024h-92zM280 1188v84h508v-84h-508z"/>
    <glyph glyph-name="Ubreve" unicode="Ŭ" horiz-adv-x="1327" d="M1161 573q0 -598 -510 -598q-485 0 -485 576v883h98v-869q0 -499 406 -499q393 0 393 485v883h98v-861zM927 1771q-16 -108 -89.5 -171.5t-182.5 -63.5q-110 0 -182.5 62t-81.5 173h84q6 -75 55.5 -117t126.5 -42q68 0 120.5 43.5t61.5 115.5h88z"/>
    <glyph glyph-name="ubreve" unicode="ŭ" horiz-adv-x="1096" d="M840 0v186h-4q-107 -211 -330 -211q-363 0 -363 457v592h93v-569q0 -208 68.5 -302t215.5 -94q143 0 231.5 105t88.5 280v580h92v-1024h-92zM811 1423q-16 -108 -89.5 -171.5t-182.5 -63.5q-110 0 -182.5 62t-81.5 173h84q6 -75 55.5 -117t126.5 -42q68 0 120.5 43.5 t61.5 115.5h88z"/>
    <glyph glyph-name="Uogonek" unicode="Ų" horiz-adv-x="1327" d="M1161 573q0 -598 -510 -598q-485 0 -485 576v883h98v-869q0 -499 406 -499q393 0 393 485v883h98v-861zM783 0q-170 -135 -170 -240q0 -88 84 -88q38 0 80 17v-70q-49 -18 -94 -18q-70 0 -113 40.5t-43 112.5q0 55 42.5 122t125.5 124h88z"/>
    <glyph glyph-name="uogonek" unicode="ų" horiz-adv-x="1096" d="M840 0v186h-4q-107 -211 -330 -211q-363 0 -363 457v592h93v-569q0 -208 68.5 -302t215.5 -94q143 0 231.5 105t88.5 280v580h92v-1024h-92zM932 0q-170 -135 -170 -240q0 -88 84 -88q38 0 80 17v-70q-49 -18 -94 -18q-70 0 -113 40.5t-43 112.5q0 55 42.5 122t125.5 124 h88z"/>
    <glyph glyph-name="Wcircumflex" unicode="Ŵ" horiz-adv-x="1833" d="M1362 0h-82l-319 1079q-24 83 -27 135h-4q-3 -44 -31 -133l-340 -1081h-82l-426 1434h111l327 -1149q22 -78 31 -127h4q6 37 35 127l354 1149h50l325 -1149q23 -80 31 -127h4q5 28 16 64l336 1212h107zM1086 1536l-157 239l-160 -239h-82l221 336h45l219 -336h-86z"/>
    <glyph glyph-name="wcircumflex" unicode="ŵ" horiz-adv-x="1386" d="M1032 0h-86l-223 772q-9 32 -16 86h-5q-2 -23 -20 -84l-250 -774h-86l-309 1024h102l238 -817q9 -32 14 -86h8q2 29 19 86l260 817h63l232 -817q8 -29 14 -86h8q0 29 17 86l243 817h95zM861 1188l-157 239l-160 -239h-82l221 336h45l219 -336h-86z"/>
    <glyph glyph-name="Ycircumflex" unicode="Ŷ" horiz-adv-x="1106" d="M598 545v-545h-98v543l-439 891h111l334 -691q18 -36 45 -106h4q14 37 49 104l350 693h107zM704 1535l-157 239l-160 -239h-82l221 336h45l219 -336h-86z"/>
    <glyph glyph-name="ycircumflex" unicode="ŷ" horiz-adv-x="928" d="M414 -209q-56 -138 -124 -205t-175 -67q-45 0 -80 14v92q36 -14 84 -14q123 0 194 170l95 227l-388 1016h103l309 -834q10 -27 14 -41q4 -19 9 -34h4l24 69l330 840h100zM613 1188l-157 239l-160 -239h-82l221 336h45l219 -336h-86z"/>
    <glyph glyph-name="longs" unicode="ſ" horiz-adv-x="510" d="M557 1419q-37 29 -112 29q-189 0 -189 -254v-1194h-92v1202q0 162 81.5 246t203.5 84q65 0 108 -19v-94z"/>
    <glyph glyph-name="Aringacute" unicode="Ǻ" horiz-adv-x="1288" d="M1118 0l-164 446h-622l-164 -446h-109l541 1434h94l535 -1434h-111zM678 1200q-11 30 -18 59q-7 25 -15 50h-4q-17 -66 -33 -107l-241 -665h553zM645 1367q-86 0 -143.5 50.5t-57.5 133.5q0 80 57 132t144 52q88 0 144.5 -50.5t56.5 -133.5q0 -80 -58 -132t-143 -52z M645 1668q-57 0 -92 -32t-35 -85t36.5 -85t90.5 -32q57 0 93 32.5t36 84.5q0 57 -37.5 87t-91.5 30zM628 1802h-90l234 328h104z"/>
    <glyph glyph-name="aringacute" unicode="ǻ" horiz-adv-x="1012" d="M815 0v205h-4q-49 -105 -142.5 -167.5t-207.5 -62.5q-146 0 -231 82t-85 207q0 268 355 324l315 47q0 330 -248 330q-169 0 -329 -136v111q57 45 154.5 77t183.5 32q158 0 244.5 -98t86.5 -285v-666h-92zM533 510q-161 -23 -226 -74.5t-65 -167.5q0 -91 60.5 -150 t168.5 -59q148 0 246 109.5t98 282.5v100zM560 1188q-86 0 -143.5 50.5t-57.5 133.5q0 80 57 132t144 52q88 0 144.5 -50.5t56.5 -133.5q0 -80 -58 -132t-143 -52zM560 1489q-57 0 -92 -32t-35 -85t36.5 -85t90.5 -32q57 0 93 32.5t36 84.5q0 57 -37.5 87t-91.5 30z M533 1620h-90l234 328h104z"/>
    <glyph glyph-name="AEacute" unicode="Ǽ" horiz-adv-x="1706" d="M846 0v446h-502l-219 -446h-109l697 1434h803v-97h-572v-571h531v-90h-531v-586h604v-90h-702zM846 1337h-78l-383 -800h461v800zM1043 1536h-90l234 328h104z"/>
    <glyph glyph-name="aeacute" unicode="ǽ" horiz-adv-x="1718" d="M868 508q0 -211 97.5 -330t267.5 -119q172 0 336 127v-98q-159 -113 -355 -113q-136 0 -240 74.5t-151 210.5h-4q-133 -285 -391 -285q-150 0 -236 80.5t-86 208.5q0 143 99 225t287 91l284 12q0 373 -239 373q-186 0 -338 -134v109q161 109 348 109q230 0 295 -254h4 q126 254 383 254q190 0 293.5 -133t103.5 -367v-41h-758zM1530 592q-6 177 -85 275t-218 98q-144 0 -238.5 -96.5t-116.5 -276.5h658zM776 508l-264 -8q-156 -5 -232.5 -58.5t-76.5 -173.5q0 -98 63.5 -153.5t171.5 -55.5q136 0 237 107.5t101 259.5v82zM816 1188h-90 l234 328h104z"/>
    <glyph glyph-name="Oslashacute" unicode="Ǿ" horiz-adv-x="1559" d="M317 147l-170 -202l-63 51l178 213q-153 200 -153 493q0 343 185.5 549.5t506.5 206.5q235 0 399 -131l139 166l64 -53l-141 -168q188 -201 188 -533q0 -356 -184 -560t-492 -204q-274 0 -457 172zM1139 1253q-144 115 -355 115q-250 0 -411.5 -181t-161.5 -474 q0 -258 117 -426zM1198 1196l-817 -973q153 -157 391 -157q266 0 421 173.5t155 483.5q0 298 -150 473zM733 1536h-90l234 328h104z"/>
    <glyph glyph-name="oslashacute" unicode="ǿ" horiz-adv-x="1149" d="M961 870q98 -140 98 -360q0 -239 -129.5 -387t-354.5 -148q-192 0 -319 113l-166 -184l-61 57l170 189q-109 146 -109 356q0 255 136.5 399t359.5 144q199 0 321 -115l172 190l62 -55zM846 866q-99 99 -264 99q-181 0 -288.5 -122t-107.5 -339q0 -167 76 -285zM897 799 l-582 -643q104 -97 263 -97q185 0 285 120t100 333q0 171 -66 287zM563 1188h-90l234 328h104z"/>
    <glyph glyph-name="anoteleia" unicode="·" horiz-adv-x="444" d="M336 623q0 -47 -33 -80t-80 -33q-46 0 -78 33t-32 80q0 46 32 79t78 33q47 0 80 -33t33 -79z"/>
    <glyph glyph-name="Wgrave" unicode="Ẁ" horiz-adv-x="1833" d="M1362 0h-82l-319 1079q-24 83 -27 135h-4q-3 -44 -31 -133l-340 -1081h-82l-426 1434h111l327 -1149q22 -78 31 -127h4q6 37 35 127l354 1149h50l325 -1149q23 -80 31 -127h4q5 28 16 64l336 1212h107zM920 1536l-248 328h104l234 -328h-90z"/>
    <glyph glyph-name="wgrave" unicode="ẁ" horiz-adv-x="1386" d="M1032 0h-86l-223 772q-9 32 -16 86h-5q-2 -23 -20 -84l-250 -774h-86l-309 1024h102l238 -817q9 -32 14 -86h8q2 29 19 86l260 817h63l232 -817q8 -29 14 -86h8q0 29 17 86l243 817h95zM692 1188l-248 328h104l234 -328h-90z"/>
    <glyph glyph-name="Wacute" unicode="Ẃ" horiz-adv-x="1833" d="M1362 0h-82l-319 1079q-24 83 -27 135h-4q-3 -44 -31 -133l-340 -1081h-82l-426 1434h111l327 -1149q22 -78 31 -127h4q6 37 35 127l354 1149h50l325 -1149q23 -80 31 -127h4q5 28 16 64l336 1212h107zM951 1536h-90l234 328h104z"/>
    <glyph glyph-name="wacute" unicode="ẃ" horiz-adv-x="1386" d="M1032 0h-86l-223 772q-9 32 -16 86h-5q-2 -23 -20 -84l-250 -774h-86l-309 1024h102l238 -817q9 -32 14 -86h8q2 29 19 86l260 817h63l232 -817q8 -29 14 -86h8q0 29 17 86l243 817h95zM744 1188h-90l234 328h104z"/>
    <glyph glyph-name="Wdieresis" unicode="Ẅ" horiz-adv-x="1833" d="M1362 0h-82l-319 1079q-24 83 -27 135h-4q-3 -44 -31 -133l-340 -1081h-82l-426 1434h111l327 -1149q22 -78 31 -127h4q6 37 35 127l354 1149h50l325 -1149q23 -80 31 -127h4q5 28 16 64l336 1212h107zM1095 1537q-27 0 -49 19.5t-22 52.5q0 31 21.5 50t47.5 19 q29 0 52.5 -19.5t23.5 -49.5q0 -31 -21.5 -51.5t-52.5 -20.5zM762 1537q-28 0 -50 19.5t-22 52.5q0 31 22 50t48 19q29 0 52 -19.5t23 -49.5q0 -31 -21 -51.5t-52 -20.5z"/>
    <glyph glyph-name="wdieresis" unicode="ẅ" horiz-adv-x="1386" d="M1032 0h-86l-223 772q-9 32 -16 86h-5q-2 -23 -20 -84l-250 -774h-86l-309 1024h102l238 -817q9 -32 14 -86h8q2 29 19 86l260 817h63l232 -817q8 -29 14 -86h8q0 29 17 86l243 817h95zM871 1188q-27 0 -49 19.5t-22 52.5q0 31 21.5 50t47.5 19q29 0 52.5 -19.5 t23.5 -49.5q0 -31 -21.5 -51.5t-52.5 -20.5zM538 1188q-28 0 -50 19.5t-22 52.5q0 31 22 50t48 19q29 0 52 -19.5t23 -49.5q0 -31 -21 -51.5t-52 -20.5z"/>
    <glyph glyph-name="Ygrave" unicode="Ỳ" horiz-adv-x="1106" d="M598 545v-545h-98v543l-439 891h111l334 -691q18 -36 45 -106h4q14 37 49 104l350 693h107zM540 1536l-248 328h104l234 -328h-90z"/>
    <glyph glyph-name="ygrave" unicode="ỳ" horiz-adv-x="928" d="M414 -209q-56 -138 -124 -205t-175 -67q-45 0 -80 14v92q36 -14 84 -14q123 0 194 170l95 227l-388 1016h103l309 -834q10 -27 14 -41q4 -19 9 -34h4l24 69l330 840h100zM443 1188l-248 328h104l234 -328h-90z"/>
    <glyph glyph-name="quotereversed" unicode="‛" horiz-adv-x="438" d="M96 1434h104l125 -449h-73z"/>
    <glyph glyph-name="uni203E" unicode="‾" horiz-adv-x="850" d="M850 1397h-850v119h850v-119z"/>
    <glyph glyph-name="lira" unicode="₤" horiz-adv-x="1055" d="M420 894h328v-90h-328v-183h328v-90h-328v-46q0 -295 -213 -401h741v-84h-868v86q248 103 248 365v80h-228v90h228v183h-228v90h228v148q0 188 99 302t263 114q96 0 182 -35v-94q-90 45 -186 45q-125 0 -195.5 -88t-70.5 -256v-136z"/>
    <glyph glyph-name="estimated" unicode="℮" horiz-adv-x="1229" d="M1144 530h-828l1 -370q120 -121 296 -121q255 0 396 246l71 -43q-96 -140 -196 -204q-115 -73 -270 -73q-237 0 -383 161t-146 404q0 245 139 402q146 164 387 164q244 0 387 -163q134 -152 146 -403zM912 604v297q-130 123 -303 123q-174 0 -293 -123v-297h596z"/>
    <glyph glyph-name="oneeighth" unicode="⅛" horiz-adv-x="1622" d="M600 584h-471v82h195v682l-209 -70v88l295 94v-794h190v-82zM430 0h-98l862 1434h96zM1475 217q2 66 -48 113.5t-149 81.5q-91 -31 -138.5 -76.5t-47.5 -114.5q0 -41 16 -71t42.5 -49.5t60.5 -28.5t69 -9q33 0 67.5 9.5t62.5 28.5t46 48t19 68zM1446 649q0 33 -12 59 t-33 43.5t-50 27t-63 9.5t-63.5 -10t-52 -28.5t-35.5 -43.5t-13 -55q0 -62 42.5 -100t117.5 -66q79 29 120.5 67t41.5 97zM1565 225q0 -66 -26.5 -112t-68.5 -75.5t-93.5 -42.5t-100.5 -13q-45 0 -94 12t-89 39.5t-66 72t-26 109.5q0 84 49 140t134 94q-69 32 -110.5 80.5 t-41.5 119.5q0 58 22.5 99.5t58.5 68.5t82 40t93 13q46 0 91 -13t80 -39t57 -65t22 -91q0 -42 -12.5 -74.5t-34.5 -58t-52.5 -45t-66.5 -35.5q43 -16 78.5 -37.5t61 -49t39.5 -61.5t14 -76z"/>
    <glyph glyph-name="threeeighths" unicode="⅜" horiz-adv-x="1622" d="M430 0h-98l862 1434h96zM1475 217q2 66 -48 113.5t-149 81.5q-91 -31 -138.5 -76.5t-47.5 -114.5q0 -41 16 -71t42.5 -49.5t60.5 -28.5t69 -9q33 0 67.5 9.5t62.5 28.5t46 48t19 68zM1446 649q0 33 -12 59t-33 43.5t-50 27t-63 9.5t-63.5 -10t-52 -28.5t-35.5 -43.5 t-13 -55q0 -62 42.5 -100t117.5 -66q79 29 120.5 67t41.5 97zM1565 225q0 -66 -26.5 -112t-68.5 -75.5t-93.5 -42.5t-100.5 -13q-45 0 -94 12t-89 39.5t-66 72t-26 109.5q0 84 49 140t134 94q-69 32 -110.5 80.5t-41.5 119.5q0 58 22.5 99.5t58.5 68.5t82 40t93 13 q46 0 91 -13t80 -39t57 -65t22 -91q0 -42 -12.5 -74.5t-34.5 -58t-52.5 -45t-66.5 -35.5q43 -16 78.5 -37.5t61 -49t39.5 -61.5t14 -76zM561 811q0 -54 -19 -100t-55 -79.5t-88 -53t-118 -19.5q-107 0 -193 47v96q100 -63 195 -63q91 0 141.5 47t50.5 125q0 168 -235 168 h-70v80h61q215 0 215 172q0 137 -153 137q-71 0 -172 -53v90q49 23 96.5 34t93.5 11q52 0 93.5 -15t70.5 -42.5t44.5 -65.5t15.5 -84q0 -162 -148 -215v-4q85 -19 129.5 -77t44.5 -136z"/>
    <glyph glyph-name="fiveeighths" unicode="⅝" horiz-adv-x="1622" d="M430 0h-98l862 1434h96zM1475 217q2 66 -48 113.5t-149 81.5q-91 -31 -138.5 -76.5t-47.5 -114.5q0 -41 16 -71t42.5 -49.5t60.5 -28.5t69 -9q33 0 67.5 9.5t62.5 28.5t46 48t19 68zM1446 649q0 33 -12 59t-33 43.5t-50 27t-63 9.5t-63.5 -10t-52 -28.5t-35.5 -43.5 t-13 -55q0 -62 42.5 -100t117.5 -66q79 29 120.5 67t41.5 97zM1565 225q0 -66 -26.5 -112t-68.5 -75.5t-93.5 -42.5t-100.5 -13q-45 0 -94 12t-89 39.5t-66 72t-26 109.5q0 84 49 140t134 94q-69 32 -110.5 80.5t-41.5 119.5q0 58 22.5 99.5t58.5 68.5t82 40t93 13 q46 0 91 -13t80 -39t57 -65t22 -91q0 -42 -12.5 -74.5t-34.5 -58t-52.5 -45t-66.5 -35.5q43 -16 78.5 -37.5t61 -49t39.5 -61.5t14 -76zM580 844q0 -69 -23.5 -122.5t-65 -89.5t-97.5 -54.5t-120 -18.5q-105 0 -178 43v86q48 -26 95 -37.5t85 -11.5q50 0 90.5 14.5t69 40.5 t43.5 62.5t15 81.5q0 172 -230 172q-16 0 -38 -1t-43 -2.5t-37.5 -3t-22.5 -2.5v433h418v-84h-338v-263q21 2 43.5 3.5t44.5 1.5q62 0 115 -15.5t91.5 -46.5t60.5 -77.5t22 -108.5z"/>
    <glyph glyph-name="seveneighths" unicode="⅞" horiz-adv-x="1540" d="M307 0h-98l862 1434h96zM1393 217q2 66 -48 113.5t-149 81.5q-91 -31 -138.5 -76.5t-47.5 -114.5q0 -41 16 -71t42.5 -49.5t60.5 -28.5t69 -9q33 0 67.5 9.5t62.5 28.5t46 48t19 68zM1364 649q0 33 -12 59t-33 43.5t-50 27t-63 9.5t-63.5 -10t-52 -28.5t-35.5 -43.5 t-13 -55q0 -62 42.5 -100t117.5 -66q79 29 120.5 67t41.5 97zM1483 225q0 -66 -26.5 -112t-68.5 -75.5t-93.5 -42.5t-100.5 -13q-45 0 -93.5 12t-88.5 39.5t-66 72t-26 109.5q0 84 48.5 140t133.5 94q-69 32 -110.5 80.5t-41.5 119.5q0 58 22.5 99.5t58.5 68.5t82 40t93 13 q46 0 91 -13t80 -39t57 -65t22 -91q0 -42 -12.5 -74.5t-34.5 -58t-52.5 -45t-66.5 -35.5q43 -16 78.5 -37.5t61 -49t39.5 -61.5t14 -76zM279 573h-86l331 779h-458v82h555v-54z"/>
    <glyph glyph-name="commaaccent" horiz-adv-x="798" d="M465 -118l-126 -261h-79l93 261h112z"/>
    <glyph glyph-name="undercommaaccent" horiz-adv-x="798" d="M465 -118l-126 -261h-79l93 261h112z"/>
    <glyph glyph-name="uni037E" unicode=";" horiz-adv-x="455" d="M236 881q-35 0 -57.5 24t-22.5 58t22.5 56.5t57.5 22.5q34 0 57.5 -22.5t23.5 -56.5t-23.5 -58t-57.5 -24zM125 -248h-78l150 475h102z"/>
    <glyph glyph-name="tonos" unicode="΄" horiz-adv-x="559" d="M214 1187h-49l90 369h105z"/>
    <glyph glyph-name="dieresistonos" unicode="΅" horiz-adv-x="581" d="M581 1315q0 -31 -21.5 -51.5t-52.5 -20.5q-12 0 -24.5 4.5t-23 13.5t-17 22.5t-6.5 31.5q0 17 6.5 30t16.5 22t22.5 13.5t23.5 4.5q29 0 52.5 -19.5t23.5 -50.5zM276 1190h-49l90 369h104zM145 1315q0 -31 -21.5 -51.5t-52.5 -20.5q-12 0 -25 4.5t-23 13.5t-16.5 22.5 t-6.5 31.5q0 17 6.5 30t16.5 22t22 13.5t24 4.5q29 0 52.5 -19.5t23.5 -50.5z"/>
    <glyph glyph-name="Alphatonos" unicode="Ά" horiz-adv-x="1288" d="M1118 0l-164 446h-622l-164 -446h-109l541 1434h94l535 -1434h-111zM678 1200q-11 30 -18 59q-7 25 -15 50h-4q-17 -66 -33 -107l-241 -665h553zM181 1066h-49l90 369h105z"/>
    <glyph glyph-name="Epsilontonos" unicode="Έ" horiz-adv-x="1126" d="M287 0v1434h670v-91h-571v-575h530v-90h-530v-588h604v-90h-703zM15 1066h-49l90 369h105z"/>
    <glyph glyph-name="Etatonos" unicode="Ή" horiz-adv-x="1489" d="M1207 0v688h-821v-688h-99v1434h99v-656h821v656h98v-1434h-98zM15 1066h-49l90 369h105z"/>
    <glyph glyph-name="Iotatonos" unicode="Ί" horiz-adv-x="640" d="M598 1434v-90h-140v-1254h140v-90h-379v90h140v1254h-140v90h379zM16 1066h-49l90 369h105z"/>
    <glyph glyph-name="Omicrontonos" unicode="Ό" horiz-adv-x="1661" d="M876 -25q-304 0 -484.5 202t-180.5 525q0 343 185.5 549.5t506.5 206.5q290 0 469.5 -198.5t179.5 -520.5q0 -356 -184 -560t-492 -204zM886 1368q-250 0 -411.5 -181t-161.5 -474q0 -296 153 -471.5t408 -175.5q266 0 421 173.5t155 483.5q0 304 -151.5 474.5 t-412.5 170.5zM56 1066h-49l90 369h105z"/>
    <glyph glyph-name="Upsilontonos" unicode="Ύ" horiz-adv-x="1208" d="M700 545v-545h-98v543l-439 891h111l334 -691q18 -36 45 -106h4q14 37 49 104l350 693h107zM-47 1066h-49l90 369h105z"/>
    <glyph glyph-name="Omegatonos" unicode="Ώ" horiz-adv-x="1649" d="M1075 0v90q375 277 375 684q0 272 -152 433t-405 161q-264 0 -422 -161t-158 -429q0 -410 377 -688v-90h-477v90h352q-354 268 -354 690q0 308 185 493t484 185q307 0 489.5 -180t182.5 -494q0 -206 -95.5 -389t-258.5 -305h354v-90h-477zM56 1066h-49l90 369h105z"/>
    <glyph glyph-name="iotadieresistonos" unicode="ΐ" horiz-adv-x="518" d="M457 2q-22 -8 -43.5 -11t-38.5 -3q-56 0 -96 18.5t-65.5 52t-37.5 80.5t-12 105v780h92v-782q0 -56 14 -89.5t34 -51.5t42 -23.5t39 -5.5q26 0 42 2.5t30 7.5v-80zM541 1315q0 -31 -21.5 -51.5t-52.5 -20.5q-12 0 -24.5 4.5t-23 13.5t-17 22.5t-6.5 31.5q0 17 6.5 30 t16.5 22t22.5 13.5t23.5 4.5q29 0 52.5 -19.5t23.5 -50.5zM236 1190h-49l90 369h104zM105 1315q0 -31 -21.5 -51.5t-52.5 -20.5q-12 0 -25 4.5t-23 13.5t-16.5 22.5t-6.5 31.5q0 17 6.5 30t16.5 22t22 13.5t24 4.5q29 0 52.5 -19.5t23.5 -50.5z"/>
    <glyph glyph-name="Alpha" unicode="Α" horiz-adv-x="1288" d="M1118 0l-164 446h-622l-164 -446h-109l541 1434h94l535 -1434h-111zM678 1200q-11 30 -18 59q-7 25 -15 50h-4q-17 -66 -33 -107l-241 -665h553z"/>
    <glyph glyph-name="Beta" unicode="Β" horiz-adv-x="1114" d="M184 0v1434h377q169 0 269 -91t100 -241q0 -125 -66.5 -216.5t-185.5 -129.5v-4q149 -14 235 -106.5t86 -235.5q0 -181 -117 -295.5t-313 -114.5h-385zM283 1343v-555h200q156 0 250 80t94 217q0 258 -305 258h-239zM283 698v-608h266q169 0 258.5 81t89.5 230 q0 297 -403 297h-211z"/>
    <glyph glyph-name="Epsilon" unicode="Ε" horiz-adv-x="1024" d="M184 0v1434h670v-91h-571v-575h530v-90h-530v-588h604v-90h-703z"/>
    <glyph glyph-name="Zeta" unicode="Ζ" horiz-adv-x="1167" d="M215 90h858v-90h-1007v31l868 1312h-799v91h952v-27z"/>
    <glyph glyph-name="Eta" unicode="Η" horiz-adv-x="1386" d="M1104 0v688h-821v-688h-99v1434h99v-656h821v656h98v-1434h-98z"/>
    <glyph glyph-name="Iota" unicode="Ι" horiz-adv-x="463" d="M421 1434v-90h-140v-1254h140v-90h-379v90h140v1254h-140v90h379z"/>
    <glyph glyph-name="Kappa" unicode="Κ" horiz-adv-x="1079" d="M922 0l-611 686q-17 19 -24 33h-4v-719h-99v1434h99v-676h4q12 21 26 35l580 641h129l-629 -695l668 -739h-139z"/>
    <glyph glyph-name="Lambda" unicode="Λ" horiz-adv-x="1288" d="M1118 0l-440 1200q-12 34 -18.5 59t-14.5 50h-4q-6 -23 -14.5 -52t-18.5 -55l-440 -1202h-109l541 1434h94l535 -1434h-111z"/>
    <glyph glyph-name="Mu" unicode="Μ" horiz-adv-x="1706" d="M1427 0v1018q0 37 11 211h-4q-31 -81 -52 -125l-510 -1104h-32l-512 1098q-25 53 -47 135h-5q7 -96 7 -191v-1042h-99v1434h92l535 -1155q5 -10 11 -27t13 -34q10 -26 21 -58h6l11 32q1 4 34 95l527 1147h88v-1434h-95z"/>
    <glyph glyph-name="Nu" unicode="Ν" horiz-adv-x="1444" d="M1198 0l-854 1159q-26 35 -46 70l-13 20h-4q2 -26 2 -63v-1186h-99v1434h76l848 -1149q28 -38 61 -92h5q-5 70 -5 120v1121h99v-1434h-70z"/>
    <glyph glyph-name="Xi" unicode="Ξ" horiz-adv-x="1044" d="M96 1343v91h852v-91h-852zM242 678v90h561v-90h-561zM68 0v90h909v-90h-909z"/>
    <glyph glyph-name="Omicron" unicode="Ο" horiz-adv-x="1559" d="M774 -25q-304 0 -484.5 202t-180.5 525q0 343 185.5 549.5t506.5 206.5q290 0 469.5 -198.5t179.5 -520.5q0 -356 -184 -560t-492 -204zM784 1368q-250 0 -411.5 -181t-161.5 -474q0 -296 153 -471.5t408 -175.5q266 0 421 173.5t155 483.5q0 304 -151.5 474.5 t-412.5 170.5z"/>
    <glyph glyph-name="Pi" unicode="Π" horiz-adv-x="1417" d="M1135 0v1343h-852v-1343h-99v1434h1049v-1434h-98z"/>
    <glyph glyph-name="Rho" unicode="Ρ" horiz-adv-x="1114" d="M283 575v-575h-99v1434h346q221 0 338 -102.5t117 -299.5q0 -200 -130.5 -328.5t-365.5 -128.5h-206zM283 1343v-677h204q194 0 295 92.5t101 261.5q0 323 -371 323h-229z"/>
    <glyph glyph-name="Sigma" unicode="Σ" horiz-adv-x="1057" d="M18 0v35l543 706l-463 645v48h856v-91h-704l430 -600l-498 -653h817v-90h-981z"/>
    <glyph glyph-name="Tau" unicode="Τ" horiz-adv-x="1047" d="M573 1343v-1343h-98v1343h-414v91h926v-91h-414z"/>
    <glyph glyph-name="Upsilon" unicode="Υ" horiz-adv-x="1106" d="M598 545v-545h-98v543l-439 891h111l334 -691q18 -36 45 -106h4q14 37 49 104l350 693h107z"/>
    <glyph glyph-name="Chi" unicode="Χ" horiz-adv-x="1153" d="M961 0l-330 547q-31 51 -53 100h-5q-27 -55 -57 -100l-336 -547h-119l453 723l-426 711h119l321 -539q25 -42 52 -96h4l53 96l319 539h115l-430 -709l440 -725h-120z"/>
    <glyph glyph-name="Psi" unicode="Ψ" horiz-adv-x="1589" d="M844 500h92q93 0 169.5 26t130.5 78.5t84 131.5t30 184v514h98v-521q0 -102 -32.5 -193.5t-97 -160t-160 -109t-222.5 -40.5h-92v-410h-99v410h-92q-129 0 -225 40.5t-160 109t-95.5 160t-31.5 193.5v521h99v-514q0 -92 25.5 -169.5t77.5 -133t129 -86.5t181 -31h92v934 h99v-934z"/>
    <glyph glyph-name="uni03A9" unicode="Ω" horiz-adv-x="1546" d="M973 0v90q375 277 375 684q0 272 -152 433t-405 161q-264 0 -422 -161t-158 -429q0 -410 377 -688v-90h-477v90h352q-354 268 -354 690q0 308 185 493t484 185q307 0 489.5 -180t182.5 -494q0 -206 -95.5 -389t-258.5 -305h354v-90h-477z"/>
    <glyph glyph-name="Iotadieresis" unicode="Ϊ" horiz-adv-x="463" d="M421 1434v-90h-140v-1254h140v-90h-379v90h140v1254h-140v90h379zM397 1536q-27 0 -49 19.5t-22 52.5q0 31 21.5 50t47.5 19q29 0 52.5 -19.5t23.5 -49.5q0 -31 -21.5 -51.5t-52.5 -20.5zM64 1536q-28 0 -50 19.5t-22 52.5q0 31 22 50t48 19q29 0 52 -19.5t23 -49.5 q0 -31 -21 -51.5t-52 -20.5z"/>
    <glyph glyph-name="Upsilondieresis" unicode="Ϋ" horiz-adv-x="1106" d="M598 545v-545h-98v543l-439 891h111l334 -691q18 -36 45 -106h4q14 37 49 104l350 693h107zM724 1535q-27 0 -49 19.5t-22 52.5q0 31 21.5 50t47.5 19q29 0 52.5 -19.5t23.5 -49.5q0 -31 -21.5 -51.5t-52.5 -20.5zM391 1535q-28 0 -50 19.5t-22 52.5q0 31 22 50t48 19 q29 0 52 -19.5t23 -49.5q0 -31 -21 -51.5t-52 -20.5z"/>
    <glyph glyph-name="alphatonos" unicode="ά" horiz-adv-x="1223" d="M899 502q-27 93 -53.5 177t-64 147.5t-91 101t-133.5 37.5q-83 0 -148.5 -35.5t-111.5 -99.5t-70 -153.5t-24 -197.5q0 -98 22 -176t62.5 -132t98.5 -83t130 -29q61 0 113 26.5t96 76t81 119.5t69 157zM1121 -12q-35 0 -60.5 21.5t-46.5 67t-40 116t-41 168.5h-4 q-43 -104 -89 -177t-98 -119.5t-112.5 -68t-133.5 -21.5q-87 0 -159 35t-123 100t-79.5 157t-28.5 206q0 127 30 232.5t87 182t140.5 119t191.5 42.5q62 0 111.5 -17t88 -46.5t67.5 -70t52 -86.5t40 -95.5t32 -98.5h2q10 34 28 84t37.5 104t38 107t30.5 94h104 q-18 -49 -43.5 -116t-53.5 -138t-55.5 -141t-48.5 -125q23 -95 41 -163.5t32.5 -116.5t26.5 -78t23 -46.5t21.5 -22t21.5 -5.5q15 0 28 2.5t27 7.5v-80q-21 -7 -41 -10.5t-44 -3.5zM582 1187h-49l90 369h105z"/>
    <glyph glyph-name="epsilontonos" unicode="έ" horiz-adv-x="897" d="M827 29q-27 -11 -65.5 -20.5t-82.5 -17t-89.5 -12t-85.5 -4.5q-112 0 -192 24t-131 64.5t-75 95t-24 115.5q0 56 22 102t59 79.5t85 55t100 28.5v4q-41 8 -82 27t-73 48t-52 68t-20 88q0 78 34 131t88.5 85t123.5 45.5t139 13.5q34 0 72.5 -5t76 -12.5t70.5 -16t57 -16.5 v-96q-29 12 -64 23.5t-72 20t-74 13.5t-68 5q-148 0 -217.5 -50.5t-69.5 -142.5q0 -62 35.5 -101t89 -61t116.5 -29.5t117 -7.5h27h32.5t32 0.5t25.5 1.5v-88q-19 0 -41 1q-19 0 -44 0.5t-54 0.5q-184 0 -279.5 -52t-95.5 -165q0 -44 19 -83t60 -68t106 -45.5t157 -16.5 q38 0 79.5 6t82 15.5t78 21t67.5 23.5v-96zM463 1187h-49l90 369h105z"/>
    <glyph glyph-name="etatonos" unicode="ή" horiz-adv-x="1116" d="M860 -424v1008q0 90 -13.5 160t-45.5 118t-84.5 73.5t-130.5 25.5q-81 0 -143 -33t-103.5 -84.5t-62.5 -116t-21 -127.5v-600h-92v713q0 31 -1.5 71t-5 82t-8.5 83t-12 75h92q3 -15 7 -38t7 -50t5 -55t2 -52h4q34 73 79 116.5t92.5 66.5t94.5 30t86 7q85 0 150 -28.5 t108.5 -82t65.5 -131t22 -174.5v-1057h-92zM538 1187h-49l90 369h105z"/>
    <glyph glyph-name="iotatonos" unicode="ί" horiz-adv-x="518" d="M457 2q-22 -8 -43.5 -11t-38.5 -3q-56 0 -96 18.5t-65.5 52t-37.5 80.5t-12 105v780h92v-782q0 -56 14 -89.5t34 -51.5t42 -23.5t39 -5.5q26 0 42 2.5t30 7.5v-80zM207 1187h-49l90 369h105z"/>
    <glyph glyph-name="upsilondieresistonos" unicode="ΰ" horiz-adv-x="1155" d="M252 457q0 -103 24.5 -178t70 -124t110 -72.5t145.5 -23.5q71 0 135 25.5t112 76.5t76.5 128.5t28.5 181.5q0 144 -35.5 286.5t-95.5 266.5h98q28 -56 51 -120.5t39.5 -134.5t25.5 -143t9 -147q0 -122 -33.5 -216t-92.5 -158t-140.5 -97t-177.5 -33q-113 0 -196 34.5 t-138 96t-81.5 146.5t-26.5 186v355q0 44 -5.5 73.5t-15.5 47.5t-24 25.5t-31 7.5q-14 0 -24 -1.5t-25 -5.5v77q18 6 38 9t39 3q66 0 103 -47.5t37 -144.5v-380zM843 1315q0 -31 -21.5 -51.5t-52.5 -20.5q-12 0 -24.5 4.5t-23 13.5t-17 22.5t-6.5 31.5q0 17 6.5 30t16.5 22 t22.5 13.5t23.5 4.5q29 0 52.5 -19.5t23.5 -50.5zM538 1190h-49l90 369h104zM407 1315q0 -31 -21.5 -51.5t-52.5 -20.5q-12 0 -25 4.5t-23 13.5t-16.5 22.5t-6.5 31.5q0 17 6.5 30t16.5 22t22 13.5t24 4.5q29 0 52.5 -19.5t23.5 -50.5z"/>
    <glyph glyph-name="beta" unicode="β" horiz-adv-x="1061" d="M975 387q0 -88 -27 -163.5t-78 -130.5t-125.5 -86.5t-169.5 -31.5q-49 0 -94.5 8.5t-86 22.5t-75.5 31t-63 35v-467h-92v1511q0 103 29.5 181t81 130t121 78.5t149.5 26.5q77 0 138.5 -25t104 -69.5t65.5 -106t23 -133.5q0 -65 -18.5 -121.5t-53 -104t-84 -85.5 t-110.5 -64v-4q91 -23 159 -64t114 -97t69 -124.5t23 -146.5zM879 381q0 67 -23 130t-73 114.5t-129 90t-191 56.5v80q67 15 124.5 42t100.5 68.5t67.5 96.5t24.5 125q0 54 -14 102t-44 84t-76 57t-110 21q-60 0 -111 -20.5t-88.5 -62.5t-59 -107.5t-21.5 -155.5v-934 q31 -18 66 -37.5t74 -35.5t83 -26t92 -10q69 0 126 22t97.5 63t62.5 101t22 136z"/>
    <glyph glyph-name="gamma" unicode="γ" horiz-adv-x="1063" d="M989 967q0 -136 -31 -264t-89 -253.5t-140.5 -251t-185.5 -255.5v-105t-0.5 -115t-1.5 -111t-2 -93h-101q4 46 6 106t2.5 124.5t0 129.5t-0.5 121q-22 110 -61 233t-92 253.5t-119 266t-143 271.5h110q78 -138 137.5 -263t105.5 -241.5t81 -226.5t63 -219h4 q76 100 142 207t114.5 216.5t76.5 218.5t28 214q0 28 -0.5 48.5t-3.5 45.5h96q2 -15 3 -28.5t1 -28.5z"/>
    <glyph glyph-name="zeta" unicode="ζ" horiz-adv-x="905" d="M895 -164q0 -26 -5 -46.5t-13 -38t-17.5 -32t-19.5 -28.5h-90q11 16 21 29.5t17 27t11 28t4 34.5q0 35 -13.5 64.5t-49.5 53t-97.5 40.5t-157.5 28q-93 11 -168.5 44.5t-129 89t-82.5 133.5t-29 179q0 133 49.5 260t136.5 249t206 240.5t257 235.5v5h-489v84h604v-82 q-65 -56 -139 -125.5t-148 -148.5t-142.5 -165.5t-121 -177.5t-84 -184.5t-31.5 -186.5q0 -85 21 -146.5t63 -104t104.5 -68t145.5 -39.5q43 -7 88.5 -15.5t88.5 -20.5t81 -30t67 -43.5t45.5 -60.5t16.5 -82z"/>
    <glyph glyph-name="eta" unicode="η" horiz-adv-x="1116" d="M860 -424v1008q0 90 -13.5 160t-45.5 118t-84.5 73.5t-130.5 25.5q-81 0 -143 -33t-103.5 -84.5t-62.5 -116t-21 -127.5v-600h-92v713q0 31 -1.5 71t-5 82t-8.5 83t-12 75h92q3 -15 7 -38t7 -50t5 -55t2 -52h4q34 73 79 116.5t92.5 66.5t94.5 30t86 7q85 0 150 -28.5 t108.5 -82t65.5 -131t22 -174.5v-1057h-92z"/>
    <glyph glyph-name="theta" unicode="θ" horiz-adv-x="1147" d="M1057 770q0 -192 -33.5 -340t-96.5 -249.5t-154.5 -153.5t-207.5 -52q-110 0 -198 50t-149.5 147.5t-94.5 241t-33 329.5t31.5 334t94.5 250.5t158 157.5t222 55q121 0 208.5 -54t143.5 -154.5t82.5 -242.5t26.5 -319zM963 813q0 83 -7.5 163t-25 151.5t-46 131.5 t-70.5 104t-99 68.5t-131 24.5q-67 0 -122.5 -24t-99.5 -67t-77 -103t-55 -131.5t-33 -152t-11 -165.5h777zM186 729q0 -174 29 -300.5t81 -208.5t123.5 -121.5t155.5 -39.5q85 0 156 42t122.5 126t80.5 209.5t29 292.5h-777z"/>
    <glyph glyph-name="iota" unicode="ι" horiz-adv-x="518" d="M457 2q-22 -8 -43.5 -11t-38.5 -3q-56 0 -96 18.5t-65.5 52t-37.5 80.5t-12 105v780h92v-782q0 -56 14 -89.5t34 -51.5t42 -23.5t39 -5.5q26 0 42 2.5t30 7.5v-80z"/>
    <glyph glyph-name="kappa" unicode="κ" horiz-adv-x="1073" d="M854 0l-405 537l-193 -222v-315h-92v1024h92v-580l344 396q37 42 70 78t64.5 62t61.5 41t62 15q14 0 25.5 -0.5t25.5 -3.5v-82q-8 1 -11 1.5t-5.5 0.5h-6h-12.5q-47 0 -97.5 -47t-121.5 -129l-143 -166l461 -610h-119z"/>
    <glyph glyph-name="lambda" unicode="λ" horiz-adv-x="1020" d="M877 0l-336 922l-404 -922h-100l459 1028l-72 211q-12 36 -29 71.5t-42 64t-59 46t-81 17.5q-22 0 -45.5 -4t-46.5 -9v88q25 4 49 6.5t47 2.5q59 0 104 -17t80.5 -50.5t63 -84t51.5 -117.5l459 -1253h-98z"/>
    <glyph glyph-name="uni03BC" unicode="μ" horiz-adv-x="1130" d="M862 182q-49 -96 -135 -151.5t-195 -55.5q-60 0 -102.5 10t-73.5 27.5t-53 40.5t-43 49h-4v-497h-92v1419h92v-578q0 -72 10 -141.5t40.5 -124t87 -88t149.5 -33.5q66 0 124 25.5t100.5 75.5t67.5 124.5t25 172.5v567h92v-795q0 -44 5.5 -74t15.5 -48.5t24 -26.5t31 -8 q14 0 24 1.5t25 5.5v-77q-18 -6 -38 -9t-39 -3q-66 0 -98 50t-36 142h-4z"/>
    <glyph glyph-name="nu" unicode="ν" horiz-adv-x="1077" d="M958 864q0 -84 -20.5 -170.5t-54 -169.5t-76.5 -160.5t-87 -145.5t-85.5 -123.5t-73.5 -94.5h-110l-418 1024h104l381 -930q32 40 70 92.5t76.5 113t74 128t63 137.5t44 141t16.5 140q0 54 -5 95t-17 83h102q8 -32 12 -74t4 -86z"/>
    <glyph glyph-name="xi" unicode="ξ" horiz-adv-x="911" d="M874 -170q0 -53 -17.5 -93.5t-37.5 -68.5h-90q23 32 36 64.5t13 70.5q0 30 -7.5 60t-37 56t-87.5 47.5t-159 33.5q-94 12 -168 44t-125.5 83t-78.5 120t-27 154q0 76 26.5 145.5t75 126t116.5 97.5t151 60q-51 15 -93.5 41t-73.5 61.5t-48.5 79t-17.5 94.5 q0 75 34.5 129.5t85.5 92.5t109 62t106 37v5h-361v84h576v-84q-46 -10 -97.5 -23.5t-102 -32t-96.5 -43.5t-81 -58t-56 -75t-21 -94q0 -51 23 -91.5t63.5 -71t95 -51t118.5 -32.5q34 0 59.5 1t57.5 3v-88q-18 2 -38 2h-42q-116 0 -204.5 -32t-148 -84t-90 -118t-30.5 -134 q0 -61 15.5 -112.5t52.5 -92t99 -69t155 -42.5q103 -15 173.5 -39t114 -57t62 -75t18.5 -93z"/>
    <glyph glyph-name="omicron" unicode="ο" horiz-adv-x="1149" d="M1059 510q0 -107 -29 -204t-89 -170.5t-151 -117t-215 -43.5q-122 0 -213 43t-151.5 115.5t-90.5 169t-30 203.5q0 144 42 247t111 169t158.5 96.5t184.5 30.5q108 0 195.5 -36t149 -104.5t95 -169t33.5 -229.5zM963 512q0 114 -27 199.5t-76.5 141.5t-120 84t-157.5 28 q-90 0 -163 -31t-125 -90t-80 -144.5t-28 -195.5q0 -98 26.5 -180t76.5 -141t123 -91.5t166 -32.5q99 0 171.5 33.5t120 94t70.5 143.5t23 182z"/>
    <glyph glyph-name="rho" unicode="ρ" horiz-adv-x="1149" d="M1059 541q0 -134 -32.5 -239t-92.5 -178t-146 -111t-194 -38q-59 0 -108 10.5t-90 29t-74.5 43t-61.5 53.5h-4v-506h-92v930q0 121 29.5 216.5t85 161.5t136 101t181.5 35q121 0 208.5 -43.5t144 -115t83.5 -163t27 -186.5zM961 541q0 90 -24 167.5t-69.5 134.5 t-112.5 89.5t-153 32.5q-95 0 -160.5 -35.5t-107 -94.5t-60 -136t-18.5 -160v-312q24 -36 58.5 -67t78 -53.5t95 -35t108.5 -12.5q83 0 150.5 29.5t115 89.5t73.5 150.5t26 212.5z"/>
    <glyph glyph-name="sigma1" unicode="ς" horiz-adv-x="942" d="M877 -170q0 -53 -18 -93.5t-38 -68.5h-96q23 28 39 63.5t16 82.5q0 44 -16.5 75t-51.5 53t-90 36t-133 24q-101 13 -176 53.5t-124.5 100t-74 132t-24.5 150.5q0 142 38.5 255.5t108 192.5t166 121t211.5 42q31 0 62.5 -4.5t60.5 -11t53.5 -15t40.5 -17.5v-104 q-46 31 -107.5 49.5t-121.5 18.5q-104 0 -181.5 -44t-130 -116.5t-78.5 -165.5t-26 -190q0 -80 24 -141.5t69 -106.5t109.5 -73.5t146.5 -41.5q103 -17 169 -40t104.5 -54t53.5 -71t15 -91z"/>
    <glyph glyph-name="upsilon" unicode="υ" horiz-adv-x="1165" d="M252 457q0 -103 24.5 -178t70 -124t110 -72.5t145.5 -23.5q71 0 135 25.5t112 76.5t76.5 128.5t28.5 181.5q0 144 -35.5 286.5t-95.5 266.5h98q28 -56 51 -120.5t39.5 -134.5t25.5 -143t9 -147q0 -122 -33.5 -216t-92.5 -158t-140.5 -97t-177.5 -33q-113 0 -196 34.5 t-138 96t-81.5 146.5t-26.5 186v355q0 44 -5.5 73.5t-15.5 47.5t-24 25.5t-31 7.5q-14 0 -24 -1.5t-25 -5.5v77q18 6 38 9t39 3q66 0 103 -47.5t37 -144.5v-380z"/>
    <glyph glyph-name="chi" unicode="χ" horiz-adv-x="1102" d="M1022 -479q-45 0 -80 14t-66.5 48.5t-63.5 92t-71 144.5l-193 440l-402 -727h-105l462 818l-198 440q-23 51 -43 85t-38.5 53.5t-37.5 27.5t-39 8q-25 0 -47 -9v86q12 3 25.5 5t30.5 2q37 0 67 -9.5t56.5 -32t50 -59t47.5 -90.5l184 -417l326 583h102l-383 -676l254 -565 q37 -83 78.5 -130.5t97.5 -47.5q30 0 51 6v-83q-15 -3 -31 -5t-34 -2z"/>
    <glyph glyph-name="psi" unicode="ψ" horiz-adv-x="1536" d="M721 -481v456h-57q-108 0 -201.5 37t-162.5 109.5t-108.5 179.5t-39.5 248v475h96v-475q0 -122 34 -214t91.5 -153.5t132.5 -92t158 -30.5h57v1272h92v-1272h57q80 0 155 30t133.5 90.5t94 152.5t35.5 217v475h96v-473q0 -141 -41 -249t-111.5 -180.5t-163.5 -109.5 t-198 -37h-57v-456h-92z"/>
    <glyph glyph-name="omega" unicode="ω" horiz-adv-x="1655" d="M1536 463q0 -111 -26.5 -201t-77.5 -153.5t-125.5 -98.5t-169.5 -35q-60 0 -109 19.5t-87 52.5t-66 75.5t-46 88.5h-4q-17 -45 -46 -87.5t-68.5 -75.5t-90 -53t-110.5 -20q-96 0 -169 36t-122.5 100.5t-74.5 154t-25 197.5q0 84 12.5 163t31.5 150.5t41.5 134t43.5 113.5 h98q-22 -55 -45.5 -123t-42.5 -142.5t-31 -151t-12 -148.5q0 -97 22 -171.5t60 -125.5t90.5 -77t114.5 -26q61 0 112.5 25.5t89 77t58 129.5t20.5 184v275h92v-275q0 -108 20.5 -186.5t57.5 -129.5t88 -75.5t113 -24.5t114.5 28.5t91 81t60 126t21.5 164.5q0 72 -12 148.5 t-31 151t-42.5 142.5t-45.5 123h96q21 -51 44 -113.5t42.5 -134t32 -150.5t12.5 -163z"/>
    <glyph glyph-name="iotadieresis" unicode="ϊ" horiz-adv-x="518" d="M457 2q-22 -8 -43.5 -11t-38.5 -3q-56 0 -96 18.5t-65.5 52t-37.5 80.5t-12 105v780h92v-782q0 -56 14 -89.5t34 -51.5t42 -23.5t39 -5.5q26 0 42 2.5t30 7.5v-80zM376 1188q-27 0 -49 19.5t-22 52.5q0 31 21.5 50t47.5 19q29 0 52.5 -19.5t23.5 -49.5q0 -31 -21.5 -51.5 t-52.5 -20.5zM43 1188q-28 0 -50 19.5t-22 52.5q0 31 22 50t48 19q29 0 52 -19.5t23 -49.5q0 -31 -21 -51.5t-52 -20.5z"/>
    <glyph glyph-name="upsilondieresis" unicode="ϋ" horiz-adv-x="1165" d="M252 457q0 -103 24.5 -178t70 -124t110 -72.5t145.5 -23.5q71 0 135 25.5t112 76.5t76.5 128.5t28.5 181.5q0 144 -35.5 286.5t-95.5 266.5h98q28 -56 51 -120.5t39.5 -134.5t25.5 -143t9 -147q0 -122 -33.5 -216t-92.5 -158t-140.5 -97t-177.5 -33q-113 0 -196 34.5 t-138 96t-81.5 146.5t-26.5 186v355q0 44 -5.5 73.5t-15.5 47.5t-24 25.5t-31 7.5q-14 0 -24 -1.5t-25 -5.5v77q18 6 38 9t39 3q66 0 103 -47.5t37 -144.5v-380zM715 1188q-27 0 -49 19.5t-22 52.5q0 31 21.5 50t47.5 19q29 0 52.5 -19.5t23.5 -49.5q0 -31 -21.5 -51.5 t-52.5 -20.5zM382 1188q-28 0 -50 19.5t-22 52.5q0 31 22 50t48 19q29 0 52 -19.5t23 -49.5q0 -31 -21 -51.5t-52 -20.5z"/>
    <glyph glyph-name="omicrontonos" unicode="ό" horiz-adv-x="1149" d="M575 -25q-224 0 -354.5 147.5t-130.5 383.5q0 255 136.5 399t359.5 144q219 0 346 -143t127 -396q0 -239 -129.5 -387t-354.5 -148zM582 965q-181 0 -288.5 -122t-107.5 -339q0 -201 105 -323t287 -122q185 0 285 120t100 333q0 219 -99.5 336t-281.5 117zM550 1187h-49 l90 369h105z"/>
    <glyph glyph-name="upsilontonos" unicode="ύ" horiz-adv-x="1165" d="M252 457q0 -103 24.5 -178t70 -124t110 -72.5t145.5 -23.5q71 0 135 25.5t112 76.5t76.5 128.5t28.5 181.5q0 144 -35.5 286.5t-95.5 266.5h98q28 -56 51 -120.5t39.5 -134.5t25.5 -143t9 -147q0 -122 -33.5 -216t-92.5 -158t-140.5 -97t-177.5 -33q-113 0 -196 34.5 t-138 96t-81.5 146.5t-26.5 186v355q0 44 -5.5 73.5t-15.5 47.5t-24 25.5t-31 7.5q-14 0 -24 -1.5t-25 -5.5v77q18 6 38 9t39 3q66 0 103 -47.5t37 -144.5v-380zM552 1187h-49l90 369h105z"/>
    <glyph glyph-name="omegatonos" unicode="ώ" horiz-adv-x="1655" d="M1536 463q0 -111 -26.5 -201t-77.5 -153.5t-125.5 -98.5t-169.5 -35q-60 0 -109 19.5t-87 52.5t-66 75.5t-46 88.5h-4q-17 -45 -46 -87.5t-68.5 -75.5t-90 -53t-110.5 -20q-96 0 -169 36t-122.5 100.5t-74.5 154t-25 197.5q0 84 12.5 163t31.5 150.5t41.5 134t43.5 113.5 h98q-22 -55 -45.5 -123t-42.5 -142.5t-31 -151t-12 -148.5q0 -97 22 -171.5t60 -125.5t90.5 -77t114.5 -26q61 0 112.5 25.5t89 77t58 129.5t20.5 184v275h92v-275q0 -108 20.5 -186.5t57.5 -129.5t88 -75.5t113 -24.5t114.5 28.5t91 81t60 126t21.5 164.5q0 72 -12 148.5 t-31 151t-42.5 142.5t-45.5 123h96q21 -51 44 -113.5t42.5 -134t32 -150.5t12.5 -163zM816 1187h-49l90 369h105z"/>
    <glyph glyph-name="uni0401" unicode="Ё" horiz-adv-x="1024" d="M184 0v1434h670v-91h-571v-575h530v-90h-530v-588h604v-90h-703zM714 1536q-27 0 -49 19.5t-22 52.5q0 31 21.5 50t47.5 19q29 0 52.5 -19.5t23.5 -49.5q0 -31 -21.5 -51.5t-52.5 -20.5zM381 1536q-28 0 -50 19.5t-22 52.5q0 31 22 50t48 19q29 0 52 -19.5t23 -49.5 q0 -31 -21 -51.5t-52 -20.5z"/>
    <glyph glyph-name="uni0402" unicode="Ђ" horiz-adv-x="1409" d="M1286 375q0 -80 -22.5 -152.5t-68.5 -127.5t-117.5 -87.5t-168.5 -32.5q-45 0 -87.5 8t-71.5 17v100q31 -12 74 -22t85 -10q72 0 123.5 25.5t84.5 68t48 97.5t15 114q0 74 -23.5 136t-69.5 106.5t-114.5 69t-159.5 24.5h-281v-709h-98v1343h-373v91h926v-91h-455v-544 h295q99 0 183.5 -25.5t145.5 -78t95.5 -132.5t34.5 -188z"/>
    <glyph glyph-name="uni0403" unicode="Ѓ" horiz-adv-x="889" d="M283 1343v-1343h-99v1434h674v-91h-575zM524 1556h-90l234 328h104z"/>
    <glyph glyph-name="uni0404" unicode="Є" horiz-adv-x="1272" d="M774 -25q-148 0 -270.5 52t-210 145.5t-136 225t-48.5 290.5q0 186 57 329.5t154 241.5t226.5 148.5t274.5 50.5q111 0 186.5 -17t129.5 -36v-105q-62 28 -138.5 48t-179.5 20q-123 0 -229 -40.5t-186.5 -118t-130.5 -189.5t-60 -256h702v-92h-704q4 -156 53.5 -270 t129 -189t180.5 -111t208 -36q113 0 202.5 22.5t152.5 54.5v-96q-27 -11 -62.5 -23.5t-80 -23.5t-99.5 -18t-121 -7z"/>
    <glyph glyph-name="uni0405" unicode="Ѕ" horiz-adv-x="1018" d="M139 51v113q154 -98 312 -98q168 0 255 69.5t87 194.5q0 110 -58.5 175.5t-253.5 178.5q-218 127 -276 212.5t-58 197.5q0 152 118 258t315 106q128 0 256 -43v-104q-126 57 -269 57q-146 0 -231.5 -74t-85.5 -188q0 -110 58.5 -175t252.5 -177q201 -114 267.5 -202.5 t66.5 -203.5q0 -165 -114.5 -269t-323.5 -104q-74 0 -170.5 23t-147.5 53z"/>
    <glyph glyph-name="uni0407" unicode="Ї" horiz-adv-x="463" d="M421 1434v-90h-140v-1254h140v-90h-379v90h140v1254h-140v90h379zM397 1536q-27 0 -49 19.5t-22 52.5q0 31 21.5 50t47.5 19q29 0 52.5 -19.5t23.5 -49.5q0 -31 -21.5 -51.5t-52.5 -20.5zM64 1536q-28 0 -50 19.5t-22 52.5q0 31 22 50t48 19q29 0 52 -19.5t23 -49.5 q0 -31 -21 -51.5t-52 -20.5z"/>
    <glyph glyph-name="uni0409" unicode="Љ" horiz-adv-x="1995" d="M1042 0v1341h-454q-17 -133 -37 -275t-41 -274t-40.5 -245t-35.5 -187q-17 -78 -41 -146.5t-60 -120t-86.5 -81.5t-119.5 -30q-32 0 -55 4t-41 10v100q40 -20 92 -20q45 0 79 23t59.5 66t45 104.5t36.5 138.5q11 48 23.5 115t27 148.5t29 174t29 190.5t28.5 199t26 199 h635v-637h325q85 0 158.5 -21.5t127.5 -67.5t85 -118.5t31 -175.5q0 -85 -28 -160t-82.5 -131.5t-135 -89.5t-184.5 -33h-396zM1765 406q0 81 -23 138t-68 93t-111 53t-152 17h-270v-617h276q92 0 158 24t108 66t62 100t20 126z"/>
    <glyph glyph-name="uni040A" unicode="Њ" horiz-adv-x="2056" d="M1929 414q0 -85 -28 -160t-82.5 -131.5t-134.5 -89.5t-185 -33h-395v707h-821v-707h-99v1434h99v-637h821v637h98v-637h326q84 0 157.5 -21.5t127.5 -67.5t85 -118.5t31 -175.5zM1827 406q0 81 -23 138t-68 93t-111 53t-152 17h-271v-617h277q92 0 158 24t108 66t62 100 t20 126z"/>
    <glyph glyph-name="uni040B" unicode="Ћ" horiz-adv-x="1421" d="M1190 0v383q0 81 -17.5 145.5t-55.5 109t-99 68t-148 23.5h-297v-729h-98v1343h-414v91h926v-91h-414v-524h301q97 0 174 -24t130 -76t81.5 -134t28.5 -198v-387h-98z"/>
    <glyph glyph-name="uni040C" unicode="Ќ" horiz-adv-x="1079" d="M922 0l-611 686q-17 19 -24 33h-4v-719h-99v1434h99v-676h4q12 21 26 35l580 641h129l-629 -695l668 -739h-139zM598 1556h-90l234 328h104z"/>
    <glyph glyph-name="uni040E" unicode="Ў" horiz-adv-x="1098" d="M631 377q-38 -89 -79 -163t-90 -127t-108.5 -82.5t-134.5 -29.5q-43 0 -80.5 8.5t-63.5 20.5v107q32 -19 72 -31t72 -12q58 0 101.5 22.5t80 64t68.5 100.5t66 132l-474 1047h111l358 -811q6 -12 13 -28t14.5 -34l15 -36t13.5 -33h4q12 34 26 64.5t23 53.5l344 824h104z M575 1586q58 0 104.5 17t80 46t53 67t24.5 79h98q-10 -54 -37.5 -105.5t-72.5 -91.5t-108 -64t-143 -24t-140 24t-101 64t-65.5 91.5t-34.5 105.5h98q5 -41 22 -79t47 -67t73 -46t100 -17h2z"/>
    <glyph glyph-name="uni040F" unicode="Џ" horiz-adv-x="1386" d="M738 0v-384h-96v384h-458v1434h99v-1344h821v1344h98v-1434h-464z"/>
    <glyph glyph-name="uni0410" unicode="А" horiz-adv-x="1288" d="M1118 0l-164 446h-622l-164 -446h-109l541 1434h94l535 -1434h-111zM678 1200q-11 30 -18 59q-7 25 -15 50h-4q-17 -66 -33 -107l-241 -665h553z"/>
    <glyph glyph-name="uni0411" unicode="Б" horiz-adv-x="1102" d="M1010 414q0 -85 -28 -160t-82.5 -131.5t-135 -89.5t-184.5 -33h-396v1434h721v-91h-622v-546h325q85 0 158.5 -21.5t127.5 -67.5t85 -118.5t31 -175.5zM907 406q0 81 -23 138t-68 93t-111 53t-152 17h-270v-617h276q92 0 158 24t108 66t62 100t20 126z"/>
    <glyph glyph-name="uni0412" unicode="В" horiz-adv-x="1114" d="M184 0v1434h377q169 0 269 -91t100 -241q0 -125 -66.5 -216.5t-185.5 -129.5v-4q149 -14 235 -106.5t86 -235.5q0 -181 -117 -295.5t-313 -114.5h-385zM283 1343v-555h200q156 0 250 80t94 217q0 258 -305 258h-239zM283 698v-608h266q169 0 258.5 81t89.5 230 q0 297 -403 297h-211z"/>
    <glyph glyph-name="uni0413" unicode="Г" horiz-adv-x="889" d="M283 1343v-1343h-99v1434h674v-91h-575z"/>
    <glyph glyph-name="uni0414" unicode="Д" horiz-adv-x="1351" d="M1235 -384v384h-1115v-384h-100v474h116q74 144 141 312t118 344t82.5 352t34.5 336h618v-1344h201v-474h-96zM1032 1343h-428q-3 -84 -18 -182.5t-39 -206t-56 -220t-71 -224t-83.5 -218t-92.5 -202.5h788v1253z"/>
    <glyph glyph-name="uni0415" unicode="Е" horiz-adv-x="1024" d="M184 0v1434h670v-91h-571v-575h530v-90h-530v-588h604v-90h-703z"/>
    <glyph glyph-name="uni0416" unicode="Ж" horiz-adv-x="1692" d="M1534 0l-610 686q-5 5 -12 13.5t-13 19.5h-4v-719h-98v719h-4q-7 -11 -13.5 -19.5t-11.5 -13.5l-610 -686h-140l668 739l-629 695h129l580 -641q5 -5 13.5 -15.5t13.5 -19.5h4v676h98v-676h4q5 9 13.5 19.5t13.5 15.5l579 641h129l-628 -695l667 -739h-139z"/>
    <glyph glyph-name="uni0417" unicode="З" horiz-adv-x="1104" d="M991 393q0 -81 -31.5 -156.5t-94 -133.5t-155 -93t-214.5 -35q-119 0 -213 27.5t-160 69.5v106q41 -31 88 -53.5t96 -37t97.5 -21.5t93.5 -7q99 0 173.5 26t124 70t74.5 102t25 122q0 83 -30 144t-87 100.5t-139 59t-186 19.5h-129v84h98q95 0 171.5 21.5t130.5 62.5 t83 99.5t29 132.5q0 57 -19 107t-57 86.5t-95 57.5t-133 21q-92 0 -174 -28t-147 -76v98q33 18 68.5 34t76 28.5t86.5 20t99 7.5q94 0 167 -26t123 -71.5t75.5 -108t25.5 -134.5q0 -139 -76 -233t-219 -131v-4q89 -6 155.5 -39t110.5 -82.5t66 -110.5t22 -125z"/>
    <glyph glyph-name="uni0418" unicode="И" horiz-adv-x="1452" d="M1169 0v1122v30.5v33.5t0.5 33.5t1.5 29.5h-4q-5 -8 -12.5 -20.5t-16 -25t-17 -24.5t-13.5 -20l-854 -1159h-70v1434h99v-1121q0 -24 -1 -58.5t-3 -61.5h4q11 18 29 45t32 47l848 1149h76v-1434h-99z"/>
    <glyph glyph-name="uni0419" unicode="Й" horiz-adv-x="1452" d="M1169 0v1122v30.5v33.5t0.5 33.5t1.5 29.5h-4q-5 -8 -12.5 -20.5t-16 -25t-17 -24.5t-13.5 -20l-854 -1159h-70v1434h99v-1121q0 -24 -1 -58.5t-3 -61.5h4q11 18 29 45t32 47l848 1149h76v-1434h-99zM724 1586q58 0 104.5 17t80 46t53 67t24.5 79h98 q-10 -54 -37.5 -105.5t-72.5 -91.5t-108 -64t-143 -24t-140 24t-101 64t-65.5 91.5t-34.5 105.5h98q5 -41 22 -79t47 -67t73 -46t100 -17h2z"/>
    <glyph glyph-name="uni041A" unicode="К" horiz-adv-x="1079" d="M922 0l-611 686q-17 19 -24 33h-4v-719h-99v1434h99v-676h4q12 21 26 35l580 641h129l-629 -695l668 -739h-139z"/>
    <glyph glyph-name="uni041B" unicode="Л" horiz-adv-x="1325" d="M1042 0v1341h-454q-17 -133 -37 -275t-41 -274t-40.5 -245t-35.5 -187q-17 -78 -41 -146.5t-60 -120t-86.5 -81.5t-119.5 -30q-32 0 -55 4t-41 10v100q40 -20 92 -20q45 0 79 23t59.5 66t45 104.5t36.5 138.5q11 48 23.5 115t27 148.5t29 174t29 190.5t28.5 199t26 199 h635v-1434h-99z"/>
    <glyph glyph-name="uni041C" unicode="М" horiz-adv-x="1706" d="M1427 0v1018q0 37 11 211h-4q-31 -81 -52 -125l-510 -1104h-32l-512 1098q-25 53 -47 135h-5q7 -96 7 -191v-1042h-99v1434h92l535 -1155q5 -10 11 -27t13 -34q10 -26 21 -58h6l11 32q1 4 34 95l527 1147h88v-1434h-95z"/>
    <glyph glyph-name="uni041D" unicode="Н" horiz-adv-x="1386" d="M1104 0v688h-821v-688h-99v1434h99v-656h821v656h98v-1434h-98z"/>
    <glyph glyph-name="uni041E" unicode="О" horiz-adv-x="1559" d="M774 -25q-304 0 -484.5 202t-180.5 525q0 343 185.5 549.5t506.5 206.5q290 0 469.5 -198.5t179.5 -520.5q0 -356 -184 -560t-492 -204zM784 1368q-250 0 -411.5 -181t-161.5 -474q0 -296 153 -471.5t408 -175.5q266 0 421 173.5t155 483.5q0 304 -151.5 474.5 t-412.5 170.5z"/>
    <glyph glyph-name="uni041F" unicode="П" horiz-adv-x="1386" d="M1104 0v1343h-821v-1343h-99v1434h1018v-1434h-98z"/>
    <glyph glyph-name="uni0420" unicode="Р" horiz-adv-x="1114" d="M283 575v-575h-99v1434h346q221 0 338 -102.5t117 -299.5q0 -200 -130.5 -328.5t-365.5 -128.5h-206zM283 1343v-677h204q194 0 295 92.5t101 261.5q0 323 -371 323h-229z"/>
    <glyph glyph-name="uni0421" unicode="С" horiz-adv-x="1272" d="M1137 47q-174 -72 -363 -72q-294 0 -479.5 197.5t-185.5 515.5q0 349 201 559.5t511 210.5q165 0 316 -53v-105q-151 68 -318 68q-270 0 -439 -183t-169 -487q0 -293 161.5 -462.5t409.5 -169.5q198 0 355 77v-96z"/>
    <glyph glyph-name="uni0422" unicode="Т" horiz-adv-x="1047" d="M573 1343v-1343h-98v1343h-414v91h926v-91h-414z"/>
    <glyph glyph-name="uni0423" unicode="У" horiz-adv-x="1098" d="M631 377q-38 -89 -79 -163t-90 -127t-108.5 -82.5t-134.5 -29.5q-43 0 -80.5 8.5t-63.5 20.5v107q32 -19 72 -31t72 -12q58 0 101.5 22.5t80 64t68.5 100.5t66 132l-474 1047h111l358 -811q6 -12 13 -28t14.5 -34l15 -36t13.5 -33h4q12 34 26 64.5t23 53.5l344 824h104z "/>
    <glyph glyph-name="uni0424" unicode="Ф" horiz-adv-x="1442" d="M1339 756q0 -114 -38 -216t-107 -178t-166.5 -120.5t-216.5 -44.5h-41v-217h-98v217h-41q-119 0 -216.5 43.5t-167 119.5t-107.5 178t-38 218q0 110 37.5 207.5t106.5 170.5t167 115.5t220 42.5h39v183h98v-183h39q121 0 219 -41.5t167 -113.5t106.5 -170t37.5 -211z M1235 754q0 101 -31.5 184t-88 141.5t-134.5 90.5t-172 32h-39v-915h41q92 0 170 33t134.5 94t88 147.5t31.5 192.5zM672 1202h-39q-93 0 -171 -33t-135 -92t-88.5 -141.5t-31.5 -181.5q0 -108 31.5 -194t88 -147t134.5 -93.5t170 -32.5h41v915z"/>
    <glyph glyph-name="uni0425" unicode="Х" horiz-adv-x="1153" d="M961 0l-330 547q-31 51 -53 100h-5q-27 -55 -57 -100l-336 -547h-119l453 723l-426 711h119l321 -539q25 -42 52 -96h4l53 96l319 539h115l-430 -709l440 -725h-120z"/>
    <glyph glyph-name="uni0426" unicode="Ц" horiz-adv-x="1436" d="M1288 -384v384h-1104v1434h99v-1344h821v1344h98v-1344h182v-474h-96z"/>
    <glyph glyph-name="uni0427" unicode="Ч" horiz-adv-x="1255" d="M973 0v649q-113 -44 -225.5 -76t-227.5 -32q-94 0 -161 25.5t-110.5 72t-64 110.5t-20.5 142v543h98v-529q0 -131 67 -202.5t201 -71.5q103 0 216.5 29t226.5 75v699h98v-1434h-98z"/>
    <glyph glyph-name="uni0428" unicode="Ш" horiz-adv-x="1776" d="M184 0v1434h99v-1344h553v1344h100v-1344h555v1344h100v-1434h-1407z"/>
    <glyph glyph-name="uni0429" unicode="Щ" horiz-adv-x="1825" d="M1678 -384v384h-1494v1434h99v-1344h553v1344h100v-1344h555v1344h100v-1344h183v-474h-96z"/>
    <glyph glyph-name="uni042A" unicode="Ъ" horiz-adv-x="1423" d="M1300 414q0 -85 -28 -160t-82.5 -131.5t-134.5 -89.5t-185 -33h-395v1343h-414v91h512v-637h326q84 0 157.5 -21.5t127.5 -67.5t85 -118.5t31 -175.5zM1198 406q0 81 -23 138t-68 93t-111 53t-152 17h-271v-617h277q92 0 158 24t108 66t62 100t20 126z"/>
    <glyph glyph-name="uni042B" unicode="Ы" horiz-adv-x="1544" d="M1262 0v1434h98v-1434h-98zM1010 414q0 -85 -28 -160t-82.5 -131.5t-135 -89.5t-184.5 -33h-396v1434h99v-637h325q85 0 158.5 -21.5t127.5 -67.5t85 -118.5t31 -175.5zM907 406q0 81 -23 138t-68 93t-111 53t-152 17h-270v-617h276q92 0 158 24t108 66t62 100t20 126z "/>
    <glyph glyph-name="uni042C" unicode="Ь" horiz-adv-x="1135" d="M1010 414q0 -85 -28 -160t-82.5 -131.5t-135 -89.5t-184.5 -33h-396v1434h99v-637h325q85 0 158.5 -21.5t127.5 -67.5t85 -118.5t31 -175.5zM907 406q0 81 -23 138t-68 93t-111 53t-152 17h-270v-617h276q92 0 158 24t108 66t62 100t20 126z"/>
    <glyph glyph-name="uni042D" unicode="Э" horiz-adv-x="1262" d="M1153 711q0 -159 -50.5 -294t-140.5 -233t-214.5 -153.5t-272.5 -55.5q-66 0 -119 7t-95 17.5t-75.5 22.5t-60.5 23v98q63 -32 153.5 -54.5t202.5 -22.5q107 0 208 36t180 111t128.5 189t53.5 270h-704v92h702q-9 130 -52.5 240.5t-120 191.5t-184.5 126.5t-246 45.5 q-103 0 -181 -20t-140 -48v97q27 9 61 19.5t74.5 20t88.5 15.5t104 6q145 0 272.5 -47t222.5 -141t150 -233.5t55 -325.5z"/>
    <glyph glyph-name="uni042E" unicode="Ю" horiz-adv-x="1989" d="M1880 739q0 -191 -49 -334t-135 -238.5t-203.5 -143.5t-255.5 -48q-155 0 -273.5 56.5t-199.5 155t-122.5 230.5t-41.5 283h-317v-700h-99v1434h99v-643h321q12 146 60 268.5t131 211t200 138t267 49.5q142 0 256 -53.5t194.5 -148.5t124 -227.5t43.5 -289.5zM1778 723 q0 160 -39.5 280.5t-110.5 201.5t-169.5 122t-215.5 41q-116 0 -215 -46t-171.5 -131t-113.5 -206.5t-41 -271.5q0 -149 38 -269t107.5 -204t167.5 -129t218 -45t220 41.5t172 124t112.5 205.5t40.5 286z"/>
    <glyph glyph-name="uni042F" unicode="Я" horiz-adv-x="1137" d="M854 0v639h-209q-57 0 -98.5 -16t-73.5 -45.5t-57 -70.5t-49 -91l-189 -416h-112l211 453q22 46 44.5 80t46 59t47.5 42t48 28v4q-64 10 -123.5 38t-105.5 74.5t-74 112.5t-28 151q0 41 11 86t33.5 88.5t58 83t84.5 69.5t113 47.5t143 17.5h377v-1434h-98zM854 1343h-268 q-99 0 -166 -27.5t-108.5 -70.5t-59 -97t-17.5 -106q0 -87 32 -146.5t83.5 -96.5t118 -53.5t135.5 -16.5h250v614z"/>
    <glyph glyph-name="uni0430" unicode="а" horiz-adv-x="1012" d="M776 0v205h-4q-49 -105 -142.5 -167.5t-207.5 -62.5q-146 0 -231 82t-85 207q0 268 355 324l315 47q0 330 -248 330q-169 0 -329 -136v111q57 45 154.5 77t183.5 32q158 0 244.5 -98t86.5 -285v-666h-92zM494 510q-161 -23 -226 -74.5t-65 -167.5q0 -91 60.5 -150 t168.5 -59q148 0 246 109.5t98 282.5v100z"/>
    <glyph glyph-name="uni0431" unicode="б" horiz-adv-x="1126" d="M1036 489q0 -59 -10.5 -120t-33.5 -118.5t-58.5 -107.5t-85 -87.5t-114 -59t-144.5 -21.5q-112 0 -197.5 43.5t-143 125t-87 199.5t-29.5 267q0 174 21 303.5t59.5 221t91.5 149.5t117 90q40 20 87.5 34.5t97 26t98 20t90.5 15.5q35 7 75 19t68 31v-97 q-22 -14 -58.5 -26.5t-82.5 -20.5q-44 -7 -92.5 -15.5t-95 -19t-89 -24t-74.5 -31.5q-88 -52 -142 -175.5t-66 -328.5h4q22 43 58.5 82.5t84 69.5t105 47.5t122.5 17.5q111 0 191 -40.5t131.5 -110.5t76.5 -162.5t25 -196.5zM934 477q0 100 -21 180t-63.5 136.5t-106.5 87 t-149 30.5q-60 0 -113.5 -19.5t-99.5 -52.5t-82 -77t-61 -94q0 -17 -1 -46.5t-1 -58.5q0 -100 20.5 -191t64 -160.5t111.5 -111t164 -41.5q84 0 147.5 33.5t106 91t63.5 133.5t21 160z"/>
    <glyph glyph-name="uni0432" unicode="в" horiz-adv-x="981" d="M889 293q0 -65 -22.5 -118.5t-63.5 -92.5t-97.5 -60.5t-123.5 -21.5h-418v1024h389q77 0 132.5 -19t91.5 -52t53.5 -78t17.5 -97q0 -47 -13.5 -87.5t-38 -73t-60 -54.5t-79.5 -31q57 -6 100.5 -26.5t72.5 -52t44 -72.5t15 -88zM752 764q0 35 -10.5 67t-35.5 56t-65 38.5 t-100 14.5h-285v-371h260q68 0 113.5 16.5t72.5 44t38.5 62.5t11.5 72zM793 285q0 41 -13.5 77.5t-44 63.5t-81 43t-124.5 16h-274v-401h307q57 0 100 14.5t72 41t43.5 63.5t14.5 82z"/>
    <glyph glyph-name="uni0433" unicode="г" horiz-adv-x="694" d="M256 940v-940h-92v1024h500v-84h-408z"/>
    <glyph glyph-name="uni0434" unicode="д" horiz-adv-x="1075" d="M946 -270v270h-817v-270h-84v354h90q67 97 118.5 209t86.5 233t54 247t22 251h456v-940h158v-354h-84zM780 940h-280q-8 -107 -27 -218t-51.5 -221t-78 -215.5t-105.5 -201.5h542v856z"/>
    <glyph glyph-name="uni0435" unicode="е" horiz-adv-x="1034" d="M186 508q0 -211 97.5 -330t267.5 -119q172 0 336 127v-98q-159 -113 -355 -113q-198 0 -320 142t-122 401q0 224 127.5 377.5t331.5 153.5q191 0 293 -134t102 -366v-41h-758zM848 592q-6 177 -85 275t-218 98q-144 0 -238.5 -96.5t-116.5 -276.5h658z"/>
    <glyph glyph-name="uni0436" unicode="ж" horiz-adv-x="1362" d="M1212 0l-481 502h-4v-502h-92v502h-4l-481 -502h-130l512 524l-495 500h119l475 -489h4v489h92v-489h4l475 489h119l-496 -500l512 -524h-129z"/>
    <glyph glyph-name="uni0437" unicode="з" horiz-adv-x="936" d="M844 285q0 -59 -22.5 -115t-73.5 -99.5t-134.5 -69.5t-205.5 -26q-41 0 -86 5t-88.5 14t-82 21.5t-65.5 27.5v96q35 -19 75.5 -34t83 -25t84.5 -15.5t81 -5.5q100 0 165.5 18t104 47.5t53.5 68.5t15 81q0 61 -23.5 102t-67 66t-106 35t-139.5 10h-140v84h127 q150 0 223.5 49t73.5 154q0 42 -16 77t-49 60.5t-84 39.5t-121 14q-84 0 -167.5 -22t-152.5 -54v90q29 12 66 24.5t79.5 22.5t89.5 16.5t97 6.5q97 0 164.5 -22.5t110 -59.5t61.5 -84.5t19 -96.5q0 -99 -55.5 -164t-157.5 -83v-4q63 -3 112 -23.5t83 -53.5t51.5 -77.5 t17.5 -95.5z"/>
    <glyph glyph-name="uni0438" unicode="и" horiz-adv-x="1128" d="M872 0v856q-8 -11 -15.5 -22t-12.5 -17l-615 -817h-65v1024h92v-848q6 11 12 21t13 18l610 809h74v-1024h-93z"/>
    <glyph glyph-name="uni0439" unicode="й" horiz-adv-x="1128" d="M872 0v856q-8 -11 -15.5 -22t-12.5 -17l-615 -817h-65v1024h92v-848q6 11 12 21t13 18l610 809h74v-1024h-93zM558 1266q58 0 104.5 17t80 46t53 67t24.5 79h98q-10 -54 -37.5 -105.5t-72.5 -91.5t-108 -64t-143 -24t-140 24t-101 64t-65.5 91.5t-34.5 105.5h98 q5 -41 22 -79t47 -67t73 -46t100 -17h2z"/>
    <glyph glyph-name="uni043A" unicode="к" horiz-adv-x="891" d="M741 0l-481 502h-4v-502h-92v1024h92v-489h4l475 489h119l-496 -500l512 -524h-129z"/>
    <glyph glyph-name="uni043B" unicode="л" horiz-adv-x="1026" d="M770 0v940h-299q-17 -228 -44.5 -405.5t-72 -299.5t-109.5 -185.5t-157 -63.5q-15 0 -30.5 2.5t-26.5 5.5v82q8 -3 26 -5.5t29 -2.5q67 0 117 62.5t86 184t60.5 300t39.5 409.5h473v-1024h-92z"/>
    <glyph glyph-name="uni043C" unicode="м" horiz-adv-x="1300" d="M1047 0v885l-27 -72q-11 -30 -23.5 -62t-21.5 -55l-277 -696h-75l-299 696q-10 21 -22 53t-23 62q-13 35 -27 74v-885h-88v1024h110l312 -709q11 -24 23.5 -56.5t23.5 -62.5q13 -35 26 -71q14 35 28 69q11 29 24 61t22 56l291 713h113v-1024h-90z"/>
    <glyph glyph-name="uni043D" unicode="н" horiz-adv-x="1116" d="M860 0v489h-604v-489h-92v1024h92v-451h604v451h92v-1024h-92z"/>
    <glyph glyph-name="uni043E" unicode="о" horiz-adv-x="1149" d="M575 -25q-224 0 -354.5 147.5t-130.5 383.5q0 255 136.5 399t359.5 144q219 0 346 -143t127 -396q0 -239 -129.5 -387t-354.5 -148zM582 965q-181 0 -288.5 -122t-107.5 -339q0 -201 105 -323t287 -122q185 0 285 120t100 333q0 219 -99.5 336t-281.5 117z"/>
    <glyph glyph-name="uni043F" unicode="п" horiz-adv-x="1116" d="M860 0v940h-604v-940h-92v1024h788v-1024h-92z"/>
    <glyph glyph-name="uni0440" unicode="р" horiz-adv-x="1147" d="M260 182h-4v-653h-92v1495h92v-211h4q55 113 157.5 174.5t225.5 61.5q195 0 304.5 -134.5t109.5 -365.5q0 -257 -125.5 -415.5t-331.5 -158.5q-230 0 -340 207zM256 563v-129q0 -154 97 -264.5t255 -110.5q157 0 255 134.5t98 353.5q0 192 -90 305t-240 113 q-179 0 -277 -120t-98 -282z"/>
    <glyph glyph-name="uni0441" unicode="с" horiz-adv-x="909" d="M827 45q-114 -70 -272 -70q-209 0 -337 143.5t-128 375.5q0 244 144 399.5t370 155.5q117 0 227 -48v-104q-110 68 -241 68q-180 0 -292 -129.5t-112 -335.5q0 -199 102.5 -320t270.5 -121q154 0 268 82v-96z"/>
    <glyph glyph-name="uni0442" unicode="т" horiz-adv-x="756" d="M426 940v-940h-92v940h-307v84h706v-84h-307z"/>
    <glyph glyph-name="uni0443" unicode="у" horiz-adv-x="928" d="M414 -209q-56 -138 -124 -205t-175 -67q-45 0 -80 14v92q36 -14 84 -14q123 0 194 170l95 227l-388 1016h103l309 -834q10 -27 14 -41q4 -19 9 -34h4l24 69l330 840h100z"/>
    <glyph glyph-name="uni0444" unicode="ф" horiz-adv-x="1321" d="M1235 506q0 -111 -37.5 -204t-103.5 -160t-156 -104.5t-195 -37.5h-36v-481h-93v481h-36q-105 0 -195 37.5t-156 104.5t-103.5 160t-37.5 204q0 118 35 214t99 163.5t153.5 104t199.5 36.5h41v434h93v-434h41q109 0 199 -36.5t154 -104t99 -163.5t35 -214zM1139 504 q0 109 -30 191t-83 136.5t-125.5 81.5t-157.5 27h-36v-856h28q88 0 162 28.5t128 82.5t84 132t30 177zM614 940h-39q-84 0 -156 -27t-124.5 -81.5t-82.5 -136.5t-30 -191q0 -99 30 -177t84 -132t128 -82.5t162 -28.5h28v856z"/>
    <glyph glyph-name="uni0445" unicode="х" horiz-adv-x="862" d="M481 502l334 -502h-117l-270 432h-4l-36 -57q-7 -12 -17 -27l-226 -348h-112l342 500l-336 524h108l228 -367q44 -71 53 -88h4l51 84l238 371h108z"/>
    <glyph glyph-name="uni0446" unicode="ц" horiz-adv-x="1155" d="M1026 -373v373h-862v1024h92v-940h604v940h92v-940h158v-457h-84z"/>
    <glyph glyph-name="uni0447" unicode="ч" horiz-adv-x="1071" d="M815 0v446q-97 -52 -185 -80t-179 -28q-66 0 -122 19.5t-97.5 61.5t-65 109t-23.5 162v334h93v-326q0 -60 10.5 -110.5t36 -87t69 -57.5t109.5 -21q97 0 185 29t169 75v498h92v-1024h-92z"/>
    <glyph glyph-name="uni0448" unicode="ш" horiz-adv-x="1538" d="M164 0v1024h92v-940h467v940h92v-940h467v940h92v-1024h-1210z"/>
    <glyph glyph-name="uni0449" unicode="щ" horiz-adv-x="1577" d="M1448 -373v373h-1284v1024h92v-940h467v940h92v-940h467v940h92v-940h158v-457h-84z"/>
    <glyph glyph-name="uni044A" unicode="ъ" horiz-adv-x="1133" d="M1051 307q0 -78 -27 -136t-71 -96t-99.5 -56.5t-112.5 -18.5h-393v940h-321v84h413v-420h293q74 0 133 -20t100 -58.5t63 -93.5t22 -125zM954 307q0 45 -14.5 84t-44 67.5t-74.5 45t-106 16.5h-275v-436h277q64 0 109.5 17.5t73.5 48t41 71t13 86.5z"/>
    <glyph glyph-name="uni044B" unicode="ы" horiz-adv-x="1346" d="M1090 0v1024h92v-1024h-92zM866 307q0 -78 -27 -136t-70.5 -96t-99 -56.5t-112.5 -18.5h-393v1024h92v-420h293q73 0 132 -20t100 -58.5t63 -93.5t22 -125zM770 307q0 45 -14.5 84t-44.5 67.5t-75 45t-106 16.5h-274v-436h276q65 0 110 17.5t73.5 48t41.5 71t13 86.5z "/>
    <glyph glyph-name="uni044C" unicode="ь" horiz-adv-x="948" d="M866 307q0 -78 -27 -136t-70.5 -96t-99 -56.5t-112.5 -18.5h-393v1024h92v-420h293q73 0 132 -20t100 -58.5t63 -93.5t22 -125zM770 307q0 45 -14.5 84t-44.5 67.5t-75 45t-106 16.5h-274v-436h276q65 0 110 17.5t73.5 48t41.5 71t13 86.5z"/>
    <glyph glyph-name="uni044D" unicode="э" horiz-adv-x="918" d="M827 510q0 -114 -34.5 -212t-97 -170t-150 -112.5t-193.5 -40.5q-96 0 -162 19.5t-104 44.5v98q42 -32 111.5 -55t158.5 -23q78 0 145 28t117 81t79.5 129.5t33.5 173.5h-504v80h504q-6 88 -32.5 164t-75 131.5t-119.5 87t-166 31.5q-81 0 -145.5 -19.5t-102.5 -44.5v90 q21 11 50.5 21.5t63.5 18.5t70.5 13t71.5 5q111 0 200 -37t151.5 -106.5t96 -169.5t33.5 -226z"/>
    <glyph glyph-name="uni044E" unicode="ю" horiz-adv-x="1595" d="M1505 510q0 -107 -27 -204t-82.5 -170.5t-140.5 -117t-200 -43.5q-111 0 -195 41t-140.5 111.5t-86 164t-31.5 197.5h-346v-489h-92v1024h92v-451h348q9 126 51 216t105 148t142 85t163 27q100 0 181.5 -36t139 -104.5t88.5 -169t31 -229.5zM1409 512q0 114 -24.5 199.5 t-69.5 141.5t-109.5 84t-144.5 28q-82 0 -149 -31t-114.5 -90t-73.5 -144.5t-26 -195.5q0 -98 24 -180t70 -141t112.5 -91.5t152.5 -32.5q90 0 156.5 33.5t110 94t64.5 143.5t21 182z"/>
    <glyph glyph-name="uni044F" unicode="я" horiz-adv-x="987" d="M727 0v446h-170q-27 0 -57 -7.5t-60 -28t-58 -56t-52 -90.5l-115 -264h-113l129 285q29 66 73.5 113.5t101.5 70.5q-125 15 -185.5 86.5t-60.5 183.5q0 52 17.5 103t57.5 91.5t105 65.5t160 25h323v-1024h-96zM727 944h-221q-122 0 -183 -54.5t-61 -150.5q0 -57 17 -96.5 t48.5 -64.5t75.5 -36.5t97 -11.5h227v414z"/>
    <glyph glyph-name="uni0451" unicode="ё" horiz-adv-x="1034" d="M186 508q0 -211 97.5 -330t267.5 -119q172 0 336 127v-98q-159 -113 -355 -113q-198 0 -320 142t-122 401q0 224 127.5 377.5t331.5 153.5q191 0 293 -134t102 -366v-41h-758zM848 592q-6 177 -85 275t-218 98q-144 0 -238.5 -96.5t-116.5 -276.5h658zM702 1188 q-27 0 -49 19.5t-22 52.5q0 31 21.5 50t47.5 19q29 0 52.5 -19.5t23.5 -49.5q0 -31 -21.5 -51.5t-52.5 -20.5zM369 1188q-28 0 -50 19.5t-22 52.5q0 31 22 50t48 19q29 0 52 -19.5t23 -49.5q0 -31 -21 -51.5t-52 -20.5z"/>
    <glyph glyph-name="uni0452" unicode="ђ" horiz-adv-x="1153" d="M1024 395q0 -195 -26 -346t-79.5 -253.5t-134.5 -156t-192 -53.5q-20 0 -48 5.5t-52 13.5v90q22 -8 52 -15.5t50 -7.5q94 0 158 50t103 143.5t56 226.5t17 299q0 148 -21.5 252.5t-63 170.5t-102.5 96t-139 30q-59 0 -117 -25t-104 -75t-74 -124.5t-28 -172.5v-543h-93 v1231h-135v84h135v201h93v-201h389v-84h-389v-420h4q24 42 55.5 81t72.5 68t92 46.5t113 17.5q107 0 184 -44t127 -125.5t73.5 -198t23.5 -261.5z"/>
    <glyph glyph-name="uni0453" unicode="ѓ" horiz-adv-x="694" d="M256 940v-940h-92v1024h500v-84h-408zM375 1188h-90l234 328h104z"/>
    <glyph glyph-name="uni0454" unicode="є" horiz-adv-x="918" d="M720 -2.5q-69 -22.5 -165 -22.5q-106 0 -192 38t-146.5 106.5t-93.5 164t-33 210.5q0 126 39 228t107.5 175t162.5 112.5t205 39.5q69 0 127 -14.5t100 -33.5v-104q-42 26 -101.5 47t-139.5 21q-86 0 -157 -30.5t-123 -85.5t-83.5 -131t-38.5 -167h502v-80h-504 q4 -97 33.5 -173.5t79 -129.5t116 -81t144.5 -28q90 0 158 25t110 57v-96q-38 -25 -107 -47.5z"/>
    <glyph glyph-name="uni0455" unicode="ѕ" horiz-adv-x="795" d="M111 45v111q52 -45 126 -71t128 -26q241 0 241 197q0 68 -53 116t-172 99q-147 64 -206.5 132.5t-59.5 166.5q0 125 95.5 202t235.5 77q132 0 226 -54v-104q-114 74 -236 74q-101 0 -163 -52.5t-62 -136.5q0 -73 39 -118.5t172 -104.5q160 -72 220 -133.5t60 -163.5 q0 -122 -91.5 -201.5t-252.5 -79.5q-148 0 -247 70z"/>
    <glyph glyph-name="uni0457" unicode="ї" horiz-adv-x="420" d="M164 0v1024h92v-1024h-92zM377 1188q-27 0 -49 19.5t-22 52.5q0 31 21.5 50t47.5 19q29 0 52.5 -19.5t23.5 -49.5q0 -31 -21.5 -51.5t-52.5 -20.5zM44 1188q-28 0 -50 19.5t-22 52.5q0 31 22 50t48 19q29 0 52 -19.5t23 -49.5q0 -31 -21 -51.5t-52 -20.5z"/>
    <glyph glyph-name="uni0459" unicode="љ" horiz-adv-x="1583" d="M1473 307q0 -78 -27 -136t-71 -96t-99.5 -56.5t-112.5 -18.5h-393v940h-299q-17 -228 -44.5 -405.5t-72 -299.5t-109.5 -185.5t-157 -63.5q-15 0 -30.5 2.5t-26.5 5.5v82q8 -3 26 -5.5t29 -2.5q67 0 117 62.5t86 184t60.5 300t39.5 409.5h473v-420h293q74 0 133 -20 t100 -58.5t63 -93.5t22 -125zM1376 307q0 45 -14.5 84t-44.5 67.5t-75 45t-105 16.5h-275v-436h277q64 0 109.5 17.5t73.5 48t41 71t13 86.5z"/>
    <glyph glyph-name="uni045A" unicode="њ" horiz-adv-x="1673" d="M1563 303q0 -78 -27 -135.5t-71 -94.5t-99.5 -55t-112.5 -18h-393v512h-604v-512h-92v1024h92v-428h604v428h92v-428h293q74 0 133 -19.5t100 -57t63 -92t22 -124.5zM1466 303q0 45 -14.5 83.5t-44 66.5t-74.5 43.5t-106 15.5h-275v-428h277q64 0 109.5 17t73.5 46.5 t41 69.5t13 86z"/>
    <glyph glyph-name="uni045B" unicode="ћ" horiz-adv-x="1118" d="M883 0v590q0 181 -66.5 265.5t-206.5 84.5q-29 0 -65 -7.5t-72.5 -25.5t-71.5 -48t-62 -74t-43.5 -104t-16.5 -138v-543h-93v1231h-135v84h135v201h93v-201h389v-84h-389v-416h4q24 44 58.5 82t78.5 66.5t97.5 44.5t117.5 16q86 0 150 -28.5t106 -82t63 -130t21 -173.5 v-610h-92z"/>
    <glyph glyph-name="uni045C" unicode="ќ" horiz-adv-x="891" d="M741 0l-481 502h-4v-502h-92v1024h92v-489h4l475 489h119l-496 -500l512 -524h-129zM515 1188h-90l234 328h104z"/>
    <glyph glyph-name="uni045E" unicode="ў" horiz-adv-x="928" d="M414 -209q-56 -138 -124 -205t-175 -67q-45 0 -80 14v92q36 -14 84 -14q123 0 194 170l95 227l-388 1016h103l309 -834q10 -27 14 -41q4 -19 9 -34h4l24 69l330 840h100zM732 1266q58 0 104.5 17t80 46t53 67t24.5 79h98q-10 -54 -37.5 -105.5t-72.5 -91.5t-108 -64 t-143 -24t-140 24t-101 64t-65.5 91.5t-34.5 105.5h98q5 -41 22 -79t47 -67t73 -46t100 -17h2z"/>
    <glyph glyph-name="uni045F" unicode="џ" horiz-adv-x="1116" d="M602 0v-373h-84v373h-354v1024h92v-940h604v940h92v-1024h-350z"/>
    <glyph glyph-name="uni0490" unicode="Ґ" horiz-adv-x="918" d="M283 1343v-1343h-99v1434h578v264h96v-355h-575z"/>
    <glyph glyph-name="uni0491" unicode="ґ" horiz-adv-x="743" d="M256 940v-940h-92v1024h434v270h84v-354h-426z"/>
    <glyph glyph-name="uni2015" unicode="―" horiz-adv-x="2048" d="M0 555v90h2048v-90h-2048z"/>
    <glyph glyph-name="uni2116" unicode="№" horiz-adv-x="2320" d="M2202 1028q0 -84 -23.5 -160t-71 -134.5t-120.5 -93t-172 -34.5q-98 0 -171 34t-121 91.5t-72 133t-24 159.5q0 114 33.5 195t88.5 132.5t126.5 76t147.5 24.5q87 0 157 -28.5t119.5 -82.5t76 -133t26.5 -180zM1460 350v78h709v-78h-709zM1168 0l-832 1169q-5 8 -13.5 20 t-17 24.5t-16.5 25t-12 20.5h-4q1 -13 1.5 -29.5t0.5 -33.5v-33.5v-30.5v-1132h-91v1434h74l825 -1159q7 -10 15.5 -22.5l17 -25t16.5 -24t13 -20.5h4q-2 27 -3 61.5t-1 58.5v1131h90v-1434h-67zM2116 1030q0 88 -21 153.5t-60 108t-94 63.5t-122 21q-70 0 -126.5 -23.5 t-96.5 -68.5t-61.5 -110.5t-21.5 -149.5q0 -76 20 -138.5t58.5 -107.5t95 -69.5t128.5 -24.5q76 0 133 25t94 71t55.5 109.5t18.5 140.5z"/>
    <glyph glyph-name="pi" unicode="π" horiz-adv-x="1284" d="M930 940v-692q0 -176 137 -176q14 0 63 10v-80q-39 -14 -86 -14q-101 0 -153.5 68t-52.5 188v696h-471v-682q0 -150 -23 -258h-94q24 98 24 258v682q-119 -4 -237 -68v97q110 55 237 55h869v-84h-213z"/>
    <glyph glyph-name="fournumerator" horiz-adv-x="674" d="M518 803v-219h-82v219h-393v63l385 568h90v-553h111v-78h-111zM434 1325q-33 -61 -45 -78l-246 -366h293v368l2 76h-4z"/>
    <glyph glyph-name="fivenumerator" horiz-adv-x="674" d="M580 844q0 -69 -23.5 -122.5t-65 -89.5t-97.5 -54.5t-120 -18.5q-105 0 -178 43v86q48 -26 95 -37.5t85 -11.5q50 0 90.5 14.5t69 40.5t43.5 62.5t15 81.5q0 172 -230 172q-16 0 -38 -1t-43 -2.5t-37.5 -3t-22.5 -2.5v433h418v-84h-338v-263q21 2 43.5 3.5t44.5 1.5 q62 0 115 -15.5t91.5 -46.5t60.5 -77.5t22 -108.5z"/>
    <glyph glyph-name="sevennumerator" horiz-adv-x="674" d="M279 573h-86l331 779h-458v82h555v-54z"/>
    <glyph glyph-name="eightnumerator" horiz-adv-x="674" d="M528 801q2 66 -47.5 113t-148.5 81q-91 -31 -139 -76t-48 -114q0 -42 16.5 -71.5t43 -49t60.5 -28.5t69 -9q33 0 67 9.5t62 28.5t46 48t19 68zM500 1233q0 33 -12 59t-33 43.5t-50 27t-63 9.5t-63.5 -10t-52 -28.5t-35.5 -43.5t-13 -55q0 -62 42.5 -100t117.5 -66 q78 29 120 67t42 97zM618 809q0 -66 -26.5 -112.5t-68.5 -75.5t-93 -42.5t-100 -13.5q-45 0 -94 12t-89 39.5t-66 72.5t-26 110q0 83 49 139.5t134 93.5q-70 32 -111 81t-41 120q0 57 22.5 99t58.5 69t82 40t93 13q46 0 91 -13t80 -39.5t57 -65.5t22 -91q0 -41 -12.5 -73.5 t-34.5 -58t-52.5 -45.5t-66.5 -36q43 -16 78.5 -37.5t60.5 -48.5t39 -61t14 -76z"/>
    <glyph glyph-name="dotlessi.alt" horiz-adv-x="420" d="M164 0v1024h92v-1024h-92z"/>
    <glyph glyph-name="Scommaaccent" unicode="Ș" horiz-adv-x="1018" d="M139 51v113q154 -98 312 -98q168 0 255 69.5t87 194.5q0 110 -58.5 175.5t-253.5 178.5q-218 127 -276 212.5t-58 197.5q0 152 118 258t315 106q128 0 256 -43v-104q-126 57 -269 57q-146 0 -231.5 -74t-85.5 -188q0 -110 58.5 -175t252.5 -177q201 -114 267.5 -202.5 t66.5 -203.5q0 -165 -114.5 -269t-323.5 -104q-74 0 -170.5 23t-147.5 53zM588 -118l-126 -261h-79l93 261h112z"/>
    <glyph glyph-name="scommaaccent" unicode="ș" horiz-adv-x="795" d="M111 45v111q52 -45 126 -71t128 -26q241 0 241 197q0 68 -53 116t-172 99q-147 64 -206.5 132.5t-59.5 166.5q0 125 95.5 202t235.5 77q132 0 226 -54v-104q-114 74 -236 74q-101 0 -163 -52.5t-62 -136.5q0 -73 39 -118.5t172 -104.5q160 -72 220 -133.5t60 -163.5 q0 -122 -91.5 -201.5t-252.5 -79.5q-148 0 -247 70zM474 -118l-126 -261h-79l93 261h112z"/>
    <glyph glyph-name="currency" unicode="¤" horiz-adv-x="1139" d="M946 293l-135 135q-105 -86 -242 -86q-140 0 -241 86l-135 -135l-60 61l137 131q-84 116 -84 240q0 140 84 240l-137 133l60 61l135 -135q113 84 241 84q137 0 240 -84l137 135l60 -61l-138 -133q84 -101 84 -240q0 -132 -84 -240l138 -131zM571 1024q-128 0 -214.5 -88 t-86.5 -209t89.5 -211t209.5 -90q122 0 210.5 89t88.5 212q0 126 -90 211.5t-207 85.5z"/>
    <glyph glyph-name="Ohorn" unicode="Ơ" horiz-adv-x="1559" d="M774 -25q-152 0 -275 53.5t-209.5 150t-133.5 230t-47 293.5q0 171 48 310.5t138 238.5t218 153t288 54q219 0 375 -114q22 -3 47.5 -4.5t51.5 -1.5q52 0 89 9.5t60 26.5t33.5 41t10.5 53q0 71 -21 130h104q9 -27 13.5 -60t4.5 -69q0 -112 -65.5 -164.5t-187.5 -52.5h-40 q174 -197 174 -513q0 -177 -48 -318.5t-136.5 -240.5t-213.5 -152t-278 -53zM784 1368q-125 0 -230 -47.5t-181 -134t-119 -207t-43 -266.5q0 -147 40 -266.5t113 -204t176.5 -130.5t231.5 -46q133 0 239.5 44.5t181.5 129.5t115 206.5t40 276.5q0 152 -39.5 271.5 t-113 202.5t-178 127t-233.5 44z"/>
    <glyph glyph-name="ohorn" unicode="ơ" horiz-adv-x="1149" d="M575 -25q-113 0 -203 39t-152.5 109.5t-96 168t-33.5 214.5q0 127 35.5 228t101 171t157 107t202.5 37q96 0 177 -29q21 -2 47 -3t49 -1q52 0 89 9.5t60 26.5t33.5 41t10.5 53q0 71 -21 130h97q9 -27 13.5 -60t4.5 -69q0 -54 -16.5 -93t-48 -65t-76.5 -39.5t-101 -15.5 q77 -77 116 -179t39 -245q0 -118 -33 -216t-95.5 -169t-152.5 -110.5t-203 -39.5zM582 965q-90 0 -163 -31.5t-125 -90.5t-80 -144.5t-28 -194.5q0 -100 27 -182t78 -140.5t123.5 -90.5t163.5 -32q93 0 164.5 31t120.5 89.5t74.5 142.5t25.5 190q0 220 -99 336.5t-282 116.5 z"/>
    <glyph glyph-name="Uhorn" unicode="Ư" horiz-adv-x="1362" d="M1161 573q0 -598 -510 -598q-485 0 -485 576v883h98v-869q0 -499 406 -499q393 0 393 485v883h68q52 0 89 9.5t60 26.5t33.5 41t10.5 53q0 71 -21 130h104q9 -27 13.5 -60t4.5 -69q0 -112 -65.5 -164.5t-187.5 -52.5h-11v-775z"/>
    <glyph glyph-name="uhorn" unicode="ư" horiz-adv-x="1121" d="M932 0h-92v186h-4q-106 -211 -330 -211q-363 0 -363 457v592h93v-569q0 -104 17 -179t51.5 -123t88 -71t127.5 -23q142 0 231 105q89 106 89 280v580h19q105 0 149 35t44 94q0 71 -21 130h97q9 -27 13.5 -60t4.5 -69q0 -51 -15.5 -89t-44 -64t-67.5 -40.5t-87 -18.5v-942 z"/>
    <glyph glyph-name="hookabovecomb" unicode="̉" horiz-adv-x="622" d="M251 1575q91 0 139.5 -39.5t48.5 -115.5q0 -65 -32.5 -102.5t-104.5 -45.5v-54h-72v115q64 0 93 21.5t29 63.5q0 38 -26.5 57t-73.5 19q-26 0 -46 -2t-35 -6v82q19 3 38.5 5t41.5 2z"/>
    <glyph glyph-name="dotbelowcomb" unicode="̣" horiz-adv-x="682" d="M341 -270q-31 0 -54.5 22t-23.5 56t23.5 53.5t52.5 19.5q31 0 55.5 -19.5t24.5 -53.5q0 -32 -23 -55t-55 -23z"/>
    <glyph glyph-name="gravecomb" unicode="̀" horiz-adv-x="549" d="M105 1434h104l234 -246h-90z"/>
    <glyph glyph-name="acutecomb" unicode="́" horiz-adv-x="549" d="M195 1188h-90l234 246h104z"/>
    <glyph glyph-name="uni03020341" horiz-adv-x="979" d="M508 1188l-157 239l-160 -239h-82l221 336h45l219 -336h-86zM631 1370h-90l234 246h104z"/>
    <glyph glyph-name="uni03020340" horiz-adv-x="979" d="M385 1188l219 336h45l221 -336h-82l-160 239l-157 -239h-86zM100 1616h104l234 -246h-90z"/>
    <glyph glyph-name="uni03020309" horiz-adv-x="979" d="M651 1713q91 0 139.5 -39.5t48.5 -115.5q0 -65 -32.5 -102.5t-104.5 -45.5v-54h-72v115q64 0 93 21.5t29 63.5q0 38 -26.5 57t-73.5 19q-26 0 -46 -2t-35 -6v82q19 3 38.5 5t41.5 2zM546 1188l-157 239l-160 -239h-82l221 336h45l219 -336h-86z"/>
    <glyph glyph-name="uni03020303" horiz-adv-x="979" d="M801 1764q0 -103 -48.5 -163t-130.5 -60q-66 0 -151 76q-64 55 -119 55q-102 0 -102 -143h-72q0 100 48 160.5t128 60.5q72 0 160 -72q67 -59 117 -59q40 0 68 37t28 108h74zM643 1188l-157 199l-160 -199h-82l221 296h45l219 -296h-86z"/>
    <glyph glyph-name="uni03060341" horiz-adv-x="622" d="M314 1449h-90l234 246h104zM582 1423q-16 -108 -89.5 -171.5t-182.5 -63.5q-110 0 -182.5 62t-81.5 173h84q6 -75 55.5 -117t126.5 -42q68 0 120.5 43.5t61.5 115.5h88z"/>
    <glyph glyph-name="uni03060340" horiz-adv-x="622" d="M66 1695h104l234 -246h-90zM134 1423q9 -72 61.5 -115.5t120.5 -43.5q77 0 126.5 42t55.5 117h84q-9 -111 -81.5 -173t-182.5 -62q-109 0 -182.5 63.5t-89.5 171.5h88z"/>
    <glyph glyph-name="uni03060309" horiz-adv-x="622" d="M134 1423q9 -72 61.5 -115.5t120.5 -43.5q77 0 126.5 42t55.5 117h84q-9 -111 -81.5 -173t-182.5 -62q-109 0 -182.5 63.5t-89.5 171.5h88zM281 1783q91 0 139.5 -39.5t48.5 -115.5q0 -65 -32.5 -102.5t-104.5 -45.5v-54h-72v115q64 0 93 21.5t29 63.5q0 38 -26.5 57 t-73.5 19q-26 0 -46 -2t-35 -6v82q19 3 38.5 5t41.5 2z"/>
    <glyph glyph-name="uni03060303" horiz-adv-x="979" d="M307 1423q9 -72 61.5 -115.5t120.5 -43.5q77 0 126.5 42t55.5 117h84q-9 -111 -81.5 -173t-182.5 -62q-109 0 -182.5 63.5t-89.5 171.5h88zM801 1764q0 -103 -48.5 -163t-130.5 -60q-66 0 -151 76q-64 55 -119 55q-102 0 -102 -143h-72q0 100 48 160.5t128 60.5 q72 0 160 -72q67 -59 117 -59q40 0 68 37t28 108h74z"/>
    <glyph glyph-name="uni0309.cap" horiz-adv-x="622" d="M251 1575q91 0 139.5 -39.5t48.5 -115.5q0 -65 -32.5 -102.5t-104.5 -45.5v-54h-72v115q64 0 93 21.5t29 63.5q0 38 -26.5 57t-73.5 19q-26 0 -46 -2t-35 -6v82q19 3 38.5 5t41.5 2z"/>
    <glyph glyph-name="uni03020303.cap" horiz-adv-x="979" d="M801 1764q0 -103 -48.5 -163t-130.5 -60q-66 0 -151 76q-64 55 -119 55q-102 0 -102 -143h-72q0 100 48 160.5t128 60.5q72 0 160 -72q67 -59 117 -59q40 0 68 37t28 108h74zM643 1188l-157 199l-160 -199h-82l221 296h45l219 -296h-86z"/>
    <glyph glyph-name="uni03060341.cap" horiz-adv-x="622" d="M314 1449h-90l234 246h104zM582 1423q-16 -108 -89.5 -171.5t-182.5 -63.5q-110 0 -182.5 62t-81.5 173h84q6 -75 55.5 -117t126.5 -42q68 0 120.5 43.5t61.5 115.5h88z"/>
    <glyph glyph-name="uni03060340.cap" horiz-adv-x="622" d="M66 1695h104l234 -246h-90zM134 1423q9 -72 61.5 -115.5t120.5 -43.5q77 0 126.5 42t55.5 117h84q-9 -111 -81.5 -173t-182.5 -62q-109 0 -182.5 63.5t-89.5 171.5h88z"/>
    <glyph glyph-name="uni03060309.cap" horiz-adv-x="622" d="M134 1423q9 -72 61.5 -115.5t120.5 -43.5q77 0 126.5 42t55.5 117h84q-9 -111 -81.5 -173t-182.5 -62q-109 0 -182.5 63.5t-89.5 171.5h88zM281 1783q91 0 139.5 -39.5t48.5 -115.5q0 -65 -32.5 -102.5t-104.5 -45.5v-54h-72v115q64 0 93 21.5t29 63.5q0 38 -26.5 57 t-73.5 19q-26 0 -46 -2t-35 -6v82q19 3 38.5 5t41.5 2z"/>
    <glyph glyph-name="uni03060303.cap" horiz-adv-x="979" d="M760 1423q-16 -108 -89.5 -171.5t-182.5 -63.5q-110 0 -182.5 62t-81.5 173h84q6 -75 55.5 -117t126.5 -42q68 0 120.5 43.5t61.5 115.5h88zM801 1764q0 -103 -48.5 -163t-130.5 -60q-66 0 -151 76q-64 55 -119 55q-102 0 -102 -143h-72q0 100 48 160.5t128 60.5 q72 0 160 -72q67 -59 117 -59q40 0 68 37t28 108h74z"/>
    <glyph glyph-name="uni03020309.cap" horiz-adv-x="979" d="M651 1713q91 0 139.5 -39.5t48.5 -115.5q0 -65 -32.5 -102.5t-104.5 -45.5v-54h-72v115q64 0 93 21.5t29 63.5q0 38 -26.5 57t-73.5 19q-26 0 -46 -2t-35 -6v82q19 3 38.5 5t41.5 2zM546 1188l-157 239l-160 -239h-82l221 336h45l219 -336h-86z"/>
    <glyph glyph-name="uni1EA0" unicode="Ạ" horiz-adv-x="1288" d="M1118 0l-164 446h-622l-164 -446h-109l541 1434h94l535 -1434h-111zM678 1200q-11 30 -18 59q-7 25 -15 50h-4q-17 -66 -33 -107l-241 -665h553zM641 -270q-31 0 -54.5 22t-23.5 56t23.5 53.5t52.5 19.5q31 0 55.5 -19.5t24.5 -53.5q0 -32 -23 -55t-55 -23z"/>
    <glyph glyph-name="uni1EA1" unicode="ạ" horiz-adv-x="1012" d="M776 0v205h-4q-49 -105 -142.5 -167.5t-207.5 -62.5q-146 0 -231 82t-85 207q0 268 355 324l315 47q0 330 -248 330q-169 0 -329 -136v111q57 45 154.5 77t183.5 32q158 0 244.5 -98t86.5 -285v-666h-92zM494 510q-161 -23 -226 -74.5t-65 -167.5q0 -91 60.5 -150 t168.5 -59q148 0 246 109.5t98 282.5v100zM535 -270q-31 0 -54.5 22t-23.5 56t23.5 53.5t52.5 19.5q31 0 55.5 -19.5t24.5 -53.5q0 -32 -23 -55t-55 -23z"/>
    <glyph glyph-name="uni1EA2" unicode="Ả" horiz-adv-x="1288" d="M1118 0l-164 446h-622l-164 -446h-109l541 1434h94l535 -1434h-111zM678 1200q-11 30 -18 59q-7 25 -15 50h-4q-17 -66 -33 -107l-241 -665h553zM620 1925q91 0 139.5 -39.5t48.5 -115.5q0 -65 -32.5 -102.5t-104.5 -45.5v-54h-72v115q64 0 93 21.5t29 63.5 q0 38 -26.5 57t-73.5 19q-26 0 -46 -2t-35 -6v82q19 3 38.5 5t41.5 2z"/>
    <glyph glyph-name="uni1EA3" unicode="ả" horiz-adv-x="1012" d="M776 0v205h-4q-49 -105 -142.5 -167.5t-207.5 -62.5q-146 0 -231 82t-85 207q0 268 355 324l315 47q0 330 -248 330q-169 0 -329 -136v111q57 45 154.5 77t183.5 32q158 0 244.5 -98t86.5 -285v-666h-92zM494 510q-161 -23 -226 -74.5t-65 -167.5q0 -91 60.5 -150 t168.5 -59q148 0 246 109.5t98 282.5v100zM495 1575q91 0 139.5 -39.5t48.5 -115.5q0 -65 -32.5 -102.5t-104.5 -45.5v-54h-72v115q64 0 93 21.5t29 63.5q0 38 -26.5 57t-73.5 19q-26 0 -46 -2t-35 -6v82q19 3 38.5 5t41.5 2z"/>
    <glyph glyph-name="uni1EA4" unicode="Ấ" horiz-adv-x="1288" d="M1118 0l-164 446h-622l-164 -446h-109l541 1434h94l535 -1434h-111zM678 1200q-11 30 -18 59q-7 25 -15 50h-4q-17 -66 -33 -107l-241 -665h553zM800 1537l-157 239l-160 -239h-82l221 336h45l219 -336h-86zM923 1719h-90l234 246h104z"/>
    <glyph glyph-name="uni1EA5" unicode="ấ" horiz-adv-x="1012" d="M776 0v205h-4q-49 -105 -142.5 -167.5t-207.5 -62.5q-146 0 -231 82t-85 207q0 268 355 324l315 47q0 330 -248 330q-169 0 -329 -136v111q57 45 154.5 77t183.5 32q158 0 244.5 -98t86.5 -285v-666h-92zM494 510q-161 -23 -226 -74.5t-65 -167.5q0 -91 60.5 -150 t168.5 -59q148 0 246 109.5t98 282.5v100zM702 1188l-157 239l-160 -239h-82l221 336h45l219 -336h-86zM825 1370h-90l234 246h104z"/>
    <glyph glyph-name="uni1EA6" unicode="Ầ" horiz-adv-x="1288" d="M1118 0l-164 446h-622l-164 -446h-109l541 1434h94l535 -1434h-111zM678 1200q-11 30 -18 59q-7 25 -15 50h-4q-17 -66 -33 -107l-241 -665h553zM403 1537l219 336h45l221 -336h-82l-160 239l-157 -239h-86zM118 1965h104l234 -246h-90z"/>
    <glyph glyph-name="uni1EA7" unicode="ầ" horiz-adv-x="1012" d="M776 0v205h-4q-49 -105 -142.5 -167.5t-207.5 -62.5q-146 0 -231 82t-85 207q0 268 355 324l315 47q0 330 -248 330q-169 0 -329 -136v111q57 45 154.5 77t183.5 32q158 0 244.5 -98t86.5 -285v-666h-92zM494 510q-161 -23 -226 -74.5t-65 -167.5q0 -91 60.5 -150 t168.5 -59q148 0 246 109.5t98 282.5v100zM305 1188l219 336h45l221 -336h-82l-160 239l-157 -239h-86zM20 1616h104l234 -246h-90z"/>
    <glyph glyph-name="uni1EA8" unicode="Ẩ" horiz-adv-x="1288" d="M1118 0l-164 446h-622l-164 -446h-109l541 1434h94l535 -1434h-111zM678 1200q-11 30 -18 59q-7 25 -15 50h-4q-17 -66 -33 -107l-241 -665h553zM904 2063q91 0 139.5 -39.5t48.5 -115.5q0 -65 -32.5 -102.5t-104.5 -45.5v-54h-72v115q64 0 93 21.5t29 63.5 q0 38 -26.5 57t-73.5 19q-26 0 -46 -2t-35 -6v82q19 3 38.5 5t41.5 2zM799 1538l-157 239l-160 -239h-82l221 336h45l219 -336h-86z"/>
    <glyph glyph-name="uni1EA9" unicode="ẩ" horiz-adv-x="1012" d="M776 0v205h-4q-49 -105 -142.5 -167.5t-207.5 -62.5q-146 0 -231 82t-85 207q0 268 355 324l315 47q0 330 -248 330q-169 0 -329 -136v111q57 45 154.5 77t183.5 32q158 0 244.5 -98t86.5 -285v-666h-92zM494 510q-161 -23 -226 -74.5t-65 -167.5q0 -91 60.5 -150 t168.5 -59q148 0 246 109.5t98 282.5v100zM780 1713q91 0 139.5 -39.5t48.5 -115.5q0 -65 -32.5 -102.5t-104.5 -45.5v-54h-72v115q64 0 93 21.5t29 63.5q0 38 -26.5 57t-73.5 19q-26 0 -46 -2t-35 -6v82q19 3 38.5 5t41.5 2zM675 1188l-157 239l-160 -239h-82l221 336h45 l219 -336h-86z"/>
    <glyph glyph-name="uni1EAA" unicode="Ẫ" horiz-adv-x="1288" d="M1118 0l-164 446h-622l-164 -446h-109l541 1434h94l535 -1434h-111zM678 1200q-11 30 -18 59q-7 25 -15 50h-4q-17 -66 -33 -107l-241 -665h553zM954 2111q0 -103 -48.5 -163t-130.5 -60q-66 0 -151 76q-64 55 -119 55q-102 0 -102 -143h-72q0 100 48 160.5t128 60.5 q72 0 160 -72q67 -59 117 -59q40 0 68 37t28 108h74zM796 1535l-157 199l-160 -199h-82l221 296h45l219 -296h-86z"/>
    <glyph glyph-name="uni1EAB" unicode="ẫ" horiz-adv-x="1012" d="M776 0v205h-4q-49 -105 -142.5 -167.5t-207.5 -62.5q-146 0 -231 82t-85 207q0 268 355 324l315 47q0 330 -248 330q-169 0 -329 -136v111q57 45 154.5 77t183.5 32q158 0 244.5 -98t86.5 -285v-666h-92zM494 510q-161 -23 -226 -74.5t-65 -167.5q0 -91 60.5 -150 t168.5 -59q148 0 246 109.5t98 282.5v100zM848 1764q0 -103 -48.5 -163t-130.5 -60q-66 0 -151 76q-64 55 -119 55q-102 0 -102 -143h-72q0 100 48 160.5t128 60.5q72 0 160 -72q67 -59 117 -59q40 0 68 37t28 108h74zM690 1188l-157 199l-160 -199h-82l221 296h45l219 -296 h-86z"/>
    <glyph glyph-name="uni1EAC" unicode="Ậ" horiz-adv-x="1288" d="M1118 0l-164 446h-622l-164 -446h-109l541 1434h94l535 -1434h-111zM678 1200q-11 30 -18 59q-7 25 -15 50h-4q-17 -66 -33 -107l-241 -665h553zM801 1537l-157 239l-160 -239h-82l221 336h45l219 -336h-86zM642 -270q-31 0 -54.5 22t-23.5 56t23.5 53.5t52.5 19.5 q31 0 55.5 -19.5t24.5 -53.5q0 -32 -23 -55t-55 -23z"/>
    <glyph glyph-name="uni1EAD" unicode="ậ" horiz-adv-x="1012" d="M776 0v205h-4q-49 -105 -142.5 -167.5t-207.5 -62.5q-146 0 -231 82t-85 207q0 268 355 324l315 47q0 330 -248 330q-169 0 -329 -136v111q57 45 154.5 77t183.5 32q158 0 244.5 -98t86.5 -285v-666h-92zM494 510q-161 -23 -226 -74.5t-65 -167.5q0 -91 60.5 -150 t168.5 -59q148 0 246 109.5t98 282.5v100zM679 1188l-157 239l-160 -239h-82l221 336h45l219 -336h-86zM535 -270q-31 0 -54.5 22t-23.5 56t23.5 53.5t52.5 19.5q31 0 55.5 -19.5t24.5 -53.5q0 -32 -23 -55t-55 -23z"/>
    <glyph glyph-name="uni1EAE" unicode="Ắ" horiz-adv-x="1288" d="M1118 0l-164 446h-622l-164 -446h-109l541 1434h94l535 -1434h-111zM678 1200q-11 30 -18 59q-7 25 -15 50h-4q-17 -66 -33 -107l-241 -665h553zM643 1796h-90l234 246h104zM911 1770q-16 -108 -89.5 -171.5t-182.5 -63.5q-110 0 -182.5 62t-81.5 173h84q6 -75 55.5 -117 t126.5 -42q68 0 120.5 43.5t61.5 115.5h88z"/>
    <glyph glyph-name="uni1EAF" unicode="ắ" horiz-adv-x="1012" d="M776 0v205h-4q-49 -105 -142.5 -167.5t-207.5 -62.5q-146 0 -231 82t-85 207q0 268 355 324l315 47q0 330 -248 330q-169 0 -329 -136v111q57 45 154.5 77t183.5 32q158 0 244.5 -98t86.5 -285v-666h-92zM494 510q-161 -23 -226 -74.5t-65 -167.5q0 -91 60.5 -150 t168.5 -59q148 0 246 109.5t98 282.5v100zM523 1449h-90l234 246h104zM791 1423q-16 -108 -89.5 -171.5t-182.5 -63.5q-110 0 -182.5 62t-81.5 173h84q6 -75 55.5 -117t126.5 -42q68 0 120.5 43.5t61.5 115.5h88z"/>
    <glyph glyph-name="uni1EB0" unicode="Ằ" horiz-adv-x="1288" d="M1118 0l-164 446h-622l-164 -446h-109l541 1434h94l535 -1434h-111zM678 1200q-11 30 -18 59q-7 25 -15 50h-4q-17 -66 -33 -107l-241 -665h553zM389 2043h104l234 -246h-90zM457 1771q9 -72 61.5 -115.5t120.5 -43.5q77 0 126.5 42t55.5 117h84q-9 -111 -81.5 -173 t-182.5 -62q-109 0 -182.5 63.5t-89.5 171.5h88z"/>
    <glyph glyph-name="uni1EB1" unicode="ằ" horiz-adv-x="1012" d="M776 0v205h-4q-49 -105 -142.5 -167.5t-207.5 -62.5q-146 0 -231 82t-85 207q0 268 355 324l315 47q0 330 -248 330q-169 0 -329 -136v111q57 45 154.5 77t183.5 32q158 0 244.5 -98t86.5 -285v-666h-92zM494 510q-161 -23 -226 -74.5t-65 -167.5q0 -91 60.5 -150 t168.5 -59q148 0 246 109.5t98 282.5v100zM278 1695h104l234 -246h-90zM346 1423q9 -72 61.5 -115.5t120.5 -43.5q77 0 126.5 42t55.5 117h84q-9 -111 -81.5 -173t-182.5 -62q-109 0 -182.5 63.5t-89.5 171.5h88z"/>
    <glyph glyph-name="uni1EB2" unicode="Ẳ" horiz-adv-x="1288" d="M1118 0l-164 446h-622l-164 -446h-109l541 1434h94l535 -1434h-111zM678 1200q-11 30 -18 59q-7 25 -15 50h-4q-17 -66 -33 -107l-241 -665h553zM463 1770q9 -72 61.5 -115.5t120.5 -43.5q77 0 126.5 42t55.5 117h84q-9 -111 -81.5 -173t-182.5 -62q-109 0 -182.5 63.5 t-89.5 171.5h88zM610 2130q91 0 139.5 -39.5t48.5 -115.5q0 -65 -32.5 -102.5t-104.5 -45.5v-54h-72v115q64 0 93 21.5t29 63.5q0 38 -26.5 57t-73.5 19q-26 0 -46 -2t-35 -6v82q19 3 38.5 5t41.5 2z"/>
    <glyph glyph-name="uni1EB3" unicode="ẳ" horiz-adv-x="1012" d="M776 0v205h-4q-49 -105 -142.5 -167.5t-207.5 -62.5q-146 0 -231 82t-85 207q0 268 355 324l315 47q0 330 -248 330q-169 0 -329 -136v111q57 45 154.5 77t183.5 32q158 0 244.5 -98t86.5 -285v-666h-92zM494 510q-161 -23 -226 -74.5t-65 -167.5q0 -91 60.5 -150 t168.5 -59q148 0 246 109.5t98 282.5v100zM338 1423q9 -72 61.5 -115.5t120.5 -43.5q77 0 126.5 42t55.5 117h84q-9 -111 -81.5 -173t-182.5 -62q-109 0 -182.5 63.5t-89.5 171.5h88zM485 1783q91 0 139.5 -39.5t48.5 -115.5q0 -65 -32.5 -102.5t-104.5 -45.5v-54h-72v115 q64 0 93 21.5t29 63.5q0 38 -26.5 57t-73.5 19q-26 0 -46 -2t-35 -6v82q19 3 38.5 5t41.5 2z"/>
    <glyph glyph-name="uni1EB4" unicode="Ẵ" horiz-adv-x="1288" d="M1118 0l-164 446h-622l-164 -446h-109l541 1434h94l535 -1434h-111zM678 1200q-11 30 -18 59q-7 25 -15 50h-4q-17 -66 -33 -107l-241 -665h553zM913 1770q-16 -108 -89.5 -171.5t-182.5 -63.5q-110 0 -182.5 62t-81.5 173h84q6 -75 55.5 -117t126.5 -42q68 0 120.5 43.5 t61.5 115.5h88zM954 2111q0 -103 -48.5 -163t-130.5 -60q-66 0 -151 76q-64 55 -119 55q-102 0 -102 -143h-72q0 100 48 160.5t128 60.5q72 0 160 -72q67 -59 117 -59q40 0 68 37t28 108h74z"/>
    <glyph glyph-name="uni1EB5" unicode="ẵ" horiz-adv-x="1012" d="M776 0v205h-4q-49 -105 -142.5 -167.5t-207.5 -62.5q-146 0 -231 82t-85 207q0 268 355 324l315 47q0 330 -248 330q-169 0 -329 -136v111q57 45 154.5 77t183.5 32q158 0 244.5 -98t86.5 -285v-666h-92zM494 510q-161 -23 -226 -74.5t-65 -167.5q0 -91 60.5 -150 t168.5 -59q148 0 246 109.5t98 282.5v100zM349 1423q9 -72 61.5 -115.5t120.5 -43.5q77 0 126.5 42t55.5 117h84q-9 -111 -81.5 -173t-182.5 -62q-109 0 -182.5 63.5t-89.5 171.5h88zM843 1764q0 -103 -48.5 -163t-130.5 -60q-66 0 -151 76q-64 55 -119 55q-102 0 -102 -143 h-72q0 100 48 160.5t128 60.5q72 0 160 -72q67 -59 117 -59q40 0 68 37t28 108h74z"/>
    <glyph glyph-name="uni1EB6" unicode="Ặ" horiz-adv-x="1288" d="M1118 0l-164 446h-622l-164 -446h-109l541 1434h94l535 -1434h-111zM678 1200q-11 30 -18 59q-7 25 -15 50h-4q-17 -66 -33 -107l-241 -665h553zM911 1771q-16 -108 -89.5 -171.5t-182.5 -63.5q-110 0 -182.5 62t-81.5 173h84q6 -75 55.5 -117t126.5 -42q68 0 120.5 43.5 t61.5 115.5h88zM644 -270q-31 0 -54.5 22t-23.5 56t23.5 53.5t52.5 19.5q31 0 55.5 -19.5t24.5 -53.5q0 -32 -23 -55t-55 -23z"/>
    <glyph glyph-name="uni1EB7" unicode="ặ" horiz-adv-x="1012" d="M776 0v205h-4q-49 -105 -142.5 -167.5t-207.5 -62.5q-146 0 -231 82t-85 207q0 268 355 324l315 47q0 330 -248 330q-169 0 -329 -136v111q57 45 154.5 77t183.5 32q158 0 244.5 -98t86.5 -285v-666h-92zM494 510q-161 -23 -226 -74.5t-65 -167.5q0 -91 60.5 -150 t168.5 -59q148 0 246 109.5t98 282.5v100zM773 1423q-16 -108 -89.5 -171.5t-182.5 -63.5q-110 0 -182.5 62t-81.5 173h84q6 -75 55.5 -117t126.5 -42q68 0 120.5 43.5t61.5 115.5h88zM515 -270q-31 0 -54.5 22t-23.5 56t23.5 53.5t52.5 19.5q31 0 55.5 -19.5t24.5 -53.5 q0 -32 -23 -55t-55 -23z"/>
    <glyph glyph-name="uni1EB8" unicode="Ẹ" horiz-adv-x="1024" d="M184 0v1434h670v-91h-571v-575h530v-90h-530v-588h604v-90h-703zM554 -270q-31 0 -54.5 22t-23.5 56t23.5 53.5t52.5 19.5q31 0 55.5 -19.5t24.5 -53.5q0 -32 -23 -55t-55 -23z"/>
    <glyph glyph-name="uni1EB9" unicode="ẹ" horiz-adv-x="1034" d="M186 508q0 -211 97.5 -330t267.5 -119q172 0 336 127v-98q-159 -113 -355 -113q-198 0 -320 142t-122 401q0 224 127.5 377.5t331.5 153.5q191 0 293 -134t102 -366v-41h-758zM848 592q-6 177 -85 275t-218 98q-144 0 -238.5 -96.5t-116.5 -276.5h658zM553 -270 q-31 0 -54.5 22t-23.5 56t23.5 53.5t52.5 19.5q31 0 55.5 -19.5t24.5 -53.5q0 -32 -23 -55t-55 -23z"/>
    <glyph glyph-name="uni1EBA" unicode="Ẻ" horiz-adv-x="1024" d="M184 0v1434h670v-91h-571v-575h530v-90h-530v-588h604v-90h-703zM500 1923q91 0 139.5 -39.5t48.5 -115.5q0 -65 -32.5 -102.5t-104.5 -45.5v-54h-72v115q64 0 93 21.5t29 63.5q0 38 -26.5 57t-73.5 19q-26 0 -46 -2t-35 -6v82q19 3 38.5 5t41.5 2z"/>
    <glyph glyph-name="uni1EBB" unicode="ẻ" horiz-adv-x="1034" d="M186 508q0 -211 97.5 -330t267.5 -119q172 0 336 127v-98q-159 -113 -355 -113q-198 0 -320 142t-122 401q0 224 127.5 377.5t331.5 153.5q191 0 293 -134t102 -366v-41h-758zM848 592q-6 177 -85 275t-218 98q-144 0 -238.5 -96.5t-116.5 -276.5h658zM512 1575 q91 0 139.5 -39.5t48.5 -115.5q0 -65 -32.5 -102.5t-104.5 -45.5v-54h-72v115q64 0 93 21.5t29 63.5q0 38 -26.5 57t-73.5 19q-26 0 -46 -2t-35 -6v82q19 3 38.5 5t41.5 2z"/>
    <glyph glyph-name="uni1EBC" unicode="Ẽ" horiz-adv-x="1024" d="M184 0v1434h670v-91h-571v-575h530v-90h-530v-588h604v-90h-703zM840 1771q0 -103 -48.5 -163t-130.5 -60q-66 0 -151 76q-64 55 -119 55q-102 0 -102 -143h-72q0 100 48 160.5t128 60.5q72 0 160 -72q67 -59 117 -59q40 0 68 37t28 108h74z"/>
    <glyph glyph-name="uni1EBD" unicode="ẽ" horiz-adv-x="1034" d="M186 508q0 -211 97.5 -330t267.5 -119q172 0 336 127v-98q-159 -113 -355 -113q-198 0 -320 142t-122 401q0 224 127.5 377.5t331.5 153.5q191 0 293 -134t102 -366v-41h-758zM848 592q-6 177 -85 275t-218 98q-144 0 -238.5 -96.5t-116.5 -276.5h658zM844 1423 q0 -103 -48.5 -163t-130.5 -60q-66 0 -151 76q-64 55 -119 55q-102 0 -102 -143h-72q0 100 48 160.5t128 60.5q72 0 160 -72q67 -59 117 -59q40 0 68 37t28 108h74z"/>
    <glyph glyph-name="uni1EBE" unicode="Ế" horiz-adv-x="1024" d="M184 0v1434h670v-91h-571v-575h530v-90h-530v-588h604v-90h-703zM691 1535l-157 239l-160 -239h-82l221 336h45l219 -336h-86zM814 1717h-90l234 246h104z"/>
    <glyph glyph-name="uni1EBF" unicode="ế" horiz-adv-x="1034" d="M186 508q0 -211 97.5 -330t267.5 -119q172 0 336 127v-98q-159 -113 -355 -113q-198 0 -320 142t-122 401q0 224 127.5 377.5t331.5 153.5q191 0 293 -134t102 -366v-41h-758zM848 592q-6 177 -85 275t-218 98q-144 0 -238.5 -96.5t-116.5 -276.5h658zM690 1188l-157 239 l-160 -239h-82l221 336h45l219 -336h-86zM813 1370h-90l234 246h104z"/>
    <glyph glyph-name="uni1EC0" unicode="Ề" horiz-adv-x="1024" d="M184 0v1434h670v-91h-571v-575h530v-90h-530v-588h604v-90h-703zM303 1537l219 336h45l221 -336h-82l-160 239l-157 -239h-86zM18 1965h104l234 -246h-90z"/>
    <glyph glyph-name="uni1EC1" unicode="ề" horiz-adv-x="1034" d="M186 508q0 -211 97.5 -330t267.5 -119q172 0 336 127v-98q-159 -113 -355 -113q-198 0 -320 142t-122 401q0 224 127.5 377.5t331.5 153.5q191 0 293 -134t102 -366v-41h-758zM848 592q-6 177 -85 275t-218 98q-144 0 -238.5 -96.5t-116.5 -276.5h658zM301 1188l219 336 h45l221 -336h-82l-160 239l-157 -239h-86zM16 1616h104l234 -246h-90z"/>
    <glyph glyph-name="uni1EC2" unicode="Ể" horiz-adv-x="1024" d="M184 0v1434h670v-91h-571v-575h530v-90h-530v-588h604v-90h-703zM795 2061q91 0 139.5 -39.5t48.5 -115.5q0 -65 -32.5 -102.5t-104.5 -45.5v-54h-72v115q64 0 93 21.5t29 63.5q0 38 -26.5 57t-73.5 19q-26 0 -46 -2t-35 -6v82q19 3 38.5 5t41.5 2zM690 1536l-157 239 l-160 -239h-82l221 336h45l219 -336h-86z"/>
    <glyph glyph-name="uni1EC3" unicode="ể" horiz-adv-x="1034" d="M186 508q0 -211 97.5 -330t267.5 -119q172 0 336 127v-98q-159 -113 -355 -113q-198 0 -320 142t-122 401q0 224 127.5 377.5t331.5 153.5q191 0 293 -134t102 -366v-41h-758zM848 592q-6 177 -85 275t-218 98q-144 0 -238.5 -96.5t-116.5 -276.5h658zM803 1713 q91 0 139.5 -39.5t48.5 -115.5q0 -65 -32.5 -102.5t-104.5 -45.5v-54h-72v115q64 0 93 21.5t29 63.5q0 38 -26.5 57t-73.5 19q-26 0 -46 -2t-35 -6v82q19 3 38.5 5t41.5 2zM698 1188l-157 239l-160 -239h-82l221 336h45l219 -336h-86z"/>
    <glyph glyph-name="uni1EC4" unicode="Ễ" horiz-adv-x="1024" d="M184 0v1434h670v-91h-571v-575h530v-90h-530v-588h604v-90h-703zM839 2112q0 -103 -48.5 -163t-130.5 -60q-66 0 -151 76q-64 55 -119 55q-102 0 -102 -143h-72q0 100 48 160.5t128 60.5q72 0 160 -72q67 -59 117 -59q40 0 68 37t28 108h74zM681 1536l-157 199l-160 -199 h-82l221 296h45l219 -296h-86z"/>
    <glyph glyph-name="uni1EC5" unicode="ễ" horiz-adv-x="1034" d="M186 508q0 -211 97.5 -330t267.5 -119q172 0 336 127v-98q-159 -113 -355 -113q-198 0 -320 142t-122 401q0 224 127.5 377.5t331.5 153.5q191 0 293 -134t102 -366v-41h-758zM848 592q-6 177 -85 275t-218 98q-144 0 -238.5 -96.5t-116.5 -276.5h658zM842 1764 q0 -103 -48.5 -163t-130.5 -60q-66 0 -151 76q-64 55 -119 55q-102 0 -102 -143h-72q0 100 48 160.5t128 60.5q72 0 160 -72q67 -59 117 -59q40 0 68 37t28 108h74zM684 1188l-157 199l-160 -199h-82l221 296h45l219 -296h-86z"/>
    <glyph glyph-name="uni1EC6" unicode="Ệ" horiz-adv-x="1024" d="M184 0v1434h670v-91h-571v-575h530v-90h-530v-588h604v-90h-703zM689 1537l-157 239l-160 -239h-82l221 336h45l219 -336h-86zM545 -270q-31 0 -54.5 22t-23.5 56t23.5 53.5t52.5 19.5q31 0 55.5 -19.5t24.5 -53.5q0 -32 -23 -55t-55 -23z"/>
    <glyph glyph-name="uni1EC7" unicode="ệ" horiz-adv-x="1034" d="M186 508q0 -211 97.5 -330t267.5 -119q172 0 336 127v-98q-159 -113 -355 -113q-198 0 -320 142t-122 401q0 224 127.5 377.5t331.5 153.5q191 0 293 -134t102 -366v-41h-758zM848 592q-6 177 -85 275t-218 98q-144 0 -238.5 -96.5t-116.5 -276.5h658zM698 1188l-157 239 l-160 -239h-82l221 336h45l219 -336h-86zM560 -270q-31 0 -54.5 22t-23.5 56t23.5 53.5t52.5 19.5q31 0 55.5 -19.5t24.5 -53.5q0 -32 -23 -55t-55 -23z"/>
    <glyph glyph-name="uni1EC8" unicode="Ỉ" horiz-adv-x="463" d="M421 1434v-90h-140v-1254h140v-90h-379v90h140v1254h-140v90h379zM185 1923q91 0 139.5 -39.5t48.5 -115.5q0 -65 -32.5 -102.5t-104.5 -45.5v-54h-72v115q64 0 93 21.5t29 63.5q0 38 -26.5 57t-73.5 19q-26 0 -46 -2t-35 -6v82q19 3 38.5 5t41.5 2z"/>
    <glyph glyph-name="uni1EC9" unicode="ỉ" horiz-adv-x="420" d="M164 0v1024h92v-1024h-92zM177 1575q91 0 139.5 -39.5t48.5 -115.5q0 -65 -32.5 -102.5t-104.5 -45.5v-54h-72v115q64 0 93 21.5t29 63.5q0 38 -26.5 57t-73.5 19q-26 0 -46 -2t-35 -6v82q19 3 38.5 5t41.5 2z"/>
    <glyph glyph-name="uni1ECA" unicode="Ị" horiz-adv-x="463" d="M421 1434v-90h-140v-1254h140v-90h-379v90h140v1254h-140v90h379zM233 -270q-31 0 -54.5 22t-23.5 56t23.5 53.5t52.5 19.5q31 0 55.5 -19.5t24.5 -53.5q0 -32 -23 -55t-55 -23z"/>
    <glyph glyph-name="uni1ECB" unicode="ị" horiz-adv-x="420" d="M209 1282q-30 0 -53 22t-23 56q0 33 23.5 53.5t52.5 20.5q31 0 54.5 -20t23.5 -54q0 -32 -23 -55t-55 -23zM164 0v1024h92v-1024h-92zM211 -270q-31 0 -54.5 22t-23.5 56t23.5 53.5t52.5 19.5q31 0 55.5 -19.5t24.5 -53.5q0 -32 -23 -55t-55 -23z"/>
    <glyph glyph-name="uni1ECC" unicode="Ọ" horiz-adv-x="1559" d="M774 -25q-304 0 -484.5 202t-180.5 525q0 343 185.5 549.5t506.5 206.5q290 0 469.5 -198.5t179.5 -520.5q0 -356 -184 -560t-492 -204zM784 1368q-250 0 -411.5 -181t-161.5 -474q0 -296 153 -471.5t408 -175.5q266 0 421 173.5t155 483.5q0 304 -151.5 474.5 t-412.5 170.5zM779 -270q-31 0 -54.5 22t-23.5 56t23.5 53.5t52.5 19.5q31 0 55.5 -19.5t24.5 -53.5q0 -32 -23 -55t-55 -23z"/>
    <glyph glyph-name="uni1ECD" unicode="ọ" horiz-adv-x="1149" d="M575 -25q-224 0 -354.5 147.5t-130.5 383.5q0 255 136.5 399t359.5 144q219 0 346 -143t127 -396q0 -239 -129.5 -387t-354.5 -148zM582 965q-181 0 -288.5 -122t-107.5 -339q0 -201 105 -323t287 -122q185 0 285 120t100 333q0 219 -99.5 336t-281.5 117zM581 -270 q-31 0 -54.5 22t-23.5 56t23.5 53.5t52.5 19.5q31 0 55.5 -19.5t24.5 -53.5q0 -32 -23 -55t-55 -23z"/>
    <glyph glyph-name="uni1ECE" unicode="Ỏ" horiz-adv-x="1559" d="M774 -25q-304 0 -484.5 202t-180.5 525q0 343 185.5 549.5t506.5 206.5q290 0 469.5 -198.5t179.5 -520.5q0 -356 -184 -560t-492 -204zM784 1368q-250 0 -411.5 -181t-161.5 -474q0 -296 153 -471.5t408 -175.5q266 0 421 173.5t155 483.5q0 304 -151.5 474.5 t-412.5 170.5zM753 1923q91 0 139.5 -39.5t48.5 -115.5q0 -65 -32.5 -102.5t-104.5 -45.5v-54h-72v115q64 0 93 21.5t29 63.5q0 38 -26.5 57t-73.5 19q-26 0 -46 -2t-35 -6v82q19 3 38.5 5t41.5 2z"/>
    <glyph glyph-name="uni1ECF" unicode="ỏ" horiz-adv-x="1149" d="M575 -25q-224 0 -354.5 147.5t-130.5 383.5q0 255 136.5 399t359.5 144q219 0 346 -143t127 -396q0 -239 -129.5 -387t-354.5 -148zM582 965q-181 0 -288.5 -122t-107.5 -339q0 -201 105 -323t287 -122q185 0 285 120t100 333q0 219 -99.5 336t-281.5 117zM574 1575 q91 0 139.5 -39.5t48.5 -115.5q0 -65 -32.5 -102.5t-104.5 -45.5v-54h-72v115q64 0 93 21.5t29 63.5q0 38 -26.5 57t-73.5 19q-26 0 -46 -2t-35 -6v82q19 3 38.5 5t41.5 2z"/>
    <glyph glyph-name="uni1ED0" unicode="Ố" horiz-adv-x="1559" d="M774 -25q-304 0 -484.5 202t-180.5 525q0 343 185.5 549.5t506.5 206.5q290 0 469.5 -198.5t179.5 -520.5q0 -356 -184 -560t-492 -204zM784 1368q-250 0 -411.5 -181t-161.5 -474q0 -296 153 -471.5t408 -175.5q266 0 421 173.5t155 483.5q0 304 -151.5 474.5 t-412.5 170.5zM943 1537l-157 239l-160 -239h-82l221 336h45l219 -336h-86zM1066 1719h-90l234 246h104z"/>
    <glyph glyph-name="uni1ED1" unicode="ố" horiz-adv-x="1149" d="M575 -25q-224 0 -354.5 147.5t-130.5 383.5q0 255 136.5 399t359.5 144q219 0 346 -143t127 -396q0 -239 -129.5 -387t-354.5 -148zM582 965q-181 0 -288.5 -122t-107.5 -339q0 -201 105 -323t287 -122q185 0 285 120t100 333q0 219 -99.5 336t-281.5 117zM772 1188 l-157 239l-160 -239h-82l221 336h45l219 -336h-86zM895 1370h-90l234 246h104z"/>
    <glyph glyph-name="uni1ED2" unicode="Ồ" horiz-adv-x="1559" d="M774 -25q-304 0 -484.5 202t-180.5 525q0 343 185.5 549.5t506.5 206.5q290 0 469.5 -198.5t179.5 -520.5q0 -356 -184 -560t-492 -204zM784 1368q-250 0 -411.5 -181t-161.5 -474q0 -296 153 -471.5t408 -175.5q266 0 421 173.5t155 483.5q0 304 -151.5 474.5 t-412.5 170.5zM542 1537l219 336h45l221 -336h-82l-160 239l-157 -239h-86zM257 1965h104l234 -246h-90z"/>
    <glyph glyph-name="uni1ED3" unicode="ồ" horiz-adv-x="1149" d="M575 -25q-224 0 -354.5 147.5t-130.5 383.5q0 255 136.5 399t359.5 144q219 0 346 -143t127 -396q0 -239 -129.5 -387t-354.5 -148zM582 965q-181 0 -288.5 -122t-107.5 -339q0 -201 105 -323t287 -122q185 0 285 120t100 333q0 219 -99.5 336t-281.5 117zM377 1188 l219 336h45l221 -336h-82l-160 239l-157 -239h-86zM92 1616h104l234 -246h-90z"/>
    <glyph glyph-name="uni1ED4" unicode="Ổ" horiz-adv-x="1559" d="M774 -25q-304 0 -484.5 202t-180.5 525q0 343 185.5 549.5t506.5 206.5q290 0 469.5 -198.5t179.5 -520.5q0 -356 -184 -560t-492 -204zM784 1368q-250 0 -411.5 -181t-161.5 -474q0 -296 153 -471.5t408 -175.5q266 0 421 173.5t155 483.5q0 304 -151.5 474.5 t-412.5 170.5zM1027 2061q91 0 139.5 -39.5t48.5 -115.5q0 -65 -32.5 -102.5t-104.5 -45.5v-54h-72v115q64 0 93 21.5t29 63.5q0 38 -26.5 57t-73.5 19q-26 0 -46 -2t-35 -6v82q19 3 38.5 5t41.5 2zM922 1536l-157 239l-160 -239h-82l221 336h45l219 -336h-86z"/>
    <glyph glyph-name="uni1ED5" unicode="ổ" horiz-adv-x="1149" d="M575 -25q-224 0 -354.5 147.5t-130.5 383.5q0 255 136.5 399t359.5 144q219 0 346 -143t127 -396q0 -239 -129.5 -387t-354.5 -148zM582 965q-181 0 -288.5 -122t-107.5 -339q0 -201 105 -323t287 -122q185 0 285 120t100 333q0 219 -99.5 336t-281.5 117zM880 1713 q91 0 139.5 -39.5t48.5 -115.5q0 -65 -32.5 -102.5t-104.5 -45.5v-54h-72v115q64 0 93 21.5t29 63.5q0 38 -26.5 57t-73.5 19q-26 0 -46 -2t-35 -6v82q19 3 38.5 5t41.5 2zM775 1188l-157 239l-160 -239h-82l221 336h45l219 -336h-86z"/>
    <glyph glyph-name="uni1ED6" unicode="Ỗ" horiz-adv-x="1559" d="M774 -25q-304 0 -484.5 202t-180.5 525q0 343 185.5 549.5t506.5 206.5q290 0 469.5 -198.5t179.5 -520.5q0 -356 -184 -560t-492 -204zM784 1368q-250 0 -411.5 -181t-161.5 -474q0 -296 153 -471.5t408 -175.5q266 0 421 173.5t155 483.5q0 304 -151.5 474.5 t-412.5 170.5zM1098 2112q0 -103 -48.5 -163t-130.5 -60q-66 0 -151 76q-64 55 -119 55q-102 0 -102 -143h-72q0 100 48 160.5t128 60.5q72 0 160 -72q67 -59 117 -59q40 0 68 37t28 108h74zM940 1536l-157 199l-160 -199h-82l221 296h45l219 -296h-86z"/>
    <glyph glyph-name="uni1ED7" unicode="ỗ" horiz-adv-x="1149" d="M575 -25q-224 0 -354.5 147.5t-130.5 383.5q0 255 136.5 399t359.5 144q219 0 346 -143t127 -396q0 -239 -129.5 -387t-354.5 -148zM582 965q-181 0 -288.5 -122t-107.5 -339q0 -201 105 -323t287 -122q185 0 285 120t100 333q0 219 -99.5 336t-281.5 117zM913 1764 q0 -103 -48.5 -163t-130.5 -60q-66 0 -151 76q-64 55 -119 55q-102 0 -102 -143h-72q0 100 48 160.5t128 60.5q72 0 160 -72q67 -59 117 -59q40 0 68 37t28 108h74zM755 1188l-157 199l-160 -199h-82l221 296h45l219 -296h-86z"/>
    <glyph glyph-name="uni1ED8" unicode="Ộ" horiz-adv-x="1559" d="M774 -25q-304 0 -484.5 202t-180.5 525q0 343 185.5 549.5t506.5 206.5q290 0 469.5 -198.5t179.5 -520.5q0 -356 -184 -560t-492 -204zM784 1368q-250 0 -411.5 -181t-161.5 -474q0 -296 153 -471.5t408 -175.5q266 0 421 173.5t155 483.5q0 304 -151.5 474.5 t-412.5 170.5zM948 1537l-157 239l-160 -239h-82l221 336h45l219 -336h-86zM773 -270q-31 0 -54.5 22t-23.5 56t23.5 53.5t52.5 19.5q31 0 55.5 -19.5t24.5 -53.5q0 -32 -23 -55t-55 -23z"/>
    <glyph glyph-name="uni1ED9" unicode="ộ" horiz-adv-x="1149" d="M575 -25q-224 0 -354.5 147.5t-130.5 383.5q0 255 136.5 399t359.5 144q219 0 346 -143t127 -396q0 -239 -129.5 -387t-354.5 -148zM582 965q-181 0 -288.5 -122t-107.5 -339q0 -201 105 -323t287 -122q185 0 285 120t100 333q0 219 -99.5 336t-281.5 117zM775 1188 l-157 239l-160 -239h-82l221 336h45l219 -336h-86zM595 -270q-31 0 -54.5 22t-23.5 56t23.5 53.5t52.5 19.5q31 0 55.5 -19.5t24.5 -53.5q0 -32 -23 -55t-55 -23z"/>
    <glyph glyph-name="uni1EDA" unicode="Ớ" horiz-adv-x="1559" d="M774 -25q-152 0 -275 53.5t-209.5 150t-133.5 230t-47 293.5q0 171 48 310.5t138 238.5t218 153t288 54q219 0 375 -114q22 -3 47.5 -4.5t51.5 -1.5q52 0 89 9.5t60 26.5t33.5 41t10.5 53q0 71 -21 130h104q9 -27 13.5 -60t4.5 -69q0 -112 -65.5 -164.5t-187.5 -52.5h-40 q174 -197 174 -513q0 -177 -48 -318.5t-136.5 -240.5t-213.5 -152t-278 -53zM784 1368q-125 0 -230 -47.5t-181 -134t-119 -207t-43 -266.5q0 -147 40 -266.5t113 -204t176.5 -130.5t231.5 -46q133 0 239.5 44.5t181.5 129.5t115 206.5t40 276.5q0 152 -39.5 271.5 t-113 202.5t-178 127t-233.5 44zM783 1537h-90l234 328h104z"/>
    <glyph glyph-name="uni1EDB" unicode="ớ" horiz-adv-x="1149" d="M575 -25q-113 0 -203 39t-152.5 109.5t-96 168t-33.5 214.5q0 127 35.5 228t101 171t157 107t202.5 37q96 0 177 -29q21 -2 47 -3t49 -1q52 0 89 9.5t60 26.5t33.5 41t10.5 53q0 71 -21 130h97q9 -27 13.5 -60t4.5 -69q0 -54 -16.5 -93t-48 -65t-76.5 -39.5t-101 -15.5 q77 -77 116 -179t39 -245q0 -118 -33 -216t-95.5 -169t-152.5 -110.5t-203 -39.5zM582 965q-90 0 -163 -31.5t-125 -90.5t-80 -144.5t-28 -194.5q0 -100 27 -182t78 -140.5t123.5 -90.5t163.5 -32q93 0 164.5 31t120.5 89.5t74.5 142.5t25.5 190q0 220 -99 336.5t-282 116.5 zM600 1188h-90l234 328h104z"/>
    <glyph glyph-name="uni1EDC" unicode="Ờ" horiz-adv-x="1559" d="M774 -25q-152 0 -275 53.5t-209.5 150t-133.5 230t-47 293.5q0 171 48 310.5t138 238.5t218 153t288 54q219 0 375 -114q22 -3 47.5 -4.5t51.5 -1.5q52 0 89 9.5t60 26.5t33.5 41t10.5 53q0 71 -21 130h104q9 -27 13.5 -60t4.5 -69q0 -112 -65.5 -164.5t-187.5 -52.5h-40 q174 -197 174 -513q0 -177 -48 -318.5t-136.5 -240.5t-213.5 -152t-278 -53zM784 1368q-125 0 -230 -47.5t-181 -134t-119 -207t-43 -266.5q0 -147 40 -266.5t113 -204t176.5 -130.5t231.5 -46q133 0 239.5 44.5t181.5 129.5t115 206.5t40 276.5q0 152 -39.5 271.5 t-113 202.5t-178 127t-233.5 44zM800 1537l-248 328h104l234 -328h-90z"/>
    </font>
</defs>
</svg>
