<?xml version="1.0" standalone="no"?>
<!DOCTYPE svg PUBLIC "-//W3C//DTD SVG 1.1//EN" "http://www.w3.org/Graphics/SVG/1.1/DTD/svg11.dtd" >
<svg xmlns="http://www.w3.org/2000/svg" xmlns:xlink="http://www.w3.org/1999/xlink" version="1.1">
<metadata></metadata>
<defs>
<font id="fontload" horiz-adv-x="1092" >
<font-face units-per-em="2048" ascent="1638" descent="-410" />
<missing-glyph horiz-adv-x="500" />
<glyph horiz-adv-x="0" />
<glyph unicode="&#xd;" />
<glyph d="M137 0h819v1229h-819v-1229z" />
<glyph d="M137 0h819v1229h-819v-1229z" />
<glyph d="M137 0h819v1229h-819v-1229z" />
<glyph d="M137 -273h955v1229h-955v-1229zM137 1229h136v-137h273v137h-273v273h-136v-273zM273 0v683h546v-137h137v-136h-137v-137h137v-136h-137v-137h-546zM273 1502h273v136h-273v-136zM546 137h137v136h-137v-136zM546 410h137v136h-137v-136zM683 1229h136v-137h273v137 h-273v273h-136v-273zM819 1502h273v136h-273v-136z" />
<glyph d="M137 -273h955v1229h-955v-1229zM137 1229h136v-137h273v137h-273v273h-136v-273zM273 137v409h137v137h409v-137h137v-136h-273v136h-137v-409h137v136h273v-136h-137v-137h-409v137h-137zM273 1502h273v136h-273v-136zM683 1229h136v-137h273v137h-273v273h-136v-273z M819 1502h273v136h-273v-136z" />
<glyph d="M137 0h819v1229h-819v-1229z" />
<glyph d="M137 0h819v1229h-819v-1229z" />
<glyph d="M137 0h819v1229h-819v-1229z" />
<glyph d="M137 0h819v1229h-819v-1229z" />
<glyph d="M137 0h819v1229h-819v-1229z" />
<glyph unicode="&#x9;" d="M137 0h819v1229h-819v-1229z" />
<glyph unicode="&#xa;" d="M137 0h819v1229h-819v-1229z" />
<glyph d="M137 0h819v1229h-819v-1229z" />
<glyph d="M137 0h819v1229h-819v-1229z" />
<glyph d="M137 0h819v1229h-819v-1229z" />
<glyph d="M137 -273h955v1229h-955v-1229zM137 1229h136v-137h273v137h-273v273h-136v-273zM273 137v409h137v137h409v-137h137v-409h-137v-137h-409v137h-137zM273 1502h273v136h-273v-136zM546 137h137v409h-137v-409zM683 1229h136v-137h273v137h-273v273h-136v-273zM819 1502 h273v136h-273v-136z" />
<glyph d="M137 0h819v1229h-819v-1229z" />
<glyph d="M137 0h819v1229h-819v-1229z" />
<glyph d="M137 0h819v1229h-819v-1229z" />
<glyph d="M137 0h819v1229h-819v-1229z" />
<glyph d="M137 0h819v1229h-819v-1229z" />
<glyph d="M137 0h819v1229h-819v-1229z" />
<glyph d="M137 -273h955v1229h-955v-1229zM137 1229h136v-137h273v137h-273v273h-136v-273zM273 0v683h546v-137h137v-136h-137v-137h137v-273h-273v273h-137v-273h-273zM273 1502h273v136h-273v-136zM546 410h137v136h-137v-136zM683 1229h136v-137h273v137h-273v273h-136v-273z M819 1502h273v136h-273v-136z" />
<glyph d="M137 0h819v1229h-819v-1229z" />
<glyph d="M137 0h819v1229h-819v-1229z" />
<glyph d="M137 0h819v1229h-819v-1229z" />
<glyph d="M137 0h819v1229h-819v-1229z" />
<glyph d="M137 0h819v1229h-819v-1229z" />
<glyph d="M137 0h819v1229h-819v-1229z" />
<glyph d="M137 0h819v1229h-819v-1229z" />
<glyph d="M137 0h819v1229h-819v-1229z" />
<glyph d="M137 -273h955v1229h-955v-1229zM137 1229h136v-137h273v137h-273v273h-136v-273zM273 137v546h273v-137v-409h137v546h273v-546h-137v-137h-409v137h-137zM273 1502h273v136h-273v-136zM683 1229h136v-137h273v137h-273v273h-136v-273zM819 1502h273v136h-273v-136z" />
<glyph unicode=" " />
<glyph unicode="!" d="M273 683v409h137v137h273v-137h136v-409h-136v-273h-273v273h-137zM410 0v273h273v-273h-273z" />
<glyph unicode="&#x22;" d="M137 819v410h273v-410h-273zM683 819v410h273v-410h-273z" />
<glyph unicode="#" d="M137 273v137h136v409h-136v137h136v273h273v-273h137v273h273v-273h136v-137h-136v-409h136v-137h-136v-273h-273v273h-137v-273h-273v273h-136zM546 410h137v409h-137v-409z" />
<glyph unicode="$" d="M137 137v136h273v-136h273v273h-137v136h-136v137h-137v136h-136v273h136v137h137v273h273v-273h136v-137h137v-136h-273v136h-273v-273h136v-136h137v-137h136v-136h137v-273h-137v-137h-136v-273h-273v273h-137v137h-136z" />
<glyph unicode="%" d="M0 956v273h137v136h409v-136h137v-273h136v136h137v-273h-137v-136h-136v-137h-137v-136h410v-137h136v-273h-136v-137h-410v137h-136v273h-137v-136h-136v273h136v136h137v137h136v136h-409v137h-137zM273 956h137v273h-137v-273zM410 273h136v137h-136v-137zM546 819 h137v137h-137v-137zM683 0h136v273h-136v-273z" />
<glyph unicode="&#x26;" d="M137 137v546h136v136h-136v273h136v137h410v-137h136v-273h-136v-136h-273v-546h273v273h-137v136h546v-136h-136v-273h136v-137h-273v137h-136v-137h-410v137h-136zM410 819h136v273h-136v-273z" />
<glyph unicode="'" d="M410 819v410h273v-410h-273z" />
<glyph unicode="(" d="M273 137v682h137v273h136v137h273v-137h-136v-273h-137v-682h137v-274h136v-136h-273v136h-136v274h-137z" />
<glyph unicode=")" d="M273 -137h137v274h136v682h-136v273h-137v137h273v-137h137v-273h136v-682h-136v-274h-137v-136h-273v136z" />
<glyph unicode="*" d="M137 546v137h273v136h-137v137h273v-137h137v137h273v-137h-137v-136h273v-137h-273v-136h137v-137h-273v137h-137v-137h-273v137h137v136h-273z" />
<glyph unicode="+" d="M137 546v137h273v273h273v-273h273v-137h-273v-273h-273v273h-273z" />
<glyph unicode="," d="M410 0v273h409v-410h-136v-136h-273v136h136v137h-136z" />
<glyph unicode="-" d="M137 546v137h819v-137h-819z" />
<glyph unicode="." d="M410 0v273h409v-273h-409z" />
<glyph unicode="/" d="M137 -137v274h136v273h137v273h136v273h137v273h273v-273h-137v-273h-136v-273h-137v-273h-136v-274h-273z" />
<glyph unicode="0" d="M273 137v955h137v137h546v-137h136v-955h-136v-137h-546v137h-137zM546 137h273v546h-136v273h136v136h-273v-546h137v-273h-137v-136z" />
<glyph unicode="1" d="M137 819v137h273v136h136v137h273v-1229h-273v819h-409z" />
<glyph unicode="2" d="M137 0v273h136v137h137v136h136v137h137v409h-273v-273h-273v273h136v137h546v-137h137v-409h-137v-137h-136v-136h-137v-137h-136v-136h546v-137h-819z" />
<glyph unicode="3" d="M137 137v273h273v-273h273v409h-273v137h273v409h-273v-273h-273v273h136v137h546v-137h137v-409h-137v-137h137v-409h-137v-137h-546v137h-136z" />
<glyph unicode="4" d="M137 273v273h136v683h273v-683h-136v-136h273v546h273v-546h136v-137h-136v-273h-273v273h-546z" />
<glyph unicode="5" d="M137 0v137h409v136h137v273h-546v683h819v-137h-546v-409h409v-137h137v-273h-137v-136h-136v-137h-546z" />
<glyph unicode="6" d="M137 137v682h136v137h137v273h409v-137h-136v-136h-137v-137h273v-136h137v-546h-137v-137h-546v137h-136zM410 137h273v546h-273v-546z" />
<glyph unicode="7" d="M137 1092v137h819v-273h-137v-273h-136v-273h-137v-410h-273v410h137v273h136v273h137v136h-546z" />
<glyph unicode="8" d="M137 137v409h136v137h-136v409h136v137h546v-137h137v-409h-137v-137h137v-409h-137v-137h-546v137h-136zM410 137h273v273h-137v136h-136v-409zM410 819h136v-136h137v409h-273v-273z" />
<glyph unicode="9" d="M137 546v546h136v137h546v-137h137v-682h-137v-137h-136v-273h-410v137h137v136h136v137h-273v136h-136zM410 546h273v546h-273v-546z" />
<glyph unicode=":" d="M410 0v273h409v-273h-409zM410 683v273h409v-273h-409z" />
<glyph unicode=";" d="M410 0v273h409v-410h-136v-136h-273v136h136v137h-136zM410 683v273h409v-273h-409z" />
<glyph unicode="&#x3c;" d="M137 546v137h136v136h137v137h136v136h137v137h273v-137h-137v-136h-136v-137h-137v-136h-136v-137h136v-136h137v-137h136v-136h137v-137h-273v137h-137v136h-136v137h-137v136h-136z" />
<glyph unicode="=" d="M137 410v136h819v-136h-819zM137 683v136h819v-136h-819z" />
<glyph unicode="&#x3e;" d="M137 0v137h136v136h137v137h136v136h137v137h-137v136h-136v137h-137v136h-136v137h273v-137h136v-136h137v-137h136v-136h137v-137h-137v-136h-136v-137h-137v-136h-136v-137h-273z" />
<glyph unicode="?" d="M137 819v273h136v137h546v-137h137v-273h-137v-136h-136v-273h-273v273h136v136h137v273h-273v-273h-273zM410 0v273h273v-273h-273z" />
<glyph unicode="@" d="M0 137v955h137v137h819v-137h136v-819h-546v137h-136v273h136v136h273v273h-546v-955h819v-137h-955v137h-137zM683 410h136v273h-136v-273z" />
<glyph unicode="A" d="M137 0v956h136v136h137v137h273v-137h136v-136h137v-956h-273v410h-273v-410h-273zM410 546h273v410h-273v-410z" />
<glyph unicode="B" d="M137 0v1229h682v-137h137v-409h-137v-137h137v-409h-137v-137h-682zM410 137h273v409h-273v-409zM410 683h273v409h-273v-409z" />
<glyph unicode="C" d="M137 137v955h136v137h546v-137h137v-273h-273v273h-273v-955h273v273h273v-273h-137v-137h-546v137h-136z" />
<glyph unicode="D" d="M137 0v1229h546v-137h136v-136h137v-683h-137v-136h-136v-137h-546zM410 137h136v136h137v683h-137v136h-136v-955z" />
<glyph unicode="E" d="M137 0v1229h819v-137h-546v-409h409v-137h-409v-409h546v-137h-819z" />
<glyph unicode="F" d="M137 0v1229h819v-137h-546v-409h409v-137h-409v-546h-273z" />
<glyph unicode="G" d="M137 137v955h136v137h546v-137h137v-273h-273v273h-273v-955h273v273h-137v136h410v-546h-683v137h-136z" />
<glyph unicode="H" d="M137 0v1229h273v-546h273v546h273v-1229h-273v546h-273v-546h-273z" />
<glyph unicode="I" d="M273 0v137h137v955h-137v137h546v-137h-136v-955h136v-137h-546z" />
<glyph unicode="J" d="M137 137v273h273v-273h273v1092h273v-1092h-137v-137h-546v137h-136z" />
<glyph unicode="K" d="M137 0v1229h273v-546h136v273h137v273h273v-273h-137v-273h-136v-137h136v-273h137v-273h-273v273h-137v273h-136v-546h-273z" />
<glyph unicode="L" d="M137 0v1229h273v-1092h546v-137h-819z" />
<glyph unicode="M" d="M137 0v1229h273v-273h136v-137h137v137h136v273h273v-1229h-273v819h-136v-409h-137v409h-136v-819h-273z" />
<glyph unicode="N" d="M137 0v1229h273v-273h136v-137h137v-136h136v546h273v-1229h-273v410h-136v136h-137v137h-136v-683h-273z" />
<glyph unicode="O" d="M137 137v955h136v137h546v-137h137v-955h-137v-137h-546v137h-136zM410 137h273v955h-273v-955z" />
<glyph unicode="P" d="M137 0v1229h682v-137h137v-409h-137v-137h-409v-546h-273zM410 683h273v409h-273v-409z" />
<glyph unicode="Q" d="M137 137v955h136v137h546v-137h137v-955h-137v-274h137v-136h-273v136h-137v137h-273v137h-136zM410 137h273v955h-273v-955z" />
<glyph unicode="R" d="M137 0v1229h682v-137h137v-409h-137v-273h137v-410h-273v410h-137v136h-136v-546h-273zM410 683h273v409h-273v-409z" />
<glyph unicode="S" d="M137 137v136h273v-136h273v273h-137v136h-136v137h-137v136h-136v273h136v137h546v-137h137v-136h-273v136h-273v-273h136v-136h137v-137h136v-136h137v-273h-137v-137h-546v137h-136z" />
<glyph unicode="T" d="M137 1092v137h819v-137h-273v-1092h-273v1092h-273z" />
<glyph unicode="U" d="M137 137v1092h273v-1092h273v1092h273v-1092h-137v-137h-546v137h-136z" />
<glyph unicode="V" d="M137 273v956h273v-956h273v956h273v-956h-137v-136h-136v-137h-273v137h-137v136h-136z" />
<glyph unicode="W" d="M137 410v819h273v-819h136v409h137v-409h136v819h273v-819h-136v-410h-273v410h-137v-410h-273v410h-136z" />
<glyph unicode="X" d="M137 0v410h136v136h137v273h-137v137h-136v273h273v-273h136v-137h137v410h273v-273h-137v-137h-136v-273h136v-136h137v-410h-273v410h-137v136h-136v-546h-273z" />
<glyph unicode="Y" d="M137 683v546h273v-546h273v546h273v-546h-137v-137h-136v-546h-273v546h-137v137h-136z" />
<glyph unicode="Z" d="M137 0v410h136v136h137v137h136v136h137v273h-546v137h819v-410h-137v-136h-136v-137h-137v-136h-136v-273h546v-137h-819z" />
<glyph unicode="[" d="M273 -410v1639h546v-137h-273v-1365h273v-137h-546z" />
<glyph unicode="\" d="M137 956v273h273v-273h136v-273h137v-273h136v-273h137v-274h-273v274h-137v273h-136v273h-137v273h-136z" />
<glyph unicode="]" d="M273 -273h273v1365h-273v137h546v-1639h-546v137z" />
<glyph unicode="^" d="M137 1092v137h136v136h137v137h273v-137h136v-136h137v-137h-273v137h-273v-137h-273z" />
<glyph unicode="_" d="M0 -273h1092v-137h-1092v137z" />
<glyph unicode="`" d="M273 1365v137h410v-273h136v-137h-273v137h-136v136h-137z" />
<glyph unicode="a" d="M137 137v273h136v136h410v273h-410v137h546v-137h137v-819h-683v137h-136zM410 137h273v273h-273v-273z" />
<glyph unicode="b" d="M137 0v1229h273v-273h409v-137h137v-682h-137v-137h-682zM410 137h273v682h-273v-682z" />
<glyph unicode="c" d="M137 137v682h136v137h546v-137h137v-136h-273v136h-273v-682h273v136h273v-136h-137v-137h-546v137h-136z" />
<glyph unicode="d" d="M137 137v682h136v137h410v273h273v-1229h-683v137h-136zM410 137h273v682h-273v-682z" />
<glyph unicode="e" d="M137 137v682h136v137h546v-137h137v-409h-546v-273h409v-137h-546v137h-136zM410 546h273v273h-273v-273z" />
<glyph unicode="f" d="M137 546v137h136v409h137v137h546v-137h-410v-409h410v-137h-410v-546h-273v546h-136z" />
<glyph unicode="g" d="M137 137v682h136v137h683v-1229h-137v-137h-682v137h546v273h-410v137h-136zM410 137h273v682h-273v-682z" />
<glyph unicode="h" d="M137 0v1229h273v-273h409v-137h137v-819h-273v819h-273v-819h-273z" />
<glyph unicode="i" d="M137 0v137h273v682h-273v137h546v-819h273v-137h-819zM410 1092v273h273v-273h-273z" />
<glyph unicode="j" d="M137 -273h409v1092h-273v137h546v-1229h-136v-137h-546v137zM546 1092v273h273v-273h-273z" />
<glyph unicode="k" d="M137 0v1229h273v-683h136v137h137v273h273v-273h-137v-137h-136v-136h136v-137h137v-273h-273v273h-137v137h-136v-410h-273z" />
<glyph unicode="l" d="M137 0v137h273v955h-273v137h546v-1092h273v-137h-819z" />
<glyph unicode="m" d="M137 0v956h819v-137h136v-819h-273v819h-136v-682h-137v682h-136v-819h-273z" />
<glyph unicode="n" d="M137 0v956h682v-137h137v-819h-273v819h-273v-819h-273z" />
<glyph unicode="o" d="M137 137v682h136v137h546v-137h137v-682h-137v-137h-546v137h-136zM410 137h273v682h-273v-682z" />
<glyph unicode="p" d="M137 -410v1366h682v-137h137v-682h-137v-137h-409v-410h-273zM410 137h273v682h-273v-682z" />
<glyph unicode="q" d="M137 137v682h136v137h683v-1366h-273v410h-410v137h-136zM410 137h273v682h-273v-682z" />
<glyph unicode="r" d="M137 0v956h273v-273h136v136h137v137h273v-273h-410v-137h-136v-546h-273z" />
<glyph unicode="s" d="M137 0v137h546v273h-410v136h-136v273h136v137h683v-137h-546v-273h409v-136h137v-273h-137v-137h-682z" />
<glyph unicode="t" d="M137 819v137h136v273h273v-273h410v-137h-410v-682h410v-137h-546v137h-137v682h-136z" />
<glyph unicode="u" d="M137 137v819h273v-819h273v819h273v-956h-683v137h-136z" />
<glyph unicode="v" d="M137 273v683h273v-683h273v683h273v-683h-137v-136h-136v-137h-273v137h-137v136h-136z" />
<glyph unicode="w" d="M137 273v683h273v-683h136v546h137v-546h136v683h273v-683h-136v-273h-273v273h-137v-273h-273v273h-136z" />
<glyph unicode="x" d="M137 0v273h136v137h137v136h-137v137h-136v273h273v-273h273v273h273v-273h-137v-137h-136v-136h136v-137h137v-273h-273v273h-273v-273h-273z" />
<glyph unicode="y" d="M0 -273h410v136h136v137h-273v137h-136v819h273v-819h273v819h273v-819h-137v-274h-136v-136h-137v-137h-546v137z" />
<glyph unicode="z" d="M137 0v273h136v137h137v136h136v137h137v136h-546v137h819v-273h-137v-137h-136v-136h-137v-137h-136v-136h546v-137h-819z" />
<glyph unicode="{" d="M137 410v136h136v137h137v409h136v137h273v-137h-136v-409h-137v-137h-136v-136h136v-137h137v-410h136v-136h-273v136h-136v410h-137v137h-136z" />
<glyph unicode="|" d="M410 -410v1639h273v-1639h-273z" />
<glyph unicode="}" d="M273 -137h137v410h136v137h137v136h-137v137h-136v409h-137v137h273v-137h137v-409h136v-137h137v-136h-137v-137h-136v-410h-137v-136h-273v136z" />
<glyph unicode="~" d="M0 819v273h137v137h409v-137h137v-136h136v136h137v137h136v-273h-136v-137h-410v137h-136v136h-137v-136h-136v-137h-137z" />
<glyph d="M137 0h819v1229h-819v-1229z" />
<glyph d="M137 0h819v1229h-819v-1229z" />
<glyph d="M137 0h819v1229h-819v-1229z" />
<glyph d="M137 0h819v1229h-819v-1229z" />
<glyph d="M137 0h819v1229h-819v-1229z" />
<glyph d="M137 0h819v1229h-819v-1229z" />
<glyph unicode="&#x85;" d="M137 0h819v1229h-819v-1229z" />
<glyph d="M137 0h819v1229h-819v-1229z" />
<glyph d="M137 0h819v1229h-819v-1229z" />
<glyph d="M137 0h819v1229h-819v-1229z" />
<glyph d="M137 0h819v1229h-819v-1229z" />
<glyph d="M137 0h819v1229h-819v-1229z" />
<glyph d="M137 0h819v1229h-819v-1229z" />
<glyph d="M137 0h819v1229h-819v-1229z" />
<glyph d="M137 0h819v1229h-819v-1229z" />
<glyph d="M137 0h819v1229h-819v-1229z" />
<glyph d="M137 0h819v1229h-819v-1229z" />
<glyph d="M137 0h819v1229h-819v-1229z" />
<glyph d="M410 683v409h136v137h273v-137h-136v-136h136v-273h-409z" />
<glyph d="M410 683v136h136v137h-136v273h409v-410h-136v-136h-273z" />
<glyph d="M137 0h819v1229h-819v-1229z" />
<glyph d="M137 0h819v1229h-819v-1229z" />
<glyph d="M137 0h819v1229h-819v-1229z" />
<glyph d="M137 0h819v1229h-819v-1229z" />
<glyph d="M137 0h819v1229h-819v-1229z" />
<glyph d="M137 0h819v1229h-819v-1229z" />
<glyph d="M137 0h819v1229h-819v-1229z" />
<glyph d="M137 0h819v1229h-819v-1229z" />
<glyph d="M137 0h819v1229h-819v-1229z" />
<glyph d="M137 0h819v1229h-819v-1229z" />
<glyph d="M137 0h819v1229h-819v-1229z" />
<glyph d="M137 0h819v1229h-819v-1229z" />
<glyph d="M137 0h819v1229h-819v-1229z" />
<glyph unicode="&#xa0;" />
<glyph unicode="&#xa1;" d="M273 137h137v273h273v-273h136v-410h-136v-137h-273v137h-137v410zM410 546v273h273v-273h-273z" />
<glyph unicode="&#xa2;" d="M137 273v546h136v137h137v273h273v-273h136v-137h137v-136h-273v136h-273v-546h273v137h273v-137h-137v-136h-136v-274h-273v274h-137v136h-136z" />
<glyph unicode="&#xa3;" d="M0 0v273h137v273h-137v137h137v409h136v137h546v-137h137v-136h-273v136h-273v-409h409v-137h-409v-273h-137v-136h683v-137h-956z" />
<glyph unicode="&#xa4;" d="M137 273v137h136v136h-136v273h136v137h-136v136h273v-136h273v136h273v-136h-137v-137h137v-273h-137v-136h137v-137h-273v137h-273v-137h-273zM410 546h273v273h-273v-273z" />
<glyph unicode="&#xa5;" d="M137 273v137h273v136h-273v137h136v136h-136v410h273v-410h273v410h273v-410h-137v-136h137v-137h-273v-136h273v-137h-273v-273h-273v273h-273z" />
<glyph unicode="&#xa6;" d="M410 273h273v-683h-273v683zM410 546v683h273v-683h-273z" />
<glyph unicode="&#xa7;" d="M137 -137h273v-136h273v273h-273v137h-137v136h-136v273h136v273h-136v273h136v137h546v-137h137v-136h-273v136h-273v-273h273v-136h136v-137h137v-273h-137v-273h137v-273h-137v-137h-546v137h-136v136zM410 273h273v273h-273v-273z" />
<glyph unicode="&#xa8;" d="M137 1092v273h273v-273h-273zM683 1092v273h273v-273h-273z" />
<glyph unicode="&#xa9;" d="M0 137v955h137v137h819v-137h136v-955h-136v-137h-819v137h-137zM137 273h136v-136h546v136h137v683h-137v136h-546v-136h-136v-683zM273 410v409h137v-409h273v-137h-273v137h-137zM410 819v137h273v-137h136v-136h-136v136h-273zM683 410v136h136v-136h-136z" />
<glyph unicode="&#xaa;" d="M137 273v137h819v-137h-819zM137 683v136h136v137h410v136h-410v137h546v-137h137v-546h-683v137h-136zM410 683h273v136h-273v-136z" />
<glyph unicode="&#xab;" d="M0 273v137h137v136h136v137h273v-137h-136v-136h-137v-137h137v-136h136v-137h-273v137h-136v136h-137zM546 273v137h137v136h136v137h273v-137h-136v-136h-137v-137h137v-136h136v-137h-273v137h-136v136h-137z" />
<glyph unicode="&#xac;" d="M137 546v137h819v-410h-273v273h-546z" />
<glyph unicode="&#xad;" d="M137 546v137h819v-137h-819z" />
<glyph unicode="&#xae;" d="M0 137v955h137v137h819v-137h136v-955h-136v-137h-819v137h-137zM137 273h136v-136h546v136h-136v137h-273v-137h-137v683h-136v-683zM273 956h410v-137h136v-273h-136v273h-273v-273h273v-136h136v-137h137v683h-137v136h-546v-136z" />
<glyph unicode="&#xaf;" d="M0 1502v136h1092v-136h-1092z" />
<glyph unicode="&#xb0;" d="M137 956v273h136v136h546v-136h137v-273h-137v-137h-546v137h-136zM410 956h273v273h-273v-273z" />
<glyph unicode="&#xb1;" d="M137 0v137h819v-137h-819zM137 546v137h273v273h273v-273h273v-137h-273v-273h-273v273h-273z" />
<glyph unicode="&#xb2;" d="M273 546v273h137v137h136v136h-273v137h410v-137h136v-136h-136v-137h-137v-136h273v-137h-546z" />
<glyph unicode="&#xb3;" d="M273 546v137h273v136h-136v137h136v136h-273v137h410v-137h136v-136h-136v-137h136v-136h-136v-137h-410z" />
<glyph unicode="&#xb4;" d="M273 1092v137h137v273h409v-137h-136v-136h-137v-137h-273z" />
<glyph unicode="&#xb5;" d="M0 -273h137v1229h273v-819h273v-137h-273v-273h-137v-137h-273v137zM683 137v819h273v-819h136v-137h-273v137h-136z" />
<glyph unicode="&#xb6;" d="M137 546v410h136v136h137v137h682v-137h-136v-1502h-273v683h-273v137h-137v136h-136z" />
<glyph unicode="&#xb7;" d="M410 546v273h409v-273h-409z" />
<glyph unicode="&#xb8;" d="M273 -273h273v136h-136v137h273v-137h136v-136h-136v-137h-410v137z" />
<glyph unicode="&#xb9;" d="M273 956v136h137v137h273v-683h-273v410h-137z" />
<glyph unicode="&#xba;" d="M137 273v137h819v-137h-819zM137 683v409h136v137h546v-137h137v-409h-137v-137h-546v137h-136zM410 683h273v409h-273v-409z" />
<glyph unicode="&#xbb;" d="M0 0v137h137v136h136v137h-136v136h-137v137h273v-137h137v-136h136v-137h-136v-136h-137v-137h-273zM546 0v137h137v136h136v137h-136v136h-137v137h273v-137h137v-136h136v-137h-136v-136h-137v-137h-273z" />
<glyph unicode="&#xbc;" d="M0 137v136h137v137h136v136h137v137h-273v409h-137v137h137v136h273v-682h136v136h137v137h136v136h273v-136h-136v-137h-137v-136h-136v-137h409v-683h-273v137h-409v273h-137v-136h-273zM410 273h136v137h-136v-137zM546 410h137v136h-137v-136zM683 137h136v136h-136 v-136z" />
<glyph unicode="&#xbd;" d="M0 137v136h137v137h136v136h137v137h-273v409h-137v137h137v136h273v-682h136v136h137v137h136v136h273v-136h-136v-137h-137v-136h-136v-137h273v-136h136v-137h-136v-136h-137v-137h273v-137h-546v274h137v136h136v137h-409v-137h-137v-136h-273z" />
<glyph unicode="&#xbe;" d="M0 137v136h137v137h136v136h137v137h-410v136h273v137h-136v136h136v137h-273v136h410v-136h136v-137h-136v-136h136v-137h137v137h136v136h273v-136h-136v-137h-137v-136h-136v-137h409v-683h-273v137h-409v273h-137v-136h-273zM410 273h136v137h-136v-137zM410 683h136 v136h-136v-136zM546 410h137v136h-137v-136zM683 137h136v136h-136v-136z" />
<glyph unicode="&#xbf;" d="M137 0h136v137h137v273h273v-273h-137v-137h-136v-273h273v273h273v-273h-137v-137h-546v137h-136v273zM410 546v273h273v-273h-273z" />
<glyph unicode="&#xc0;" d="M137 0v956h136v136h137v137h273v-137h136v-136h137v-956h-273v410h-273v-410h-273zM273 1502v136h273v-136h137v-137h-273v137h-137zM410 546h273v410h-273v-410z" />
<glyph unicode="&#xc1;" d="M137 0v956h136v136h137v137h273v-137h136v-136h137v-956h-273v410h-273v-410h-273zM410 546h273v410h-273v-410zM410 1365v137h136v136h273v-136h-136v-137h-273z" />
<glyph unicode="&#xc2;" d="M137 0v956h136v136h137v137h273v-137h136v-136h137v-956h-273v410h-273v-410h-273zM137 1365v137h136v136h546v-136h137v-137h-273v137h-273v-137h-273zM410 546h273v410h-273v-410z" />
<glyph unicode="&#xc3;" d="M137 0v956h136v136h137v137h273v-137h136v-136h137v-956h-273v410h-273v-410h-273zM137 1365v137h136v136h410v-136h136v136h273v-136h-136v-137h-410v137h-136v-137h-273zM410 546h273v410h-273v-410z" />
<glyph unicode="&#xc4;" d="M137 0v956h136v136h137v137h273v-137h136v-136h137v-956h-273v410h-273v-410h-273zM137 1365v273h273v-273h-273zM410 546h273v410h-273v-410zM683 1365v273h273v-273h-273z" />
<glyph unicode="&#xc5;" d="M137 0v956h136v136h137v137h-137v136h-136v137h136v136h546v-136h137v-137h-137v-136h-136v-137h136v-136h137v-956h-273v410h-273v-410h-273zM410 546h273v410h-273v-410zM410 1365h273v137h-273v-137z" />
<glyph unicode="&#xc6;" d="M137 0v819h136v137h137v136h136v137h546v-137h-273v-409h273v-137h-273v-409h273v-137h-546v410h-136v-410h-273zM410 546h136v273h-136v-273z" />
<glyph unicode="&#xc7;" d="M137 137v955h136v137h546v-137h137v-273h-273v273h-273v-955h273v273h273v-273h-137v-137h-136v-137h136v-136h-136v-137h-410v137h273v136h-136v137h-137v137h-136z" />
<glyph unicode="&#xc8;" d="M137 0v1229h819v-137h-546v-409h409v-137h-409v-409h546v-137h-819zM273 1502v136h273v-136h137v-137h-273v137h-137z" />
<glyph unicode="&#xc9;" d="M137 0v1229h819v-137h-546v-409h409v-137h-409v-409h546v-137h-819zM410 1365v137h136v136h273v-136h-136v-137h-273z" />
<glyph unicode="&#xca;" d="M137 0v1229h819v-137h-546v-409h409v-137h-409v-409h546v-137h-819zM137 1365v137h136v136h546v-136h137v-137h-273v137h-273v-137h-273z" />
<glyph unicode="&#xcb;" d="M137 0v1229h819v-137h-546v-409h409v-137h-409v-409h546v-137h-819zM137 1365v273h273v-273h-273zM683 1365v273h273v-273h-273z" />
<glyph unicode="&#xcc;" d="M273 0v137h137v955h-137v137h546v-137h-136v-955h136v-137h-546zM273 1502v136h273v-136h137v-137h-273v137h-137z" />
<glyph unicode="&#xcd;" d="M273 0v137h137v955h-137v137h546v-137h-136v-955h136v-137h-546zM410 1365v137h136v136h273v-136h-136v-137h-273z" />
<glyph unicode="&#xce;" d="M137 1365v137h136v136h546v-136h137v-137h-273v137h-273v-137h-273zM273 0v137h137v955h-137v137h546v-137h-136v-955h136v-137h-546z" />
<glyph unicode="&#xcf;" d="M137 1365v273h273v-273h-273zM273 0v137h137v955h-137v137h546v-137h-136v-955h136v-137h-546zM683 1365v273h273v-273h-273z" />
<glyph unicode="&#xd0;" d="M0 546v137h137v546h546v-137h136v-136h137v-683h-137v-136h-136v-137h-546v546h-137zM410 137h136v136h137v683h-137v136h-136v-409h136v-137h-136v-409z" />
<glyph unicode="&#xd1;" d="M137 0v1229h273v-273h136v-137h137v-136h136v546h273v-1229h-273v410h-136v136h-137v137h-136v-683h-273zM137 1365v137h136v136h410v-136h136v136h273v-136h-136v-137h-410v137h-136v-137h-273z" />
<glyph unicode="&#xd2;" d="M137 137v955h136v137h546v-137h137v-955h-137v-137h-546v137h-136zM273 1502v136h273v-136h137v-137h-273v137h-137zM410 137h273v955h-273v-955z" />
<glyph unicode="&#xd3;" d="M137 137v955h136v137h546v-137h137v-955h-137v-137h-546v137h-136zM410 137h273v955h-273v-955zM410 1365v137h136v136h273v-136h-136v-137h-273z" />
<glyph unicode="&#xd4;" d="M137 137v955h136v137h546v-137h137v-955h-137v-137h-546v137h-136zM137 1365v137h136v136h546v-136h137v-137h-273v137h-273v-137h-273zM410 137h273v955h-273v-955z" />
<glyph unicode="&#xd5;" d="M137 137v955h136v137h546v-137h137v-955h-137v-137h-546v137h-136zM137 1365v137h136v136h410v-136h136v136h273v-136h-136v-137h-410v137h-136v-137h-273zM410 137h273v955h-273v-955z" />
<glyph unicode="&#xd6;" d="M137 137v955h136v137h546v-137h137v-955h-137v-137h-546v137h-136zM137 1365v273h273v-273h-273zM410 137h273v955h-273v-955zM683 1365v273h273v-273h-273z" />
<glyph unicode="&#xd7;" d="M137 137v273h136v136h137v137h-137v136h-136v273h136v-136h137v-137h273v137h136v136h137v-273h-137v-136h-136v-137h136v-136h137v-273h-137v136h-136v137h-273v-137h-137v-136h-136z" />
<glyph unicode="&#xd8;" d="M137 0v1092h136v137h683v-1092h-137v-137h-682zM410 137h273v409h-137v-273h-136v-136zM410 683h136v273h137v136h-273v-409z" />
<glyph unicode="&#xd9;" d="M137 137v1092h273v-1092h273v1092h273v-1092h-137v-137h-546v137h-136zM273 1502v136h273v-136h137v-137h-273v137h-137z" />
<glyph unicode="&#xda;" d="M137 137v1092h273v-1092h273v1092h273v-1092h-137v-137h-546v137h-136zM410 1365v137h136v136h273v-136h-136v-137h-273z" />
<glyph unicode="&#xdb;" d="M137 137v1092h273v-1092h273v1092h273v-1092h-137v-137h-546v137h-136zM137 1365v137h136v136h546v-136h137v-137h-273v137h-273v-137h-273z" />
<glyph unicode="&#xdc;" d="M137 137v1092h273v-1092h273v1092h273v-1092h-137v-137h-546v137h-136zM137 1365v273h273v-273h-273zM683 1365v273h273v-273h-273z" />
<glyph unicode="&#xdd;" d="M137 683v546h273v-546h273v546h273v-546h-137v-137h-136v-546h-273v546h-137v137h-136zM410 1365v137h136v136h273v-136h-136v-137h-273z" />
<glyph unicode="&#xde;" d="M137 0v1229h273v-273h409v-137h137v-409h-137v-137h-409v-273h-273zM410 410h273v409h-273v-409z" />
<glyph unicode="&#xdf;" d="M137 0v1092h136v137h410v-137h136v-409h137v-546h-137v-137h-273v137h137v546h-137v409h-136v-1092h-273z" />
<glyph unicode="&#xe0;" d="M137 137v273h136v136h410v273h-410v137h546v-137h137v-819h-683v137h-136zM137 1365v137h409v-273h137v-137h-273v137h-137v136h-136zM410 137h273v273h-273v-273z" />
<glyph unicode="&#xe1;" d="M137 137v273h136v136h410v273h-410v137h546v-137h137v-819h-683v137h-136zM410 137h273v273h-273v-273zM410 1092v137h136v273h410v-137h-137v-136h-136v-137h-273z" />
<glyph unicode="&#xe2;" d="M137 137v273h136v136h410v273h-410v137h546v-137h137v-819h-683v137h-136zM137 1092v137h136v136h137v137h273v-137h136v-136h137v-137h-273v137h-273v-137h-273zM410 137h273v273h-273v-273z" />
<glyph unicode="&#xe3;" d="M0 1092v273h137v137h409v-137h137v-136h136v136h137v137h136v-273h-136v-137h-410v137h-136v136h-137v-136h-136v-137h-137zM137 137v273h136v136h410v273h-410v137h546v-137h137v-819h-683v137h-136zM410 137h273v273h-273v-273z" />
<glyph unicode="&#xe4;" d="M137 137v273h136v136h410v273h-410v137h546v-137h137v-819h-683v137h-136zM137 1092v273h273v-273h-273zM410 137h273v273h-273v-273zM683 1092v273h273v-273h-273z" />
<glyph unicode="&#xe5;" d="M137 137v273h136v136h410v273h-410v137h546v-137h137v-819h-683v137h-136zM137 1229v136h136v137h546v-137h137v-136h-137v-137h-546v137h-136zM410 137h273v273h-273v-273zM410 1229h273v136h-273v-136z" />
<glyph unicode="&#xe6;" d="M0 137v273h137v136h273v273h-273v137h273v-137h136v137h410v-137h136v-409h-409v-273h409v-137h-409v137h-137v-137h-409v137h-137zM273 137h137v273h-137v-273zM683 546h136v273h-136v-273z" />
<glyph unicode="&#xe7;" d="M137 137v682h136v137h546v-137h137v-136h-273v136h-273v-682h273v136h273v-136h-137v-137h-136v-137h136v-136h-136v-137h-410v137h273v136h-136v137h-137v137h-136z" />
<glyph unicode="&#xe8;" d="M137 137v682h136v137h546v-137h137v-409h-546v-273h409v-137h-546v137h-136zM137 1365v137h409v-273h137v-137h-273v137h-137v136h-136zM410 546h273v273h-273v-273z" />
<glyph unicode="&#xe9;" d="M137 137v682h136v137h546v-137h137v-409h-546v-273h409v-137h-546v137h-136zM410 546h273v273h-273v-273zM410 1092v137h136v273h410v-137h-137v-136h-136v-137h-273z" />
<glyph unicode="&#xea;" d="M137 137v682h136v137h546v-137h137v-409h-546v-273h409v-137h-546v137h-136zM137 1092v137h136v136h137v137h273v-137h136v-136h137v-137h-273v137h-273v-137h-273zM410 546h273v273h-273v-273z" />
<glyph unicode="&#xeb;" d="M137 137v682h136v137h546v-137h137v-409h-546v-273h409v-137h-546v137h-136zM137 1092v273h273v-273h-273zM410 546h273v273h-273v-273zM683 1092v273h273v-273h-273z" />
<glyph unicode="&#xec;" d="M137 0v137h273v682h-273v137h546v-819h273v-137h-819zM137 1365v137h409v-273h137v-137h-273v137h-137v136h-136z" />
<glyph unicode="&#xed;" d="M137 0v137h273v682h-273v137h546v-819h273v-137h-819zM410 1092v137h136v273h410v-137h-137v-136h-136v-137h-273z" />
<glyph unicode="&#xee;" d="M137 0v137h273v682h-273v137h546v-819h273v-137h-819zM137 1092v137h136v136h137v137h273v-137h136v-136h137v-137h-273v137h-273v-137h-273z" />
<glyph unicode="&#xef;" d="M137 0v137h273v682h-273v137h546v-819h273v-137h-819zM137 1092v273h273v-273h-273zM683 1092v273h273v-273h-273z" />
<glyph unicode="&#xf0;" d="M137 137v546h273v-546h273v546h-273v136h-273v137h273v-137h136v137h-136v136h-137v137h273v-137h137v-136h136v-137h137v-682h-137v-137h-546v137h-136zM683 1092v137h273v-137h-273z" />
<glyph unicode="&#xf1;" d="M0 1092v273h137v137h409v-137h137v-136h136v136h137v137h136v-273h-136v-137h-410v137h-136v136h-137v-136h-136v-137h-137zM137 0v956h682v-137h137v-819h-273v819h-273v-819h-273z" />
<glyph unicode="&#xf2;" d="M137 137v682h136v137h546v-137h137v-682h-137v-137h-546v137h-136zM137 1365v137h409v-273h137v-137h-273v137h-137v136h-136zM410 137h273v682h-273v-682z" />
<glyph unicode="&#xf3;" d="M137 137v682h136v137h546v-137h137v-682h-137v-137h-546v137h-136zM410 137h273v682h-273v-682zM410 1092v137h136v273h410v-137h-137v-136h-136v-137h-273z" />
<glyph unicode="&#xf4;" d="M137 137v682h136v137h546v-137h137v-682h-137v-137h-546v137h-136zM137 1092v137h136v136h137v137h273v-137h136v-136h137v-137h-273v137h-273v-137h-273zM410 137h273v682h-273v-682z" />
<glyph unicode="&#xf5;" d="M0 1092v273h137v137h409v-137h137v-136h136v136h137v137h136v-273h-136v-137h-410v137h-136v136h-137v-136h-136v-137h-137zM137 137v682h136v137h546v-137h137v-682h-137v-137h-546v137h-136zM410 137h273v682h-273v-682z" />
<glyph unicode="&#xf6;" d="M137 137v682h136v137h546v-137h137v-682h-137v-137h-546v137h-136zM137 1092v273h273v-273h-273zM410 137h273v682h-273v-682zM683 1092v273h273v-273h-273z" />
<glyph unicode="&#xf7;" d="M137 546v137h819v-137h-819zM410 137v273h273v-273h-273zM410 819v273h273v-273h-273z" />
<glyph unicode="&#xf8;" d="M137 0v819h136v137h683v-819h-137v-137h-682zM410 137h273v273h-137v-137h-136v-136zM410 546h136v137h137v136h-273v-273z" />
<glyph unicode="&#xf9;" d="M137 137v819h273v-819h273v819h273v-956h-683v137h-136zM137 1365v137h409v-273h137v-137h-273v137h-137v136h-136z" />
<glyph unicode="&#xfa;" d="M137 137v819h273v-819h273v819h273v-956h-683v137h-136zM410 1092v137h136v273h410v-137h-137v-136h-136v-137h-273z" />
<glyph unicode="&#xfb;" d="M137 137v819h273v-819h273v819h273v-956h-683v137h-136zM137 1092v137h136v136h137v137h273v-137h136v-136h137v-137h-273v137h-273v-137h-273z" />
<glyph unicode="&#xfc;" d="M137 137v819h273v-819h273v819h273v-956h-683v137h-136zM137 1092v273h273v-273h-273zM683 1092v273h273v-273h-273z" />
<glyph unicode="&#xfd;" d="M0 -273h410v136h136v137h-273v137h-136v819h273v-819h273v819h273v-819h-137v-274h-136v-136h-137v-137h-546v137zM410 1092v137h136v273h410v-137h-137v-136h-136v-137h-273z" />
<glyph unicode="&#xfe;" d="M137 -410v1639h273v-410h409v-136h137v-546h-137v-137h-409v-410h-273zM410 137h273v546h-273v-546z" />
<glyph unicode="&#xff;" d="M0 -273h410v136h136v137h-273v137h-136v819h273v-819h273v819h273v-819h-137v-274h-136v-136h-137v-137h-546v137zM137 1092v273h273v-273h-273zM683 1092v273h273v-273h-273z" />
<glyph unicode="&#x152;" d="M137 137v955h136v137h819v-137h-273v-409h273v-137h-273v-409h273v-137h-819v137h-136zM410 137h136v955h-136v-955z" />
<glyph unicode="&#x153;" d="M0 137v682h137v137h819v-137h136v-409h-409v-273h409v-137h-955v137h-137zM273 137h137v682h-137v-682zM683 546h136v273h-136v-273z" />
<glyph unicode="&#x178;" d="M137 683v546h273v-546h273v546h273v-546h-137v-137h-136v-546h-273v546h-137v137h-136zM137 1365v273h273v-273h-273zM683 1365v273h273v-273h-273z" />
<glyph unicode="&#x2c6;" d="M137 1365v137h136v136h546v-136h137v-137h-273v137h-273v-137h-273z" />
<glyph unicode="&#x2dc;" d="M137 1365v137h136v136h410v-136h136v136h273v-136h-136v-137h-410v137h-136v-137h-273z" />
<glyph unicode="&#x2000;" horiz-adv-x="819" />
<glyph unicode="&#x2001;" horiz-adv-x="1638" />
<glyph unicode="&#x2002;" horiz-adv-x="819" />
<glyph unicode="&#x2003;" horiz-adv-x="1638" />
<glyph unicode="&#x2004;" horiz-adv-x="546" />
<glyph unicode="&#x2005;" horiz-adv-x="409" />
<glyph unicode="&#x2006;" horiz-adv-x="273" />
<glyph unicode="&#x2007;" horiz-adv-x="273" />
<glyph unicode="&#x2008;" horiz-adv-x="204" />
<glyph unicode="&#x2009;" horiz-adv-x="327" />
<glyph unicode="&#x200a;" horiz-adv-x="91" />
<glyph unicode="&#x2010;" d="M137 546v137h819v-137h-819z" />
<glyph unicode="&#x2011;" d="M137 546v137h819v-137h-819z" />
<glyph unicode="&#x2012;" d="M137 546v137h819v-137h-819z" />
<glyph unicode="&#x2013;" d="M273 546v137h546v-137h-546z" />
<glyph unicode="&#x2014;" d="M0 546v137h1092v-137h-1092z" />
<glyph unicode="&#x2018;" d="M410 683v409h136v137h273v-137h-136v-136h136v-273h-409z" />
<glyph unicode="&#x2019;" d="M410 683v136h136v137h-136v273h409v-410h-136v-136h-273z" />
<glyph unicode="&#x201a;" d="M410 0v273h409v-410h-136v-136h-273v136h136v137h-136z" />
<glyph unicode="&#x201c;" d="M0 683v409h137v137h273v-137h-137v-136h137v-273h-410zM546 683v409h137v137h273v-137h-137v-136h137v-273h-410z" />
<glyph unicode="&#x201d;" d="M137 683v136h136v137h-136v273h409v-410h-136v-136h-273zM683 683v136h136v137h-136v273h409v-410h-136v-136h-273z" />
<glyph unicode="&#x201e;" d="M137 0v273h409v-410h-136v-136h-273v136h136v137h-136zM683 0v273h409v-410h-136v-136h-273v136h136v137h-136z" />
<glyph unicode="&#x2022;" d="M273 410v273h137v136h273v-136h136v-273h-136v-137h-273v137h-137z" />
<glyph unicode="&#x2026;" d="M0 0v273h273v-273h-273zM410 0v273h273v-273h-273zM819 0v273h273v-273h-273z" />
<glyph unicode="&#x202f;" horiz-adv-x="327" />
<glyph unicode="&#x2039;" d="M273 273v137h137v136h136v137h273v-137h-136v-136h-137v-137h137v-136h136v-137h-273v137h-136v136h-137z" />
<glyph unicode="&#x203a;" d="M273 0v137h137v136h136v137h-136v136h-137v137h273v-137h137v-136h136v-137h-136v-136h-137v-137h-273z" />
<glyph unicode="&#x205f;" horiz-adv-x="409" />
<glyph unicode="&#x20ac;" d="M0 410v136h137v137h-137v136h137v273h136v137h546v-137h137v-136h-273v136h-273v-273h409v-136h-409v-137h409v-136h-409v-273h273v136h273v-136h-137v-137h-546v137h-136v273h-137z" />
<glyph unicode="&#x2122;" d="M0 1092v137h683v-137h136v137h273v-410h-273v137h-136v-137h-137v273h-136v-273h-273v273h-137z" />
<glyph unicode="&#x25fc;" horiz-adv-x="955" d="M0 0v956h956v-956h-956z" />
<glyph unicode="&#xfb01;" horiz-adv-x="1774" d="M137 683v136h136v273h137v137h682v-137h137v-136h-273v136h-410v-273h819v-682h273v-137h-819v137h273v546h-546v-683h-273v683h-136z" />
<glyph unicode="&#xfb02;" horiz-adv-x="1911" d="M137 546h136v-546h273v546h410v137h-410v409h683v-955h-273v-137h819v137h-273v1092h-1092v-137h-137v-409h-136v-137z" />
<glyph unicode="&#xfb03;" horiz-adv-x="2457" d="M137 683h136v-683h273v683h410v-683h273v683h546v-546h-273v-137h819v137h-273v682h-819v273h409v-136h273v136h-136v137h-683v-137h-136v137h-546v-137h-137v-273h-136v-136zM546 819v273h410v-273h-410z" />
<glyph unicode="&#xfb04;" horiz-adv-x="2594" d="M137 546h136v-546h273v546h410v-546h273v546h409v137h-409v409h682v-955h-273v-137h820v137h-273v1092h-1093v-137h-136v137h-546v-137h-137v-409h-136v-137zM546 683v409h410v-409h-410z" />
</font>
</defs>
</svg>
